999
DXF file: O:\ORAC_PRODUCTEN\ORAC_LIJN6\W-type\W110\w110-prod-mm.dxf
999
Pro/ENGINEER 2018500 by Parametric Technology Corporation
  0
SECTION
  2
HEADER
  9
$ACADVER
  1
AC1024
  9
$DWGCODEPAGE
  3
ANSI_1250
  9
$EXTMAX
 10
297.0
 20
210.0
 30
0.0
  9
$EXTMIN
 10
0.0
 20
0.0
 30
0.0
  9
$LIMMIN
 10
0.0
 20
0.0
  9
$LIMMAX
 10
297.0
 20
210.0
  9
$VIEWCTR
 10
148.5
 20
105.0
  9
$VIEWSIZE
 40
210.0
  9
$CLAYER
  8
0
  9
$LTSCALE
 40
16.335
  9
$CELTYPE
  6
BYLAYER
  9
$DIMSCALE
 40
1.0
  9
$DIMASZ
 40
3.5
  9
$DIMEXO
 40
1.0
  9
$DIMDLI
 40
11.286
  9
$DIMEXE
 40
1.5
  9
$DIMCEN
 40
2.673
  9
$DIMLFAC
 40
2.0
  9
$DIMBLK
  1
_FILLED
  9
$DIMALT
 70
0
  9
$DIMALTF
 40
0.0393700787
  9
$DIMTXT
 40
2.5
  9
$DIMTOL
 70
1
  9
$DIMLIM
 70
0
  9
$DIMTFAC
 40
1.0
  9
$DIMTP
 40
0.001
  9
$DIMTM
 40
0.001
  9
$DIMGAP
 40
0.625
  9
$DIMDSEP
 70
44
  9
$AUNITS
 70
0
  9
$PDMODE
 70
3
  9
$PDSIZE
 40
8.0
  9
$HANDSEED
  5
2D3
  9
$TILEMODE
 70
1
  9
$MEASUREMENT
 70
1
  9
$INSUNITS
 70
4
  0
ENDSEC
  0
SECTION
  2
CLASSES
  0
CLASS
  1
ACDBDICTIONARYWDFLT
  2
AcDbDictionaryWithDefault
  3
AutoCAD 2000
 90
0
 91
1
280
0
281
0
  0
CLASS
  1
ACDBPLACEHOLDER
  2
AcDbPlaceHolder
  3
AutoCAD 2000
 90
0
 91
1
280
0
281
0
  0
CLASS
  1
LAYOUT
  2
AcDbLayout
  3
AutoCAD 2000
 90
0
 91
0
280
0
281
0
  0
CLASS
  1
TABLESTYLE
  2
AcDbTableStyle
  3
ObjectDBX Classes
 90
2047
 91
1
280
0
281
0
  0
CLASS
  1
ACAD_TABLE
  2
AcDbTable
  3
ObjectDBX Classes
 90
1025
 91
1
280
0
281
1
  0
ENDSEC
  0
SECTION
  2
TABLES
  0
TABLE
  2
VPORT
  5
8
100
AcDbSymbolTable
 70
2
  0
VPORT
  5
1F4
100
AcDbSymbolTableRecord
100
AcDbViewportTableRecord
  2
*ACTIVE
 70
0
 10
0.0
 20
0.0
 11
1.0
 21
1.0
 12
148.5
 22
105.0
 13
0.0
 23
0.0
 14
1.0
 24
1.0
 15
0.0
 25
0.0
 16
0.0
 26
0.0
 36
1.0
 17
0.0
 27
0.0
 37
0.0
 40
210.0
 41
1.4142857143
 42
50.0
 43
0.0
 44
0.0
 50
0.0
 51
0.0
 71
0
 72
100
 73
1
 74
1
 75
0
 76
0
 77
0
 78
0
  0
ENDTAB
  0
TABLE
  2
LTYPE
  5
5
100
AcDbSymbolTable
 70
6
  0
LTYPE
  5
14
100
AcDbSymbolTableRecord
100
AcDbLinetypeTableRecord
  2
BYBLOCK
 70
0
  3

 72
65
 73
0
 40
0.0
  0
LTYPE
  5
15
100
AcDbSymbolTableRecord
100
AcDbLinetypeTableRecord
  2
BYLAYER
 70
0
  3

 72
65
 73
0
 40
0.0
  0
LTYPE
  5
16
100
AcDbSymbolTableRecord
100
AcDbLinetypeTableRecord
  2
CONTINUOUS
 70
64
  3
Solid line
 72
65
 73
0
 40
0.0
  0
LTYPE
  5
1F5
100
AcDbSymbolTableRecord
100
AcDbLinetypeTableRecord
  2
CENTER
 70
64
  3
____ _ ____ _ ____ _ ____ _ ____ _ ____ _ ____
 72
65
 73
4
 40
0.6
 49
0.375
 74
0
 49
-0.075
 74
0
 49
0.075
 74
0
 49
-0.075
 74
0
  0
LTYPE
  5
1F6
100
AcDbSymbolTableRecord
100
AcDbLinetypeTableRecord
  2
HIDDEN
 70
64
  3
- - - - - - - - - - - - - - - - - - - -
 72
65
 73
2
 40
0.2
 49
0.1
 74
0
 49
-0.1
 74
0
  0
LTYPE
  5
1F7
100
AcDbSymbolTableRecord
100
AcDbLinetypeTableRecord
  2
PHANTOM
 70
64
  3
_____ _ _ _____ _ _ _____ _ _ _____
 72
65
 73
6
 40
0.8
 49
0.45
 74
0
 49
-0.05
 74
0
 49
0.1
 74
0
 49
-0.05
 74
0
 49
0.1
 74
0
 49
-0.05
 74
0
  0
LTYPE
  5
1F8
100
AcDbSymbolTableRecord
100
AcDbLinetypeTableRecord
  2
DOT
 70
64
  3
. . . . . . . . . . . . . . . . . . . .
 72
65
 73
2
 40
0.2
 49
0.1
 74
0
 49
-0.1
 74
0
  0
LTYPE
  5
1F9
100
AcDbSymbolTableRecord
100
AcDbLinetypeTableRecord
  2
DASHED
 70
64
  3
- - - - - - - - - - - - - - - - - - - -
 72
65
 73
2
 40
0.2
 49
0.1
 74
0
 49
-0.1
 74
0
  0
ENDTAB
  0
TABLE
  2
LAYER
  5
2
100
AcDbSymbolTable
 70
36
  0
LAYER
  5
10
100
AcDbSymbolTableRecord
100
AcDbLayerTableRecord
  2
0
 70
0
 62
7
  6
CONTINUOUS
370
-3
390
F
  0
LAYER
  5
1FA
100
AcDbSymbolTableRecord
100
AcDbLayerTableRecord
  2
DEFAULT_1
 70
0
 62
7
  6
CENTER
370
-3
390
F
  0
LAYER
  5
1FB
100
AcDbSymbolTableRecord
100
AcDbLayerTableRecord
  2
DEFAULT_2
 70
0
 62
8
  6
HIDDEN
370
-3
390
F
  0
LAYER
  5
1FC
100
AcDbSymbolTableRecord
100
AcDbLayerTableRecord
  2
DEFAULT_3
 70
0
 62
7
  6
PHANTOM
370
-3
390
F
  0
LAYER
  5
1FD
100
AcDbSymbolTableRecord
100
AcDbLayerTableRecord
  2
DTM_ALL
 70
0
 62
7
  6
CONTINUOUS
370
-3
390
F
  0
LAYER
  5
1FE
100
AcDbSymbolTableRecord
100
AcDbLayerTableRecord
  2
DTM_AXIS
 70
0
 62
7
  6
CONTINUOUS
370
-3
390
F
  0
LAYER
  5
1FF
100
AcDbSymbolTableRecord
100
AcDbLayerTableRecord
  2
DTM_CSYS
 70
0
 62
7
  6
CONTINUOUS
370
-3
390
F
  0
LAYER
  5
200
100
AcDbSymbolTableRecord
100
AcDbLayerTableRecord
  2
DTM_CURVE
 70
0
 62
7
  6
CONTINUOUS
370
-3
390
F
  0
LAYER
  5
201
100
AcDbSymbolTableRecord
100
AcDbLayerTableRecord
  2
DTM_MASTER
 70
0
 62
7
  6
CONTINUOUS
370
-3
390
F
  0
LAYER
  5
202
100
AcDbSymbolTableRecord
100
AcDbLayerTableRecord
  2
DTM_POINT
 70
0
 62
7
  6
CONTINUOUS
370
-3
390
F
  0
LAYER
  5
203
100
AcDbSymbolTableRecord
100
AcDbLayerTableRecord
  2
DTM_QUILT
 70
0
 62
7
  6
CONTINUOUS
370
-3
390
F
  0
LAYER
  5
204
100
AcDbSymbolTableRecord
100
AcDbLayerTableRecord
  2
GTOL
 70
0
 62
7
  6
CONTINUOUS
370
-3
390
F
  0
LAYER
  5
205
100
AcDbSymbolTableRecord
100
AcDbLayerTableRecord
  2
NOTES
 70
0
 62
7
  6
CONTINUOUS
370
-3
390
F
  0
ENDTAB
  0
TABLE
  2
STYLE
  5
3
100
AcDbSymbolTable
 70
1
  0
STYLE
  5
11
100
AcDbSymbolTableRecord
100
AcDbTextStyleTableRecord
  2
STANDARD
 70
0
 40
0.0
 41
1.0
 50
0.0
 71
0
 42
0.2
  3
cgtime.ttf
  4

  0
STYLE
  5
206
100
AcDbSymbolTableRecord
100
AcDbTextStyleTableRecord
  2
TEXTSTYLE_1
 70
0
 40
0.0
 41
0.8
 50
0.0
 71
0
 42
0.2
  3
gdt
  4

  0
STYLE
  5
207
100
AcDbSymbolTableRecord
100
AcDbTextStyleTableRecord
  2
TEXTSTYLE_2
 70
0
 40
0.0
 41
1.0
 50
0.0
 71
0
 42
0.2
  3
trium.ttf
  4

  0
STYLE
  5
208
100
AcDbSymbolTableRecord
100
AcDbTextStyleTableRecord
  2
TEXTSTYLE_3
 70
0
 40
0.0
 41
1.0
 50
0.0
 71
0
 42
0.2
  3
calibri.ttf
  4

  0
ENDTAB
  0
TABLE
  2
VIEW
  5
6
100
AcDbSymbolTable
 70
0
  0
ENDTAB
  0
TABLE
  2
UCS
  5
7
100
AcDbSymbolTable
 70
0
  0
ENDTAB
  0
TABLE
  2
APPID
  5
9
100
AcDbSymbolTable
 70
1
  0
APPID
  5
209
100
AcDbSymbolTableRecord
100
AcDbRegAppTableRecord
  2
ACAD
 70
0
  0
ENDTAB
  0
TABLE
  2
BLOCK_RECORD
  5
1
100
AcDbSymbolTable
 70
0
  0
BLOCK_RECORD
  5
20A
100
AcDbSymbolTableRecord
100
AcDbBlockTableRecord
  2
*Model_Space
  0
BLOCK_RECORD
  5
20B
100
AcDbSymbolTableRecord
100
AcDbBlockTableRecord
  2
*Paper_Space
  0
BLOCK_RECORD
  5
20C
100
AcDbSymbolTableRecord
100
AcDbBlockTableRecord
  2
_FILLED
  0
BLOCK_RECORD
  5
20D
100
AcDbSymbolTableRecord
100
AcDbBlockTableRecord
  2
*D0
  0
BLOCK_RECORD
  5
20E
100
AcDbSymbolTableRecord
100
AcDbBlockTableRecord
  2
*D1
  0
BLOCK_RECORD
  5
20F
100
AcDbSymbolTableRecord
100
AcDbBlockTableRecord
  2
*T1
  0
ENDTAB
  0
TABLE
  2
DIMSTYLE
  5
A
100
AcDbSymbolTable
 70
1
100
AcDbDimStyleTable
 71
0
  0
DIMSTYLE
105
210
100
AcDbSymbolTableRecord
100
AcDbDimStyleTableRecord
  2
STANDARD
 70
0
  3

  4

 40
1.0
 41
3.5
 42
1.0
 43
0.38
 44
1.5
 45
0.0
 46
0.0
 47
0.001
 48
0.001
140
2.5
141
0.09
142
0.0
143
25.4
144
1.0
145
0.0
146
1.0
147
0.625
 71
1.0
 72
0.0
 73
1
 74
1
 75
0
 76
0
 77
0
 78
8
 79
2
170
0
171
2
172
0
173
0
174
0
175
0
176
0
177
0
178
0
270
2
179
3
271
3
272
3
273
2
274
2
275
0
280
0
281
0
282
0
283
1
284
8
285
0
286
0
287
3
288
0
340
11
278
44
341
20C
342
20C
343
20C
344
20C
  0
DIMSTYLE
105
211
100
AcDbSymbolTableRecord
100
AcDbDimStyleTableRecord
  2
DIMSTYLE_1
 70
0
  3

  4

 40
1.0
 41
3.5
 42
1.0
 43
0.38
 44
1.5
 45
0.0
 46
0.0
 47
0.0
 48
0.0
140
2.5
141
0.09
142
0.0
143
25.4
144
2.0
145
0.0
146
1.0
147
1.25
 71
0.0
 72
0.0
 73
1
 74
1
 75
0
 76
0
 77
0
 78
8
 79
2
170
0
171
2
172
0
173
0
174
0
175
0
176
0
177
0
178
0
270
2
179
3
271
0
272
0
273
2
274
2
275
0
280
0
281
0
282
0
283
1
284
8
285
0
286
0
287
3
288
0
340
11
278
44
341
20C
342
20C
343
20C
344
20C
  0
DIMSTYLE
105
212
100
AcDbSymbolTableRecord
100
AcDbDimStyleTableRecord
  2
DIMSTYLE_2
 70
0
  3

  4

 40
1.0
 41
3.5
 42
1.0
 43
0.38
 44
1.5
 45
0.0
 46
0.0
 47
0.0
 48
0.0
140
2.5
141
0.09
142
0.0
143
25.4
144
2.0
145
0.0
146
1.0
147
1.25
 71
0.0
 72
0.0
 73
1
 74
1
 75
0
 76
0
 77
0
 78
8
 79
2
170
0
171
2
172
0
173
0
174
0
175
0
176
0
177
0
178
0
270
2
179
3
271
3
272
3
273
2
274
2
275
0
280
0
281
0
282
0
283
1
284
8
285
0
286
0
287
3
288
0
340
11
278
44
341
20C
342
20C
343
20C
344
20C
  0
ENDTAB
  0
ENDSEC
  0
SECTION
  2
BLOCKS
  0
BLOCK
  5
20
100
AcDbEntity
  8
0
100
AcDbBlockBegin
  2
*Model_Space
 70
0
 10
0.0
 20
0.0
 30
0.0
  3
*Model_Space
  1

  0
ENDBLK
  5
21
100
AcDbEntity
  8
0
100
AcDbBlockEnd
  0
BLOCK
  5
1C
100
AcDbEntity
  8
0
100
AcDbBlockBegin
  2
*Paper_Space
 70
0
 10
0.0
 20
0.0
 30
0.0
  3
*Paper_Space
  1

  0
ENDBLK
  5
1D
100
AcDbEntity
  8
0
100
AcDbBlockEnd
  0
BLOCK
  5
213
100
AcDbEntity
  8
0
100
AcDbBlockBegin
  2
_FILLED
 70
64
 10
0.0
 20
0.0
  3
_FILLED
  1

  0
SOLID
  5
214
100
AcDbEntity
  8
0
  6
BYBLOCK
 62
0
100
AcDbTrace
 10
0.0
 20
0.0
 11
-1.0
 21
0.2142857143
 12
-1.0
 22
-0.2142857143
 13
-1.0
 23
-0.2142857143
  0
ENDBLK
  5
215
100
AcDbEntity
  8
0
  6
BYBLOCK
 62
0
100
AcDbBlockEnd
  0
BLOCK
  5
216
100
AcDbEntity
  8
0
100
AcDbBlockBegin
 62
2
  6
CONTINUOUS
  2
*D0
 70
65
 10
0.0
 20
0.0
  3
*D0
  1

  0
TEXT
  5
217
100
AcDbEntity
  8
0
100
AcDbText
 62
2
  6
CONTINUOUS
 10
196.4687247559
 20
114.0159765415
  7
STANDARD
 40
2.5
  1
250
 72
5
 11
201.9259231995
 21
114.0159765415
100
AcDbText
  0
TEXT
  5
218
100
AcDbEntity
  8
0
100
AcDbText
 62
2
  6
CONTINUOUS
 10
201.9259231995
 20
114.0159765415
  7
STANDARD
 40
2.5
  1
mm
 72
5
 11
207.5971294252
 21
114.0159765415
100
AcDbText
  0
TEXT
  5
219
100
AcDbEntity
  8
0
100
AcDbText
 62
2
  6
CONTINUOUS
 10
197.2469348727
 20
110.2659765415
  7
STANDARD
 40
2.5
  1
9-7/8"
 72
5
 11
206.8189193085
 21
110.2659765415
100
AcDbText
  0
TEXT
  5
21A
100
AcDbEntity
  8
0
100
AcDbText
 62
2
  6
CONTINUOUS
 10
201.4930438221
 20
106.5159765415
  7
STANDARD
 40
2.5
  1
 
 72
5
 11
202.572810359
 21
106.5159765415
100
AcDbText
  0
LINE
  5
21B
100
AcDbEntity
  8
0
100
AcDbLine
 62
2
  6
CONTINUOUS
 10
139.5329270906
 20
121.4774577856
 11
139.5329270906
 21
113.7659765415
  0
LINE
  5
21C
100
AcDbEntity
  8
0
100
AcDbLine
 62
2
  6
CONTINUOUS
 10
264.5329270906
 20
121.4774577856
 11
264.5329270906
 21
113.7659765415
  0
LINE
  5
21D
100
AcDbEntity
  8
0
100
AcDbLine
 62
2
  6
CONTINUOUS
 10
139.5329270906
 20
115.2659765415
 11
195.2187247559
 21
115.2659765415
  0
LINE
  5
21E
100
AcDbEntity
  8
0
100
AcDbLine
 62
2
  6
CONTINUOUS
 10
264.5329270906
 20
115.2659765415
 11
208.8471294252
 21
115.2659765415
  0
INSERT
  5
21F
100
AcDbEntity
  8
0
100
AcDbBlockReference
 62
2
  6
CONTINUOUS
  2
_FILLED
 10
139.5329270906
 20
115.2659765415
 41
3.5
 42
3.5
 43
3.5
 50
180.0
  0
INSERT
  5
220
100
AcDbEntity
  8
0
100
AcDbBlockReference
 62
2
  6
CONTINUOUS
  2
_FILLED
 10
264.5329270906
 20
115.2659765415
 41
3.5
 42
3.5
 43
3.5
  0
ENDBLK
  5
221
100
AcDbEntity
  8
0
  6
BYBLOCK
 62
0
100
AcDbBlockEnd
  0
BLOCK
  5
222
100
AcDbEntity
  8
0
100
AcDbBlockBegin
 62
2
  6
CONTINUOUS
  2
*D1
 70
65
 10
0.0
 20
0.0
  3
*D1
  1

  0
TEXT
  5
223
100
AcDbEntity
  8
0
100
AcDbText
 62
2
  6
CONTINUOUS
 10
118.1014723752
 20
139.1550747063
  7
STANDARD
 40
2.5
  1
16
 72
5
 11
121.7396046709
 21
139.1550747063
100
AcDbText
  0
TEXT
  5
224
100
AcDbEntity
  8
0
100
AcDbText
 62
2
  6
CONTINUOUS
 10
121.7396046709
 20
139.1550747063
  7
STANDARD
 40
2.5
  1
mm
 72
5
 11
127.4108108966
 21
139.1550747063
100
AcDbText
  0
TEXT
  5
225
100
AcDbEntity
  8
0
100
AcDbText
 62
2
  6
CONTINUOUS
 10
120.873845916
 20
135.4050747063
  7
STANDARD
 40
2.5
  1
5/8"
 72
5
 11
127.4108108966
 21
135.4050747063
100
AcDbText
  0
LINE
  5
226
100
AcDbEntity
  8
0
100
AcDbLine
 62
2
  6
CONTINUOUS
 10
138.5329270906
 20
122.4774577856
 11
131.9108108966
 21
122.4774577856
  0
LINE
  5
227
100
AcDbEntity
  8
0
100
AcDbLine
 62
2
  6
CONTINUOUS
 10
144.2308296284
 20
130.4772179428
 11
131.9108108966
 21
130.4772179428
  0
LINE
  5
228
100
AcDbEntity
  8
0
100
AcDbLine
 62
2
  6
CONTINUOUS
 10
133.4108108966
 20
122.4774577856
 11
133.4108108966
 21
117.4774577856
  0
LINE
  5
229
100
AcDbEntity
  8
0
100
AcDbLine
 62
2
  6
CONTINUOUS
 10
133.4108108966
 20
130.4772179428
 11
133.4108108966
 21
140.4050747063
  0
LINE
  5
22A
100
AcDbEntity
  8
0
100
AcDbLine
 62
2
  6
CONTINUOUS
 10
133.4108108966
 20
140.4050747063
 11
128.6608108966
 21
140.4050747063
  0
INSERT
  5
22B
100
AcDbEntity
  8
0
100
AcDbBlockReference
 62
2
  6
CONTINUOUS
  2
_FILLED
 10
133.4108108966
 20
122.4774577856
 41
3.5
 42
3.5
 43
3.5
 50
90.0
  0
INSERT
  5
22C
100
AcDbEntity
  8
0
100
AcDbBlockReference
 62
2
  6
CONTINUOUS
  2
_FILLED
 10
133.4108108966
 20
130.4772179428
 41
3.5
 42
3.5
 43
3.5
 50
270.0
  0
ENDBLK
  5
22D
100
AcDbEntity
  8
0
  6
BYBLOCK
 62
0
100
AcDbBlockEnd
  0
BLOCK
  5
22E
100
AcDbEntity
  8
0
100
AcDbBlockBegin
  2
*T1
 70
1
 10
0.0
 20
0.0
  3
*T1
  1

  0
LINE
  5
22F
100
AcDbEntity
  8
0
100
AcDbLine
 62
7
  6
CONTINUOUS
 10
0.0
 20
0.0
 11
148.0
 21
0.0
  0
LINE
  5
230
100
AcDbEntity
  8
0
100
AcDbLine
 62
7
  6
CONTINUOUS
 10
0.0
 20
0.0
 11
0.0
 21
-43.0
  0
LINE
  5
231
100
AcDbEntity
  8
0
100
AcDbLine
 62
7
  6
CONTINUOUS
 10
45.0
 20
-20.0
 11
148.0
 21
-20.0
  0
LINE
  5
232
100
AcDbEntity
  8
0
100
AcDbLine
 62
7
  6
CONTINUOUS
 10
45.0
 20
-28.0
 11
148.0
 21
-28.0
  0
LINE
  5
233
100
AcDbEntity
  8
0
100
AcDbLine
 62
7
  6
CONTINUOUS
 10
0.0
 20
-43.0
 11
148.0
 21
-43.0
  0
LINE
  5
234
100
AcDbEntity
  8
0
100
AcDbLine
 62
7
  6
CONTINUOUS
 10
45.0
 20
0.0
 11
45.0
 21
-43.0
  0
LINE
  5
235
100
AcDbEntity
  8
0
100
AcDbLine
 62
7
  6
CONTINUOUS
 10
143.0
 20
0.0
 11
143.0
 21
-20.0
  0
LINE
  5
236
100
AcDbEntity
  8
0
100
AcDbLine
 62
7
  6
CONTINUOUS
 10
148.0
 20
0.0
 11
148.0
 21
-43.0
  0
TEXT
  5
237
100
AcDbEntity
  8
0
100
AcDbText
 62
7
  6
CONTINUOUS
 10
8.9659749243
 20
-9.175
  7
STANDARD
 40
8.0
  1
O
 72
5
 11
17.370644185
 21
-9.175
100
AcDbText
  0
TEXT
  5
238
100
AcDbEntity
  8
0
100
AcDbText
 62
7
  6
CONTINUOUS
 10
17.370644185
 20
-9.175
  7
STANDARD
 40
5.5
  1
RAC
 72
5
 11
33.9562472979
 21
-9.175
100
AcDbText
  0
TEXT
  5
239
100
AcDbEntity
  8
0
100
AcDbText
 62
7
  6
CONTINUOUS
 10
33.9562472979
 20
-4.425
  7
TEXTSTYLE_2
 40
3.0
  1
®
 72
5
 11
36.0340250757
 21
-4.425
100
AcDbText
  0
TEXT
  5
23A
100
AcDbEntity
  8
0
100
AcDbText
 62
7
  6
CONTINUOUS
 10
9.5323389537
 20
-13.825
  7
TEXTSTYLE_2
 40
3.0
  1
D  E  C  O  R
 72
5
 11
34.3878945093
 21
-13.825
100
AcDbText
  0
TEXT
  5
23B
100
AcDbEntity
  8
0
100
AcDbText
 62
7
  6
CONTINUOUS
 10
34.3878945093
 20
-13.825
  7
STANDARD
 40
2.5
  1
 
 72
5
 11
35.4676610463
 21
-13.825
100
AcDbText
  0
TEXT
  5
23C
100
AcDbEntity
  8
0
100
AcDbText
 62
7
  6
CONTINUOUS
 10
52.8786764706
 20
-4.6
  7
TEXTSTYLE_3
 40
2.7
  1
Part name:
 72
5
 11
71.9375
 21
-4.6
100
AcDbText
  0
TEXT
  5
23D
100
AcDbEntity
  8
0
100
AcDbText
 62
7
  6
CONTINUOUS
 10
49.6908613445
 20
-11.35
  7
TEXTSTYLE_3
 40
2.7
  1
Designed by:
 72
5
 11
71.9375
 21
-11.35
100
AcDbText
  0
TEXT
  5
23E
100
AcDbEntity
  8
0
100
AcDbText
 62
7
  6
CONTINUOUS
 10
49.3732142857
 20
-18.1
  7
TEXTSTYLE_3
 40
2.7
  1
Designed on:
 72
5
 11
71.9375
 21
-18.1
100
AcDbText
  0
TEXT
  5
23F
100
AcDbEntity
  8
0
100
AcDbText
 62
2
  6
CONTINUOUS
 10
74.0625
 20
-4.6
  7
TEXTSTYLE_3
 40
2.7
  1
W110
 72
5
 11
84.3179621849
 21
-4.6
100
AcDbText
  0
TEXT
  5
240
100
AcDbEntity
  8
0
100
AcDbText
 62
2
  6
CONTINUOUS
 10
74.0625
 20
-11.35
  7
TEXTSTYLE_3
 40
2.7
  1
ORAC
 72
5
 11
83.9209033613
 21
-11.35
100
AcDbText
  0
TEXT
  5
241
100
AcDbEntity
  8
0
100
AcDbText
 62
2
  6
CONTINUOUS
 10
74.0625
 20
-18.1
  7
TEXTSTYLE_3
 40
2.7
  1
04-Jan-2019
 72
5
 11
95.2427521008
 21
-18.1
100
AcDbText
  0
TEXT
  5
242
100
AcDbEntity
  8
0
100
AcDbText
 62
2
  6
CONTINUOUS
 10
95.2427521008
 20
-18.1
  7
TEXTSTYLE_3
 40
2.7
  1
 
 72
5
 11
96.2070378151
 21
-18.1
100
AcDbText
  0
TEXT
  5
243
100
AcDbEntity
  8
0
100
AcDbText
 62
2
  6
CONTINUOUS
 10
146.5625
 20
-16.0
  7
TEXTSTYLE_3
 40
1.5
  1
Version: 
 50
90.0
 72
5
 11
146.5625
 21
-7.5294117647
100
AcDbText
  0
TEXT
  5
244
100
AcDbEntity
  8
0
100
AcDbText
 62
2
  6
CONTINUOUS
 10
146.5625
 20
-7.5294117647
  7
TEXTSTYLE_3
 40
1.5
  1
1.0
 50
90.0
 72
5
 11
146.5625
 21
-4.5357142857
100
AcDbText
  0
TEXT
  5
245
100
AcDbEntity
  8
0
100
AcDbText
 62
2
  6
CONTINUOUS
 10
146.5625
 20
-4.5357142857
  7
TEXTSTYLE_3
 40
1.5
  1
 
 50
90.0
 72
5
 11
146.5625
 21
-4.0
100
AcDbText
  0
TEXT
  5
246
100
AcDbEntity
  8
0
100
AcDbText
 62
7
  6
CONTINUOUS
 10
9.6586134454
 20
-22.75
  7
TEXTSTYLE_3
 40
2.5
  1
Biekorfstraat 32
 72
5
 11
35.3413865546
 21
-22.75
100
AcDbText
  0
TEXT
  5
247
100
AcDbEntity
  8
0
100
AcDbText
 62
7
  6
CONTINUOUS
 10
2.2584033613
 20
-26.5
  7
TEXTSTYLE_3
 40
2.5
  1
8400 Oostende - Belgium
 72
5
 11
42.7415966387
 21
-26.5
100
AcDbText
  0
TEXT
  5
248
100
AcDbEntity
  8
0
100
AcDbText
 62
7
  6
CONTINUOUS
 10
4.2699579832
 20
-30.25
  7
TEXTSTYLE_3
 40
2.5
  1
Tel  +32 (0)59 80 32 52
 72
5
 11
40.7300420168
 21
-30.25
100
AcDbText
  0
TEXT
  5
249
100
AcDbEntity
  8
0
100
AcDbText
 62
7
  6
CONTINUOUS
 10
5.7405462185
 20
-34.0
  7
TEXTSTYLE_3
 40
2.5
  1
www.oracdecor.com
 72
5
 11
39.2594537815
 21
-34.0
100
AcDbText
  0
TEXT
  5
24A
100
AcDbEntity
  8
0
100
AcDbText
 62
7
  6
CONTINUOUS
 10
5.5777310924
 20
-37.75
  7
TEXTSTYLE_3
 40
2.5
  1
info@oracdecor.com
 72
5
 11
39.4222689076
 21
-37.75
100
AcDbText
  0
TEXT
  5
24B
100
AcDbEntity
  8
0
100
AcDbText
 62
7
  6
CONTINUOUS
 10
46.0625
 20
-23.375
  7
TEXTSTYLE_3
 40
2.5
  1
Unless otherwise specified: all dimensions are in millimeters 
 72
5
 11
143.4259453782
 21
-23.375
100
AcDbText
  0
TEXT
  5
24C
100
AcDbEntity
  8
0
100
AcDbText
 62
7
  6
CONTINUOUS
 10
46.0625
 20
-27.125
  7
TEXTSTYLE_3
 40
2.5
  1
and inches, scale 1:1, length 2 meters
 72
5
 11
106.1675420168
 21
-27.125
100
AcDbText
  0
TEXT
  5
24D
100
AcDbEntity
  8
0
100
AcDbText
 62
7
  6
CONTINUOUS
 10
46.0625
 20
-31.81
  7
TEXTSTYLE_3
 40
1.8
  1
All information in this document is Orac's exclusive property.  It may in no case 
 72
5
 11
137.5070378151
 21
-31.81
100
AcDbText
  0
TEXT
  5
24E
100
AcDbEntity
  8
0
100
AcDbText
 62
7
  6
CONTINUOUS
 10
46.0625
 20
-34.87
  7
TEXTSTYLE_3
 40
1.8
  1
be reproduced, even partly, be communicated to a third party or used for any 
 72
5
 11
136.3272058824
 21
-34.87
100
AcDbText
  0
TEXT
  5
24F
100
AcDbEntity
  8
0
100
AcDbText
 62
7
  6
CONTINUOUS
 10
46.0625
 20
-37.93
  7
TEXTSTYLE_3
 40
1.8
  1
possible purpose without ORAC's express written permission. Further legal 
 72
5
 11
132.7952731092
 21
-37.93
100
AcDbText
  0
TEXT
  5
250
100
AcDbEntity
  8
0
100
AcDbText
 62
7
  6
CONTINUOUS
 10
46.0625
 20
-40.99
  7
TEXTSTYLE_3
 40
1.8
  1
information can be found at https://www.oracdecor.com/en/general-sales-conditions
 72
5
 11
145.349894958
 21
-40.99
100
AcDbText
  0
ENDBLK
  5
251
100
AcDbEntity
  8
0
  6
BYBLOCK
 62
0
100
AcDbBlockEnd
  0
ENDSEC
  0
SECTION
  2
ENTITIES
  0
DIMENSION
  5
252
100
AcDbEntity
  8
0
100
AcDbDimension
 62
2
  6
CONTINUOUS
  2
*D0
 10
264.5329270906
 20
115.2659765415
 11
202.0329270906
 21
113.3909765415
 70
160
 71
2
 72
2
 41
0.9
 42
250.0
  1
<>mm\P9-7/8"\P 
  3
DIMSTYLE_1
100
AcDbAlignedDimension
 13
139.5329270906
 23
122.4774577856
 14
264.5329270906
 24
122.4774577856
100
AcDbRotatedDimension
  0
DIMENSION
  5
253
100
AcDbEntity
  8
0
100
AcDbDimension
 62
2
  6
CONTINUOUS
  2
*D1
 10
133.4108108966
 20
130.4772179428
 11
122.7561416359
 21
138.5300747063
 70
160
 71
3
 72
2
 41
0.9
 42
15.9995203145
  1
<>mm\P5/8"
  3
DIMSTYLE_2
100
AcDbAlignedDimension
 13
139.5329270906
 23
122.4774577856
 14
145.2308296284
 24
130.4772179428
 50
90.0
100
AcDbRotatedDimension
  0
ACAD_TABLE
  5
254
100
AcDbEntity
  8
0
 62
2
  6
CONTINUOUS
100
AcDbBlockReference
  2
*T1
 10
144.0
 20
48.0
 30
0.0
100
AcDbTable
342
       2D1
343
20F
 11
1.0
 21
0.0
 31
0.0
 90
22
 91
4
 92
4
 93
0
 94
0
 95
0
 96
0
141
15.0
141
5.0
141
8.0
141
15.0
142
45.0
142
28.0
142
70.0
142
5.0
171
1
172
0
173
0
174
0
175
1
176
1
 91
41
178
0
145
0.0
301
CELL_VALUE
 90
4
  1
\A1;O\H5.5;RAC\fCG Triumvirate;\H3.0;\S®^ ;\PD  E  C  O  R\fCG Times;\H2.5; 
304
ACVALUE_END
170
5
140
8.0
 64
7
171
1
172
0
173
0
174
0
175
1
176
2
 91
57
178
0
145
0.0
  7
TEXTSTYLE_3
301
CELL_VALUE
 90
4
  1
Part name:\PDesigned by:\PDesigned on:
304
ACVALUE_END
170
6
140
2.7
 64
7
171
1
172
0
173
0
174
0
175
1
176
2
 91
49
178
0
145
0.0
  7
TEXTSTYLE_3
301
CELL_VALUE
 90
4
  1
W110\PORAC\P04-Jan-2019 
304
ACVALUE_END
170
4
140
2.7
171
1
172
0
173
0
174
0
175
1
176
2
 91
49
178
0
145
0.0
  7
TEXTSTYLE_3
301
CELL_VALUE
 90
4
  1
Version: 1.0 
304
ACVALUE_END
170
6
140
1.5
171
1
172
0
173
0
174
0
175
1
176
3
 91
57
178
0
145
0.0
  7
TEXTSTYLE_3
301
CELL_VALUE
 90
4
  1
Biekorfstraat 32\P8400 Oostende - Belgium\PTel  +32 (0)59 80 32 52\Pwww.oracdecor.com\Pinfo@oracdecor.com
304
ACVALUE_END
170
5
140
2.5
 64
7
171
1
172
0
173
1
174
0
175
1
176
1
 91
1
178
0
145
0.0
170
1
171
1
172
0
173
1
174
0
175
1
176
1
 91
1
178
0
145
0.0
170
1
171
1
172
0
173
1
174
0
175
1
176
1
 91
1
178
0
145
0.0
170
1
171
1
172
0
173
1
174
0
175
1
176
1
 91
1
178
0
145
0.0
170
1
171
1
172
0
173
0
174
0
175
3
176
1
 91
57
178
0
145
0.0
  7
TEXTSTYLE_3
301
CELL_VALUE
 90
4
  1
Unless otherwise specified: all dimensions are in millimeters \Pand inches, scale 1:1, length 2 meters
304
ACVALUE_END
170
4
140
2.5
 64
7
171
1
172
0
173
1
174
0
175
1
176
1
 91
1
178
0
145
0.0
170
1
171
1
172
0
173
1
174
0
175
1
176
1
 91
1
178
0
145
0.0
170
1
171
1
172
0
173
1
174
0
175
1
176
1
 91
1
178
0
145
0.0
170
1
171
1
172
0
173
0
174
0
175
3
176
1
 91
57
178
0
145
0.0
  7
TEXTSTYLE_3
301
CELL_VALUE
 90
4
  2
All information in this document is Orac's exclusive property.  It may in no case \Pbe reproduced, even partly, be communicated to a third party or used for any \Ppossible purpose without ORAC's express written permission. Further legal \Pinformation
  1
 can be found at https://www.oracdecor.com/en/general-sales-conditions
304
ACVALUE_END
170
4
140
1.8
 64
7
171
1
172
0
173
1
174
0
175
1
176
1
 91
1
178
0
145
0.0
170
1
171
1
172
0
173
1
174
0
175
1
176
1
 91
1
178
0
145
0.0
170
1
  0
TEXT
  5
255
100
AcDbEntity
  8
0
100
AcDbText
 62
2
  6
CONTINUOUS
 10
145.6817080729
 20
49.932531307
  7
STANDARD
 40
3.5
  1
Installation area: 0,5m
 72
5
 11
192.7750932869
 21
49.932531307
100
AcDbText
  0
TEXT
  5
256
100
AcDbEntity
  8
0
100
AcDbText
 62
2
  6
CONTINUOUS
 10
192.7750932869
 20
52.807531307
  7
STANDARD
 40
2.5
  1
2
 72
5
 11
194.5941594348
 21
52.807531307
100
AcDbText
  0
TEXT
  5
257
100
AcDbEntity
  8
0
100
AcDbText
 62
2
  6
CONTINUOUS
 10
194.5941594348
 20
52.557531307
  7
STANDARD
 40
3.5
  1
 
 72
5
 11
196.1058325865
 21
52.557531307
100
AcDbText
  0
TEXT
  5
258
100
AcDbEntity
  8
0
100
AcDbText
 62
2
  6
CONTINUOUS
 10
41.9577630029
 20
19.7427974323
  7
STANDARD
 40
2.5
  1
SCALE  
 72
5
 11
55.7612649484
 21
19.7427974323
100
AcDbText
  0
TEXT
  5
259
100
AcDbEntity
  8
0
100
AcDbText
 62
2
  6
CONTINUOUS
 10
55.7612649484
 20
19.7427974323
  7
STANDARD
 40
2.5
  1
1:2
 72
5
 11
60.6153505515
 21
19.7427974323
100
AcDbText
  0
TEXT
  5
25A
100
AcDbEntity
  8
0
100
AcDbText
 62
2
  6
CONTINUOUS
 10
193.1771601998
 20
102.2469273337
  7
STANDARD
 40
2.5
  1
SCALE  
 72
5
 11
206.9806621453
 21
102.2469273337
100
AcDbText
  0
TEXT
  5
25B
100
AcDbEntity
  8
0
100
AcDbText
 62
2
  6
CONTINUOUS
 10
206.9806621453
 20
102.2469273337
  7
STANDARD
 40
2.5
  1
1:2
 72
5
 11
211.8347477485
 21
102.2469273337
100
AcDbText
  0
LINE
  5
25C
100
AcDbEntity
  8
0
100
AcDbLine
 62
5
  6
CONTINUOUS
 10
0.0
 20
0.0
 11
0.0
 21
210.0
  0
LINE
  5
25D
100
AcDbEntity
  8
0
100
AcDbLine
 62
7
  6
CONTINUOUS
 10
5.0
 20
5.0
 11
5.0
 21
195.0
  0
LINE
  5
25E
100
AcDbEntity
  8
0
100
AcDbLine
 62
5
  6
CONTINUOUS
 10
0.0
 20
0.0
 11
297.0
 21
0.0
  0
LINE
  5
25F
100
AcDbEntity
  8
0
100
AcDbLine
 62
7
  6
CONTINUOUS
 10
5.0
 20
5.0
 11
292.0
 21
5.0
  0
LINE
  5
260
100
AcDbEntity
  8
0
100
AcDbLine
 62
4
  6
CONTINUOUS
 10
148.5
 20
195.0
 11
148.5
 21
205.0
  0
LINE
  5
261
100
AcDbEntity
  8
0
100
AcDbLine
 62
7
  6
CONTINUOUS
 10
5.0
 20
195.0
 11
292.0
 21
195.0
  0
LINE
  5
262
100
AcDbEntity
  8
0
100
AcDbLine
 62
5
  6
CONTINUOUS
 10
0.0
 20
210.0
 11
297.0
 21
210.0
  0
LINE
  5
263
100
AcDbEntity
  8
0
100
AcDbLine
 62
7
  6
CONTINUOUS
 10
292.0
 20
5.0
 11
292.0
 21
195.0
  0
LINE
  5
264
100
AcDbEntity
  8
0
100
AcDbLine
 62
5
  6
CONTINUOUS
 10
297.0
 20
0.0
 11
297.0
 21
210.0
  0
LINE
  5
265
100
AcDbEntity
  8
0
100
AcDbLine
 62
7
  6
CONTINUOUS
 10
43.21384324
 20
24.9777974323
 11
39.2161294034
 21
24.9802338444
  0
LINE
  5
266
100
AcDbEntity
  8
0
100
AcDbLine
 62
7
  6
CONTINUOUS
 10
74.0288611656
 20
184.7982685619
 11
39.1399943783
 21
149.9040872218
  0
LINE
  5
267
100
AcDbEntity
  8
0
100
AcDbLine
 62
7
  6
CONTINUOUS
 10
78.0265750022
 20
184.7958321498
 11
43.1377082149
 21
149.9016508097
  0
LINE
  5
268
100
AcDbEntity
  8
DTM_AXIS
100
AcDbLine
 62
7
  6
CONTINUOUS
 10
79.2147152143
 20
170.183008027
 11
44.325848427
 21
135.2888266869
  0
LINE
  5
269
100
AcDbEntity
  8
0
100
AcDbLine
 62
7
  6
CONTINUOUS
 10
43.2569220093
 20
134.2059081593
 11
78.1457887966
 21
169.1000894994
  0
LINE
  5
26A
100
AcDbEntity
  8
0
100
AcDbLine
 62
7
  6
CONTINUOUS
 10
39.2161294034
 20
24.9802338444
 11
39.1399943783
 21
149.9040872218
  0
LINE
  5
26B
100
AcDbEntity
  8
DTM_AXIS
100
AcDbLine
 62
7
  6
CONTINUOUS
 10
79.2242320924
 20
154.5675263549
 11
44.3353653051
 21
119.6733450148
  0
LINE
  5
26C
100
AcDbEntity
  8
0
100
AcDbLine
 62
7
  6
CONTINUOUS
 10
43.2664388875
 20
118.5904264871
 11
78.1553056748
 21
153.4846078273
  0
LINE
  5
26D
100
AcDbEntity
  8
DTM_AXIS
100
AcDbLine
 62
7
  6
CONTINUOUS
 10
79.2337489705
 20
138.9520446827
 11
44.3448821833
 21
104.0578633426
  0
LINE
  5
26E
100
AcDbEntity
  8
0
100
AcDbLine
 62
7
  6
CONTINUOUS
 10
43.2759557656
 20
102.974944815
 11
78.1648225529
 21
137.8691261551
  0
LINE
  5
26F
100
AcDbEntity
  8
DTM_AXIS
100
AcDbLine
 62
7
  6
CONTINUOUS
 10
79.2432658487
 20
123.3365630105
 11
44.3543990614
 21
88.4423816704
  0
LINE
  5
270
100
AcDbEntity
  8
0
100
AcDbLine
 62
7
  6
CONTINUOUS
 10
78.1742675054
 20
122.2535900052
 11
43.2854007181
 21
87.3594086651
  0
LINE
  5
271
100
AcDbEntity
  8
DTM_AXIS
100
AcDbLine
 62
7
  6
CONTINUOUS
 10
44.3639160053
 20
72.8267920644
 11
79.2527827926
 21
107.7209734045
  0
LINE
  5
272
100
AcDbEntity
  8
0
100
AcDbLine
 62
7
  6
CONTINUOUS
 10
78.183856375
 20
106.6380548769
 11
43.2949895877
 21
71.7438735368
  0
LINE
  5
273
100
AcDbEntity
  8
DTM_AXIS
100
AcDbLine
 62
7
  6
CONTINUOUS
 10
44.3734328835
 20
57.2113103922
 11
79.2622996707
 21
92.1054917323
  0
LINE
  5
274
100
AcDbEntity
  8
0
100
AcDbLine
 62
7
  6
CONTINUOUS
 10
78.1933732531
 20
91.0225732047
 11
43.3045064658
 21
56.1283918646
  0
LINE
  5
275
100
AcDbEntity
  8
DTM_AXIS
100
AcDbLine
 62
7
  6
CONTINUOUS
 10
44.3829497616
 20
41.5958287201
 11
79.2718165489
 21
76.4900100602
  0
LINE
  5
276
100
AcDbEntity
  8
0
100
AcDbLine
 62
7
  6
CONTINUOUS
 10
78.2028901312
 20
75.4070915326
 11
43.3140233439
 21
40.5129101924
  0
LINE
  5
277
100
AcDbEntity
  8
DTM_AXIS
100
AcDbLine
 62
7
  6
CONTINUOUS
 10
44.3924666397
 20
25.9803470479
 11
79.281333427
 21
60.874528388
  0
LINE
  5
278
100
AcDbEntity
  8
0
100
AcDbLine
 62
7
  6
CONTINUOUS
 10
43.1377082149
 20
149.9016508097
 11
39.1399943783
 21
149.9040872218
  0
LINE
  5
279
100
AcDbEntity
  8
0
100
AcDbLine
 62
7
  6
CONTINUOUS
 10
78.0265750022
 20
184.7958321498
 11
74.0288611656
 21
184.7982685619
  0
LINE
  5
27A
100
AcDbEntity
  8
0
100
AcDbLine
 62
7
  6
CONTINUOUS
 10
139.5329270906
 20
126.4776076631
 11
139.5329270906
 21
122.4774577856
  0
LINE
  5
27B
100
AcDbEntity
  8
DEFAULT_2
100
AcDbLine
 62
8
  6
HIDDEN
 10
147.3588840005
 20
125.4531623146
 11
147.0985435882
 21
122.4774577856
  0
LINE
  5
27C
100
AcDbEntity
  8
DEFAULT_2
100
AcDbLine
 62
8
  6
HIDDEN
 10
148.3550786986
 20
125.5396547495
 11
148.0871711788
 21
122.4774577856
  0
LINE
  5
27D
100
AcDbEntity
  8
0
100
AcDbLine
 62
7
  6
CONTINUOUS
 10
264.5329270906
 20
122.4774577856
 11
139.5329270906
 21
122.4774577856
  0
LINE
  5
27E
100
AcDbEntity
  8
DEFAULT_2
100
AcDbLine
 62
8
  6
HIDDEN
 10
255.7107754825
 20
125.5396547495
 11
255.9786830024
 21
122.4774577856
  0
LINE
  5
27F
100
AcDbEntity
  8
DEFAULT_2
100
AcDbLine
 62
8
  6
HIDDEN
 10
256.7069701806
 20
125.4531623146
 11
256.9673105929
 21
122.4774577856
  0
LINE
  5
280
100
AcDbEntity
  8
0
100
AcDbLine
 62
7
  6
CONTINUOUS
 10
264.5329270906
 20
126.4776076631
 11
264.5329270906
 21
122.4774577856
  0
ARC
  5
281
100
AcDbEntity
  8
0
100
AcDbCircle
 62
7
  6
CONTINUOUS
 10
37.5892940054
 20
32.7842449086
 40
9.6216514327
100
AcDbArc
 50
305.7727684323
 51
314.9965915212
  0
ARC
  5
282
100
AcDbEntity
  8
0
100
AcDbCircle
 62
7
  6
CONTINUOUS
 10
37.5242158657
 20
142.0907793734
 40
9.6191874394
100
AcDbArc
 50
306.5807825024
 51
314.9988088886
  0
ARC
  5
283
100
AcDbEntity
  8
0
100
AcDbCircle
 62
7
  6
CONTINUOUS
 10
37.5527787875
 20
95.2443200279
 40
9.6191686014
100
AcDbArc
 50
306.580241119
 51
314.9987675501
  0
ARC
  5
284
100
AcDbEntity
  8
0
100
AcDbCircle
 62
7
  6
CONTINUOUS
 10
37.5622966614
 20
79.6287292544
 40
9.6191671185
100
AcDbArc
 50
306.580774291
 51
314.9987689587
  0
ARC
  5
285
100
AcDbEntity
  8
0
100
AcDbCircle
 62
7
  6
CONTINUOUS
 10
37.5432628484
 20
110.859800522
 40
9.6191671046
100
AcDbArc
 50
306.5807742854
 51
314.9987689315
  0
ARC
  5
286
100
AcDbEntity
  8
0
100
AcDbCircle
 62
7
  6
CONTINUOUS
 10
37.5337459702
 20
126.4752821942
 40
9.6191671046
100
AcDbArc
 50
306.5807742854
 51
314.9987689315
  0
ARC
  5
287
100
AcDbEntity
  8
0
100
AcDbCircle
 62
7
  6
CONTINUOUS
 10
37.5813304267
 20
48.3977658995
 40
9.6191671046
100
AcDbArc
 50
306.5807742854
 51
314.9987689315
  0
ARC
  5
288
100
AcDbEntity
  8
0
100
AcDbCircle
 62
7
  6
CONTINUOUS
 10
37.5718135486
 20
64.0132475717
 40
9.6191671046
100
AcDbArc
 50
306.5807742854
 51
314.9987689315
  0
ARC
  5
289
100
AcDbEntity
  8
0
100
AcDbCircle
 62
7
  6
CONTINUOUS
 10
78.262554651
 20
75.4874203462
 40
0.1000628464
100
AcDbArc
 50
227.7707121537
 51
233.3967463633
  0
ARC
  5
28A
100
AcDbEntity
  8
0
100
AcDbCircle
 62
7
  6
CONTINUOUS
 10
78.2530377729
 20
91.1029020184
 40
0.1000628464
100
AcDbArc
 50
227.7707121535
 51
233.3967463633
  0
ARC
  5
28B
100
AcDbEntity
  8
0
100
AcDbCircle
 62
7
  6
CONTINUOUS
 10
78.2435208947
 20
106.7183836906
 40
0.1000628464
100
AcDbArc
 50
227.7707121537
 51
233.3967463631
  0
ARC
  5
28C
100
AcDbEntity
  8
0
100
AcDbCircle
 62
7
  6
CONTINUOUS
 10
78.2054533164
 20
169.1804183131
 40
0.1000628464
100
AcDbArc
 50
227.7707121539
 51
233.3967463632
  0
ARC
  5
28D
100
AcDbEntity
  8
0
100
AcDbCircle
 62
7
  6
CONTINUOUS
 10
78.2149701945
 20
153.564936641
 40
0.1000628464
100
AcDbArc
 50
227.7707121537
 51
233.3967463631
  0
ARC
  5
28E
100
AcDbEntity
  8
0
100
AcDbCircle
 62
7
  6
CONTINUOUS
 10
78.2244870727
 20
137.9494549688
 40
0.1000628464
100
AcDbArc
 50
227.7707121534
 51
233.396746363
  0
ARC
  5
28F
100
AcDbEntity
  8
0
100
AcDbCircle
 62
7
  6
CONTINUOUS
 10
78.2339307742
 20
122.3339187445
 40
0.1000620408
100
AcDbArc
 50
227.7782866212
 51
233.3972959934
  0
ARC
  5
290
100
AcDbEntity
  8
0
100
AcDbCircle
 62
7
  6
CONTINUOUS
 10
43.3449397107
 20
87.4397006434
 40
0.0999584585
100
AcDbArc
 50
126.5896992185
 51
233.4419184136
  0
ARC
  5
291
100
AcDbEntity
  8
0
100
AcDbCircle
 62
7
  6
CONTINUOUS
 10
43.3735630825
 20
40.5932016159
 40
0.0999584571
100
AcDbArc
 50
126.5902317508
 51
233.4413855075
  0
ARC
  5
292
100
AcDbEntity
  8
0
100
AcDbCircle
 62
7
  6
CONTINUOUS
 10
43.3640462044
 20
56.2086832881
 40
0.0999584571
100
AcDbArc
 50
126.5902317509
 51
233.4413855075
  0
ARC
  5
293
100
AcDbEntity
  8
0
100
AcDbCircle
 62
7
  6
CONTINUOUS
 10
43.3164617479
 20
134.2861995828
 40
0.0999584571
100
AcDbArc
 50
126.590231751
 51
233.4413855075
  0
ARC
  5
294
100
AcDbEntity
  8
0
100
AcDbCircle
 62
7
  6
CONTINUOUS
 10
43.325978626
 20
118.6707179106
 40
0.0999584571
100
AcDbArc
 50
126.5902317507
 51
233.4413855075
  0
ARC
  5
295
100
AcDbEntity
  8
0
100
AcDbCircle
 62
7
  6
CONTINUOUS
 10
43.3354955042
 20
103.0552362384
 40
0.0999584571
100
AcDbArc
 50
126.590231751
 51
233.4413855075
  0
ARC
  5
296
100
AcDbEntity
  8
0
100
AcDbCircle
 62
7
  6
CONTINUOUS
 10
43.3545293262
 20
71.8241649602
 40
0.0999584571
100
AcDbArc
 50
126.590231751
 51
233.4413855075
  0
ARC
  5
297
100
AcDbEntity
  8
0
100
AcDbCircle
 62
7
  6
CONTINUOUS
 10
194.2203730907
 20
120.8479577856
 40
9.6295
100
AcDbArc
 50
36.5847732215
 51
143.4146932385
  0
ARC
  5
298
100
AcDbEntity
  8
0
100
AcDbCircle
 62
7
  6
CONTINUOUS
 10
178.5953730907
 20
120.8479577856
 40
9.6295
100
AcDbArc
 50
36.5853067615
 51
143.4146932385
  0
ARC
  5
299
100
AcDbEntity
  8
0
100
AcDbCircle
 62
7
  6
CONTINUOUS
 10
162.9703730907
 20
120.8479577856
 40
9.6295
100
AcDbArc
 50
36.5853067615
 51
143.4146932385
  0
ARC
  5
29A
100
AcDbEntity
  8
0
100
AcDbCircle
 62
7
  6
CONTINUOUS
 10
147.3453730907
 20
120.8479577856
 40
9.6295
100
AcDbArc
 50
36.5853067615
 51
144.2234723727
  0
ARC
  5
29B
100
AcDbEntity
  8
DEFAULT_2
100
AcDbCircle
 62
8
  6
HIDDEN
 10
147.3453730907
 20
120.8479577856
 40
5.6295
100
AcDbArc
 50
16.8254696842
 51
77.4023908375
  0
ARC
  5
29C
100
AcDbEntity
  8
DEFAULT_2
100
AcDbCircle
 62
8
  6
HIDDEN
 10
162.9703730907
 20
120.8479577856
 40
5.6295
100
AcDbArc
 50
16.8254719404
 51
163.174529928
  0
ARC
  5
29D
100
AcDbEntity
  8
DTM_AXIS
100
AcDbCircle
 62
8
  6
HIDDEN
 10
178.5953730907
 20
120.8479577856
 40
5.6295
100
AcDbArc
 50
16.8254719369
 51
163.1745301558
  0
ARC
  5
29E
100
AcDbEntity
  8
DEFAULT_2
100
AcDbCircle
 62
8
  6
HIDDEN
 10
194.2203730907
 20
120.8479577856
 40
5.6295
100
AcDbArc
 50
16.8254683043
 51
163.1745301386
  0
ARC
  5
29F
100
AcDbEntity
  8
DEFAULT_2
100
AcDbCircle
 62
8
  6
HIDDEN
 10
147.3453710154
 20
121.0216040461
 40
4.6295023236
100
AcDbArc
 50
18.3290055523
 51
77.4023709458
  0
ARC
  5
2A0
100
AcDbEntity
  8
DEFAULT_2
100
AcDbCircle
 62
8
  6
HIDDEN
 10
194.2203747347
 20
121.0216064642
 40
4.6294982234
100
AcDbArc
 50
18.3289908364
 51
161.6710091636
  0
ARC
  5
2A1
100
AcDbEntity
  8
DEFAULT_2
100
AcDbCircle
 62
8
  6
HIDDEN
 10
162.9703713921
 20
121.0216065497
 40
4.6294981609
100
AcDbArc
 50
18.3289899782
 51
161.6710100218
  0
ARC
  5
2A2
100
AcDbEntity
  8
DEFAULT_2
100
AcDbCircle
 62
8
  6
HIDDEN
 10
178.5953716951
 20
121.021606671
 40
4.6294978409
100
AcDbArc
 50
18.3289897093
 51
161.6710102907
  0
ARC
  5
2A3
100
AcDbEntity
  8
DEFAULT_2
100
AcDbCircle
 62
8
  6
HIDDEN
 10
143.2829270906
 20
122.2274577856
 40
0.9
100
AcDbArc
 50
16.1276202132
 51
163.8723797868
  0
ARC
  5
2A4
100
AcDbEntity
  8
DTM_AXIS
100
AcDbCircle
 62
8
  6
HIDDEN
 10
148.3550786986
 20
125.3660065719
 40
1.0
100
AcDbArc
 50
77.4023908375
 51
175.0
  0
ARC
  5
2A5
100
AcDbEntity
  8
0
100
AcDbCircle
 62
7
  6
CONTINUOUS
 10
186.4078730907
 20
126.6469244176
 40
0.1
100
AcDbArc
 50
216.5853067615
 51
323.4146932385
  0
ARC
  5
2A6
100
AcDbEntity
  8
0
100
AcDbCircle
 62
7
  6
CONTINUOUS
 10
170.7828730907
 20
126.6469244176
 40
0.1
100
AcDbArc
 50
216.5853067615
 51
323.4146932385
  0
ARC
  5
2A7
100
AcDbEntity
  8
0
100
AcDbCircle
 62
7
  6
CONTINUOUS
 10
155.1578730907
 20
126.6469244176
 40
0.1
100
AcDbArc
 50
216.5853067616
 51
323.4146932385
  0
ARC
  5
2A8
100
AcDbEntity
  8
0
100
AcDbCircle
 62
7
  6
CONTINUOUS
 10
209.8454810904
 20
120.8479577856
 40
9.6295
100
AcDbArc
 50
36.5853067615
 51
143.4152267785
  0
ARC
  5
2A9
100
AcDbEntity
  8
0
100
AcDbCircle
 62
7
  6
CONTINUOUS
 10
225.4704810904
 20
120.8479577856
 40
9.6295
100
AcDbArc
 50
36.5853067615
 51
143.4146932385
  0
ARC
  5
2AA
100
AcDbEntity
  8
0
100
AcDbCircle
 62
7
  6
CONTINUOUS
 10
241.0954810904
 20
120.8479577856
 40
9.6295
100
AcDbArc
 50
36.5853067615
 51
143.4146932385
  0
ARC
  5
2AB
100
AcDbEntity
  8
0
100
AcDbCircle
 62
7
  6
CONTINUOUS
 10
256.7204810904
 20
120.8479577856
 40
9.6295
100
AcDbArc
 50
35.7765276273
 51
143.4146932385
  0
ARC
  5
2AC
100
AcDbEntity
  8
DEFAULT_2
100
AcDbCircle
 62
8
  6
HIDDEN
 10
209.8454810904
 20
120.8479577856
 40
5.6295
100
AcDbArc
 50
16.8254716732
 51
163.1745299726
  0
ARC
  5
2AD
100
AcDbEntity
  8
DTM_AXIS
100
AcDbCircle
 62
8
  6
HIDDEN
 10
225.4704810904
 20
120.8479577856
 40
5.6295
100
AcDbArc
 50
16.8254716702
 51
163.1745301109
  0
ARC
  5
2AE
100
AcDbEntity
  8
DEFAULT_2
100
AcDbCircle
 62
8
  6
HIDDEN
 10
241.0954810904
 20
120.8479577856
 40
5.6295
100
AcDbArc
 50
16.8254683079
 51
163.1745300952
  0
ARC
  5
2AF
100
AcDbEntity
  8
DEFAULT_2
100
AcDbCircle
 62
8
  6
HIDDEN
 10
256.7204810904
 20
120.8479577856
 40
5.6295
100
AcDbArc
 50
102.5976091625
 51
163.1745303158
  0
ARC
  5
2B0
100
AcDbEntity
  8
DEFAULT_2
100
AcDbCircle
 62
8
  6
HIDDEN
 10
256.7204831657
 20
121.0216040461
 40
4.6295023236
100
AcDbArc
 50
102.5976290542
 51
161.6709944477
  0
ARC
  5
2B1
100
AcDbEntity
  8
DEFAULT_2
100
AcDbCircle
 62
8
  6
HIDDEN
 10
209.8454794464
 20
121.0216064642
 40
4.6294982234
100
AcDbArc
 50
18.3289908364
 51
161.6710091636
  0
ARC
  5
2B2
100
AcDbEntity
  8
DEFAULT_2
100
AcDbCircle
 62
8
  6
HIDDEN
 10
241.0954827891
 20
121.0216065497
 40
4.6294981609
100
AcDbArc
 50
18.3289899782
 51
161.6710100218
  0
ARC
  5
2B3
100
AcDbEntity
  8
DEFAULT_2
100
AcDbCircle
 62
8
  6
HIDDEN
 10
225.470482486
 20
121.021606671
 40
4.6294978409
100
AcDbArc
 50
18.3289897093
 51
161.6710102907
  0
ARC
  5
2B4
100
AcDbEntity
  8
DEFAULT_2
100
AcDbCircle
 62
8
  6
HIDDEN
 10
260.7829270906
 20
122.2274577856
 40
0.9
100
AcDbArc
 50
16.1276202132
 51
163.8723797868
  0
ARC
  5
2B5
100
AcDbEntity
  8
DTM_AXIS
100
AcDbCircle
 62
8
  6
HIDDEN
 10
255.7107754825
 20
125.3660065719
 40
1.0
100
AcDbArc
 50
5.0
 51
102.5976091625
  0
ARC
  5
2B6
100
AcDbEntity
  8
0
100
AcDbCircle
 62
7
  6
CONTINUOUS
 10
248.9079810904
 20
126.6469244176
 40
0.1
100
AcDbArc
 50
216.5853067615
 51
323.4146932385
  0
ARC
  5
2B7
100
AcDbEntity
  8
0
100
AcDbCircle
 62
7
  6
CONTINUOUS
 10
233.2829810904
 20
126.6469244176
 40
0.1
100
AcDbArc
 50
216.5853067615
 51
323.4146932385
  0
ARC
  5
2B8
100
AcDbEntity
  8
0
100
AcDbCircle
 62
7
  6
CONTINUOUS
 10
217.6579810904
 20
126.6469244176
 40
0.1
100
AcDbArc
 50
216.5853067615
 51
323.4146932385
  0
ARC
  5
2B9
100
AcDbEntity
  8
0
100
AcDbCircle
 62
7
  6
CONTINUOUS
 10
202.0329270906
 20
126.6468516672
 40
0.1
100
AcDbArc
 50
216.5847732215
 51
323.4152267785
  0
SPLINE
  5
2BA
100
AcDbEntity
  8
0
100
AcDbSpline
 62
7
  6
CONTINUOUS
 70
0
 71
3
 72
15
 73
11
 74
0
 42
0.0000001
 43
0.0000001
 44
0.0000000001
 40
0.0
 40
0.0
 40
0.0
 40
0.0
 40
0.1250694438
 40
0.250134547
 40
0.3751822416
 40
0.5002027247
 40
0.6251910996
 40
0.7501482993
 40
0.8750809217
 40
1.0
 40
1.0
 40
1.0
 40
1.0
 10
78.1742675054
 20
122.2535900052
 30
0.0
 10
78.7265010073
 20
121.8435418825
 30
0.0
 10
79.7461568097
 20
120.9016469772
 30
0.0
 10
80.9373968535
 20
119.1984190894
 30
0.0
 10
81.7394246014
 20
117.2802230012
 30
0.0
 10
82.1143950445
 20
115.2358288203
 30
0.0
 10
82.0453909439
 20
113.1589623518
 30
0.0
 10
81.5352443738
 20
111.1448125171
 30
0.0
 10
80.6082510264
 20
109.2867471985
 30
0.0
 10
79.7385368675
 20
108.2068048826
 30
0.0
 10
79.2527956048
 20
107.7209861561
 30
0.0
  0
SPLINE
  5
2BB
100
AcDbEntity
  8
0
100
AcDbSpline
 62
7
  6
CONTINUOUS
 70
0
 71
3
 72
15
 73
11
 74
0
 42
0.0000001
 43
0.0000001
 44
0.0000000001
 40
0.0
 40
0.0
 40
0.0
 40
0.0
 40
0.1250694443
 40
0.2501345474
 40
0.3751822418
 40
0.5002027244
 40
0.6251910991
 40
0.7501482987
 40
0.8750809214
 40
1.0
 40
1.0
 40
1.0
 40
1.0
 10
78.183856375
 20
106.6380548769
 30
0.0
 10
78.7360830811
 20
106.2280038319
 30
0.0
 10
79.7557250616
 20
105.2861052138
 30
0.0
 10
80.9469457062
 20
103.5828776637
 30
0.0
 10
81.7489567802
 20
101.6646869736
 30
0.0
 10
82.1239144612
 20
99.6203020507
 30
0.0
 10
82.0549022753
 20
97.5434472613
 30
0.0
 10
81.5447526402
 20
95.5293099649
 30
0.0
 10
80.6177611222
 20
93.6712564542
 30
0.0
 10
79.7480511185
 20
92.5913205826
 30
0.0
 10
79.2623124789
 20
92.10550448
 30
0.0
  0
SPLINE
  5
2BC
100
AcDbEntity
  8
0
100
AcDbSpline
 62
7
  6
CONTINUOUS
 70
0
 71
3
 72
15
 73
11
 74
0
 42
0.0000001
 43
0.0000001
 44
0.0000000001
 40
0.0
 40
0.0
 40
0.0
 40
0.0
 40
0.1250694443
 40
0.2501345474
 40
0.3751822418
 40
0.5002027244
 40
0.6251910991
 40
0.7501482987
 40
0.8750809214
 40
1.0
 40
1.0
 40
1.0
 40
1.0
 10
78.1933732531
 20
91.0225732047
 30
0.0
 10
78.7455999593
 20
90.6125221598
 30
0.0
 10
79.7652419397
 20
89.6706235416
 30
0.0
 10
80.9564625843
 20
87.9673959915
 30
0.0
 10
81.7584736584
 20
86.0492053014
 30
0.0
 10
82.1334313393
 20
84.0048203785
 30
0.0
 10
82.0644191535
 20
81.9279655892
 30
0.0
 10
81.5542695184
 20
79.9138282927
 30
0.0
 10
80.6272780004
 20
78.055774782
 30
0.0
 10
79.7575679967
 20
76.9758389104
 30
0.0
 10
79.2718293571
 20
76.4900228078
 30
0.0
  0
SPLINE
  5
2BD
100
AcDbEntity
  8
0
100
AcDbSpline
 62
7
  6
CONTINUOUS
 70
0
 71
3
 72
15
 73
11
 74
0
 42
0.0000001
 43
0.0000001
 44
0.0000000001
 40
0.0
 40
0.0
 40
0.0
 40
0.0
 40
0.1250694251
 40
0.2501345203
 40
0.3751821996
 40
0.5002026681
 40
0.6251910306
 40
0.7501482205
 40
0.8750808315
 40
1.0
 40
1.0
 40
1.0
 40
1.0
 10
78.2028901312
 20
75.4070915326
 30
0.0
 10
78.7551193377
 20
74.997038631
 30
0.0
 10
79.7747655467
 20
74.0551350641
 30
0.0
 10
80.9659891788
 20
72.3518978523
 30
0.0
 10
81.767999254
 20
70.4336962541
 30
0.0
 10
82.1429517145
 20
68.3893005981
 30
0.0
 10
82.0739302471
 20
66.3124363661
 30
0.0
 10
81.5637671473
 20
64.2982926838
 30
0.0
 10
80.6367601519
 20
62.44023492
 30
0.0
 10
79.7670347322
 20
61.3603028256
 30
0.0
 10
79.2812910182
 20
60.8744865498
 30
0.0
  0
SPLINE
  5
2BE
100
AcDbEntity
  8
0
100
AcDbSpline
 62
7
  6
CONTINUOUS
 70
0
 71
3
 72
15
 73
11
 74
0
 42
0.0000001
 43
0.0000001
 44
0.0000000001
 40
0.0
 40
0.0
 40
0.0
 40
0.0
 40
0.1249185524
 40
0.2498508755
 40
0.3748081244
 40
0.4997968952
 40
0.6248179627
 40
0.7498661432
 40
0.874931284
 40
1.0
 40
1.0
 40
1.0
 40
1.0
 10
79.2147339182
 20
170.1830266459
 30
0.0
 10
79.7044485922
 20
170.6728199618
 30
0.0
 10
80.5804504762
 20
171.7625321257
 30
0.0
 10
81.5101719505
 20
173.6385008671
 30
0.0
 10
82.0155973095
 20
175.6716458871
 30
0.0
 10
82.0722456036
 20
177.7661711532
 30
0.0
 10
81.6778189399
 20
179.8245028757
 30
0.0
 10
80.8504153211
 20
181.750723311
 30
0.0
 10
79.6297040026
 20
183.454239051
 30
0.0
 10
78.5890946865
 20
184.3903157103
 30
0.0
 10
78.0265750022
 20
184.7958321498
 30
0.0
  0
SPLINE
  5
2BF
100
AcDbEntity
  8
0
100
AcDbSpline
 62
7
  6
CONTINUOUS
 70
0
 71
3
 72
15
 73
11
 74
0
 42
0.0000001
 43
0.0000001
 44
0.0000000001
 40
0.0
 40
0.0
 40
0.0
 40
0.0
 40
0.1249190786
 40
0.2498517013
 40
0.3748089009
 40
0.4997972756
 40
0.6248177582
 40
0.7498654526
 40
0.8749305557
 40
1.0
 40
1.0
 40
1.0
 40
1.0
 10
79.2242449006
 20
154.5675391025
 30
0.0
 10
79.7099835402
 20
155.0533552051
 30
0.0
 10
80.5796935439
 20
156.1332910767
 30
0.0
 10
81.5066850619
 20
157.9913445874
 30
0.0
 10
82.016834697
 20
160.0054818839
 30
0.0
 10
82.0858468828
 20
162.0823366732
 30
0.0
 10
81.7108892019
 20
164.1267215961
 30
0.0
 10
80.9088781278
 20
166.0449122862
 30
0.0
 10
79.7176574832
 20
167.7481398363
 30
0.0
 10
78.6980155028
 20
168.6900384545
 30
0.0
 10
78.1457887966
 20
169.1000894994
 30
0.0
  0
SPLINE
  5
2C0
100
AcDbEntity
  8
0
100
AcDbSpline
 62
7
  6
CONTINUOUS
 70
0
 71
3
 72
15
 73
11
 74
0
 42
0.0000001
 43
0.0000001
 44
0.0000000001
 40
0.0
 40
0.0
 40
0.0
 40
0.0
 40
0.1249190786
 40
0.2498517013
 40
0.3748089009
 40
0.4997972756
 40
0.6248177582
 40
0.7498654526
 40
0.8749305557
 40
1.0
 40
1.0
 40
1.0
 40
1.0
 10
79.2337617787
 20
138.9520574303
 30
0.0
 10
79.7195004183
 20
139.4378735329
 30
0.0
 10
80.589210422
 20
140.5178094045
 30
0.0
 10
81.51620194
 20
142.3758629152
 30
0.0
 10
82.0263515751
 20
144.3900002117
 30
0.0
 10
82.095363761
 20
146.466855001
 30
0.0
 10
81.72040608
 20
148.511239924
 30
0.0
 10
80.918395006
 20
150.429430614
 30
0.0
 10
79.7271743614
 20
152.1326581641
 30
0.0
 10
78.7075323809
 20
153.0745567823
 30
0.0
 10
78.1553056748
 20
153.4846078273
 30
0.0
  0
SPLINE
  5
2C1
100
AcDbEntity
  8
0
100
AcDbSpline
 62
7
  6
CONTINUOUS
 70
0
 71
3
 72
15
 73
11
 74
0
 42
0.0000001
 43
0.0000001
 44
0.0000000001
 40
0.0
 40
0.0
 40
0.0
 40
0.0
 40
0.1249190787
 40
0.2498517013
 40
0.374808901
 40
0.4997972756
 40
0.6248177583
 40
0.7498654526
 40
0.8749305557
 40
1.0
 40
1.0
 40
1.0
 40
1.0
 10
79.2432786123
 20
123.3365757137
 30
0.0
 10
79.7290172558
 20
123.8223918167
 30
0.0
 10
80.5987272721
 20
124.9023276851
 30
0.0
 10
81.5257188025
 20
126.7603811994
 30
0.0
 10
82.0358684485
 20
128.774518501
 30
0.0
 10
82.1048806419
 20
130.851373298
 30
0.0
 10
81.7299229652
 20
132.8957582296
 30
0.0
 10
80.927911892
 20
134.8139489285
 30
0.0
 10
79.736691245
 20
136.5171764865
 30
0.0
 10
78.7170492611
 20
137.4590751086
 30
0.0
 10
78.1648225529
 20
137.8691261551
 30
0.0
  0
SPLINE
  5
2C2
100
AcDbEntity
  8
0
100
AcDbSpline
 62
7
  6
CONTINUOUS
 70
0
 71
3
 72
15
 73
11
 74
0
 42
0.0000001
 43
0.0000001
 44
0.0000000001
 40
0.0
 40
0.0
 40
0.0
 40
0.0
 40
0.1250694251
 40
0.2501345203
 40
0.3751821996
 40
0.5002026681
 40
0.6251910306
 40
0.7501482205
 40
0.8750808315
 40
1.0
 40
1.0
 40
1.0
 40
1.0
 10
43.3140233439
 20
40.5129101924
 30
0.0
 10
43.8662525504
 20
40.1028572909
 30
0.0
 10
44.8858987594
 20
39.1609537239
 30
0.0
 10
46.0771223915
 20
37.4577165121
 30
0.0
 10
46.8791324667
 20
35.539514914
 30
0.0
 10
47.2540849272
 20
33.495119258
 30
0.0
 10
47.1850634598
 20
31.418255026
 30
0.0
 10
46.67490036
 20
29.4041113437
 30
0.0
 10
45.7478933647
 20
27.5460535799
 30
0.0
 10
44.8781679449
 20
26.4661214855
 30
0.0
 10
44.3924242309
 20
25.9803052097
 30
0.0
  0
SPLINE
  5
2C3
100
AcDbEntity
  8
0
100
AcDbSpline
 62
7
  6
CONTINUOUS
 70
0
 71
3
 72
15
 73
11
 74
0
 42
0.0000001
 43
0.0000001
 44
0.0000000001
 40
0.0
 40
0.0
 40
0.0
 40
0.0
 40
0.1249185524
 40
0.2498508755
 40
0.3748081244
 40
0.4997968952
 40
0.6248179627
 40
0.7498661432
 40
0.874931284
 40
1.0
 40
1.0
 40
1.0
 40
1.0
 10
44.3258671309
 20
135.2888453058
 30
0.0
 10
44.8155818049
 20
135.7786386217
 30
0.0
 10
45.691583689
 20
136.8683507856
 30
0.0
 10
46.6213051632
 20
138.744319527
 30
0.0
 10
47.1267305222
 20
140.777464547
 30
0.0
 10
47.1833788164
 20
142.8719898131
 30
0.0
 10
46.7889521527
 20
144.9303215356
 30
0.0
 10
45.9615485338
 20
146.8565419709
 30
0.0
 10
44.7408372153
 20
148.5600577108
 30
0.0
 10
43.7002278992
 20
149.4961343702
 30
0.0
 10
43.1377082149
 20
149.9016508097
 30
0.0
  0
SPLINE
  5
2C4
100
AcDbEntity
  8
0
100
AcDbSpline
 62
7
  6
CONTINUOUS
 70
0
 71
3
 72
15
 73
11
 74
0
 42
0.0000001
 43
0.0000001
 44
0.0000000001
 40
0.0
 40
0.0
 40
0.0
 40
0.0
 40
0.1249190786
 40
0.2498517013
 40
0.3748089009
 40
0.4997972756
 40
0.6248177582
 40
0.7498654526
 40
0.8749305557
 40
1.0
 40
1.0
 40
1.0
 40
1.0
 10
44.3353781133
 20
119.6733577624
 30
0.0
 10
44.8211167529
 20
120.159173865
 30
0.0
 10
45.6908267566
 20
121.2391097366
 30
0.0
 10
46.6178182746
 20
123.0971632473
 30
0.0
 10
47.1279679097
 20
125.1113005438
 30
0.0
 10
47.1969800955
 20
127.1881553331
 30
0.0
 10
46.8220224146
 20
129.232540256
 30
0.0
 10
46.0200113406
 20
131.1507309461
 30
0.0
 10
44.8287906959
 20
132.8539584962
 30
0.0
 10
43.8091487155
 20
133.7958571143
 30
0.0
 10
43.2569220093
 20
134.2059081593
 30
0.0
  0
SPLINE
  5
2C5
100
AcDbEntity
  8
0
100
AcDbSpline
 62
7
  6
CONTINUOUS
 70
0
 71
3
 72
15
 73
11
 74
0
 42
0.0000001
 43
0.0000001
 44
0.0000000001
 40
0.0
 40
0.0
 40
0.0
 40
0.0
 40
0.1250694438
 40
0.250134547
 40
0.3751822416
 40
0.5002027247
 40
0.6251910996
 40
0.7501482993
 40
0.8750809217
 40
1.0
 40
1.0
 40
1.0
 40
1.0
 10
43.2854007181
 20
87.3594086651
 30
0.0
 10
43.83763422
 20
86.9493605424
 30
0.0
 10
44.8572900224
 20
86.0074656371
 30
0.0
 10
46.0485300662
 20
84.3042377493
 30
0.0
 10
46.8505578141
 20
82.3860416611
 30
0.0
 10
47.2255282572
 20
80.3416474802
 30
0.0
 10
47.1565241566
 20
78.2647810116
 30
0.0
 10
46.6463775865
 20
76.250631177
 30
0.0
 10
45.7193842391
 20
74.3925658584
 30
0.0
 10
44.8496700802
 20
73.3126235425
 30
0.0
 10
44.3639288175
 20
72.826804816
 30
0.0
  0
SPLINE
  5
2C6
100
AcDbEntity
  8
0
100
AcDbSpline
 62
7
  6
CONTINUOUS
 70
0
 71
3
 72
15
 73
11
 74
0
 42
0.0000001
 43
0.0000001
 44
0.0000000001
 40
0.0
 40
0.0
 40
0.0
 40
0.0
 40
0.1250694443
 40
0.2501345474
 40
0.3751822418
 40
0.5002027244
 40
0.6251910991
 40
0.7501482987
 40
0.8750809214
 40
1.0
 40
1.0
 40
1.0
 40
1.0
 10
43.2949895877
 20
71.7438735368
 30
0.0
 10
43.8472162939
 20
71.3338224918
 30
0.0
 10
44.8668582743
 20
70.3919238737
 30
0.0
 10
46.0580789189
 20
68.6886963235
 30
0.0
 10
46.8600899929
 20
66.7705056335
 30
0.0
 10
47.2350476739
 20
64.7261207105
 30
0.0
 10
47.166035488
 20
62.6492659212
 30
0.0
 10
46.655885853
 20
60.6351286247
 30
0.0
 10
45.728894335
 20
58.777075114
 30
0.0
 10
44.8591843313
 20
57.6971392425
 30
0.0
 10
44.3734456917
 20
57.2113231399
 30
0.0
  0
SPLINE
  5
2C7
100
AcDbEntity
  8
0
100
AcDbSpline
 62
7
  6
CONTINUOUS
 70
0
 71
3
 72
15
 73
11
 74
0
 42
0.0000001
 43
0.0000001
 44
0.0000000001
 40
0.0
 40
0.0
 40
0.0
 40
0.0
 40
0.1249190786
 40
0.2498517013
 40
0.3748089009
 40
0.4997972756
 40
0.6248177582
 40
0.7498654526
 40
0.8749305557
 40
1.0
 40
1.0
 40
1.0
 40
1.0
 10
44.3448949915
 20
104.0578760902
 30
0.0
 10
44.8306336311
 20
104.5436921928
 30
0.0
 10
45.7003436348
 20
105.6236280644
 30
0.0
 10
46.6273351528
 20
107.4816815751
 30
0.0
 10
47.1374847878
 20
109.4958188716
 30
0.0
 10
47.2064969737
 20
111.5726736609
 30
0.0
 10
46.8315392927
 20
113.6170585838
 30
0.0
 10
46.0295282187
 20
115.5352492739
 30
0.0
 10
44.8383075741
 20
117.238476824
 30
0.0
 10
43.8186655937
 20
118.1803754422
 30
0.0
 10
43.2664388875
 20
118.5904264871
 30
0.0
  0
SPLINE
  5
2C8
100
AcDbEntity
  8
0
100
AcDbSpline
 62
7
  6
CONTINUOUS
 70
0
 71
3
 72
15
 73
11
 74
0
 42
0.0000001
 43
0.0000001
 44
0.0000000001
 40
0.0
 40
0.0
 40
0.0
 40
0.0
 40
0.1249190787
 40
0.2498517013
 40
0.374808901
 40
0.4997972756
 40
0.6248177583
 40
0.7498654526
 40
0.8749305557
 40
1.0
 40
1.0
 40
1.0
 40
1.0
 10
44.354411825
 20
88.4423943736
 30
0.0
 10
44.8401504686
 20
88.9282104765
 30
0.0
 10
45.7098604849
 20
90.008146345
 30
0.0
 10
46.6368520152
 20
91.8661998593
 30
0.0
 10
47.1470016612
 20
93.8803371609
 30
0.0
 10
47.2160138546
 20
95.9571919579
 30
0.0
 10
46.8410561779
 20
98.0015768895
 30
0.0
 10
46.0390451047
 20
99.9197675884
 30
0.0
 10
44.8478244577
 20
101.6229951463
 30
0.0
 10
43.8281824738
 20
102.5648937685
 30
0.0
 10
43.2759557656
 20
102.974944815
 30
0.0
  0
SPLINE
  5
2C9
100
AcDbEntity
  8
0
100
AcDbSpline
 62
7
  6
CONTINUOUS
 70
0
 71
3
 72
15
 73
11
 74
0
 42
0.0000001
 43
0.0000001
 44
0.0000000001
 40
0.0
 40
0.0
 40
0.0
 40
0.0
 40
0.1250694443
 40
0.2501345474
 40
0.3751822418
 40
0.5002027244
 40
0.6251910991
 40
0.7501482987
 40
0.8750809214
 40
1.0
 40
1.0
 40
1.0
 40
1.0
 10
43.3045064658
 20
56.1283918646
 30
0.0
 10
43.856733172
 20
55.7183408196
 30
0.0
 10
44.8763751524
 20
54.7764422015
 30
0.0
 10
46.067595797
 20
53.0732146514
 30
0.0
 10
46.8696068711
 20
51.1550239613
 30
0.0
 10
47.244564552
 20
49.1106390384
 30
0.0
 10
47.1755523662
 20
47.0337842491
 30
0.0
 10
46.6654027311
 20
45.0196469526
 30
0.0
 10
45.7384112131
 20
43.1615934419
 30
0.0
 10
44.8687012094
 20
42.0816575703
 30
0.0
 10
44.3829625698
 20
41.5958414677
 30
0.0
  0
SPLINE
  5
2CA
100
AcDbEntity
  8
DTM_AXIS
100
AcDbSpline
 62
8
  6
HIDDEN
 70
0
 71
3
 72
15
 73
11
 74
0
 42
0.0000001
 43
0.0000001
 44
0.0000000001
 40
0.0
 40
0.0
 40
0.0
 40
0.0
 40
0.0375064362
 40
0.0653804089
 40
0.1006643184
 40
0.1939448871
 40
0.3160351334
 40
0.463187929
 40
0.6303289362
 40
1.0
 40
1.0
 40
1.0
 40
1.0
 10
147.3588840005
 20
125.4531623146
 30
0.0
 10
147.3599989723
 20
125.4659065008
 30
0.0
 10
147.3773536229
 20
125.4849204403
 30
0.0
 10
147.4071788157
 20
125.5006379706
 30
0.0
 10
147.4575479381
 20
125.5194891112
 30
0.0
 10
147.5414068247
 20
125.536887452
 30
0.0
 10
147.6643375845
 20
125.5512536514
 30
0.0
 10
147.8130576133
 20
125.5589496878
 30
0.0
 10
148.046396731
 20
125.5601355684
 30
0.0
 10
148.2294410608
 20
125.5503151731
 30
0.0
 10
148.3550786986
 20
125.5396547495
 30
0.0
  0
SPLINE
  5
2CB
100
AcDbEntity
  8
DTM_AXIS
100
AcDbSpline
 62
8
  6
HIDDEN
 70
0
 71
3
 72
18
 73
14
 74
0
 42
0.0000001
 43
0.0000001
 44
0.0000000001
 40
0.0
 40
0.0
 40
0.0
 40
0.0
 40
0.0060989177
 40
0.0204128672
 40
0.0435465054
 40
0.0754489556
 40
0.1159213196
 40
0.1646748333
 40
0.2855182226
 40
0.4343405405
 40
0.6066220501
 40
0.7971068082
 40
1.0
 40
1.0
 40
1.0
 40
1.0
 10
148.5731812167
 20
126.3419324356
 30
0.0
 10
148.5715278985
 20
126.3423019296
 30
0.0
 10
148.5671092756
 20
126.3364578274
 30
0.0
 10
148.5623881497
 20
126.3267393899
 30
0.0
 10
148.5548594011
 20
126.3082385593
 30
0.0
 10
148.5462693709
 20
126.2834503888
 30
0.0
 10
148.5359459821
 20
126.2513057615
 30
0.0
 10
148.5191765611
 20
126.1954684215
 30
0.0
 10
148.4953956466
 20
126.110236139
 30
0.0
 10
148.4641873153
 20
125.991520886
 30
0.0
 10
148.4295739304
 20
125.8536889298
 30
0.0
 10
148.3926317414
 20
125.700969563
 30
0.0
 10
148.3677350036
 20
125.5945731335
 30
0.0
 10
148.3550786986
 20
125.5396547495
 30
0.0
  0
SPLINE
  5
2CC
100
AcDbEntity
  8
DTM_AXIS
100
AcDbSpline
 62
8
  6
HIDDEN
 70
0
 71
3
 72
18
 73
14
 74
0
 42
0.0000001
 43
0.0000001
 44
0.0000000001
 40
0.0
 40
0.0
 40
0.0
 40
0.0
 40
0.0060995299
 40
0.0204136538
 40
0.0435472281
 40
0.0754496473
 40
0.1159219796
 40
0.1646754516
 40
0.2855187457
 40
0.4343409507
 40
0.606622333
 40
0.7971069531
 40
1.0
 40
1.0
 40
1.0
 40
1.0
 10
255.4926729644
 20
126.3419324356
 30
0.0
 10
255.4943264498
 20
126.3423019667
 30
0.0
 10
255.4987459291
 20
126.336458585
 30
0.0
 10
255.5034674494
 20
126.326739612
 30
0.0
 10
255.5109957104
 20
126.3082388124
 30
0.0
 10
255.5195858658
 20
126.2834505988
 30
0.0
 10
255.5299091799
 20
126.2513059909
 30
0.0
 10
255.5466784801
 20
126.1954686034
 30
0.0
 10
255.5704592759
 20
126.1102363067
 30
0.0
 10
255.6016674238
 20
125.9915210079
 30
0.0
 10
255.6362806255
 20
125.8536890129
 30
0.0
 10
255.673222623
 20
125.7009696029
 30
0.0
 10
255.6981192383
 20
125.5945731468
 30
0.0
 10
255.7107754825
 20
125.5396547495
 30
0.0
  0
SPLINE
  5
2CD
100
AcDbEntity
  8
DTM_AXIS
100
AcDbSpline
 62
8
  6
HIDDEN
 70
0
 71
3
 72
15
 73
11
 74
0
 42
0.0000001
 43
0.0000001
 44
0.0000000001
 40
0.0
 40
0.0
 40
0.0
 40
0.0
 40
0.0375064358
 40
0.0653804086
 40
0.1006643179
 40
0.1939448866
 40
0.3160351328
 40
0.4631879286
 40
0.6303289359
 40
1.0
 40
1.0
 40
1.0
 40
1.0
 10
256.7069701806
 20
125.4531623146
 30
0.0
 10
256.7058552088
 20
125.4659065007
 30
0.0
 10
256.6885005584
 20
125.4849204401
 30
0.0
 10
256.6586753658
 20
125.5006379704
 30
0.0
 10
256.6083062435
 20
125.5194891111
 30
0.0
 10
256.5244473569
 20
125.5368874519
 30
0.0
 10
256.4015165971
 20
125.5512536514
 30
0.0
 10
256.2527965683
 20
125.5589496878
 30
0.0
 10
256.0194574504
 20
125.5601355684
 30
0.0
 10
255.8364131204
 20
125.5503151732
 30
0.0
 10
255.7107754825
 20
125.5396547495
 30
0.0
  0
ENDSEC
  0
SECTION
  2
OBJECTS
  0
DICTIONARY
  5
C
100
AcDbDictionary
280
0
281
1
  3
ACAD_GROUP
350
D
  3
ACAD_MLINESTYLE
350
17
  3
ACAD_LAYOUT
350
1A
  3
ACAD_PLOTSETTINGS
350
19
  3
ACAD_PLOTSTYLENAME
350
E
  3
ACAD_TABLESTYLE
350
       2CE
  0
DICTIONARY
  5
D
102
{ACAD_REACTORS
330
C
102
}
100
AcDbDictionary
280
0
281
1
  0
ACDBDICTIONARYWDFLT
  5
E
102
{ACAD_REACTORS
330
C
102
}
100
AcDbDictionary
281
1
  3
Normal
350
F
100
AcDbDictionaryWithDefault
340
F
  0
DICTIONARY
  5
17
102
{ACAD_REACTORS
330
C
102
}
100
AcDbDictionary
280
0
281
1
  3
Standard
350
18
  0
DICTIONARY
  5
2CE
330
C
100
AcDbDictionary
281
1
  3
Standard
350
       2D1
  3
Standard1
350
       2D2
  0
DICTIONARY
  5
19
102
{ACAD_REACTORS
330
C
102
}
100
AcDbDictionary
281
1
  0
DICTIONARY
  5
1A
102
{ACAD_REACTORS
330
C
102
}
100
AcDbDictionary
281
1
  3
Model
350
2CF
  3
Layout1
350
2D0
  0
ACDBPLACEHOLDER
  5
F
102
{ACAD_REACTORS
330
E
102
}
  0
MLINESTYLE
  5
18
102
{ACAD_REACTORS
330
17
102
}
100
AcDbMlineStyle
  2
STANDARD
 70
0
  3

 62
256
 51
90.0
 52
90.0
 71
2
 49
0.5
 62
256
  6
BYLAYER
 49
-0.5
 62
256
  6
BYLAYER
  0
LAYOUT
  5
2CF
102
{ACAD_REACTORS
330
1A
102
}
100
AcDbPlotSettings
  1

  2
none_device
  4
ISO_A4_(297.00_x_210.00_MM)
  6

 40
0.0
 41
0.0
 42
0.0
 43
0.0
 44
297.0
 45
210.0
 46
0.0
 47
0.0
 48
0.0
 49
0.0
140
0.0
141
0.0
142
1.0
143
1.0
 70
1024
 72
1
 73
0
 74
0
  7

 75
0
147
1.0
148
0.0
149
0.0
100
AcDbLayout
  1
Model
 70
0
 71
0
 10
0.0
 20
0.0
 11
297.0
 21
210.0
 12
0.0
 22
0.0
 32
0.0
 14
0.0
 24
0.0
 34
0.0
 15
0.0
 25
0.0
 35
0.0
146
0.0
 13
0.0
 23
0.0
 33
0.0
 16
1.0
 26
0.0
 36
0.0
 17
0.0
 27
1.0
 37
0.0
 76
0
330
20A
345
0
346
0
  0
LAYOUT
  5
2D0
102
{ACAD_REACTORS
330
1A
102
}
100
AcDbPlotSettings
  1

  2
none_device
  4
ISO_A4_(297.00_x_210.00_MM)
  6

 40
0.0
 41
0.0
 42
0.0
 43
0.0
 44
297.0
 45
210.0
 46
0.0
 47
0.0
 48
0.0
 49
0.0
140
0.0
141
0.0
142
1.0
143
1.0
 70
0
 72
1
 73
0
 74
0
  7

 75
0
147
1.0
148
0.0
149
0.0
100
AcDbLayout
  1
Layout1
 70
0
 71
1
 10
0.0
 20
0.0
 11
297.0
 21
210.0
 12
0.0
 22
0.0
 32
0.0
 14
0.0
 24
0.0
 34
0.0
 15
0.0
 25
0.0
 35
0.0
146
0.0
 13
0.0
 23
0.0
 33
0.0
 16
1.0
 26
0.0
 36
0.0
 17
0.0
 27
1.0
 37
0.0
 76
0
330
20B
345
0
346
0
  0
TABLESTYLE
  5
2D1
102
{ACAD_REACTORS
330
2CE
330
254
102
}
330
2CE
100
AcDbTableStyle
  3
Standard
 70
0
 71
0
 40
0.06
 41
0.06
280
1
281
1
  7
Standard
140
0.18
170
1
 62
0
 63
7
283
0
  7
Standard
140
0.18
170
1
 62
0
 63
7
283
0
  7
Standard
140
0.18
170
1
 62
0
 63
7
283
0
  0
TABLESTYLE
  5
2D2
102
{ACAD_REACTORS
330
2CE
102
}
330
2CE
100
AcDbTableStyle
  3
Standard1
 70
1
 71
0
 40
0.06
 41
0.06
280
1
281
1
  7
Standard
140
0.18
170
1
 62
0
 63
7
283
0
  7
Standard
140
0.18
170
1
 62
0
 63
7
283
0
  7
Standard
140
0.18
170
1
 62
0
 63
7
283
0
  0
ENDSEC
  0
EOF
