999
DXF file: O:\ORAC_PRODUCTEN\ORAC_EXTRUSIE\SX\137\sx137-prod-mm.dxf
999
Pro/ENGINEER 2013050 by Parametric Technology Corporation
  0
SECTION
  2
HEADER
  9
$ACADVER
  1
AC1024
  9
$DWGCODEPAGE
  3
ANSI_1252
  9
$EXTMAX
 10
297.0
 20
210.0
 30
0.0
  9
$EXTMIN
 10
0.0
 20
0.0
 30
0.0
  9
$LIMMIN
 10
0.0
 20
0.0
  9
$LIMMAX
 10
297.0
 20
210.0
  9
$VIEWCTR
 10
148.5
 20
105.0
  9
$VIEWSIZE
 40
210.0
  9
$CLAYER
  8
0
  9
$LTSCALE
 40
16.335
  9
$CELTYPE
  6
BYLAYER
  9
$DIMSCALE
 40
1.0
  9
$DIMASZ
 40
3.5
  9
$DIMEXO
 40
1.0
  9
$DIMDLI
 40
11.286
  9
$DIMEXE
 40
1.5
  9
$DIMCEN
 40
2.673
  9
$DIMLFAC
 40
1.0
  9
$DIMBLK
  1
_FILLED
  9
$DIMTXT
 40
2.5
  9
$DIMTOL
 70
1
  9
$DIMLIM
 70
0
  9
$DIMTFAC
 40
1.0
  9
$DIMTP
 40
0.001
  9
$DIMTM
 40
0.001
  9
$DIMGAP
 40
0.625
  9
$DIMDSEP
 70
44
  9
$PDMODE
 70
3
  9
$PDSIZE
 40
8.0
  9
$HANDSEED
  5
2B1
  9
$TILEMODE
 70
1
  9
$MEASUREMENT
 70
1
  9
$INSUNITS
 70
4
  0
ENDSEC
  0
SECTION
  2
CLASSES
  0
CLASS
  1
ACDBDICTIONARYWDFLT
  2
AcDbDictionaryWithDefault
  3
AutoCAD 2000
 90
0
 91
1
280
0
281
0
  0
CLASS
  1
ACDBPLACEHOLDER
  2
AcDbPlaceHolder
  3
AutoCAD 2000
 90
0
 91
1
280
0
281
0
  0
CLASS
  1
LAYOUT
  2
AcDbLayout
  3
AutoCAD 2000
 90
0
 91
0
280
0
281
0
  0
CLASS
  1
TABLESTYLE
  2
AcDbTableStyle
  3
ObjectDBX Classes
 90
2047
 91
1
280
0
281
0
  0
CLASS
  1
ACAD_TABLE
  2
AcDbTable
  3
ObjectDBX Classes
 90
1025
 91
1
280
0
281
1
  0
ENDSEC
  0
SECTION
  2
TABLES
  0
TABLE
  2
VPORT
  5
8
100
AcDbSymbolTable
 70
2
  0
VPORT
  5
1F4
100
AcDbSymbolTableRecord
100
AcDbViewportTableRecord
  2
*ACTIVE
 70
0
 10
0.0
 20
0.0
 11
1.0
 21
1.0
 12
148.5
 22
105.0
 13
0.0
 23
0.0
 14
1.0
 24
1.0
 15
0.0
 25
0.0
 16
0.0
 26
0.0
 36
1.0
 17
0.0
 27
0.0
 37
0.0
 40
210.0
 41
1.4142857143
 42
50.0
 43
0.0
 44
0.0
 50
0.0
 51
0.0
 71
0
 72
100
 73
1
 74
1
 75
0
 76
0
 77
0
 78
0
  0
ENDTAB
  0
TABLE
  2
LTYPE
  5
5
100
AcDbSymbolTable
 70
6
  0
LTYPE
  5
14
100
AcDbSymbolTableRecord
100
AcDbLinetypeTableRecord
  2
BYBLOCK
 70
0
  3

 72
65
 73
0
 40
0.0
  0
LTYPE
  5
15
100
AcDbSymbolTableRecord
100
AcDbLinetypeTableRecord
  2
BYLAYER
 70
0
  3

 72
65
 73
0
 40
0.0
  0
LTYPE
  5
16
100
AcDbSymbolTableRecord
100
AcDbLinetypeTableRecord
  2
CONTINUOUS
 70
64
  3
Solid line
 72
65
 73
0
 40
0.0
  0
LTYPE
  5
1F5
100
AcDbSymbolTableRecord
100
AcDbLinetypeTableRecord
  2
CENTER
 70
64
  3
____ _ ____ _ ____ _ ____ _ ____ _ ____ _ ____
 72
65
 73
4
 40
0.6
 49
0.375
 74
0
 49
-0.075
 74
0
 49
0.075
 74
0
 49
-0.075
 74
0
  0
LTYPE
  5
1F6
100
AcDbSymbolTableRecord
100
AcDbLinetypeTableRecord
  2
HIDDEN
 70
64
  3
- - - - - - - - - - - - - - - - - - - -
 72
65
 73
2
 40
0.2
 49
0.1
 74
0
 49
-0.1
 74
0
  0
LTYPE
  5
1F7
100
AcDbSymbolTableRecord
100
AcDbLinetypeTableRecord
  2
PHANTOM
 70
64
  3
_____ _ _ _____ _ _ _____ _ _ _____
 72
65
 73
6
 40
0.8
 49
0.45
 74
0
 49
-0.05
 74
0
 49
0.1
 74
0
 49
-0.05
 74
0
 49
0.1
 74
0
 49
-0.05
 74
0
  0
LTYPE
  5
1F8
100
AcDbSymbolTableRecord
100
AcDbLinetypeTableRecord
  2
DOT
 70
64
  3
. . . . . . . . . . . . . . . . . . . .
 72
65
 73
2
 40
0.2
 49
0.1
 74
0
 49
-0.1
 74
0
  0
LTYPE
  5
1F9
100
AcDbSymbolTableRecord
100
AcDbLinetypeTableRecord
  2
DASHED
 70
64
  3
- - - - - - - - - - - - - - - - - - - -
 72
65
 73
2
 40
0.2
 49
0.1
 74
0
 49
-0.1
 74
0
  0
ENDTAB
  0
TABLE
  2
LAYER
  5
2
100
AcDbSymbolTable
 70
36
  0
LAYER
  5
10
100
AcDbSymbolTableRecord
100
AcDbLayerTableRecord
  2
0
 70
0
 62
7
  6
CONTINUOUS
370
-3
390
F
  0
LAYER
  5
1FA
100
AcDbSymbolTableRecord
100
AcDbLayerTableRecord
  2
DEFAULT_1
 70
0
 62
7
  6
CENTER
370
-3
390
F
  0
LAYER
  5
1FB
100
AcDbSymbolTableRecord
100
AcDbLayerTableRecord
  2
DEFAULT_2
 70
0
 62
8
  6
HIDDEN
370
-3
390
F
  0
LAYER
  5
1FC
100
AcDbSymbolTableRecord
100
AcDbLayerTableRecord
  2
DEFAULT_3
 70
0
 62
7
  6
PHANTOM
370
-3
390
F
  0
LAYER
  5
1FD
100
AcDbSymbolTableRecord
100
AcDbLayerTableRecord
  2
DTM_ALL
 70
0
 62
7
  6
CONTINUOUS
370
-3
390
F
  0
LAYER
  5
1FE
100
AcDbSymbolTableRecord
100
AcDbLayerTableRecord
  2
DTM_AXIS
 70
0
 62
7
  6
CONTINUOUS
370
-3
390
F
  0
LAYER
  5
1FF
100
AcDbSymbolTableRecord
100
AcDbLayerTableRecord
  2
DTM_CSYS
 70
0
 62
7
  6
CONTINUOUS
370
-3
390
F
  0
LAYER
  5
200
100
AcDbSymbolTableRecord
100
AcDbLayerTableRecord
  2
DTM_CURVE
 70
0
 62
7
  6
CONTINUOUS
370
-3
390
F
  0
LAYER
  5
201
100
AcDbSymbolTableRecord
100
AcDbLayerTableRecord
  2
DTM_MASTER
 70
0
 62
7
  6
CONTINUOUS
370
-3
390
F
  0
LAYER
  5
202
100
AcDbSymbolTableRecord
100
AcDbLayerTableRecord
  2
DTM_POINT
 70
0
 62
7
  6
CONTINUOUS
370
-3
390
F
  0
LAYER
  5
203
100
AcDbSymbolTableRecord
100
AcDbLayerTableRecord
  2
DTM_QUILT
 70
0
 62
7
  6
CONTINUOUS
370
-3
390
F
  0
LAYER
  5
204
100
AcDbSymbolTableRecord
100
AcDbLayerTableRecord
  2
GTOL
 70
0
 62
7
  6
CONTINUOUS
370
-3
390
F
  0
LAYER
  5
205
100
AcDbSymbolTableRecord
100
AcDbLayerTableRecord
  2
NOTES
 70
0
 62
7
  6
CONTINUOUS
370
-3
390
F
  0
ENDTAB
  0
TABLE
  2
STYLE
  5
3
100
AcDbSymbolTable
 70
1
  0
STYLE
  5
11
100
AcDbSymbolTableRecord
100
AcDbTextStyleTableRecord
  2
STANDARD
 70
0
 40
0.0
 41
1.0
 50
0.0
 71
0
 42
0.2
  3
cgtime.ttf
  4

  0
STYLE
  5
206
100
AcDbSymbolTableRecord
100
AcDbTextStyleTableRecord
  2
TEXTSTYLE_1
 70
0
 40
0.0
 41
0.8
 50
0.0
 71
0
 42
0.2
  3
gdt
  4

  0
STYLE
  5
207
100
AcDbSymbolTableRecord
100
AcDbTextStyleTableRecord
  2
TEXTSTYLE_2
 70
0
 40
0.0
 41
1.0
 50
0.0
 71
0
 42
0.2
  3
trium.ttf
  4

  0
STYLE
  5
208
100
AcDbSymbolTableRecord
100
AcDbTextStyleTableRecord
  2
TEXTSTYLE_3
 70
0
 40
0.0
 41
1.0
 50
0.0
 71
0
 42
0.2
  3
calibri.ttf
  4

  0
ENDTAB
  0
TABLE
  2
VIEW
  5
6
100
AcDbSymbolTable
 70
0
  0
ENDTAB
  0
TABLE
  2
UCS
  5
7
100
AcDbSymbolTable
 70
0
  0
ENDTAB
  0
TABLE
  2
APPID
  5
9
100
AcDbSymbolTable
 70
1
  0
APPID
  5
209
100
AcDbSymbolTableRecord
100
AcDbRegAppTableRecord
  2
ACAD
 70
0
  0
ENDTAB
  0
TABLE
  2
BLOCK_RECORD
  5
1
100
AcDbSymbolTable
 70
0
  0
BLOCK_RECORD
  5
20A
100
AcDbSymbolTableRecord
100
AcDbBlockTableRecord
  2
*Model_Space
  0
BLOCK_RECORD
  5
20B
100
AcDbSymbolTableRecord
100
AcDbBlockTableRecord
  2
*Paper_Space
  0
BLOCK_RECORD
  5
20C
100
AcDbSymbolTableRecord
100
AcDbBlockTableRecord
  2
_FILLED
  0
BLOCK_RECORD
  5
20D
100
AcDbSymbolTableRecord
100
AcDbBlockTableRecord
  2
*D0
  0
BLOCK_RECORD
  5
20E
100
AcDbSymbolTableRecord
100
AcDbBlockTableRecord
  2
*D1
  0
BLOCK_RECORD
  5
20F
100
AcDbSymbolTableRecord
100
AcDbBlockTableRecord
  2
*T1
  0
ENDTAB
  0
TABLE
  2
DIMSTYLE
  5
A
100
AcDbSymbolTable
 70
1
100
AcDbDimStyleTable
 71
0
  0
DIMSTYLE
105
210
100
AcDbSymbolTableRecord
100
AcDbDimStyleTableRecord
  2
STANDARD
 70
0
  3

  4

 40
1.0
 41
3.5
 42
1.0
 43
0.38
 44
1.5
 45
0.0
 46
0.0
 47
0.001
 48
0.001
140
2.5
141
0.09
142
0.0
143
25.4
144
1.0
145
0.0
146
1.0
147
0.625
 71
1.0
 72
0.0
 73
1
 74
1
 75
0
 76
0
 77
0
 78
8
170
0
171
2
172
0
173
0
174
0
175
0
176
0
177
0
178
0
270
2
271
3
272
3
273
2
274
2
275
0
280
0
281
0
282
0
283
1
284
8
285
0
286
0
287
3
288
0
340
11
278
44
341
20C
342
20C
343
20C
344
20C
  0
DIMSTYLE
105
211
100
AcDbSymbolTableRecord
100
AcDbDimStyleTableRecord
  2
DIMSTYLE_1
 70
0
  3

  4

 40
1.0
 41
3.5
 42
1.0
 43
0.38
 44
1.5
 45
0.0
 46
0.0
 47
0.0
 48
0.0
140
2.5
141
0.09
142
0.0
143
25.4
144
1.0
145
0.0
146
1.0
147
1.25
 71
0.0
 72
0.0
 73
1
 74
1
 75
0
 76
0
 77
0
 78
8
170
0
171
2
172
0
173
0
174
0
175
0
176
0
177
0
178
0
270
2
271
3
272
3
273
2
274
2
275
0
280
0
281
0
282
0
283
1
284
8
285
0
286
0
287
3
288
0
340
11
278
44
341
20C
342
20C
343
20C
344
20C
  0
ENDTAB
  0
ENDSEC
  0
SECTION
  2
BLOCKS
  0
BLOCK
  5
20
100
AcDbEntity
  8
0
100
AcDbBlockBegin
  2
*Model_Space
 70
0
 10
0.0
 20
0.0
 30
0.0
  3
*Model_Space
  1

  0
ENDBLK
  5
21
100
AcDbEntity
  8
0
100
AcDbBlockEnd
  0
BLOCK
  5
1C
100
AcDbEntity
  8
0
100
AcDbBlockBegin
  2
*Paper_Space
 70
0
 10
0.0
 20
0.0
 30
0.0
  3
*Paper_Space
  1

  0
ENDBLK
  5
1D
100
AcDbEntity
  8
0
100
AcDbBlockEnd
  0
BLOCK
  5
212
100
AcDbEntity
  8
0
100
AcDbBlockBegin
  2
_FILLED
 70
64
 10
0.0
 20
0.0
  3
_FILLED
  1

  0
SOLID
  5
213
100
AcDbEntity
  8
0
  6
BYBLOCK
 62
0
100
AcDbTrace
 10
0.0
 20
0.0
 11
-1.0
 21
0.2142857143
 12
-1.0
 22
-0.2142857143
 13
-1.0
 23
-0.2142857143
  0
ENDBLK
  5
214
100
AcDbEntity
  8
0
  6
BYBLOCK
 62
0
100
AcDbBlockEnd
  0
BLOCK
  5
215
100
AcDbEntity
  8
0
100
AcDbBlockBegin
 62
2
  6
CONTINUOUS
  2
*D0
 70
65
 10
0.0
 20
0.0
  3
*D0
  1

  0
TEXT
  5
216
100
AcDbEntity
  8
0
100
AcDbText
 62
2
  6
CONTINUOUS
 10
48.6558733287
 20
112.7851754192
  7
STANDARD
 40
2.5
  1
99
 72
5
 11
52.2940056244
 21
112.7851754192
100
AcDbText
  0
LINE
  5
217
100
AcDbEntity
  8
0
100
AcDbLine
 62
2
  6
CONTINUOUS
 10
60.607025446
 20
163.5351754192
 11
48.9749394766
 21
163.5351754192
  0
LINE
  5
218
100
AcDbEntity
  8
0
100
AcDbLine
 62
2
  6
CONTINUOUS
 10
71.607025446
 20
64.5351754192
 11
48.9749394766
 21
64.5351754192
  0
LINE
  5
219
100
AcDbEntity
  8
0
100
AcDbLine
 62
2
  6
CONTINUOUS
 10
50.4749394766
 20
163.5351754192
 11
50.4749394766
 21
116.5351754192
  0
LINE
  5
21A
100
AcDbEntity
  8
0
100
AcDbLine
 62
2
  6
CONTINUOUS
 10
50.4749394766
 20
64.5351754192
 11
50.4749394766
 21
111.5351754192
  0
INSERT
  5
21B
100
AcDbEntity
  8
0
100
AcDbBlockReference
 62
2
  6
CONTINUOUS
  2
_FILLED
 10
50.4749394766
 20
163.5351754192
 41
3.5
 42
3.5
 43
3.5
 50
90.0
  0
INSERT
  5
21C
100
AcDbEntity
  8
0
100
AcDbBlockReference
 62
2
  6
CONTINUOUS
  2
_FILLED
 10
50.4749394766
 20
64.5351754192
 41
3.5
 42
3.5
 43
3.5
 50
270.0
  0
ENDBLK
  5
21D
100
AcDbEntity
  8
0
  6
BYBLOCK
 62
0
100
AcDbBlockEnd
  0
BLOCK
  5
21E
100
AcDbEntity
  8
0
100
AcDbBlockBegin
 62
2
  6
CONTINUOUS
  2
*D1
 70
65
 10
0.0
 20
0.0
  3
*D1
  1

  0
TEXT
  5
21F
100
AcDbEntity
  8
0
100
AcDbText
 62
2
  6
CONTINUOUS
 10
67.2879592981
 20
171.0073293293
  7
STANDARD
 40
2.5
  1
15
 72
5
 11
70.9260915939
 21
171.0073293293
100
AcDbText
  0
LINE
  5
220
100
AcDbEntity
  8
0
100
AcDbLine
 62
2
  6
CONTINUOUS
 10
61.607025446
 20
164.5351754192
 11
61.607025446
 21
173.7573293293
  0
LINE
  5
221
100
AcDbEntity
  8
0
100
AcDbLine
 62
2
  6
CONTINUOUS
 10
76.607025446
 20
147.8345517111
 11
76.607025446
 21
173.7573293293
  0
LINE
  5
222
100
AcDbEntity
  8
0
100
AcDbLine
 62
2
  6
CONTINUOUS
 10
61.607025446
 20
172.2573293293
 11
66.0379592981
 21
172.2573293293
  0
LINE
  5
223
100
AcDbEntity
  8
0
100
AcDbLine
 62
2
  6
CONTINUOUS
 10
76.607025446
 20
172.2573293293
 11
72.1760915939
 21
172.2573293293
  0
INSERT
  5
224
100
AcDbEntity
  8
0
100
AcDbBlockReference
 62
2
  6
CONTINUOUS
  2
_FILLED
 10
61.607025446
 20
172.2573293293
 41
3.5
 42
3.5
 43
3.5
 50
180.0
  0
INSERT
  5
225
100
AcDbEntity
  8
0
100
AcDbBlockReference
 62
2
  6
CONTINUOUS
  2
_FILLED
 10
76.607025446
 20
172.2573293293
 41
3.5
 42
3.5
 43
3.5
  0
ENDBLK
  5
226
100
AcDbEntity
  8
0
  6
BYBLOCK
 62
0
100
AcDbBlockEnd
  0
BLOCK
  5
227
100
AcDbEntity
  8
0
100
AcDbBlockBegin
  2
*T1
 70
1
 10
0.0
 20
0.0
  3
*T1
  1

  0
LINE
  5
228
100
AcDbEntity
  8
0
100
AcDbLine
 62
7
  6
CONTINUOUS
 10
0.0
 20
0.0
 11
148.0
 21
0.0
  0
LINE
  5
229
100
AcDbEntity
  8
0
100
AcDbLine
 62
7
  6
CONTINUOUS
 10
0.0
 20
0.0
 11
0.0
 21
-43.0
  0
LINE
  5
22A
100
AcDbEntity
  8
0
100
AcDbLine
 62
7
  6
CONTINUOUS
 10
45.0
 20
-23.0
 11
148.0
 21
-23.0
  0
LINE
  5
22B
100
AcDbEntity
  8
0
100
AcDbLine
 62
7
  6
CONTINUOUS
 10
45.0
 20
-28.0
 11
148.0
 21
-28.0
  0
LINE
  5
22C
100
AcDbEntity
  8
0
100
AcDbLine
 62
7
  6
CONTINUOUS
 10
0.0
 20
-43.0
 11
148.0
 21
-43.0
  0
LINE
  5
22D
100
AcDbEntity
  8
0
100
AcDbLine
 62
7
  6
CONTINUOUS
 10
45.0
 20
0.0
 11
45.0
 21
-43.0
  0
LINE
  5
22E
100
AcDbEntity
  8
0
100
AcDbLine
 62
7
  6
CONTINUOUS
 10
143.0
 20
0.0
 11
143.0
 21
-23.0
  0
LINE
  5
22F
100
AcDbEntity
  8
0
100
AcDbLine
 62
7
  6
CONTINUOUS
 10
148.0
 20
0.0
 11
148.0
 21
-43.0
  0
TEXT
  5
230
100
AcDbEntity
  8
0
100
AcDbText
 62
7
  6
CONTINUOUS
 10
8.9659749243
 20
-10.675
  7
STANDARD
 40
8.0
  1
O
 72
5
 11
17.370644185
 21
-10.675
100
AcDbText
  0
TEXT
  5
231
100
AcDbEntity
  8
0
100
AcDbText
 62
7
  6
CONTINUOUS
 10
17.370644185
 20
-10.675
  7
STANDARD
 40
5.5
  1
RAC
 72
5
 11
33.9562472979
 21
-10.675
100
AcDbText
  0
TEXT
  5
232
100
AcDbEntity
  8
0
100
AcDbText
 62
7
  6
CONTINUOUS
 10
33.9562472979
 20
-5.925
  7
TEXTSTYLE_2
 40
3.0
  1
®
 72
5
 11
36.0340250757
 21
-5.925
100
AcDbText
  0
TEXT
  5
233
100
AcDbEntity
  8
0
100
AcDbText
 62
7
  6
CONTINUOUS
 10
9.5323389537
 20
-15.325
  7
TEXTSTYLE_2
 40
3.0
  1
D  E  C  O  R
 72
5
 11
34.3878945093
 21
-15.325
100
AcDbText
  0
TEXT
  5
234
100
AcDbEntity
  8
0
100
AcDbText
 62
7
  6
CONTINUOUS
 10
34.3878945093
 20
-15.325
  7
STANDARD
 40
2.5
  1
 
 72
5
 11
35.4676610463
 21
-15.325
100
AcDbText
  0
TEXT
  5
235
100
AcDbEntity
  8
0
100
AcDbText
 62
7
  6
CONTINUOUS
 10
52.5257352941
 20
-6.0
  7
TEXTSTYLE_3
 40
2.75
  1
Part name:
 72
5
 11
71.9375
 21
-6.0
100
AcDbText
  0
TEXT
  5
236
100
AcDbEntity
  8
0
100
AcDbText
 62
7
  6
CONTINUOUS
 10
49.2788865546
 20
-12.875
  7
TEXTSTYLE_3
 40
2.75
  1
Designed by:
 72
5
 11
71.9375
 21
-12.875
100
AcDbText
  0
TEXT
  5
237
100
AcDbEntity
  8
0
100
AcDbText
 62
7
  6
CONTINUOUS
 10
48.9553571429
 20
-19.75
  7
TEXTSTYLE_3
 40
2.75
  1
Designed on:
 72
5
 11
71.9375
 21
-19.75
100
AcDbText
  0
TEXT
  5
238
100
AcDbEntity
  8
0
100
AcDbText
 62
2
  6
CONTINUOUS
 10
74.0625
 20
-6.0
  7
TEXTSTYLE_3
 40
2.75
  1
SX137
 72
5
 11
84.8891806723
 21
-6.0
100
AcDbText
  0
TEXT
  5
239
100
AcDbEntity
  8
0
100
AcDbText
 62
2
  6
CONTINUOUS
 10
74.0625
 20
-12.875
  7
TEXTSTYLE_3
 40
2.75
  1
ORAC
 72
5
 11
84.1034663866
 21
-12.875
100
AcDbText
  0
TEXT
  5
23A
100
AcDbEntity
  8
0
100
AcDbText
 62
2
  6
CONTINUOUS
 10
74.0625
 20
-19.75
  7
TEXTSTYLE_3
 40
2.75
  1
29-Jul-2005
 72
5
 11
94.5488445378
 21
-19.75
100
AcDbText
  0
TEXT
  5
23B
100
AcDbEntity
  8
0
100
AcDbText
 62
2
  6
CONTINUOUS
 10
94.5488445378
 20
-19.75
  7
TEXTSTYLE_3
 40
2.75
  1
 
 72
5
 11
95.530987395
 21
-19.75
100
AcDbText
  0
TEXT
  5
23C
100
AcDbEntity
  8
0
100
AcDbText
 62
2
  6
CONTINUOUS
 10
146.5625
 20
-17.5
  7
TEXTSTYLE_3
 40
1.5
  1
Version: 
 50
90.0
 72
5
 11
146.5625
 21
-9.0294117647
100
AcDbText
  0
TEXT
  5
23D
100
AcDbEntity
  8
0
100
AcDbText
 62
2
  6
CONTINUOUS
 10
146.5625
 20
-9.0294117647
  7
TEXTSTYLE_3
 40
1.5
  1
1.0
 50
90.0
 72
5
 11
146.5625
 21
-6.0357142857
100
AcDbText
  0
TEXT
  5
23E
100
AcDbEntity
  8
0
100
AcDbText
 62
2
  6
CONTINUOUS
 10
146.5625
 20
-6.0357142857
  7
TEXTSTYLE_3
 40
1.5
  1
 
 50
90.0
 72
5
 11
146.5625
 21
-5.5
100
AcDbText
  0
TEXT
  5
23F
100
AcDbEntity
  8
0
100
AcDbText
 62
7
  6
CONTINUOUS
 10
9.6586134454
 20
-24.25
  7
TEXTSTYLE_3
 40
2.5
  1
Biekorfstraat 32
 72
5
 11
35.3413865546
 21
-24.25
100
AcDbText
  0
TEXT
  5
240
100
AcDbEntity
  8
0
100
AcDbText
 62
7
  6
CONTINUOUS
 10
2.2584033613
 20
-28.0
  7
TEXTSTYLE_3
 40
2.5
  1
8400 Oostende - Belgium
 72
5
 11
42.7415966387
 21
-28.0
100
AcDbText
  0
TEXT
  5
241
100
AcDbEntity
  8
0
100
AcDbText
 62
7
  6
CONTINUOUS
 10
4.2699579832
 20
-31.75
  7
TEXTSTYLE_3
 40
2.5
  1
Tel  +32 (0)59 80 32 52
 72
5
 11
40.7300420168
 21
-31.75
100
AcDbText
  0
TEXT
  5
242
100
AcDbEntity
  8
0
100
AcDbText
 62
7
  6
CONTINUOUS
 10
5.7405462185
 20
-35.5
  7
TEXTSTYLE_3
 40
2.5
  1
www.oracdecor.com
 72
5
 11
39.2594537815
 21
-35.5
100
AcDbText
  0
TEXT
  5
243
100
AcDbEntity
  8
0
100
AcDbText
 62
7
  6
CONTINUOUS
 10
5.5777310924
 20
-39.25
  7
TEXTSTYLE_3
 40
2.5
  1
info@oracdecor.com
 72
5
 11
39.4222689076
 21
-39.25
100
AcDbText
  0
TEXT
  5
244
100
AcDbEntity
  8
0
100
AcDbText
 62
7
  6
CONTINUOUS
 10
46.0625
 20
-26.75
  7
TEXTSTYLE_3
 40
2.5
  1
All dimensions are in mm unless otherwise specified   
 72
5
 11
132.3019957983
 21
-26.75
100
AcDbText
  0
TEXT
  5
245
100
AcDbEntity
  8
0
100
AcDbText
 62
7
  6
CONTINUOUS
 10
46.0625
 20
-31.7075
  7
TEXTSTYLE_3
 40
1.85
  1
All information in this document is Orac's exclusive property.  It may in no case 
 72
5
 11
140.0471638655
 21
-31.7075
100
AcDbText
  0
TEXT
  5
246
100
AcDbEntity
  8
0
100
AcDbText
 62
7
  6
CONTINUOUS
 10
46.0625
 20
-34.8525
  7
TEXTSTYLE_3
 40
1.85
  1
be reproduced, even partly, be communicated to a third party or used for any 
 72
5
 11
138.8345588235
 21
-34.8525
100
AcDbText
  0
TEXT
  5
247
100
AcDbEntity
  8
0
100
AcDbText
 62
7
  6
CONTINUOUS
 10
46.0625
 20
-37.9975
  7
TEXTSTYLE_3
 40
1.85
  1
possible purpose without ORAC's express written permission. 
 72
5
 11
119.4484243697
 21
-37.9975
100
AcDbText
  0
TEXT
  5
248
100
AcDbEntity
  8
0
100
AcDbText
 62
7
  6
CONTINUOUS
 10
46.0625
 20
-41.1425
  7
TEXTSTYLE_3
 40
1.85
  1
Further legal information can be found at http://www.oracdecor.be/nl/disclaimer 
 72
5
 11
143.7316176471
 21
-41.1425
100
AcDbText
  0
ENDBLK
  5
249
100
AcDbEntity
  8
0
  6
BYBLOCK
 62
0
100
AcDbBlockEnd
  0
ENDSEC
  0
SECTION
  2
ENTITIES
  0
DIMENSION
  5
24A
100
AcDbEntity
  8
0
100
AcDbDimension
 62
2
  6
CONTINUOUS
  2
*D0
 10
50.4749394766
 20
64.5351754192
 11
50.4749394766
 21
114.0351754192
 70
160
 71
2
 42
99.0
  3
DIMSTYLE_1
100
AcDbAlignedDimension
 13
61.607025446
 23
163.5351754192
 14
72.607025446
 24
64.5351754192
 50
270.0
100
AcDbRotatedDimension
  0
DIMENSION
  5
24B
100
AcDbEntity
  8
0
100
AcDbDimension
 62
2
  6
CONTINUOUS
  2
*D1
 10
76.607025446
 20
172.2573293293
 11
69.107025446
 21
172.2573293293
 70
160
 71
2
 42
15.0
  3
DIMSTYLE_1
100
AcDbAlignedDimension
 13
61.607025446
 23
163.5351754192
 14
76.607025446
 24
146.8345517111
100
AcDbRotatedDimension
  0
ACAD_TABLE
  5
24C
100
AcDbEntity
  8
0
 62
2
  6
CONTINUOUS
100
AcDbBlockReference
  2
*T1
 10
143.9999958937
 20
47.9999925619
 30
0.0
100
AcDbTable
342
       2AF
343
20F
 11
1.0
 21
0.0
 31
0.0
 90
22
 91
4
 92
4
 93
0
 94
0
 95
0
 96
0
141
18.0
141
5.0
141
5.0
141
15.0
142
45.0
142
28.0
142
70.0
142
5.0
171
1
172
0
173
0
174
0
175
1
176
1
 91
41
178
0
145
0.0
301
CELL_VALUE
 90
4
  1
O\H5.5;RAC\P\Ftrium.ttf;\H3.0;®\PD  E  C  O  R\Fcgtime.ttf;\H2.5; 
304
ACVALUE_END
170
5
140
8.0
 64
7
171
1
172
0
173
0
174
0
175
1
176
2
 91
41
178
0
145
0.0
301
CELL_VALUE
 90
4
  1
Part name:\PDesigned by:\PDesigned on:
304
ACVALUE_END
170
6
140
2.75
 64
7
171
1
172
0
173
0
174
0
175
1
176
2
 91
33
178
0
145
0.0
301
CELL_VALUE
 90
4
  1
SX137\PORAC\P29-Jul-2005 
304
ACVALUE_END
170
4
140
2.75
171
1
172
0
173
0
174
0
175
1
176
2
 91
33
178
0
145
0.0
301
CELL_VALUE
 90
4
  1
Version: 1.0 
304
ACVALUE_END
170
6
140
1.5
171
1
172
0
173
0
174
0
175
1
176
3
 91
41
178
0
145
0.0
301
CELL_VALUE
 90
4
  1
Biekorfstraat 32\P8400 Oostende - Belgium\PTel  +32 (0)59 80 32 52\Pwww.oracdecor.com\Pinfo@oracdecor.com
304
ACVALUE_END
170
5
140
2.5
 64
7
171
1
172
0
173
1
174
0
175
1
176
1
 91
1
178
0
145
0.0
170
1
171
1
172
0
173
1
174
0
175
1
176
1
 91
1
178
0
145
0.0
170
1
171
1
172
0
173
1
174
0
175
1
176
1
 91
1
178
0
145
0.0
170
1
171
1
172
0
173
1
174
0
175
1
176
1
 91
1
178
0
145
0.0
170
1
171
1
172
0
173
0
174
0
175
3
176
1
 91
41
178
0
145
0.0
301
CELL_VALUE
 90
4
  1
All dimensions are in mm unless otherwise specified   
304
ACVALUE_END
170
1
140
2.5
 64
7
171
1
172
0
173
1
174
0
175
1
176
1
 91
1
178
0
145
0.0
170
1
171
1
172
0
173
1
174
0
175
1
176
1
 91
1
178
0
145
0.0
170
1
171
1
172
0
173
1
174
0
175
1
176
1
 91
1
178
0
145
0.0
170
1
171
1
172
0
173
0
174
0
175
3
176
1
 91
41
178
0
145
0.0
301
CELL_VALUE
 90
4
  2
All information in this document is Orac's exclusive property.  It may in no case \Pbe reproduced, even partly, be communicated to a third party or used for any \Ppossible purpose without ORAC's express written permission. \PFurther legal information
  1
 can be found at http://www.oracdecor.be/nl/disclaimer 
304
ACVALUE_END
170
4
140
1.85
 64
7
171
1
172
0
173
1
174
0
175
1
176
1
 91
1
178
0
145
0.0
170
1
171
1
172
0
173
1
174
0
175
1
176
1
 91
1
178
0
145
0.0
170
1
  0
LINE
  5
24D
100
AcDbEntity
  8
0
100
AcDbLine
 62
5
  6
CONTINUOUS
 10
0.0
 20
0.0
 11
0.0
 21
210.0
  0
LINE
  5
24E
100
AcDbEntity
  8
0
100
AcDbLine
 62
7
  6
CONTINUOUS
 10
5.0
 20
5.0
 11
5.0
 21
195.0
  0
LINE
  5
24F
100
AcDbEntity
  8
0
100
AcDbLine
 62
5
  6
CONTINUOUS
 10
0.0
 20
0.0
 11
297.0
 21
0.0
  0
LINE
  5
250
100
AcDbEntity
  8
0
100
AcDbLine
 62
7
  6
CONTINUOUS
 10
5.0
 20
5.0
 11
292.0
 21
5.0
  0
LINE
  5
251
100
AcDbEntity
  8
0
100
AcDbLine
 62
4
  6
CONTINUOUS
 10
148.5
 20
195.0
 11
148.5
 21
205.0
  0
LINE
  5
252
100
AcDbEntity
  8
0
100
AcDbLine
 62
7
  6
CONTINUOUS
 10
5.0
 20
195.0
 11
292.0
 21
195.0
  0
LINE
  5
253
100
AcDbEntity
  8
0
100
AcDbLine
 62
5
  6
CONTINUOUS
 10
0.0
 20
210.0
 11
297.0
 21
210.0
  0
LINE
  5
254
100
AcDbEntity
  8
0
100
AcDbLine
 62
7
  6
CONTINUOUS
 10
292.0
 20
5.0
 11
292.0
 21
195.0
  0
LINE
  5
255
100
AcDbEntity
  8
0
100
AcDbLine
 62
5
  6
CONTINUOUS
 10
297.0
 20
0.0
 11
297.0
 21
210.0
  0
LINE
  5
256
100
AcDbEntity
  8
DTM_AXIS
100
AcDbLine
 62
7
  6
CONTINUOUS
 10
164.9019771045
 20
63.1717962773
 11
168.8976953282
 21
63.0686212077
  0
LINE
  5
257
100
AcDbEntity
  8
DTM_AXIS
100
AcDbLine
 62
7
  6
CONTINUOUS
 10
154.6870781557
 20
74.2675476348
 11
159.7834388289
 21
74.1359524277
  0
LINE
  5
258
100
AcDbEntity
  8
DTM_AXIS
100
AcDbLine
 62
7
  6
CONTINUOUS
 10
164.9019771045
 20
63.1717962773
 11
161.6269084413
 21
72.7880316174
  0
LINE
  5
259
100
AcDbEntity
  8
DTM_AXIS
100
AcDbLine
 62
7
  6
CONTINUOUS
 10
156.4173375672
 20
162.4147338098
 11
233.882730154
 21
187.604504905
  0
LINE
  5
25A
100
AcDbEntity
  8
DTM_AXIS
100
AcDbLine
 62
7
  6
CONTINUOUS
 10
160.9125205688
 20
162.2986618565
 11
238.3779131556
 21
187.4884329517
  0
LINE
  5
25B
100
AcDbEntity
  8
DTM_AXIS
100
AcDbLine
 62
7
  6
CONTINUOUS
 10
156.4173375672
 20
162.4147338098
 11
156.2920747425
 21
157.4634711917
  0
LINE
  5
25C
100
AcDbEntity
  8
DTM_AXIS
100
AcDbLine
 62
7
  6
CONTINUOUS
 10
156.2171342667
 20
154.5012996361
 11
156.1702507732
 21
152.6481361819
  0
LINE
  5
25D
100
AcDbEntity
  8
DTM_AXIS
100
AcDbLine
 62
7
  6
CONTINUOUS
 10
154.4501275224
 20
84.6568389083
 11
154.3768317754
 21
81.7596785321
  0
LINE
  5
25E
100
AcDbEntity
  8
DTM_AXIS
100
AcDbLine
 62
7
  6
CONTINUOUS
 10
154.3018912997
 20
78.7975069764
 11
154.2001313057
 21
74.7752405489
  0
LINE
  5
25F
100
AcDbEntity
  8
DTM_AXIS
100
AcDbLine
 62
7
  6
CONTINUOUS
 10
156.0218386251
 20
127.0266134885
 11
156.3196612108
 21
138.7986443298
  0
LINE
  5
260
100
AcDbEntity
  8
DTM_AXIS
100
AcDbLine
 62
7
  6
CONTINUOUS
 10
239.8387537059
 20
185.9653542092
 11
162.3733611191
 21
160.775583114
  0
LINE
  5
261
100
AcDbEntity
  8
DTM_AXIS
100
AcDbLine
 62
7
  6
CONTINUOUS
 10
162.3244683707
 20
158.8429998602
 11
239.7898609575
 21
184.0327709554
  0
LINE
  5
262
100
AcDbEntity
  8
DTM_AXIS
100
AcDbLine
 62
7
  6
CONTINUOUS
 10
240.685151449
 20
182.6352970296
 11
163.2197588622
 21
157.4455259345
  0
LINE
  5
263
100
AcDbEntity
  8
DTM_AXIS
100
AcDbLine
 62
7
  6
CONTINUOUS
 10
154.9621102283
 20
85.138738055
 11
159.45729323
 21
85.0226661017
  0
LINE
  5
264
100
AcDbEntity
  8
DTM_AXIS
100
AcDbLine
 62
7
  6
CONTINUOUS
 10
162.3244683707
 20
158.8429998602
 11
162.3733611191
 21
160.775583114
  0
LINE
  5
265
100
AcDbEntity
  8
DTM_AXIS
100
AcDbLine
 62
7
  6
CONTINUOUS
 10
161.5052240534
 20
86.9502626888
 11
162.310666912
 21
118.7869957931
  0
LINE
  5
266
100
AcDbEntity
  8
DTM_AXIS
100
AcDbLine
 62
7
  6
CONTINUOUS
 10
168.8976953282
 20
63.0686212077
 11
170.3746946965
 21
121.4499628238
  0
LINE
  5
267
100
AcDbEntity
  8
DTM_AXIS
100
AcDbLine
 62
7
  6
CONTINUOUS
 10
156.5715919643
 20
125.6120093357
 11
161.7609135728
 21
120.201599946
  0
LINE
  5
268
100
AcDbEntity
  8
DTM_AXIS
100
AcDbLine
 62
7
  6
CONTINUOUS
 10
160.9698181263
 20
141.6939162652
 11
157.6925473099
 21
140.6282313325
  0
LINE
  5
269
100
AcDbEntity
  8
DTM_AXIS
100
AcDbLine
 62
7
  6
CONTINUOUS
 10
160.7639832982
 20
141.5505610653
 11
158.2247599146
 21
140.7248703452
  0
LINE
  5
26A
100
AcDbEntity
  8
DTM_AXIS
100
AcDbLine
 62
7
  6
CONTINUOUS
 10
242.6122204448
 20
160.1104174208
 11
165.146827858
 21
134.9206463256
  0
LINE
  5
26B
100
AcDbEntity
  8
DTM_AXIS
100
AcDbLine
 62
7
  6
CONTINUOUS
 10
169.5500646877
 20
123.5718690532
 11
164.4518375322
 21
128.8873029679
  0
LINE
  5
26C
100
AcDbEntity
  8
DTM_AXIS
100
AcDbLine
 62
7
  6
CONTINUOUS
 10
241.9172301191
 20
154.0770740631
 11
164.4518375322
 21
128.8873029679
  0
LINE
  5
26D
100
AcDbEntity
  8
DTM_AXIS
100
AcDbLine
 62
7
  6
CONTINUOUS
 10
169.5500646877
 20
123.5718690532
 11
247.0154572745
 21
148.7616401483
  0
LINE
  5
26E
100
AcDbEntity
  8
DTM_AXIS
100
AcDbLine
 62
7
  6
CONTINUOUS
 10
247.8400872833
 20
146.639733919
 11
170.3746946965
 21
121.4499628238
  0
LINE
  5
26F
100
AcDbEntity
  8
DTM_AXIS
100
AcDbLine
 62
7
  6
CONTINUOUS
 10
161.5140630222
 20
87.2996405343
 11
154.7933490472
 21
85.114235659
  0
LINE
  5
270
100
AcDbEntity
  8
DTM_AXIS
100
AcDbLine
 62
7
  6
CONTINUOUS
 10
161.5132882
 20
87.2690141435
 11
154.9621102283
 21
85.138738055
  0
LINE
  5
271
100
AcDbEntity
  8
DTM_AXIS
100
AcDbLine
 62
7
  6
CONTINUOUS
 10
159.45729323
 20
85.0226661017
 11
160.731327592
 21
85.4369496014
  0
LINE
  5
272
100
AcDbEntity
  8
DTM_AXIS
100
AcDbLine
 62
7
  6
CONTINUOUS
 10
239.7898609575
 20
184.0327709554
 11
239.8387537059
 21
185.9653542092
  0
LINE
  5
273
100
AcDbEntity
  8
DTM_AXIS
100
AcDbLine
 62
7
  6
CONTINUOUS
 10
160.9125205688
 20
162.2986618565
 11
156.4173375672
 21
162.4147338098
  0
LINE
  5
274
100
AcDbEntity
  8
DTM_AXIS
100
AcDbLine
 62
7
  6
CONTINUOUS
 10
246.363087915
 20
88.2583923029
 11
247.8400872833
 21
146.639733919
  0
LINE
  5
275
100
AcDbEntity
  8
DTM_AXIS
100
AcDbLine
 62
7
  6
CONTINUOUS
 10
246.363087915
 20
88.2583923029
 11
168.8976953282
 21
63.0686212077
  0
LINE
  5
276
100
AcDbEntity
  8
DTM_AXIS
100
AcDbLine
 62
7
  6
CONTINUOUS
 10
247.0154572745
 20
148.7616401483
 11
241.9172301191
 21
154.0770740631
  0
LINE
  5
277
100
AcDbEntity
  8
DTM_AXIS
100
AcDbLine
 62
7
  6
CONTINUOUS
 10
238.3779131556
 20
187.4884329517
 11
233.882730154
 21
187.604504905
  0
LINE
  5
278
100
AcDbEntity
  8
DTM_AXIS
100
AcDbLine
 62
7
  6
CONTINUOUS
 10
72.607025446
 20
64.5351754192
 11
76.607025446
 21
64.5351754192
  0
LINE
  5
279
100
AcDbEntity
  8
DTM_AXIS
100
AcDbLine
 62
7
  6
CONTINUOUS
 10
62.107025446
 20
75.3645545695
 11
67.2088473342
 21
75.3645545695
  0
LINE
  5
27A
100
AcDbEntity
  8
DTM_AXIS
100
AcDbLine
 62
7
  6
CONTINUOUS
 10
62.107025446
 20
86.2402264157
 11
66.607025446
 21
86.2402264157
  0
LINE
  5
27B
100
AcDbEntity
  8
DTM_AXIS
100
AcDbLine
 62
7
  6
CONTINUOUS
 10
72.607025446
 20
64.5351754192
 11
69.0872031549
 21
74.0645479521
  0
LINE
  5
27C
100
AcDbEntity
  8
DTM_AXIS
100
AcDbLine
 62
7
  6
CONTINUOUS
 10
61.607025446
 20
163.5351754192
 11
61.607025446
 21
158.5818717443
  0
LINE
  5
27D
100
AcDbEntity
  8
DTM_AXIS
100
AcDbLine
 62
7
  6
CONTINUOUS
 10
61.607025446
 20
155.618479094
 11
61.607025446
 21
153.7645517111
  0
LINE
  5
27E
100
AcDbEntity
  8
DTM_AXIS
100
AcDbLine
 62
7
  6
CONTINUOUS
 10
61.607025446
 20
85.7452264157
 11
61.607025446
 21
82.8468717443
  0
LINE
  5
27F
100
AcDbEntity
  8
DTM_AXIS
100
AcDbLine
 62
7
  6
CONTINUOUS
 10
61.607025446
 20
79.883479094
 11
61.607025446
 21
75.8595545695
  0
LINE
  5
280
100
AcDbEntity
  8
DTM_AXIS
100
AcDbLine
 62
7
  6
CONTINUOUS
 10
62.107025446
 20
128.1453692692
 11
62.107025446
 21
139.9222528894
  0
LINE
  5
281
100
AcDbEntity
  8
DTM_AXIS
100
AcDbLine
 62
7
  6
CONTINUOUS
 10
67.607025446
 20
160.1167954974
 11
67.607025446
 21
162.0501754192
  0
LINE
  5
282
100
AcDbEntity
  8
DTM_AXIS
100
AcDbLine
 62
7
  6
CONTINUOUS
 10
68.607025446
 20
88.2202264157
 11
68.607025446
 21
120.0700835622
  0
LINE
  5
283
100
AcDbEntity
  8
DTM_AXIS
100
AcDbLine
 62
7
  6
CONTINUOUS
 10
62.6928118836
 20
126.7452978424
 11
68.0212390084
 21
121.4701549889
  0
LINE
  5
284
100
AcDbEntity
  8
DTM_AXIS
100
AcDbLine
 62
7
  6
CONTINUOUS
 10
76.607025446
 20
64.5351754192
 11
76.607025446
 21
122.9405835494
  0
LINE
  5
285
100
AcDbEntity
  8
DTM_AXIS
100
AcDbLine
 62
7
  6
CONTINUOUS
 10
75.7283457896
 20
125.0406906896
 11
70.4934550056
 21
130.2232325657
  0
LINE
  5
286
100
AcDbEntity
  8
DTM_AXIS
100
AcDbLine
 62
7
  6
CONTINUOUS
 10
66.107025446
 20
163.5351754192
 11
61.607025446
 21
163.5351754192
  0
ELLIPSE
  5
287
100
AcDbEntity
  8
DTM_AXIS
100
AcDbEllipse
 62
7
  6
CONTINUOUS
 10
158.019697737
 20
126.9750259537
 30
0.0
 11
1.9957040322
 21
-0.1064188511
 31
0.0
 40
0.9906249494
 41
-3.1138750932
 42
-2.3284769298
  0
ELLIPSE
  5
288
100
AcDbEntity
  8
DTM_AXIS
100
AcDbEllipse
 62
7
  6
CONTINUOUS
 10
158.168109885
 20
152.5965486471
 30
0.0
 11
1.9957040322
 21
-0.1064188511
 31
0.0
 40
0.9906249494
 41
-3.1138750932
 42
-1.5430787664
  0
ELLIPSE
  5
289
100
AcDbEntity
  8
DTM_AXIS
100
AcDbEllipse
 62
7
  6
CONTINUOUS
 10
154.6995960836
 20
74.7623436652
 30
0.0
 11
0.4989260081
 21
-0.0266047128
 31
0.0
 40
0.9906249494
 41
-3.1138750932
 42
-1.5430787664
  0
ELLIPSE
  5
28A
100
AcDbEntity
  8
DTM_AXIS
100
AcDbEllipse
 62
7
  6
CONTINUOUS
 10
241.2882552914
 20
183.9940803043
 30
0.0
 11
1.4967780242
 21
-0.0798141383
 31
0.0
 40
0.9906249494
 41
-3.1138750932
 42
-1.9321295929
  0
ELLIPSE
  5
28B
100
AcDbEntity
  8
DTM_AXIS
100
AcDbEllipse
 62
7
  6
CONTINUOUS
 10
160.3128078002
 20
118.8385833279
 30
0.0
 11
1.9957040322
 21
-0.1064188511
 31
0.0
 40
0.9906249494
 41
0.0277175604
 42
0.8131157238
  0
ELLIPSE
  5
28C
100
AcDbEntity
  8
DTM_AXIS
100
AcDbEllipse
 62
7
  6
CONTINUOUS
 10
159.7333671174
 20
72.1567683058
 30
0.0
 11
1.9957040322
 21
-0.1064188511
 31
0.0
 40
0.9906249494
 41
0.3782852255
 42
1.5985138872
  0
ELLIPSE
  5
28D
100
AcDbEntity
  8
DTM_AXIS
100
AcDbEllipse
 62
7
  6
CONTINUOUS
 10
238.340359372
 20
186.0040448603
 30
0.0
 11
1.4967780242
 21
-0.0798141383
 31
0.0
 40
0.9906249494
 41
0.0277175604
 42
1.5985138872
  0
ELLIPSE
  5
28E
100
AcDbEntity
  8
DTM_AXIS
100
AcDbEllipse
 62
7
  6
CONTINUOUS
 10
235.4582514814
 20
170.8591753158
 30
0.0
 11
12.9720762095
 21
-0.6917225323
 31
0.0
 40
0.9906249494
 41
-0.9347922603
 42
1.2094630607
  0
ELLIPSE
  5
28F
100
AcDbEntity
  8
DTM_AXIS
100
AcDbEllipse
 62
7
  6
CONTINUOUS
 10
244.8134416643
 20
156.8031072992
 30
0.0
 11
3.9914080645
 21
-0.2128377022
 31
0.0
 40
0.9906249494
 41
2.2068003933
 42
3.9547083774
  0
ELLIPSE
  5
290
100
AcDbEntity
  8
DTM_AXIS
100
AcDbEllipse
 62
7
  6
CONTINUOUS
 10
153.3404319816
 20
80.3043865216
 30
0.0
 11
1.796133629
 21
-0.095776966
 31
0.0
 40
0.9906249494
 41
-0.9540477962
 42
1.009482917
  0
ELLIPSE
  5
291
100
AcDbEntity
  8
DTM_AXIS
100
AcDbEllipse
 62
7
  6
CONTINUOUS
 10
244.8432986156
 20
146.7171152212
 30
0.0
 11
2.9935560483
 21
-0.1596282767
 31
0.0
 40
0.9906249494
 41
0.0277175604
 42
0.8131157238
  0
ELLIPSE
  5
292
100
AcDbEntity
  8
DTM_AXIS
100
AcDbEllipse
 62
7
  6
CONTINUOUS
 10
155.2556749487
 20
156.0081791813
 30
0.0
 11
1.796133629
 21
-0.095776966
 31
0.0
 40
0.9906249494
 41
-0.9540477962
 42
1.009482917
  0
ELLIPSE
  5
293
100
AcDbEntity
  8
DTM_AXIS
100
AcDbEllipse
 62
7
  6
CONTINUOUS
 10
157.9928588946
 20
145.6694042207
 30
0.0
 11
4.9892600806
 21
-0.2660471278
 31
0.0
 40
0.9906249494
 41
-1.4715893165
 42
1.5985138872
  0
ELLIPSE
  5
294
100
AcDbEntity
  8
DTM_AXIS
100
AcDbEllipse
 62
7
  6
CONTINUOUS
 10
154.9495923004
 20
84.6439420246
 30
0.0
 11
0.4989260081
 21
-0.0266047128
 31
0.0
 40
0.9906249494
 41
1.5985138872
 42
3.169310214
  0
ELLIPSE
  5
295
100
AcDbEntity
  8
DTM_AXIS
100
AcDbEllipse
 62
7
  6
CONTINUOUS
 10
158.3175203227
 20
138.747056795
 30
0.0
 11
1.9957040322
 21
-0.1064188511
 31
0.0
 40
0.9906249494
 41
1.6700033371
 42
3.169310214
  0
ELLIPSE
  5
296
100
AcDbEntity
  8
DTM_AXIS
100
AcDbEllipse
 62
7
  6
CONTINUOUS
 10
160.8749667852
 20
160.8142737651
 30
0.0
 11
1.4967780242
 21
-0.0798141383
 31
0.0
 40
0.9906249494
 41
0.0277175604
 42
1.5985138872
  0
ELLIPSE
  5
297
100
AcDbEntity
  8
DTM_AXIS
100
AcDbEllipse
 62
7
  6
CONTINUOUS
 10
159.5073649415
 20
87.0018502236
 30
0.0
 11
1.9957040322
 21
-0.1064188511
 31
0.0
 40
0.9906249494
 41
-1.5430787664
 42
0.0277175604
  0
ELLIPSE
  5
298
100
AcDbEntity
  8
DTM_AXIS
100
AcDbEllipse
 62
7
  6
CONTINUOUS
 10
157.9928588946
 20
145.6694042207
 30
0.0
 11
12.9720762095
 21
-0.6917225323
 31
0.0
 40
0.9906249494
 41
-0.9347922603
 42
1.2094630607
  0
ELLIPSE
  5
299
100
AcDbEntity
  8
DTM_AXIS
100
AcDbEllipse
 62
7
  6
CONTINUOUS
 10
167.3480490775
 20
131.6133362041
 30
0.0
 11
3.9914080645
 21
-0.2128377022
 31
0.0
 40
0.9906249494
 41
2.2068003933
 42
3.9547083774
  0
ELLIPSE
  5
29A
100
AcDbEntity
  8
DTM_AXIS
100
AcDbEllipse
 62
7
  6
CONTINUOUS
 10
163.8228627046
 20
158.8043092091
 30
0.0
 11
1.4967780242
 21
-0.0798141383
 31
0.0
 40
0.9906249494
 41
-3.1138750932
 42
-1.9321295929
  0
ELLIPSE
  5
29B
100
AcDbEntity
  8
DTM_AXIS
100
AcDbEllipse
 62
7
  6
CONTINUOUS
 10
167.3779060287
 20
121.527344126
 30
0.0
 11
2.9935560483
 21
-0.1596282767
 31
0.0
 40
0.9906249494
 41
0.0277175604
 42
0.8131157238
  0
ELLIPSE
  5
29C
100
AcDbEntity
  8
DTM_AXIS
100
AcDbEllipse
 62
7
  6
CONTINUOUS
 10
62.107025446
 20
85.7452264157
 30
0.0
 11
0.5
 21
0.0
 31
0.0
 40
0.99
 41
1.5707963268
 42
3.1415926536
  0
ELLIPSE
  5
29D
100
AcDbEntity
  8
DTM_AXIS
100
AcDbEllipse
 62
7
  6
CONTINUOUS
 10
64.107025446
 20
128.1453692692
 30
0.0
 11
-2.0
 21
0.0
 31
0.0
 40
0.99
 41
0.0
 42
0.7853981634
  0
ELLIPSE
  5
29E
100
AcDbEntity
  8
DTM_AXIS
100
AcDbEllipse
 62
7
  6
CONTINUOUS
 10
64.107025446
 20
139.9222528894
 30
0.0
 11
-2.0
 21
-0.0
 31
0.0
 40
0.99
 41
-1.4993068769
 42
-0.0
  0
ELLIPSE
  5
29F
100
AcDbEntity
  8
DTM_AXIS
100
AcDbEllipse
 62
7
  6
CONTINUOUS
 10
63.607025446
 20
146.8345517111
 30
0.0
 11
5.0
 21
0.0
 31
0.0
 40
0.99
 41
-1.4993068769
 42
1.5707963268
  0
ELLIPSE
  5
2A0
100
AcDbEntity
  8
DTM_AXIS
100
AcDbEllipse
 62
7
  6
CONTINUOUS
 10
63.607025446
 20
153.7645517111
 30
0.0
 11
-2.0
 21
0.0
 31
0.0
 40
0.99
 41
0.0
 42
1.5707963268
  0
ELLIPSE
  5
2A1
100
AcDbEntity
  8
DTM_AXIS
100
AcDbEllipse
 62
7
  6
CONTINUOUS
 10
66.107025446
 20
162.0501754192
 30
0.0
 11
-1.5
 21
0.0
 31
0.0
 40
0.99
 41
3.1415926536
 42
4.7123889804
  0
ELLIPSE
  5
2A2
100
AcDbEntity
  8
DTM_AXIS
100
AcDbEllipse
 62
7
  6
CONTINUOUS
 10
63.607025446
 20
146.8345517111
 30
0.0
 11
13.0
 21
0.0
 31
0.0
 40
0.99
 41
-0.9625098207
 42
1.1817455003
  0
ELLIPSE
  5
2A3
100
AcDbEntity
  8
DTM_AXIS
100
AcDbEllipse
 62
7
  6
CONTINUOUS
 10
73.3218821304
 20
133.0233754192
 30
0.0
 11
4.0
 21
0.0
 31
0.0
 40
0.99
 41
2.1790828329
 42
3.926990817
  0
ELLIPSE
  5
2A4
100
AcDbEntity
  8
DTM_AXIS
100
AcDbEllipse
 62
7
  6
CONTINUOUS
 10
73.607025446
 20
122.9405835494
 30
0.0
 11
-3.0
 21
-0.0
 31
0.0
 40
0.99
 41
-3.1415926536
 42
-2.3561944902
  0
ELLIPSE
  5
2A5
100
AcDbEntity
  8
DTM_AXIS
100
AcDbEllipse
 62
7
  6
CONTINUOUS
 10
62.107025446
 20
75.8595545695
 30
0.0
 11
-0.5
 21
0.0
 31
0.0
 40
0.99
 41
0.0
 42
1.5707963268
  0
ELLIPSE
  5
2A6
100
AcDbEntity
  8
DTM_AXIS
100
AcDbEllipse
 62
7
  6
CONTINUOUS
 10
60.607025446
 20
157.1001754192
 30
0.0
 11
1.8
 21
-0.0
 31
0.0
 40
0.99
 41
-0.9817653566
 42
0.9817653566
  0
ELLIPSE
  5
2A7
100
AcDbEntity
  8
DTM_AXIS
100
AcDbEllipse
 62
7
  6
CONTINUOUS
 10
60.607025446
 20
81.3651754192
 30
0.0
 11
1.8
 21
-0.0
 31
0.0
 40
0.99
 41
-0.9817653566
 42
0.9817653566
  0
ELLIPSE
  5
2A8
100
AcDbEntity
  8
DTM_AXIS
100
AcDbEllipse
 62
7
  6
CONTINUOUS
 10
67.2088473342
 20
73.3845545695
 30
0.0
 11
2.0
 21
0.0
 31
0.0
 40
0.99
 41
0.3505676651
 42
1.5707963268
  0
ELLIPSE
  5
2A9
100
AcDbEntity
  8
DTM_AXIS
100
AcDbEllipse
 62
7
  6
CONTINUOUS
 10
66.607025446
 20
88.2202264157
 30
0.0
 11
2.0
 21
-0.0
 31
0.0
 40
0.99
 41
-1.5707963268
 42
0.0
  0
ELLIPSE
  5
2AA
100
AcDbEntity
  8
DTM_AXIS
100
AcDbEllipse
 62
7
  6
CONTINUOUS
 10
66.607025446
 20
120.0700835622
 30
0.0
 11
2.0
 21
-0.0
 31
0.0
 40
0.99
 41
0.0
 42
0.7853981634
  0
ELLIPSE
  5
2AB
100
AcDbEntity
  8
DTM_AXIS
100
AcDbEllipse
 62
7
  6
CONTINUOUS
 10
69.107025446
 20
160.1167954974
 30
0.0
 11
1.5
 21
0.0
 31
0.0
 40
0.99
 41
-3.1415926536
 42
-1.9598471533
  0
ENDSEC
  0
SECTION
  2
OBJECTS
  0
DICTIONARY
  5
C
100
AcDbDictionary
280
0
281
1
  3
ACAD_GROUP
350
D
  3
ACAD_MLINESTYLE
350
17
  3
ACAD_LAYOUT
350
1A
  3
ACAD_PLOTSETTINGS
350
19
  3
ACAD_PLOTSTYLENAME
350
E
  3
ACAD_TABLESTYLE
350
       2AC
  0
DICTIONARY
  5
D
102
{ACAD_REACTORS
330
C
102
}
100
AcDbDictionary
280
0
281
1
  0
ACDBDICTIONARYWDFLT
  5
E
102
{ACAD_REACTORS
330
C
102
}
100
AcDbDictionary
281
1
  3
Normal
350
F
100
AcDbDictionaryWithDefault
340
F
  0
DICTIONARY
  5
17
102
{ACAD_REACTORS
330
C
102
}
100
AcDbDictionary
280
0
281
1
  3
Standard
350
18
  0
DICTIONARY
  5
2AC
330
C
100
AcDbDictionary
281
1
  3
Standard
350
       2AF
  3
Standard1
350
       2B0
  0
DICTIONARY
  5
19
102
{ACAD_REACTORS
330
C
102
}
100
AcDbDictionary
281
1
  0
DICTIONARY
  5
1A
102
{ACAD_REACTORS
330
C
102
}
100
AcDbDictionary
281
1
  3
Model
350
2AD
  3
Layout1
350
2AE
  0
ACDBPLACEHOLDER
  5
F
102
{ACAD_REACTORS
330
E
102
}
  0
MLINESTYLE
  5
18
102
{ACAD_REACTORS
330
17
102
}
100
AcDbMlineStyle
  2
STANDARD
 70
0
  3

 62
256
 51
90.0
 52
90.0
 71
2
 49
0.5
 62
256
  6
BYLAYER
 49
-0.5
 62
256
  6
BYLAYER
  0
LAYOUT
  5
2AD
102
{ACAD_REACTORS
330
1A
102
}
100
AcDbPlotSettings
  1

  2
none_device
  4
ISO_A4_(297.00_x_210.00_MM)
  6

 40
0.0
 41
0.0
 42
0.0
 43
0.0
 44
297.0
 45
210.0
 46
0.0
 47
0.0
 48
0.0
 49
0.0
140
0.0
141
0.0
142
1.0
143
1.0
 70
1024
 72
1
 73
0
 74
0
  7

 75
0
147
1.0
148
0.0
149
0.0
100
AcDbLayout
  1
Model
 70
0
 71
0
 10
0.0
 20
0.0
 11
297.0
 21
210.0
 12
0.0
 22
0.0
 32
0.0
 14
0.0
 24
0.0
 34
0.0
 15
0.0
 25
0.0
 35
0.0
146
0.0
 13
0.0
 23
0.0
 33
0.0
 16
1.0
 26
0.0
 36
0.0
 17
0.0
 27
1.0
 37
0.0
 76
0
330
20A
345
0
346
0
  0
LAYOUT
  5
2AE
102
{ACAD_REACTORS
330
1A
102
}
100
AcDbPlotSettings
  1

  2
none_device
  4
ISO_A4_(297.00_x_210.00_MM)
  6

 40
0.0
 41
0.0
 42
0.0
 43
0.0
 44
297.0
 45
210.0
 46
0.0
 47
0.0
 48
0.0
 49
0.0
140
0.0
141
0.0
142
1.0
143
1.0
 70
0
 72
1
 73
0
 74
0
  7

 75
0
147
1.0
148
0.0
149
0.0
100
AcDbLayout
  1
Layout1
 70
0
 71
1
 10
0.0
 20
0.0
 11
297.0
 21
210.0
 12
0.0
 22
0.0
 32
0.0
 14
0.0
 24
0.0
 34
0.0
 15
0.0
 25
0.0
 35
0.0
146
0.0
 13
0.0
 23
0.0
 33
0.0
 16
1.0
 26
0.0
 36
0.0
 17
0.0
 27
1.0
 37
0.0
 76
0
330
20B
345
0
346
0
  0
TABLESTYLE
  5
2AF
102
{ACAD_REACTORS
330
2AC
330
24C
102
}
330
2AC
100
AcDbTableStyle
  3
Standard
 70
0
 71
0
 40
0.06
 41
0.06
280
1
281
1
  7
Standard
140
0.18
170
1
 62
0
 63
7
283
0
  7
Standard
140
0.18
170
1
 62
0
 63
7
283
0
  7
Standard
140
0.18
170
1
 62
0
 63
7
283
0
  0
TABLESTYLE
  5
2B0
102
{ACAD_REACTORS
330
2AC
102
}
330
2AC
100
AcDbTableStyle
  3
Standard1
 70
1
 71
0
 40
0.06
 41
0.06
280
1
281
1
  7
Standard
140
0.18
170
1
 62
0
 63
7
283
0
  7
Standard
140
0.18
170
1
 62
0
 63
7
283
0
  7
Standard
140
0.18
170
1
 62
0
 63
7
283
0
  0
ENDSEC
  0
EOF
