999
DXF file: O:\ORAC_PRODUCTEN\ORAC_EXTRUSIE\SX\118\sx118-prod-mm.dxf
999
Pro/ENGINEER 2013050 by Parametric Technology Corporation
  0
SECTION
  2
HEADER
  9
$ACADVER
  1
AC1024
  9
$DWGCODEPAGE
  3
ANSI_1252
  9
$EXTMAX
 10
297.0
 20
210.0
 30
0.0
  9
$EXTMIN
 10
0.0
 20
0.0
 30
0.0
  9
$LIMMIN
 10
0.0
 20
0.0
  9
$LIMMAX
 10
297.0
 20
210.0
  9
$VIEWCTR
 10
148.5
 20
105.0
  9
$VIEWSIZE
 40
210.0
  9
$CLAYER
  8
0
  9
$LTSCALE
 40
16.335
  9
$CELTYPE
  6
BYLAYER
  9
$DIMSCALE
 40
1.0
  9
$DIMASZ
 40
3.5
  9
$DIMEXO
 40
1.0
  9
$DIMDLI
 40
11.286
  9
$DIMEXE
 40
1.5
  9
$DIMCEN
 40
2.673
  9
$DIMLFAC
 40
1.0
  9
$DIMBLK
  1
_FILLED
  9
$DIMTXT
 40
2.5
  9
$DIMTOL
 70
1
  9
$DIMLIM
 70
0
  9
$DIMTFAC
 40
1.0
  9
$DIMTP
 40
0.001
  9
$DIMTM
 40
0.001
  9
$DIMGAP
 40
0.625
  9
$DIMDSEP
 70
44
  9
$PDMODE
 70
3
  9
$PDSIZE
 40
8.0
  9
$HANDSEED
  5
2DE
  9
$TILEMODE
 70
1
  9
$MEASUREMENT
 70
1
  9
$INSUNITS
 70
4
  0
ENDSEC
  0
SECTION
  2
CLASSES
  0
CLASS
  1
ACDBDICTIONARYWDFLT
  2
AcDbDictionaryWithDefault
  3
AutoCAD 2000
 90
0
 91
1
280
0
281
0
  0
CLASS
  1
ACDBPLACEHOLDER
  2
AcDbPlaceHolder
  3
AutoCAD 2000
 90
0
 91
1
280
0
281
0
  0
CLASS
  1
LAYOUT
  2
AcDbLayout
  3
AutoCAD 2000
 90
0
 91
0
280
0
281
0
  0
CLASS
  1
TABLESTYLE
  2
AcDbTableStyle
  3
ObjectDBX Classes
 90
2047
 91
1
280
0
281
0
  0
CLASS
  1
ACAD_TABLE
  2
AcDbTable
  3
ObjectDBX Classes
 90
1025
 91
1
280
0
281
1
  0
ENDSEC
  0
SECTION
  2
TABLES
  0
TABLE
  2
VPORT
  5
8
100
AcDbSymbolTable
 70
2
  0
VPORT
  5
1F4
100
AcDbSymbolTableRecord
100
AcDbViewportTableRecord
  2
*ACTIVE
 70
0
 10
0.0
 20
0.0
 11
1.0
 21
1.0
 12
148.5
 22
105.0
 13
0.0
 23
0.0
 14
1.0
 24
1.0
 15
0.0
 25
0.0
 16
0.0
 26
0.0
 36
1.0
 17
0.0
 27
0.0
 37
0.0
 40
210.0
 41
1.4142857143
 42
50.0
 43
0.0
 44
0.0
 50
0.0
 51
0.0
 71
0
 72
100
 73
1
 74
1
 75
0
 76
0
 77
0
 78
0
  0
ENDTAB
  0
TABLE
  2
LTYPE
  5
5
100
AcDbSymbolTable
 70
6
  0
LTYPE
  5
14
100
AcDbSymbolTableRecord
100
AcDbLinetypeTableRecord
  2
BYBLOCK
 70
0
  3

 72
65
 73
0
 40
0.0
  0
LTYPE
  5
15
100
AcDbSymbolTableRecord
100
AcDbLinetypeTableRecord
  2
BYLAYER
 70
0
  3

 72
65
 73
0
 40
0.0
  0
LTYPE
  5
16
100
AcDbSymbolTableRecord
100
AcDbLinetypeTableRecord
  2
CONTINUOUS
 70
64
  3
Solid line
 72
65
 73
0
 40
0.0
  0
LTYPE
  5
1F5
100
AcDbSymbolTableRecord
100
AcDbLinetypeTableRecord
  2
CENTER
 70
64
  3
____ _ ____ _ ____ _ ____ _ ____ _ ____ _ ____
 72
65
 73
4
 40
0.6
 49
0.375
 74
0
 49
-0.075
 74
0
 49
0.075
 74
0
 49
-0.075
 74
0
  0
LTYPE
  5
1F6
100
AcDbSymbolTableRecord
100
AcDbLinetypeTableRecord
  2
HIDDEN
 70
64
  3
- - - - - - - - - - - - - - - - - - - -
 72
65
 73
2
 40
0.2
 49
0.1
 74
0
 49
-0.1
 74
0
  0
LTYPE
  5
1F7
100
AcDbSymbolTableRecord
100
AcDbLinetypeTableRecord
  2
PHANTOM
 70
64
  3
_____ _ _ _____ _ _ _____ _ _ _____
 72
65
 73
6
 40
0.8
 49
0.45
 74
0
 49
-0.05
 74
0
 49
0.1
 74
0
 49
-0.05
 74
0
 49
0.1
 74
0
 49
-0.05
 74
0
  0
LTYPE
  5
1F8
100
AcDbSymbolTableRecord
100
AcDbLinetypeTableRecord
  2
DOT
 70
64
  3
. . . . . . . . . . . . . . . . . . . .
 72
65
 73
2
 40
0.2
 49
0.1
 74
0
 49
-0.1
 74
0
  0
LTYPE
  5
1F9
100
AcDbSymbolTableRecord
100
AcDbLinetypeTableRecord
  2
DASHED
 70
64
  3
- - - - - - - - - - - - - - - - - - - -
 72
65
 73
2
 40
0.2
 49
0.1
 74
0
 49
-0.1
 74
0
  0
ENDTAB
  0
TABLE
  2
LAYER
  5
2
100
AcDbSymbolTable
 70
36
  0
LAYER
  5
10
100
AcDbSymbolTableRecord
100
AcDbLayerTableRecord
  2
0
 70
0
 62
7
  6
CONTINUOUS
370
-3
390
F
  0
LAYER
  5
1FA
100
AcDbSymbolTableRecord
100
AcDbLayerTableRecord
  2
DEFAULT_1
 70
0
 62
7
  6
CENTER
370
-3
390
F
  0
LAYER
  5
1FB
100
AcDbSymbolTableRecord
100
AcDbLayerTableRecord
  2
DEFAULT_2
 70
0
 62
8
  6
HIDDEN
370
-3
390
F
  0
LAYER
  5
1FC
100
AcDbSymbolTableRecord
100
AcDbLayerTableRecord
  2
DEFAULT_3
 70
0
 62
7
  6
PHANTOM
370
-3
390
F
  0
LAYER
  5
1FD
100
AcDbSymbolTableRecord
100
AcDbLayerTableRecord
  2
3_ALL_AXIS
 70
0
 62
7
  6
CONTINUOUS
370
-3
390
F
  0
LAYER
  5
1FE
100
AcDbSymbolTableRecord
100
AcDbLayerTableRecord
  2
5_ALL_CURVES
 70
0
 62
7
  6
CONTINUOUS
370
-3
390
F
  0
LAYER
  5
1FF
100
AcDbSymbolTableRecord
100
AcDbLayerTableRecord
  2
DTM_ALL
 70
0
 62
7
  6
CONTINUOUS
370
-3
390
F
  0
LAYER
  5
200
100
AcDbSymbolTableRecord
100
AcDbLayerTableRecord
  2
DTM_AXIS
 70
0
 62
7
  6
CONTINUOUS
370
-3
390
F
  0
LAYER
  5
201
100
AcDbSymbolTableRecord
100
AcDbLayerTableRecord
  2
DTM_CSYS
 70
0
 62
7
  6
CONTINUOUS
370
-3
390
F
  0
LAYER
  5
202
100
AcDbSymbolTableRecord
100
AcDbLayerTableRecord
  2
DTM_CURVE
 70
0
 62
7
  6
CONTINUOUS
370
-3
390
F
  0
LAYER
  5
203
100
AcDbSymbolTableRecord
100
AcDbLayerTableRecord
  2
DTM_MASTER
 70
0
 62
7
  6
CONTINUOUS
370
-3
390
F
  0
LAYER
  5
204
100
AcDbSymbolTableRecord
100
AcDbLayerTableRecord
  2
DTM_POINT
 70
0
 62
7
  6
CONTINUOUS
370
-3
390
F
  0
LAYER
  5
205
100
AcDbSymbolTableRecord
100
AcDbLayerTableRecord
  2
DTM_QUILT
 70
0
 62
7
  6
CONTINUOUS
370
-3
390
F
  0
LAYER
  5
206
100
AcDbSymbolTableRecord
100
AcDbLayerTableRecord
  2
GTOL
 70
0
 62
7
  6
CONTINUOUS
370
-3
390
F
  0
LAYER
  5
207
100
AcDbSymbolTableRecord
100
AcDbLayerTableRecord
  2
NOTES
 70
0
 62
7
  6
CONTINUOUS
370
-3
390
F
  0
LAYER
  5
208
100
AcDbSymbolTableRecord
100
AcDbLayerTableRecord
  2
XSEC_DATUMS
 70
0
 62
7
  6
CONTINUOUS
370
-3
390
F
  0
ENDTAB
  0
TABLE
  2
STYLE
  5
3
100
AcDbSymbolTable
 70
1
  0
STYLE
  5
11
100
AcDbSymbolTableRecord
100
AcDbTextStyleTableRecord
  2
STANDARD
 70
0
 40
0.0
 41
1.0
 50
0.0
 71
0
 42
0.2
  3
cgtime.ttf
  4

  0
STYLE
  5
209
100
AcDbSymbolTableRecord
100
AcDbTextStyleTableRecord
  2
TEXTSTYLE_1
 70
0
 40
0.0
 41
0.8
 50
0.0
 71
0
 42
0.2
  3
gdt
  4

  0
STYLE
  5
20A
100
AcDbSymbolTableRecord
100
AcDbTextStyleTableRecord
  2
TEXTSTYLE_2
 70
0
 40
0.0
 41
1.0
 50
0.0
 71
0
 42
0.2
  3
trium.ttf
  4

  0
STYLE
  5
20B
100
AcDbSymbolTableRecord
100
AcDbTextStyleTableRecord
  2
TEXTSTYLE_3
 70
0
 40
0.0
 41
1.0
 50
0.0
 71
0
 42
0.2
  3
calibri.ttf
  4

  0
ENDTAB
  0
TABLE
  2
VIEW
  5
6
100
AcDbSymbolTable
 70
0
  0
ENDTAB
  0
TABLE
  2
UCS
  5
7
100
AcDbSymbolTable
 70
0
  0
ENDTAB
  0
TABLE
  2
APPID
  5
9
100
AcDbSymbolTable
 70
1
  0
APPID
  5
20C
100
AcDbSymbolTableRecord
100
AcDbRegAppTableRecord
  2
ACAD
 70
0
  0
ENDTAB
  0
TABLE
  2
BLOCK_RECORD
  5
1
100
AcDbSymbolTable
 70
0
  0
BLOCK_RECORD
  5
20D
100
AcDbSymbolTableRecord
100
AcDbBlockTableRecord
  2
*Model_Space
  0
BLOCK_RECORD
  5
20E
100
AcDbSymbolTableRecord
100
AcDbBlockTableRecord
  2
*Paper_Space
  0
BLOCK_RECORD
  5
20F
100
AcDbSymbolTableRecord
100
AcDbBlockTableRecord
  2
_FILLED
  0
BLOCK_RECORD
  5
210
100
AcDbSymbolTableRecord
100
AcDbBlockTableRecord
  2
*D0
  0
BLOCK_RECORD
  5
211
100
AcDbSymbolTableRecord
100
AcDbBlockTableRecord
  2
*D1
  0
BLOCK_RECORD
  5
212
100
AcDbSymbolTableRecord
100
AcDbBlockTableRecord
  2
*T1
  0
ENDTAB
  0
TABLE
  2
DIMSTYLE
  5
A
100
AcDbSymbolTable
 70
1
100
AcDbDimStyleTable
 71
0
  0
DIMSTYLE
105
213
100
AcDbSymbolTableRecord
100
AcDbDimStyleTableRecord
  2
STANDARD
 70
0
  3

  4

 40
1.0
 41
3.5
 42
1.0
 43
0.38
 44
1.5
 45
0.0
 46
0.0
 47
0.001
 48
0.001
140
2.5
141
0.09
142
0.0
143
25.4
144
1.0
145
0.0
146
1.0
147
0.625
 71
1.0
 72
0.0
 73
1
 74
1
 75
0
 76
0
 77
0
 78
8
170
0
171
2
172
0
173
0
174
0
175
0
176
0
177
0
178
0
270
2
271
3
272
3
273
2
274
2
275
0
280
0
281
0
282
0
283
1
284
8
285
0
286
0
287
3
288
0
340
11
278
44
341
20F
342
20F
343
20F
344
20F
  0
DIMSTYLE
105
214
100
AcDbSymbolTableRecord
100
AcDbDimStyleTableRecord
  2
DIMSTYLE_1
 70
0
  3

  4

 40
1.0
 41
3.5
 42
1.0
 43
0.38
 44
1.5
 45
0.0
 46
0.0
 47
0.0
 48
0.0
140
2.5
141
0.09
142
0.0
143
25.4
144
1.0
145
0.0
146
1.0
147
1.25
 71
0.0
 72
0.0
 73
1
 74
1
 75
0
 76
0
 77
0
 78
8
170
0
171
2
172
0
173
0
174
0
175
0
176
0
177
0
178
0
270
2
271
3
272
3
273
2
274
2
275
0
280
0
281
0
282
0
283
1
284
8
285
0
286
0
287
3
288
0
340
11
278
44
341
20F
342
20F
343
20F
344
20F
  0
ENDTAB
  0
ENDSEC
  0
SECTION
  2
BLOCKS
  0
BLOCK
  5
20
100
AcDbEntity
  8
0
100
AcDbBlockBegin
  2
*Model_Space
 70
0
 10
0.0
 20
0.0
 30
0.0
  3
*Model_Space
  1

  0
ENDBLK
  5
21
100
AcDbEntity
  8
0
100
AcDbBlockEnd
  0
BLOCK
  5
1C
100
AcDbEntity
  8
0
100
AcDbBlockBegin
  2
*Paper_Space
 70
0
 10
0.0
 20
0.0
 30
0.0
  3
*Paper_Space
  1

  0
ENDBLK
  5
1D
100
AcDbEntity
  8
0
100
AcDbBlockEnd
  0
BLOCK
  5
215
100
AcDbEntity
  8
0
100
AcDbBlockBegin
  2
_FILLED
 70
64
 10
0.0
 20
0.0
  3
_FILLED
  1

  0
SOLID
  5
216
100
AcDbEntity
  8
0
  6
BYBLOCK
 62
0
100
AcDbTrace
 10
0.0
 20
0.0
 11
-1.0
 21
0.2142857143
 12
-1.0
 22
-0.2142857143
 13
-1.0
 23
-0.2142857143
  0
ENDBLK
  5
217
100
AcDbEntity
  8
0
  6
BYBLOCK
 62
0
100
AcDbBlockEnd
  0
BLOCK
  5
218
100
AcDbEntity
  8
0
100
AcDbBlockBegin
 62
2
  6
CONTINUOUS
  2
*D0
 70
65
 10
0.0
 20
0.0
  3
*D0
  1

  0
TEXT
  5
219
100
AcDbEntity
  8
0
100
AcDbText
 62
2
  6
CONTINUOUS
 10
43.8673566942
 20
99.9004213645
  7
STANDARD
 40
2.5
  1
138
 72
5
 11
49.3245551378
 21
99.9004213645
100
AcDbText
  0
LINE
  5
21A
100
AcDbEntity
  8
0
100
AcDbLine
 62
2
  6
CONTINUOUS
 10
58.3957942498
 20
170.1504213645
 11
45.095955916
 21
170.1504213645
  0
LINE
  5
21B
100
AcDbEntity
  8
0
100
AcDbLine
 62
2
  6
CONTINUOUS
 10
68.8259527108
 20
32.1504213645
 11
45.095955916
 21
32.1504213645
  0
LINE
  5
21C
100
AcDbEntity
  8
0
100
AcDbLine
 62
2
  6
CONTINUOUS
 10
46.595955916
 20
170.1504213645
 11
46.595955916
 21
103.6504213645
  0
LINE
  5
21D
100
AcDbEntity
  8
0
100
AcDbLine
 62
2
  6
CONTINUOUS
 10
46.595955916
 20
32.1504213645
 11
46.595955916
 21
98.6504213645
  0
INSERT
  5
21E
100
AcDbEntity
  8
0
100
AcDbBlockReference
 62
2
  6
CONTINUOUS
  2
_FILLED
 10
46.595955916
 20
170.1504213645
 41
3.5
 42
3.5
 43
3.5
 50
90.0
  0
INSERT
  5
21F
100
AcDbEntity
  8
0
100
AcDbBlockReference
 62
2
  6
CONTINUOUS
  2
_FILLED
 10
46.595955916
 20
32.1504213645
 41
3.5
 42
3.5
 43
3.5
 50
270.0
  0
ENDBLK
  5
220
100
AcDbEntity
  8
0
  6
BYBLOCK
 62
0
100
AcDbBlockEnd
  0
BLOCK
  5
221
100
AcDbEntity
  8
0
100
AcDbBlockBegin
 62
2
  6
CONTINUOUS
  2
*D1
 70
65
 10
0.0
 20
0.0
  3
*D1
  1

  0
TEXT
  5
222
100
AcDbEntity
  8
0
100
AcDbText
 62
2
  6
CONTINUOUS
 10
66.5767281019
 20
182.5700941112
  7
STANDARD
 40
2.5
  1
18
 72
5
 11
70.2148603977
 21
182.5700941112
100
AcDbText
  0
LINE
  5
223
100
AcDbEntity
  8
0
100
AcDbLine
 62
2
  6
CONTINUOUS
 10
59.3957942498
 20
171.1504213645
 11
59.3957942498
 21
185.3200941112
  0
LINE
  5
224
100
AcDbEntity
  8
0
100
AcDbLine
 62
2
  6
CONTINUOUS
 10
77.3957942498
 20
136.1504213645
 11
77.3957942498
 21
185.3200941112
  0
LINE
  5
225
100
AcDbEntity
  8
0
100
AcDbLine
 62
2
  6
CONTINUOUS
 10
59.3957942498
 20
183.8200941112
 11
65.3267281019
 21
183.8200941112
  0
LINE
  5
226
100
AcDbEntity
  8
0
100
AcDbLine
 62
2
  6
CONTINUOUS
 10
77.3957942498
 20
183.8200941112
 11
71.4648603977
 21
183.8200941112
  0
INSERT
  5
227
100
AcDbEntity
  8
0
100
AcDbBlockReference
 62
2
  6
CONTINUOUS
  2
_FILLED
 10
59.3957942498
 20
183.8200941112
 41
3.5
 42
3.5
 43
3.5
 50
180.0
  0
INSERT
  5
228
100
AcDbEntity
  8
0
100
AcDbBlockReference
 62
2
  6
CONTINUOUS
  2
_FILLED
 10
77.3957942498
 20
183.8200941112
 41
3.5
 42
3.5
 43
3.5
  0
ENDBLK
  5
229
100
AcDbEntity
  8
0
  6
BYBLOCK
 62
0
100
AcDbBlockEnd
  0
BLOCK
  5
22A
100
AcDbEntity
  8
0
100
AcDbBlockBegin
  2
*T1
 70
1
 10
0.0
 20
0.0
  3
*T1
  1

  0
LINE
  5
22B
100
AcDbEntity
  8
0
100
AcDbLine
 62
7
  6
CONTINUOUS
 10
0.0
 20
0.0
 11
148.0
 21
0.0
  0
LINE
  5
22C
100
AcDbEntity
  8
0
100
AcDbLine
 62
7
  6
CONTINUOUS
 10
0.0
 20
0.0
 11
0.0
 21
-43.0
  0
LINE
  5
22D
100
AcDbEntity
  8
0
100
AcDbLine
 62
7
  6
CONTINUOUS
 10
45.0
 20
-23.0
 11
148.0
 21
-23.0
  0
LINE
  5
22E
100
AcDbEntity
  8
0
100
AcDbLine
 62
7
  6
CONTINUOUS
 10
45.0
 20
-28.0
 11
148.0
 21
-28.0
  0
LINE
  5
22F
100
AcDbEntity
  8
0
100
AcDbLine
 62
7
  6
CONTINUOUS
 10
0.0
 20
-43.0
 11
148.0
 21
-43.0
  0
LINE
  5
230
100
AcDbEntity
  8
0
100
AcDbLine
 62
7
  6
CONTINUOUS
 10
45.0
 20
0.0
 11
45.0
 21
-43.0
  0
LINE
  5
231
100
AcDbEntity
  8
0
100
AcDbLine
 62
7
  6
CONTINUOUS
 10
143.0
 20
0.0
 11
143.0
 21
-23.0
  0
LINE
  5
232
100
AcDbEntity
  8
0
100
AcDbLine
 62
7
  6
CONTINUOUS
 10
148.0
 20
0.0
 11
148.0
 21
-43.0
  0
TEXT
  5
233
100
AcDbEntity
  8
0
100
AcDbText
 62
7
  6
CONTINUOUS
 10
8.9659749243
 20
-10.675
  7
STANDARD
 40
8.0
  1
O
 72
5
 11
17.370644185
 21
-10.675
100
AcDbText
  0
TEXT
  5
234
100
AcDbEntity
  8
0
100
AcDbText
 62
7
  6
CONTINUOUS
 10
17.370644185
 20
-10.675
  7
STANDARD
 40
5.5
  1
RAC
 72
5
 11
33.9562472979
 21
-10.675
100
AcDbText
  0
TEXT
  5
235
100
AcDbEntity
  8
0
100
AcDbText
 62
7
  6
CONTINUOUS
 10
33.9562472979
 20
-5.925
  7
TEXTSTYLE_2
 40
3.0
  1
®
 72
5
 11
36.0340250757
 21
-5.925
100
AcDbText
  0
TEXT
  5
236
100
AcDbEntity
  8
0
100
AcDbText
 62
7
  6
CONTINUOUS
 10
9.5323389537
 20
-15.325
  7
TEXTSTYLE_2
 40
3.0
  1
D  E  C  O  R
 72
5
 11
34.3878945093
 21
-15.325
100
AcDbText
  0
TEXT
  5
237
100
AcDbEntity
  8
0
100
AcDbText
 62
7
  6
CONTINUOUS
 10
34.3878945093
 20
-15.325
  7
STANDARD
 40
2.5
  1
 
 72
5
 11
35.4676610463
 21
-15.325
100
AcDbText
  0
TEXT
  5
238
100
AcDbEntity
  8
0
100
AcDbText
 62
7
  6
CONTINUOUS
 10
52.5257352941
 20
-6.0
  7
TEXTSTYLE_3
 40
2.75
  1
Part name:
 72
5
 11
71.9375
 21
-6.0
100
AcDbText
  0
TEXT
  5
239
100
AcDbEntity
  8
0
100
AcDbText
 62
7
  6
CONTINUOUS
 10
49.2788865546
 20
-12.875
  7
TEXTSTYLE_3
 40
2.75
  1
Designed by:
 72
5
 11
71.9375
 21
-12.875
100
AcDbText
  0
TEXT
  5
23A
100
AcDbEntity
  8
0
100
AcDbText
 62
7
  6
CONTINUOUS
 10
48.9553571429
 20
-19.75
  7
TEXTSTYLE_3
 40
2.75
  1
Designed on:
 72
5
 11
71.9375
 21
-19.75
100
AcDbText
  0
TEXT
  5
23B
100
AcDbEntity
  8
0
100
AcDbText
 62
2
  6
CONTINUOUS
 10
74.0625
 20
-6.0
  7
TEXTSTYLE_3
 40
2.75
  1
SX118
 72
5
 11
84.8891806723
 21
-6.0
100
AcDbText
  0
TEXT
  5
23C
100
AcDbEntity
  8
0
100
AcDbText
 62
2
  6
CONTINUOUS
 10
74.0625
 20
-12.875
  7
TEXTSTYLE_3
 40
2.75
  1
ORAC
 72
5
 11
84.1034663866
 21
-12.875
100
AcDbText
  0
TEXT
  5
23D
100
AcDbEntity
  8
0
100
AcDbText
 62
2
  6
CONTINUOUS
 10
74.0625
 20
-19.75
  7
TEXTSTYLE_3
 40
2.75
  1
29-Jul-2000
 72
5
 11
94.5488445378
 21
-19.75
100
AcDbText
  0
TEXT
  5
23E
100
AcDbEntity
  8
0
100
AcDbText
 62
2
  6
CONTINUOUS
 10
94.5488445378
 20
-19.75
  7
TEXTSTYLE_3
 40
2.75
  1
 
 72
5
 11
95.530987395
 21
-19.75
100
AcDbText
  0
TEXT
  5
23F
100
AcDbEntity
  8
0
100
AcDbText
 62
2
  6
CONTINUOUS
 10
146.5625
 20
-17.5
  7
TEXTSTYLE_3
 40
1.5
  1
Version: 
 50
90.0
 72
5
 11
146.5625
 21
-9.0294117647
100
AcDbText
  0
TEXT
  5
240
100
AcDbEntity
  8
0
100
AcDbText
 62
2
  6
CONTINUOUS
 10
146.5625
 20
-9.0294117647
  7
TEXTSTYLE_3
 40
1.5
  1
1.0
 50
90.0
 72
5
 11
146.5625
 21
-6.0357142857
100
AcDbText
  0
TEXT
  5
241
100
AcDbEntity
  8
0
100
AcDbText
 62
2
  6
CONTINUOUS
 10
146.5625
 20
-6.0357142857
  7
TEXTSTYLE_3
 40
1.5
  1
 
 50
90.0
 72
5
 11
146.5625
 21
-5.5
100
AcDbText
  0
TEXT
  5
242
100
AcDbEntity
  8
0
100
AcDbText
 62
7
  6
CONTINUOUS
 10
9.6586134454
 20
-24.25
  7
TEXTSTYLE_3
 40
2.5
  1
Biekorfstraat 32
 72
5
 11
35.3413865546
 21
-24.25
100
AcDbText
  0
TEXT
  5
243
100
AcDbEntity
  8
0
100
AcDbText
 62
7
  6
CONTINUOUS
 10
2.2584033613
 20
-28.0
  7
TEXTSTYLE_3
 40
2.5
  1
8400 Oostende - Belgium
 72
5
 11
42.7415966387
 21
-28.0
100
AcDbText
  0
TEXT
  5
244
100
AcDbEntity
  8
0
100
AcDbText
 62
7
  6
CONTINUOUS
 10
4.2699579832
 20
-31.75
  7
TEXTSTYLE_3
 40
2.5
  1
Tel  +32 (0)59 80 32 52
 72
5
 11
40.7300420168
 21
-31.75
100
AcDbText
  0
TEXT
  5
245
100
AcDbEntity
  8
0
100
AcDbText
 62
7
  6
CONTINUOUS
 10
5.7405462185
 20
-35.5
  7
TEXTSTYLE_3
 40
2.5
  1
www.oracdecor.com
 72
5
 11
39.2594537815
 21
-35.5
100
AcDbText
  0
TEXT
  5
246
100
AcDbEntity
  8
0
100
AcDbText
 62
7
  6
CONTINUOUS
 10
5.5777310924
 20
-39.25
  7
TEXTSTYLE_3
 40
2.5
  1
info@oracdecor.com
 72
5
 11
39.4222689076
 21
-39.25
100
AcDbText
  0
TEXT
  5
247
100
AcDbEntity
  8
0
100
AcDbText
 62
7
  6
CONTINUOUS
 10
46.0625
 20
-26.75
  7
TEXTSTYLE_3
 40
2.5
  1
All dimensions are in mm unless otherwise specified   
 72
5
 11
132.3019957983
 21
-26.75
100
AcDbText
  0
TEXT
  5
248
100
AcDbEntity
  8
0
100
AcDbText
 62
7
  6
CONTINUOUS
 10
46.0625
 20
-31.7075
  7
TEXTSTYLE_3
 40
1.85
  1
All information in this document is Orac's exclusive property.  It may in no case 
 72
5
 11
140.0471638655
 21
-31.7075
100
AcDbText
  0
TEXT
  5
249
100
AcDbEntity
  8
0
100
AcDbText
 62
7
  6
CONTINUOUS
 10
46.0625
 20
-34.8525
  7
TEXTSTYLE_3
 40
1.85
  1
be reproduced, even partly, be communicated to a third party or used for any 
 72
5
 11
138.8345588235
 21
-34.8525
100
AcDbText
  0
TEXT
  5
24A
100
AcDbEntity
  8
0
100
AcDbText
 62
7
  6
CONTINUOUS
 10
46.0625
 20
-37.9975
  7
TEXTSTYLE_3
 40
1.85
  1
possible purpose without ORAC's express written permission. 
 72
5
 11
119.4484243697
 21
-37.9975
100
AcDbText
  0
TEXT
  5
24B
100
AcDbEntity
  8
0
100
AcDbText
 62
7
  6
CONTINUOUS
 10
46.0625
 20
-41.1425
  7
TEXTSTYLE_3
 40
1.85
  1
Further legal information can be found at http://www.oracdecor.be/nl/disclaimer 
 72
5
 11
143.7316176471
 21
-41.1425
100
AcDbText
  0
ENDBLK
  5
24C
100
AcDbEntity
  8
0
  6
BYBLOCK
 62
0
100
AcDbBlockEnd
  0
ENDSEC
  0
SECTION
  2
ENTITIES
  0
DIMENSION
  5
24D
100
AcDbEntity
  8
0
100
AcDbDimension
 62
2
  6
CONTINUOUS
  2
*D0
 10
46.595955916
 20
32.1504213645
 11
46.595955916
 21
101.1504213645
 70
160
 71
2
 42
138.0
  3
DIMSTYLE_1
100
AcDbAlignedDimension
 13
59.3957942498
 23
170.1504213645
 14
69.8259527108
 24
32.1504213645
 50
270.0
100
AcDbRotatedDimension
  0
DIMENSION
  5
24E
100
AcDbEntity
  8
0
100
AcDbDimension
 62
2
  6
CONTINUOUS
  2
*D1
 10
77.3957942498
 20
183.8200941112
 11
68.3957942498
 21
183.8200941112
 70
160
 71
2
 42
18.0
  3
DIMSTYLE_1
100
AcDbAlignedDimension
 13
59.3957942498
 23
170.1504213645
 14
77.3957942498
 24
135.1504213645
100
AcDbRotatedDimension
  0
ACAD_TABLE
  5
24F
100
AcDbEntity
  8
0
 62
2
  6
CONTINUOUS
100
AcDbBlockReference
  2
*T1
 10
143.9999958937
 20
47.9999925619
 30
0.0
100
AcDbTable
342
       2DC
343
212
 11
1.0
 21
0.0
 31
0.0
 90
22
 91
4
 92
4
 93
0
 94
0
 95
0
 96
0
141
18.0
141
5.0
141
5.0
141
15.0
142
45.0
142
28.0
142
70.0
142
5.0
171
1
172
0
173
0
174
0
175
1
176
1
 91
41
178
0
145
0.0
301
CELL_VALUE
 90
4
  1
O\H5.5;RAC\P\Ftrium.ttf;\H3.0;®\PD  E  C  O  R\Fcgtime.ttf;\H2.5; 
304
ACVALUE_END
170
5
140
8.0
 64
7
171
1
172
0
173
0
174
0
175
1
176
2
 91
41
178
0
145
0.0
301
CELL_VALUE
 90
4
  1
Part name:\PDesigned by:\PDesigned on:
304
ACVALUE_END
170
6
140
2.75
 64
7
171
1
172
0
173
0
174
0
175
1
176
2
 91
33
178
0
145
0.0
301
CELL_VALUE
 90
4
  1
SX118\PORAC\P29-Jul-2000 
304
ACVALUE_END
170
4
140
2.75
171
1
172
0
173
0
174
0
175
1
176
2
 91
33
178
0
145
0.0
301
CELL_VALUE
 90
4
  1
Version: 1.0 
304
ACVALUE_END
170
6
140
1.5
171
1
172
0
173
0
174
0
175
1
176
3
 91
41
178
0
145
0.0
301
CELL_VALUE
 90
4
  1
Biekorfstraat 32\P8400 Oostende - Belgium\PTel  +32 (0)59 80 32 52\Pwww.oracdecor.com\Pinfo@oracdecor.com
304
ACVALUE_END
170
5
140
2.5
 64
7
171
1
172
0
173
1
174
0
175
1
176
1
 91
1
178
0
145
0.0
170
1
171
1
172
0
173
1
174
0
175
1
176
1
 91
1
178
0
145
0.0
170
1
171
1
172
0
173
1
174
0
175
1
176
1
 91
1
178
0
145
0.0
170
1
171
1
172
0
173
1
174
0
175
1
176
1
 91
1
178
0
145
0.0
170
1
171
1
172
0
173
0
174
0
175
3
176
1
 91
41
178
0
145
0.0
301
CELL_VALUE
 90
4
  1
All dimensions are in mm unless otherwise specified   
304
ACVALUE_END
170
1
140
2.5
 64
7
171
1
172
0
173
1
174
0
175
1
176
1
 91
1
178
0
145
0.0
170
1
171
1
172
0
173
1
174
0
175
1
176
1
 91
1
178
0
145
0.0
170
1
171
1
172
0
173
1
174
0
175
1
176
1
 91
1
178
0
145
0.0
170
1
171
1
172
0
173
0
174
0
175
3
176
1
 91
41
178
0
145
0.0
301
CELL_VALUE
 90
4
  2
All information in this document is Orac's exclusive property.  It may in no case \Pbe reproduced, even partly, be communicated to a third party or used for any \Ppossible purpose without ORAC's express written permission. \PFurther legal information
  1
 can be found at http://www.oracdecor.be/nl/disclaimer 
304
ACVALUE_END
170
4
140
1.85
 64
7
171
1
172
0
173
1
174
0
175
1
176
1
 91
1
178
0
145
0.0
170
1
171
1
172
0
173
1
174
0
175
1
176
1
 91
1
178
0
145
0.0
170
1
  0
TEXT
  5
250
100
AcDbEntity
  8
0
100
AcDbText
 62
2
  6
CONTINUOUS
 10
197.45994669
 20
73.901462816
  7
STANDARD
 40
2.5
  1
SCALE  
 72
5
 11
211.2634486355
 21
73.901462816
100
AcDbText
  0
TEXT
  5
251
100
AcDbEntity
  8
0
100
AcDbText
 62
2
  6
CONTINUOUS
 10
211.2634486355
 20
73.901462816
  7
STANDARD
 40
2.5
  1
1:2
 72
5
 11
216.1175342386
 21
73.901462816
100
AcDbText
  0
LINE
  5
252
100
AcDbEntity
  8
0
100
AcDbLine
 62
5
  6
CONTINUOUS
 10
0.0
 20
0.0
 11
0.0
 21
210.0
  0
LINE
  5
253
100
AcDbEntity
  8
0
100
AcDbLine
 62
7
  6
CONTINUOUS
 10
5.0
 20
5.0
 11
5.0
 21
195.0
  0
LINE
  5
254
100
AcDbEntity
  8
0
100
AcDbLine
 62
5
  6
CONTINUOUS
 10
0.0
 20
0.0
 11
297.0
 21
0.0
  0
LINE
  5
255
100
AcDbEntity
  8
0
100
AcDbLine
 62
7
  6
CONTINUOUS
 10
5.0
 20
5.0
 11
292.0
 21
5.0
  0
LINE
  5
256
100
AcDbEntity
  8
0
100
AcDbLine
 62
4
  6
CONTINUOUS
 10
148.5
 20
195.0
 11
148.5
 21
205.0
  0
LINE
  5
257
100
AcDbEntity
  8
0
100
AcDbLine
 62
7
  6
CONTINUOUS
 10
5.0
 20
195.0
 11
292.0
 21
195.0
  0
LINE
  5
258
100
AcDbEntity
  8
0
100
AcDbLine
 62
5
  6
CONTINUOUS
 10
0.0
 20
210.0
 11
297.0
 21
210.0
  0
LINE
  5
259
100
AcDbEntity
  8
0
100
AcDbLine
 62
7
  6
CONTINUOUS
 10
292.0
 20
5.0
 11
292.0
 21
195.0
  0
LINE
  5
25A
100
AcDbEntity
  8
0
100
AcDbLine
 62
5
  6
CONTINUOUS
 10
297.0
 20
0.0
 11
297.0
 21
210.0
  0
LINE
  5
25B
100
AcDbEntity
  8
0
100
AcDbLine
 62
7
  6
CONTINUOUS
 10
197.1559100708
 20
79.136462816
 11
193.3751465974
 21
79.1460196003
  0
LINE
  5
25C
100
AcDbEntity
  8
DTM_AXIS
100
AcDbLine
 62
7
  6
CONTINUOUS
 10
192.798497941
 20
82.484736464
 11
188.4117113135
 21
82.6491474476
  0
LINE
  5
25D
100
AcDbEntity
  8
DTM_AXIS
100
AcDbLine
 62
7
  6
CONTINUOUS
 10
188.4201650103
 20
88.6642660745
 11
192.6918525568
 21
88.8027532058
  0
LINE
  5
25E
100
AcDbEntity
  8
DTM_AXIS
100
AcDbLine
 62
7
  6
CONTINUOUS
 10
235.0984892567
 20
172.0012318626
 11
188.2627407684
 21
148.139320686
  0
LINE
  5
25F
100
AcDbEntity
  8
DTM_AXIS
100
AcDbLine
 62
7
  6
CONTINUOUS
 10
238.594644913
 20
171.9923944927
 11
191.7588964247
 21
148.1304833161
  0
LINE
  5
260
100
AcDbEntity
  8
DTM_AXIS
100
AcDbLine
 62
7
  6
CONTINUOUS
 10
188.2627407684
 20
148.139320686
 11
188.258927049
 21
145.4257179828
  0
LINE
  5
261
100
AcDbEntity
  8
DTM_AXIS
100
AcDbLine
 62
7
  6
CONTINUOUS
 10
188.2560169614
 20
143.3550828235
 11
188.2524491906
 21
140.8164816031
  0
LINE
  5
262
100
AcDbEntity
  8
DTM_AXIS
100
AcDbLine
 62
7
  6
CONTINUOUS
 10
188.2220077184
 20
119.1562458351
 11
188.2191736076
 21
117.1396710112
  0
LINE
  5
263
100
AcDbEntity
  8
DTM_AXIS
100
AcDbLine
 62
7
  6
CONTINUOUS
 10
188.1991764113
 20
102.9109246094
 11
188.1963423005
 21
100.8943497855
  0
LINE
  5
264
100
AcDbEntity
  8
DTM_AXIS
100
AcDbLine
 62
7
  6
CONTINUOUS
 10
188.173473005
 20
84.6219983921
 11
188.1710522373
 21
82.8995324278
  0
LINE
  5
265
100
AcDbEntity
  8
DTM_AXIS
100
AcDbLine
 62
7
  6
CONTINUOUS
 10
188.1763830926
 20
86.6926335514
 11
188.1788038603
 21
88.4150995157
  0
LINE
  5
266
100
AcDbEntity
  8
DTM_AXIS
100
AcDbLine
 62
7
  6
CONTINUOUS
 10
189.7435115404
 20
135.6255361084
 11
189.7414231433
 21
134.1395641858
  0
LINE
  5
267
100
AcDbEntity
  8
DTM_AXIS
100
AcDbLine
 62
7
  6
CONTINUOUS
 10
192.7082693125
 20
100.4838833101
 11
188.4370013767
 21
100.6439648053
  0
LINE
  5
268
100
AcDbEntity
  8
0
100
AcDbLine
 62
7
  6
CONTINUOUS
 10
193.3751465974
 20
79.1460196003
 11
193.2795363584
 21
82.0014119968
  0
LINE
  5
269
100
AcDbEntity
  8
DTM_AXIS
100
AcDbLine
 62
7
  6
CONTINUOUS
 10
193.1745748569
 20
89.3010863233
 11
193.1895874649
 21
99.9831133497
  0
LINE
  5
26A
100
AcDbEntity
  8
DTM_AXIS
100
AcDbLine
 62
7
  6
CONTINUOUS
 10
193.1949474078
 20
103.796911417
 11
193.212418772
 21
116.2284345754
  0
LINE
  5
26B
100
AcDbEntity
  8
DTM_AXIS
100
AcDbLine
 62
7
  6
CONTINUOUS
 10
193.2177787149
 20
120.0422326427
 11
193.2291694583
 21
128.1471687512
  0
LINE
  5
26C
100
AcDbEntity
  8
DTM_AXIS
100
AcDbLine
 62
7
  6
CONTINUOUS
 10
193.7370296077
 20
134.1294643345
 11
193.739137113
 21
135.6290324476
  0
LINE
  5
26D
100
AcDbEntity
  8
DTM_AXIS
100
AcDbLine
 62
7
  6
CONTINUOUS
 10
188.4405375613
 20
103.1600911682
 11
192.7122251078
 21
103.2985782995
  0
LINE
  5
26E
100
AcDbEntity
  8
DTM_AXIS
100
AcDbLine
 62
7
  6
CONTINUOUS
 10
195.2332745266
 20
132.6261087771
 11
195.2353820318
 21
134.1256768902
  0
LINE
  5
26F
100
AcDbEntity
  8
0
100
AcDbLine
 62
7
  6
CONTINUOUS
 10
197.1559100708
 20
79.136462816
 11
197.2282677517
 21
130.6216347006
  0
LINE
  5
270
100
AcDbEntity
  8
DTM_AXIS
100
AcDbLine
 62
7
  6
CONTINUOUS
 10
194.5327489386
 20
136.0042495714
 11
241.3684974269
 21
159.866160748
  0
LINE
  5
271
100
AcDbEntity
  8
DTM_AXIS
100
AcDbLine
 62
7
  6
CONTINUOUS
 10
240.572778096
 20
157.9913755111
 11
193.7370296077
 21
134.1294643345
  0
LINE
  5
272
100
AcDbEntity
  8
DTM_AXIS
100
AcDbLine
 62
7
  6
CONTINUOUS
 10
242.0711305201
 20
157.9875880668
 11
195.2353820318
 21
134.1256768902
  0
LINE
  5
273
100
AcDbEntity
  8
DTM_AXIS
100
AcDbLine
 62
7
  6
CONTINUOUS
 10
242.0690230148
 20
156.4880199537
 11
195.2332745266
 21
132.6261087771
  0
LINE
  5
274
100
AcDbEntity
  8
DTM_AXIS
100
AcDbLine
 62
7
  6
CONTINUOUS
 10
244.06401624
 20
154.4835458772
 11
197.2282677517
 21
130.6216347006
  0
LINE
  5
275
100
AcDbEntity
  8
DTM_AXIS
100
AcDbLine
 62
7
  6
CONTINUOUS
 10
192.6460134141
 20
129.5624542158
 11
190.9077352318
 21
131.3089932568
  0
LINE
  5
276
100
AcDbEntity
  8
DTM_AXIS
100
AcDbLine
 62
7
  6
CONTINUOUS
 10
193.2202898129
 20
121.8289719337
 11
188.4633688684
 21
119.4054123939
  0
LINE
  5
277
100
AcDbEntity
  8
DTM_AXIS
100
AcDbLine
 62
7
  6
CONTINUOUS
 10
192.7311006196
 20
116.7292045358
 11
188.4598326838
 21
116.889286031
  0
LINE
  5
278
100
AcDbEntity
  8
DTM_AXIS
100
AcDbLine
 62
7
  6
CONTINUOUS
 10
188.4633688684
 20
119.4054123939
 11
192.7350564149
 21
119.5438995252
  0
LINE
  5
279
100
AcDbEntity
  8
DTM_AXIS
100
AcDbLine
 62
7
  6
CONTINUOUS
 10
193.1974585058
 20
105.583650708
 11
188.4405375613
 21
103.1600911682
  0
LINE
  5
27A
100
AcDbEntity
  8
DTM_AXIS
100
AcDbLine
 62
7
  6
CONTINUOUS
 10
190.1424786046
 20
139.9477846865
 11
188.4164334082
 21
140.5812107444
  0
LINE
  5
27B
100
AcDbEntity
  8
DTM_AXIS
100
AcDbLine
 62
7
  6
CONTINUOUS
 10
195.2353820318
 20
134.1256768902
 11
193.7370296077
 21
134.1294643345
  0
LINE
  5
27C
100
AcDbEntity
  8
DTM_AXIS
100
AcDbLine
 62
7
  6
CONTINUOUS
 10
193.1770859549
 20
91.0878256143
 11
188.4201650103
 21
88.6642660745
  0
LINE
  5
27D
100
AcDbEntity
  8
DTM_AXIS
100
AcDbLine
 62
7
  6
CONTINUOUS
 10
240.572778096
 20
157.9913755111
 11
240.5748856012
 21
159.4909436242
  0
LINE
  5
27E
100
AcDbEntity
  8
DTM_AXIS
100
AcDbLine
 62
7
  6
CONTINUOUS
 10
191.7588964247
 20
148.1304833161
 11
188.2627407684
 21
148.139320686
  0
LINE
  5
27F
100
AcDbEntity
  8
DTM_AXIS
100
AcDbLine
 62
7
  6
CONTINUOUS
 10
242.0690230148
 20
156.4880199537
 11
242.0711305201
 21
157.9875880668
  0
LINE
  5
280
100
AcDbEntity
  8
0
100
AcDbLine
 62
7
  6
CONTINUOUS
 10
243.9916585591
 20
102.9983739926
 11
244.06401624
 21
154.4835458772
  0
LINE
  5
281
100
AcDbEntity
  8
0
100
AcDbLine
 62
7
  6
CONTINUOUS
 10
243.9916585591
 20
102.9983739926
 11
197.1559100708
 21
79.136462816
  0
LINE
  5
282
100
AcDbEntity
  8
DTM_AXIS
100
AcDbLine
 62
7
  6
CONTINUOUS
 10
242.0711305201
 20
157.9875880668
 11
240.572778096
 21
157.9913755111
  0
LINE
  5
283
100
AcDbEntity
  8
DTM_AXIS
100
AcDbLine
 62
7
  6
CONTINUOUS
 10
238.594644913
 20
171.9923944927
 11
235.0984892567
 21
172.0012318626
  0
LINE
  5
284
100
AcDbEntity
  8
0
100
AcDbLine
 62
7
  6
CONTINUOUS
 10
77.3957942498
 20
32.1504213645
 11
69.8259527108
 21
32.1504213645
  0
LINE
  5
285
100
AcDbEntity
  8
DTM_AXIS
100
AcDbLine
 62
7
  6
CONTINUOUS
 10
68.6619965378
 20
38.8268384503
 11
59.8783445014
 21
39.1335703384
  0
LINE
  5
286
100
AcDbEntity
  8
DTM_AXIS
100
AcDbLine
 62
7
  6
CONTINUOUS
 10
59.8783445014
 20
51.1672723906
 11
68.4306937465
 21
51.4659270072
  0
LINE
  5
287
100
AcDbEntity
  8
DTM_AXIS
100
AcDbLine
 62
7
  6
CONTINUOUS
 10
68.4306937465
 20
74.8349157218
 11
59.8783445014
 21
75.1335703384
  0
LINE
  5
288
100
AcDbEntity
  8
DTM_AXIS
100
AcDbLine
 62
7
  6
CONTINUOUS
 10
59.8783445014
 20
80.1672723906
 11
68.4306937465
 21
80.4659270072
  0
LINE
  5
289
100
AcDbEntity
  8
DTM_AXIS
100
AcDbLine
 62
7
  6
CONTINUOUS
 10
59.3957942498
 20
170.1504213645
 11
59.3957942498
 21
164.7216528822
  0
LINE
  5
28A
100
AcDbEntity
  8
DTM_AXIS
100
AcDbLine
 62
7
  6
CONTINUOUS
 10
59.3957942498
 20
160.5791898467
 11
59.3957942498
 21
155.5005251336
  0
LINE
  5
28B
100
AcDbEntity
  8
DTM_AXIS
100
AcDbLine
 62
7
  6
CONTINUOUS
 10
59.3957942498
 20
112.1675769771
 11
59.3957942498
 21
108.1332657519
  0
LINE
  5
28C
100
AcDbEntity
  8
DTM_AXIS
100
AcDbLine
 62
7
  6
CONTINUOUS
 10
59.3957942498
 20
79.6675769771
 11
59.3957942498
 21
75.6332657519
  0
LINE
  5
28D
100
AcDbEntity
  8
DTM_AXIS
100
AcDbLine
 62
7
  6
CONTINUOUS
 10
59.3957942498
 20
43.0791898467
 11
59.3957942498
 21
39.6332657519
  0
LINE
  5
28E
100
AcDbEntity
  8
DTM_AXIS
100
AcDbLine
 62
7
  6
CONTINUOUS
 10
59.3957942498
 20
47.2216528822
 11
59.3957942498
 21
50.6675769771
  0
LINE
  5
28F
100
AcDbEntity
  8
DTM_AXIS
100
AcDbLine
 62
7
  6
CONTINUOUS
 10
62.3957942498
 20
145.1232211517
 11
62.3957942498
 21
142.1504213644
  0
LINE
  5
290
100
AcDbEntity
  8
DTM_AXIS
100
AcDbLine
 62
4
  6
CONTINUOUS
 10
69.8259527108
 20
32.1504213645
 11
69.8957942498
 21
30.1504213645
  0
LINE
  5
291
100
AcDbEntity
  8
0
100
AcDbLine
 62
7
  6
CONTINUOUS
 10
69.8259527108
 20
32.1504213645
 11
69.6264878682
 21
37.86234712
  0
LINE
  5
292
100
AcDbEntity
  8
DTM_AXIS
100
AcDbLine
 62
7
  6
CONTINUOUS
 10
69.3957942498
 20
52.4653178342
 11
69.3957942498
 21
73.8355248947
  0
LINE
  5
293
100
AcDbEntity
  8
DTM_AXIS
100
AcDbLine
 62
7
  6
CONTINUOUS
 10
69.3957942498
 20
81.4653178342
 11
69.3957942498
 21
106.3355248947
  0
LINE
  5
294
100
AcDbEntity
  8
DTM_AXIS
100
AcDbLine
 62
7
  6
CONTINUOUS
 10
69.3957942498
 20
113.9653178342
 11
69.3957942498
 21
130.179858616
  0
LINE
  5
295
100
AcDbEntity
  8
DTM_AXIS
100
AcDbLine
 62
7
  6
CONTINUOUS
 10
70.3957942498
 20
142.1504213645
 11
70.3957942498
 21
145.1504213645
  0
LINE
  5
296
100
AcDbEntity
  8
DTM_AXIS
100
AcDbLine
 62
7
  6
CONTINUOUS
 10
73.3957942498
 20
139.1504213645
 11
73.3957942498
 21
142.1504213645
  0
LINE
  5
297
100
AcDbEntity
  8
0
100
AcDbLine
 62
7
  6
CONTINUOUS
 10
77.3957942498
 20
32.1504213645
 11
77.3957942498
 21
135.1504213645
  0
LINE
  5
298
100
AcDbEntity
  8
DTM_AXIS
100
AcDbLine
 62
7
  6
CONTINUOUS
 10
68.4306937465
 20
107.3349157218
 11
59.8783445014
 21
107.6335703384
  0
LINE
  5
299
100
AcDbEntity
  8
DTM_AXIS
100
AcDbLine
 62
7
  6
CONTINUOUS
 10
59.8783445014
 20
112.6672723906
 11
68.4306937465
 21
112.9659270072
  0
LINE
  5
29A
100
AcDbEntity
  8
DTM_AXIS
100
AcDbLine
 62
7
  6
CONTINUOUS
 10
68.2242213745
 20
133.0082857407
 11
64.7389400003
 21
136.493567115
  0
LINE
  5
29B
100
AcDbEntity
  8
DTM_AXIS
100
AcDbLine
 62
7
  6
CONTINUOUS
 10
73.3957942498
 20
142.1504213645
 11
70.3957942498
 21
142.1504213645
  0
LINE
  5
29C
100
AcDbEntity
  8
DTM_AXIS
100
AcDbLine
 62
7
  6
CONTINUOUS
 10
63.1824405794
 20
153.7721948128
 11
59.7247841781
 21
155.0306788232
  0
LINE
  5
29D
100
AcDbEntity
  8
DTM_AXIS
100
AcDbLine
 62
7
  6
CONTINUOUS
 10
66.3957942498
 20
170.1504213645
 11
59.3957942498
 21
170.1504213645
  0
ARC
  5
29E
100
AcDbEntity
  8
DTM_AXIS
100
AcDbCircle
 62
7
  6
CONTINUOUS
 10
193.7464340532
 20
134.1342242039
 40
4.0050144699
100
AcDbArc
 50
179.9236061403
 51
224.8637605097
  0
ARC
  5
29F
100
AcDbEntity
  8
DTM_AXIS
100
AcDbCircle
 62
7
  6
CONTINUOUS
 10
193.7402940066
 20
135.6205411917
 40
3.9967855873
100
AcDbArc
 50
140.8847431701
 51
179.9283955282
  0
ARC
  5
2A0
100
AcDbEntity
  8
DTM_AXIS
100
AcDbCircle
 62
7
  6
CONTINUOUS
 10
242.0626908693
 20
154.4867021116
 40
2.0013278595
100
AcDbArc
 50
359.9096405007
 51
89.8187174477
  0
ARC
  5
2A1
100
AcDbEntity
  8
DTM_AXIS
100
AcDbCircle
 62
7
  6
CONTINUOUS
 10
195.226942381
 20
130.624790935
 40
2.0013278595
100
AcDbArc
 50
359.9096405007
 51
89.8187174477
  0
ARC
  5
2A2
100
AcDbEntity
  8
DTM_AXIS
100
AcDbCircle
 62
7
  6
CONTINUOUS
 10
189.7459385297
 20
138.8674785419
 40
1.1507846875
100
AcDbArc
 50
320.9215869046
 51
69.843697956
  0
ARC
  5
2A3
100
AcDbEntity
  8
DTM_AXIS
100
AcDbCircle
 62
7
  6
CONTINUOUS
 10
187.9241714528
 20
85.6573930564
 40
0.9000705816
100
AcDbArc
 50
296.9456116055
 51
64.1103297041
  0
ARC
  5
2A4
100
AcDbEntity
  8
DTM_AXIS
100
AcDbCircle
 62
7
  6
CONTINUOUS
 10
188.0067154091
 20
144.3904774878
 40
0.9000705817
100
AcDbArc
 50
296.9456116122
 51
64.1103296974
  0
ARC
  5
2A5
100
AcDbEntity
  8
DTM_AXIS
100
AcDbCircle
 62
7
  6
CONTINUOUS
 10
192.6892309604
 20
99.9838885364
 40
0.500357105
100
AcDbArc
 50
359.9112335085
 51
87.8193961988
  0
ARC
  5
2A6
100
AcDbEntity
  8
DTM_AXIS
100
AcDbCircle
 62
7
  6
CONTINUOUS
 10
192.7120622674
 20
116.2292097621
 40
0.500357105
100
AcDbArc
 50
359.9112335085
 51
87.8193961988
  0
ARC
  5
2A7
100
AcDbEntity
  8
DTM_AXIS
100
AcDbCircle
 62
7
  6
CONTINUOUS
 10
192.779467629
 20
81.9847523387
 40
0.5003461585
100
AcDbArc
 50
1.9080881124
 51
87.8202698361
  0
ARC
  5
2A8
100
AcDbEntity
  8
DTM_AXIS
100
AcDbCircle
 62
7
  6
CONTINUOUS
 10
188.4212576627
 20
82.8991709521
 40
0.2502056865
100
AcDbArc
 50
179.9172239437
 51
267.8134057636
  0
ARC
  5
2A9
100
AcDbEntity
  8
DTM_AXIS
100
AcDbCircle
 62
7
  6
CONTINUOUS
 10
188.4693790219
 20
117.1393095248
 40
0.2502056754
100
AcDbArc
 50
179.9172214969
 51
267.8134082104
  0
ARC
  5
2AA
100
AcDbEntity
  8
DTM_AXIS
100
AcDbCircle
 62
7
  6
CONTINUOUS
 10
188.4465475527
 20
100.8939881432
 40
0.2502055135
100
AcDbArc
 50
179.9171857478
 51
267.8134439594
  0
ARC
  5
2AB
100
AcDbEntity
  8
DTM_AXIS
100
AcDbCircle
 62
7
  6
CONTINUOUS
 10
70.3957942498
 20
142.1504213645
 40
8.0
100
AcDbArc
 50
180.0000000005
 51
225.0
  0
ARC
  5
2AC
100
AcDbEntity
  8
DTM_AXIS
100
AcDbCircle
 62
7
  6
CONTINUOUS
 10
70.3957942498
 20
145.1232211516
 40
8.0
100
AcDbArc
 50
140.9593273637
 51
179.9999999995
  0
ARC
  5
2AD
100
AcDbEntity
  8
DTM_AXIS
100
AcDbCircle
 62
7
  6
CONTINUOUS
 10
73.3957942498
 20
135.1504213645
 40
4.0
100
AcDbArc
 50
0.0
 51
90.0
  0
ARC
  5
2AE
100
AcDbEntity
  8
DTM_AXIS
100
AcDbCircle
 62
7
  6
CONTINUOUS
 10
65.3957942498
 20
130.179858616
 40
4.0
100
AcDbArc
 50
0.0
 51
45.0
  0
ARC
  5
2AF
100
AcDbEntity
  8
DTM_AXIS
100
AcDbCircle
 62
7
  6
CONTINUOUS
 10
62.3957942498
 20
151.610901785
 40
2.3
100
AcDbArc
 50
320.9593273636
 51
70.0
  0
ARC
  5
2B0
100
AcDbEntity
  8
DTM_AXIS
100
AcDbCircle
 62
7
  6
CONTINUOUS
 10
58.8957942498
 20
45.1504213645
 40
1.8
100
AcDbArc
 50
295.7714617405
 51
64.2285382595
  0
ARC
  5
2B1
100
AcDbEntity
  8
DTM_AXIS
100
AcDbCircle
 62
7
  6
CONTINUOUS
 10
58.8957942498
 20
162.6504213645
 40
1.8
100
AcDbArc
 50
295.7714617406
 51
64.2285382594
  0
ARC
  5
2B2
100
AcDbEntity
  8
DTM_AXIS
100
AcDbCircle
 62
7
  6
CONTINUOUS
 10
68.6270970411
 20
37.8274476233
 40
1.0
100
AcDbArc
 50
2.0
 51
88.0
  0
ARC
  5
2B3
100
AcDbEntity
  8
DTM_AXIS
100
AcDbCircle
 62
7
  6
CONTINUOUS
 10
68.3957942498
 20
52.4653178342
 40
1.0
100
AcDbArc
 50
272.0
 51
360.0
  0
ARC
  5
2B4
100
AcDbEntity
  8
DTM_AXIS
100
AcDbCircle
 62
7
  6
CONTINUOUS
 10
68.3957942498
 20
73.8355248947
 40
1.0
100
AcDbArc
 50
0.0
 51
88.0
  0
ARC
  5
2B5
100
AcDbEntity
  8
DTM_AXIS
100
AcDbCircle
 62
7
  6
CONTINUOUS
 10
68.3957942498
 20
81.4653178342
 40
1.0
100
AcDbArc
 50
272.0
 51
360.0
  0
ARC
  5
2B6
100
AcDbEntity
  8
DTM_AXIS
100
AcDbCircle
 62
7
  6
CONTINUOUS
 10
68.3957942498
 20
106.3355248947
 40
1.0
100
AcDbArc
 50
0.0
 51
88.0
  0
ARC
  5
2B7
100
AcDbEntity
  8
DTM_AXIS
100
AcDbCircle
 62
7
  6
CONTINUOUS
 10
68.3957942498
 20
113.9653178342
 40
1.0
100
AcDbArc
 50
272.0
 51
360.0
  0
ARC
  5
2B8
100
AcDbEntity
  8
DTM_AXIS
100
AcDbCircle
 62
7
  6
CONTINUOUS
 10
59.8957942498
 20
39.6332657519
 40
0.5
100
AcDbArc
 50
180.0
 51
268.0
  0
ARC
  5
2B9
100
AcDbEntity
  8
DTM_AXIS
100
AcDbCircle
 62
7
  6
CONTINUOUS
 10
59.8957942498
 20
43.0791898467
 40
0.5
100
AcDbArc
 50
115.7714617406
 51
180.0
  0
ARC
  5
2BA
100
AcDbEntity
  8
DTM_AXIS
100
AcDbCircle
 62
7
  6
CONTINUOUS
 10
59.8957942498
 20
47.2216528822
 40
0.5
100
AcDbArc
 50
180.0
 51
244.2285382594
  0
ARC
  5
2BB
100
AcDbEntity
  8
DTM_AXIS
100
AcDbCircle
 62
7
  6
CONTINUOUS
 10
59.8957942498
 20
50.6675769771
 40
0.5
100
AcDbArc
 50
92.0
 51
180.0
  0
ARC
  5
2BC
100
AcDbEntity
  8
DTM_AXIS
100
AcDbCircle
 62
7
  6
CONTINUOUS
 10
59.8957942498
 20
75.6332657519
 40
0.5
100
AcDbArc
 50
180.0
 51
268.0
  0
ARC
  5
2BD
100
AcDbEntity
  8
DTM_AXIS
100
AcDbCircle
 62
7
  6
CONTINUOUS
 10
59.8957942498
 20
79.6675769771
 40
0.5
100
AcDbArc
 50
92.0
 51
180.0
  0
ARC
  5
2BE
100
AcDbEntity
  8
DTM_AXIS
100
AcDbCircle
 62
7
  6
CONTINUOUS
 10
59.8957942498
 20
108.1332657519
 40
0.5
100
AcDbArc
 50
180.0
 51
268.0
  0
ARC
  5
2BF
100
AcDbEntity
  8
DTM_AXIS
100
AcDbCircle
 62
7
  6
CONTINUOUS
 10
59.8957942498
 20
112.1675769771
 40
0.5
100
AcDbArc
 50
92.0
 51
180.0
  0
ARC
  5
2C0
100
AcDbEntity
  8
DTM_AXIS
100
AcDbCircle
 62
7
  6
CONTINUOUS
 10
59.8957942498
 20
155.5005251336
 40
0.5
100
AcDbArc
 50
180.0
 51
250.0
  0
ARC
  5
2C1
100
AcDbEntity
  8
DTM_AXIS
100
AcDbCircle
 62
7
  6
CONTINUOUS
 10
59.8957942498
 20
160.5791898467
 40
0.5
100
AcDbArc
 50
115.7714617405
 51
180.0
  0
ARC
  5
2C2
100
AcDbEntity
  8
DTM_AXIS
100
AcDbCircle
 62
7
  6
CONTINUOUS
 10
59.8957942498
 20
164.7216528822
 40
0.5
100
AcDbArc
 50
180.0
 51
244.2285382595
  0
SPLINE
  5
2C3
100
AcDbEntity
  8
DTM_AXIS
100
AcDbSpline
 62
7
  6
CONTINUOUS
 70
0
 71
3
 72
8
 73
4
 74
0
 42
0.0000001
 43
0.0000001
 44
0.0000000001
 40
0.0
 40
0.0
 40
0.0
 40
0.0
 40
1.0
 40
1.0
 40
1.0
 40
1.0
 10
188.173473005
 20
84.6219983921
 30
0.0
 10
188.1735946107
 20
84.7085253399
 30
0.0
 10
188.2317702758
 20
84.8039314108
 30
0.0
 10
188.3086731046
 20
84.8435909922
 30
0.0
  0
SPLINE
  5
2C4
100
AcDbEntity
  8
DTM_AXIS
100
AcDbSpline
 62
7
  6
CONTINUOUS
 70
0
 71
3
 72
8
 73
4
 74
0
 42
0.0000001
 43
0.0000001
 44
0.0000000001
 40
0.0
 40
0.0
 40
0.0
 40
0.0
 40
1.0
 40
1.0
 40
1.0
 40
1.0
 10
188.3172159201
 20
86.4672077241
 30
0.0
 10
188.2375295501
 20
86.5059396099
 30
0.0
 10
188.1762585726
 20
86.6040329812
 30
0.0
 10
188.1763830926
 20
86.6926335514
 30
0.0
  0
SPLINE
  5
2C5
100
AcDbEntity
  8
DTM_AXIS
100
AcDbSpline
 62
7
  6
CONTINUOUS
 70
0
 71
3
 72
8
 73
4
 74
0
 42
0.0000001
 43
0.0000001
 44
0.0000000001
 40
0.0
 40
0.0
 40
0.0
 40
0.0
 40
1.0
 40
1.0
 40
1.0
 40
1.0
 10
193.2291694583
 20
128.1471687512
 30
0.0
 10
193.2298865531
 20
128.6574082691
 30
0.0
 10
193.0059513093
 20
129.2008057796
 30
0.0
 10
192.6460134141
 20
129.5624542158
 30
0.0
  0
SPLINE
  5
2C6
100
AcDbEntity
  8
DTM_AXIS
100
AcDbSpline
 62
7
  6
CONTINUOUS
 70
0
 71
3
 72
8
 73
4
 74
0
 42
0.0000001
 43
0.0000001
 44
0.0000000001
 40
0.0
 40
0.0
 40
0.0
 40
0.0
 40
1.0
 40
1.0
 40
1.0
 40
1.0
 10
188.4164334082
 20
140.5812107444
 30
0.0
 10
188.3266919811
 20
140.6141441569
 30
0.0
 10
188.2523148427
 20
140.720888113
 30
0.0
 10
188.2524491906
 20
140.8164816031
 30
0.0
  0
SPLINE
  5
2C7
100
AcDbEntity
  8
DTM_AXIS
100
AcDbSpline
 62
7
  6
CONTINUOUS
 70
0
 71
3
 72
8
 73
4
 74
0
 42
0.0000001
 43
0.0000001
 44
0.0000000001
 40
0.0
 40
0.0
 40
0.0
 40
0.0
 40
1.0
 40
1.0
 40
1.0
 40
1.0
 10
188.2560169614
 20
143.3550828235
 30
0.0
 10
188.2561385671
 20
143.4416097713
 30
0.0
 10
188.3143142322
 20
143.5370158422
 30
0.0
 10
188.3912170611
 20
143.5766754237
 30
0.0
  0
SPLINE
  5
2C8
100
AcDbEntity
  8
DTM_AXIS
100
AcDbSpline
 62
7
  6
CONTINUOUS
 70
0
 71
3
 72
8
 73
4
 74
0
 42
0.0000001
 43
0.0000001
 44
0.0000000001
 40
0.0
 40
0.0
 40
0.0
 40
0.0
 40
1.0
 40
1.0
 40
1.0
 40
1.0
 10
188.3997598765
 20
145.2002921555
 30
0.0
 10
188.3200735065
 20
145.2390240413
 30
0.0
 10
188.258802529
 20
145.3371174126
 30
0.0
 10
188.258927049
 20
145.4257179828
 30
0.0
  0
SPLINE
  5
2C9
100
AcDbEntity
  8
DTM_AXIS
100
AcDbSpline
 62
7
  6
CONTINUOUS
 70
0
 71
3
 72
9
 73
5
 74
0
 42
0.0000001
 43
0.0000001
 44
0.0000000001
 40
0.0
 40
0.0
 40
0.0
 40
0.0
 40
0.2406727019
 40
1.0
 40
1.0
 40
1.0
 40
1.0
 10
193.739137113
 20
135.6290324476
 30
0.0
 10
193.8032016535
 20
135.6582828933
 30
0.0
 10
194.0695169475
 20
135.7795047704
 30
0.0
 10
194.3347670825
 20
135.9033816318
 30
0.0
 10
194.5327489258
 20
136.0042495649
 30
0.0
  0
SPLINE
  5
2CA
100
AcDbEntity
  8
DTM_AXIS
100
AcDbSpline
 62
7
  6
CONTINUOUS
 70
0
 71
3
 72
8
 73
4
 74
0
 42
0.0000001
 43
0.0000001
 44
0.0000000001
 40
0.0
 40
0.0
 40
0.0
 40
0.0
 40
1.0
 40
1.0
 40
1.0
 40
1.0
 10
188.3176324811
 20
88.6385282048
 30
0.0
 10
188.2390473854
 20
88.5996363181
 30
0.0
 10
188.1789270897
 20
88.5027817883
 30
0.0
 10
188.1788038603
 20
88.4150995157
 30
0.0
  0
SPLINE
  5
2CB
100
AcDbEntity
  8
DTM_AXIS
100
AcDbSpline
 62
7
  6
CONTINUOUS
 70
0
 71
3
 72
8
 73
4
 74
0
 42
0.0000001
 43
0.0000001
 44
0.0000000001
 40
0.0
 40
0.0
 40
0.0
 40
0.0
 40
1.0
 40
1.0
 40
1.0
 40
1.0
 10
188.3608363391
 20
119.3796745243
 30
0.0
 10
188.2822512435
 20
119.3407826375
 30
0.0
 10
188.2221309477
 20
119.2439281078
 30
0.0
 10
188.2220077184
 20
119.1562458351
 30
0.0
  0
SPLINE
  5
2CC
100
AcDbEntity
  8
DTM_AXIS
100
AcDbSpline
 62
7
  6
CONTINUOUS
 70
0
 71
3
 72
8
 73
4
 74
0
 42
0.0000001
 43
0.0000001
 44
0.0000000001
 40
0.0
 40
0.0
 40
0.0
 40
0.0
 40
1.0
 40
1.0
 40
1.0
 40
1.0
 10
192.9531477828
 20
119.6020664271
 30
0.0
 10
193.1042849164
 20
119.6824778201
 30
0.0
 10
193.2175381134
 20
119.8710357753
 30
0.0
 10
193.2177787149
 20
120.0422326427
 30
0.0
  0
SPLINE
  5
2CD
100
AcDbEntity
  8
DTM_AXIS
100
AcDbSpline
 62
7
  6
CONTINUOUS
 70
0
 71
3
 72
8
 73
4
 74
0
 42
0.0000001
 43
0.0000001
 44
0.0000000001
 40
0.0
 40
0.0
 40
0.0
 40
0.0
 40
1.0
 40
1.0
 40
1.0
 40
1.0
 10
192.9303164757
 20
103.3567452014
 30
0.0
 10
193.0814536093
 20
103.4371565944
 30
0.0
 10
193.1947068063
 20
103.6257145496
 30
0.0
 10
193.1949474078
 20
103.796911417
 30
0.0
  0
SPLINE
  5
2CE
100
AcDbEntity
  8
DTM_AXIS
100
AcDbSpline
 62
7
  6
CONTINUOUS
 70
0
 71
3
 72
8
 73
4
 74
0
 42
0.0000001
 43
0.0000001
 44
0.0000000001
 40
0.0
 40
0.0
 40
0.0
 40
0.0
 40
1.0
 40
1.0
 40
1.0
 40
1.0
 10
188.3380052729
 20
103.1343534214
 30
0.0
 10
188.2594200653
 20
103.0954615869
 30
0.0
 10
188.1992996407
 20
102.9986069592
 30
0.0
 10
188.1991764113
 20
102.9109246094
 30
0.0
  0
SPLINE
  5
2CF
100
AcDbEntity
  8
DTM_AXIS
100
AcDbSpline
 62
7
  6
CONTINUOUS
 70
0
 71
3
 72
8
 73
4
 74
0
 42
0.0000001
 43
0.0000001
 44
0.0000000001
 40
0.0
 40
0.0
 40
0.0
 40
0.0
 40
1.0
 40
1.0
 40
1.0
 40
1.0
 10
192.9099439248
 20
88.8609201077
 30
0.0
 10
193.0610810584
 20
88.9413315007
 30
0.0
 10
193.1743342554
 20
89.1298894559
 30
0.0
 10
193.1745748569
 20
89.3010863233
 30
0.0
  0
SPLINE
  5
2D0
100
AcDbEntity
  8
DTM_AXIS
100
AcDbSpline
 62
7
  6
CONTINUOUS
 70
0
 71
3
 72
17
 73
13
 74
0
 42
0.0000001
 43
0.0000001
 44
0.0000000001
 40
0.0
 40
0.0
 40
0.0
 40
0.0
 40
0.1253131622
 40
0.2499702307
 40
0.3747038726
 40
0.4374848344
 40
0.4998178923
 40
0.5622600781
 40
0.6250606605
 40
0.7500926188
 40
0.8752019292
 40
1.0
 40
1.0
 40
1.0
 40
1.0
 10
241.368497414
 20
159.8661607415
 30
0.0
 10
241.9081707932
 20
160.1411139259
 30
0.0
 10
242.9898905649
 20
160.8043223882
 30
0.0
 10
243.5799708662
 20
162.7134576243
 30
0.0
 10
242.9040552854
 20
164.1806790465
 30
0.0
 10
242.0391404035
 20
165.0258641995
 30
0.0
 10
241.3138406855
 20
165.5710254499
 30
0.0
 10
240.6126999012
 20
166.1483527541
 30
0.0
 10
239.8027113118
 20
167.0522989263
 30
0.0
 10
239.0473351846
 20
168.3912413659
 30
0.0
 10
238.6549757992
 20
170.181307594
 30
0.0
 10
238.6266109361
 20
171.3900530743
 30
0.0
 10
238.594644913
 20
171.9923944927
 30
0.0
  0
SPLINE
  5
2D1
100
AcDbEntity
  8
DTM_AXIS
100
AcDbSpline
 62
7
  6
CONTINUOUS
 70
0
 71
3
 72
8
 73
4
 74
0
 42
0.0000001
 43
0.0000001
 44
0.0000000001
 40
0.0
 40
0.0
 40
0.0
 40
0.0
 40
1.0
 40
1.0
 40
1.0
 40
1.0
 10
192.7122251078
 20
103.2985782995
 30
0.0
 10
192.7874239123
 20
103.3010162275
 30
0.0
 10
192.863894164
 20
103.3214057022
 30
0.0
 10
192.9303164757
 20
103.3567452014
 30
0.0
  0
SPLINE
  5
2D2
100
AcDbEntity
  8
DTM_AXIS
100
AcDbSpline
 62
7
  6
CONTINUOUS
 70
0
 71
3
 72
8
 73
4
 74
0
 42
0.0000001
 43
0.0000001
 44
0.0000000001
 40
0.0
 40
0.0
 40
0.0
 40
0.0
 40
1.0
 40
1.0
 40
1.0
 40
1.0
 10
188.4633688684
 20
119.4054123939
 30
0.0
 10
188.4281495175
 20
119.4042705906
 30
0.0
 10
188.3924181783
 20
119.3953044259
 30
0.0
 10
188.3608363391
 20
119.3796745243
 30
0.0
  0
SPLINE
  5
2D3
100
AcDbEntity
  8
DTM_AXIS
100
AcDbSpline
 62
7
  6
CONTINUOUS
 70
0
 71
3
 72
8
 73
4
 74
0
 42
0.0000001
 43
0.0000001
 44
0.0000000001
 40
0.0
 40
0.0
 40
0.0
 40
0.0
 40
1.0
 40
1.0
 40
1.0
 40
1.0
 10
192.7350564149
 20
119.5438995252
 30
0.0
 10
192.8102552194
 20
119.5463374532
 30
0.0
 10
192.8867254711
 20
119.5667269279
 30
0.0
 10
192.9531477828
 20
119.6020664271
 30
0.0
  0
SPLINE
  5
2D4
100
AcDbEntity
  8
DTM_AXIS
100
AcDbSpline
 62
7
  6
CONTINUOUS
 70
0
 71
3
 72
8
 73
4
 74
0
 42
0.0000001
 43
0.0000001
 44
0.0000000001
 40
0.0
 40
0.0
 40
0.0
 40
0.0
 40
1.0
 40
1.0
 40
1.0
 40
1.0
 10
188.4201650103
 20
88.6642660745
 30
0.0
 10
188.3849456595
 20
88.6631242712
 30
0.0
 10
188.3492143202
 20
88.6541581064
 30
0.0
 10
188.3176324811
 20
88.6385282048
 30
0.0
  0
SPLINE
  5
2D5
100
AcDbEntity
  8
DTM_AXIS
100
AcDbSpline
 62
7
  6
CONTINUOUS
 70
0
 71
3
 72
8
 73
4
 74
0
 42
0.0000001
 43
0.0000001
 44
0.0000000001
 40
0.0
 40
0.0
 40
0.0
 40
0.0
 40
1.0
 40
1.0
 40
1.0
 40
1.0
 10
192.6918525568
 20
88.8027532058
 30
0.0
 10
192.7670513614
 20
88.8051911338
 30
0.0
 10
192.8435216131
 20
88.8255806084
 30
0.0
 10
192.9099439248
 20
88.8609201077
 30
0.0
  0
SPLINE
  5
2D6
100
AcDbEntity
  8
DTM_AXIS
100
AcDbSpline
 62
7
  6
CONTINUOUS
 70
0
 71
3
 72
17
 73
13
 74
0
 42
0.0000001
 43
0.0000001
 44
0.0000000001
 40
0.0
 40
0.0
 40
0.0
 40
0.0
 40
0.1253131622
 40
0.2499702307
 40
0.3747038726
 40
0.4374848344
 40
0.4998178923
 40
0.5622600781
 40
0.6250606605
 40
0.7500926188
 40
0.8752019292
 40
1.0
 40
1.0
 40
1.0
 40
1.0
 10
194.5327489258
 20
136.0042495649
 30
0.0
 10
195.0724223049
 20
136.2792027493
 30
0.0
 10
196.1541420766
 20
136.9424112116
 30
0.0
 10
196.7442223779
 20
138.8515464477
 30
0.0
 10
196.0683067972
 20
140.3187678699
 30
0.0
 10
195.2033919153
 20
141.1639530229
 30
0.0
 10
194.4780921972
 20
141.7091142733
 30
0.0
 10
193.776951413
 20
142.2864415775
 30
0.0
 10
192.9669628236
 20
143.1903877497
 30
0.0
 10
192.2115866963
 20
144.5293301893
 30
0.0
 10
191.8192273109
 20
146.3193964174
 30
0.0
 10
191.7908624478
 20
147.5281418977
 30
0.0
 10
191.7588964247
 20
148.1304833161
 30
0.0
  0
SPLINE
  5
2D7
100
AcDbEntity
  8
DTM_AXIS
100
AcDbSpline
 62
7
  6
CONTINUOUS
 70
0
 71
3
 72
8
 73
4
 74
0
 42
0.0000001
 43
0.0000001
 44
0.0000000001
 40
0.0
 40
0.0
 40
0.0
 40
0.0
 40
1.0
 40
1.0
 40
1.0
 40
1.0
 10
188.4405375613
 20
103.1600911682
 30
0.0
 10
188.4053182982
 20
103.1589493677
 30
0.0
 10
188.3695870505
 20
103.1499832493
 30
0.0
 10
188.3380052729
 20
103.1343534214
 30
0.0
  0
SPLINE
  5
2D8
100
AcDbEntity
  8
DTM_AXIS
100
AcDbSpline
 62
7
  6
CONTINUOUS
 70
0
 71
3
 72
15
 73
11
 74
0
 42
0.0000001
 43
0.0000001
 44
0.0000000001
 40
0.0
 40
0.0
 40
0.0
 40
0.0
 40
0.0826942329
 40
0.1867468824
 40
0.3087691681
 40
0.4335985046
 40
0.5692647747
 40
0.7320819505
 40
0.8894722519
 40
1.0
 40
1.0
 40
1.0
 40
1.0
 10
70.3957942498
 20
145.1504213645
 30
0.0
 10
71.1152518751
 20
145.4806724687
 30
0.0
 10
72.9286626867
 20
146.3000726158
 30
0.0
 10
75.5190402817
 20
148.2613048853
 30
0.0
 10
76.3851075396
 20
152.177568306
 30
0.0
 10
74.2247501212
 20
155.7720573048
 30
0.0
 10
70.5330217169
 20
158.080281779
 30
0.0
 10
67.5760116048
 20
161.9011458214
 30
0.0
 10
66.5230727252
 20
166.2702846779
 30
0.0
 10
66.4567710273
 20
169.0321257691
 30
0.0
 10
66.3957942498
 20
170.1504213645
 30
0.0
  0
ENDSEC
  0
SECTION
  2
OBJECTS
  0
DICTIONARY
  5
C
100
AcDbDictionary
280
0
281
1
  3
ACAD_GROUP
350
D
  3
ACAD_MLINESTYLE
350
17
  3
ACAD_LAYOUT
350
1A
  3
ACAD_PLOTSETTINGS
350
19
  3
ACAD_PLOTSTYLENAME
350
E
  3
ACAD_TABLESTYLE
350
       2D9
  0
DICTIONARY
  5
D
102
{ACAD_REACTORS
330
C
102
}
100
AcDbDictionary
280
0
281
1
  0
ACDBDICTIONARYWDFLT
  5
E
102
{ACAD_REACTORS
330
C
102
}
100
AcDbDictionary
281
1
  3
Normal
350
F
100
AcDbDictionaryWithDefault
340
F
  0
DICTIONARY
  5
17
102
{ACAD_REACTORS
330
C
102
}
100
AcDbDictionary
280
0
281
1
  3
Standard
350
18
  0
DICTIONARY
  5
2D9
330
C
100
AcDbDictionary
281
1
  3
Standard
350
       2DC
  3
Standard1
350
       2DD
  0
DICTIONARY
  5
19
102
{ACAD_REACTORS
330
C
102
}
100
AcDbDictionary
281
1
  0
DICTIONARY
  5
1A
102
{ACAD_REACTORS
330
C
102
}
100
AcDbDictionary
281
1
  3
Model
350
2DA
  3
Layout1
350
2DB
  0
ACDBPLACEHOLDER
  5
F
102
{ACAD_REACTORS
330
E
102
}
  0
MLINESTYLE
  5
18
102
{ACAD_REACTORS
330
17
102
}
100
AcDbMlineStyle
  2
STANDARD
 70
0
  3

 62
256
 51
90.0
 52
90.0
 71
2
 49
0.5
 62
256
  6
BYLAYER
 49
-0.5
 62
256
  6
BYLAYER
  0
LAYOUT
  5
2DA
102
{ACAD_REACTORS
330
1A
102
}
100
AcDbPlotSettings
  1

  2
none_device
  4
ISO_A4_(297.00_x_210.00_MM)
  6

 40
0.0
 41
0.0
 42
0.0
 43
0.0
 44
297.0
 45
210.0
 46
0.0
 47
0.0
 48
0.0
 49
0.0
140
0.0
141
0.0
142
1.0
143
1.0
 70
1024
 72
1
 73
0
 74
0
  7

 75
0
147
1.0
148
0.0
149
0.0
100
AcDbLayout
  1
Model
 70
0
 71
0
 10
0.0
 20
0.0
 11
297.0
 21
210.0
 12
0.0
 22
0.0
 32
0.0
 14
0.0
 24
0.0
 34
0.0
 15
0.0
 25
0.0
 35
0.0
146
0.0
 13
0.0
 23
0.0
 33
0.0
 16
1.0
 26
0.0
 36
0.0
 17
0.0
 27
1.0
 37
0.0
 76
0
330
20D
345
0
346
0
  0
LAYOUT
  5
2DB
102
{ACAD_REACTORS
330
1A
102
}
100
AcDbPlotSettings
  1

  2
none_device
  4
ISO_A4_(297.00_x_210.00_MM)
  6

 40
0.0
 41
0.0
 42
0.0
 43
0.0
 44
297.0
 45
210.0
 46
0.0
 47
0.0
 48
0.0
 49
0.0
140
0.0
141
0.0
142
1.0
143
1.0
 70
0
 72
1
 73
0
 74
0
  7

 75
0
147
1.0
148
0.0
149
0.0
100
AcDbLayout
  1
Layout1
 70
0
 71
1
 10
0.0
 20
0.0
 11
297.0
 21
210.0
 12
0.0
 22
0.0
 32
0.0
 14
0.0
 24
0.0
 34
0.0
 15
0.0
 25
0.0
 35
0.0
146
0.0
 13
0.0
 23
0.0
 33
0.0
 16
1.0
 26
0.0
 36
0.0
 17
0.0
 27
1.0
 37
0.0
 76
0
330
20E
345
0
346
0
  0
TABLESTYLE
  5
2DC
102
{ACAD_REACTORS
330
2D9
330
24F
102
}
330
2D9
100
AcDbTableStyle
  3
Standard
 70
0
 71
0
 40
0.06
 41
0.06
280
1
281
1
  7
Standard
140
0.18
170
1
 62
0
 63
7
283
0
  7
Standard
140
0.18
170
1
 62
0
 63
7
283
0
  7
Standard
140
0.18
170
1
 62
0
 63
7
283
0
  0
TABLESTYLE
  5
2DD
102
{ACAD_REACTORS
330
2D9
102
}
330
2D9
100
AcDbTableStyle
  3
Standard1
 70
1
 71
0
 40
0.06
 41
0.06
280
1
281
1
  7
Standard
140
0.18
170
1
 62
0
 63
7
283
0
  7
Standard
140
0.18
170
1
 62
0
 63
7
283
0
  7
Standard
140
0.18
170
1
 62
0
 63
7
283
0
  0
ENDSEC
  0
EOF
