999
DXF file: O:\ORAC_PRODUCTEN\ORAC_LIJN6\P-TYPE\P8050\p8050-prod-mm.dxf
999
Pro/ENGINEER 2013050 by Parametric Technology Corporation
  0
SECTION
  2
HEADER
  9
$ACADVER
  1
AC1024
  9
$DWGCODEPAGE
  3
ANSI_1252
  9
$EXTMAX
 10
297.0
 20
210.0
 30
0.0
  9
$EXTMIN
 10
0.0
 20
0.0
 30
0.0
  9
$LIMMIN
 10
0.0
 20
0.0
  9
$LIMMAX
 10
297.0
 20
210.0
  9
$VIEWCTR
 10
148.5
 20
105.0
  9
$VIEWSIZE
 40
210.0
  9
$CLAYER
  8
0
  9
$LTSCALE
 40
16.335
  9
$CELTYPE
  6
BYLAYER
  9
$DIMSCALE
 40
1.0
  9
$DIMASZ
 40
3.5
  9
$DIMEXO
 40
1.0
  9
$DIMDLI
 40
11.286
  9
$DIMEXE
 40
1.5
  9
$DIMCEN
 40
2.673
  9
$DIMLFAC
 40
1.0
  9
$DIMBLK
  1
_FILLED
  9
$DIMTXT
 40
2.5
  9
$DIMTOL
 70
1
  9
$DIMLIM
 70
0
  9
$DIMTFAC
 40
1.0
  9
$DIMTP
 40
0.001
  9
$DIMTM
 40
0.001
  9
$DIMGAP
 40
0.625
  9
$DIMDSEP
 70
44
  9
$PDMODE
 70
3
  9
$PDSIZE
 40
8.0
  9
$HANDSEED
  5
2C9
  9
$TILEMODE
 70
1
  9
$MEASUREMENT
 70
1
  9
$INSUNITS
 70
4
  0
ENDSEC
  0
SECTION
  2
CLASSES
  0
CLASS
  1
ACDBDICTIONARYWDFLT
  2
AcDbDictionaryWithDefault
  3
AutoCAD 2000
 90
0
 91
1
280
0
281
0
  0
CLASS
  1
ACDBPLACEHOLDER
  2
AcDbPlaceHolder
  3
AutoCAD 2000
 90
0
 91
1
280
0
281
0
  0
CLASS
  1
LAYOUT
  2
AcDbLayout
  3
AutoCAD 2000
 90
0
 91
0
280
0
281
0
  0
CLASS
  1
TABLESTYLE
  2
AcDbTableStyle
  3
ObjectDBX Classes
 90
2047
 91
1
280
0
281
0
  0
CLASS
  1
ACAD_TABLE
  2
AcDbTable
  3
ObjectDBX Classes
 90
1025
 91
1
280
0
281
1
  0
ENDSEC
  0
SECTION
  2
TABLES
  0
TABLE
  2
VPORT
  5
8
100
AcDbSymbolTable
 70
2
  0
VPORT
  5
1F4
100
AcDbSymbolTableRecord
100
AcDbViewportTableRecord
  2
*ACTIVE
 70
0
 10
0.0
 20
0.0
 11
1.0
 21
1.0
 12
148.5
 22
105.0
 13
0.0
 23
0.0
 14
1.0
 24
1.0
 15
0.0
 25
0.0
 16
0.0
 26
0.0
 36
1.0
 17
0.0
 27
0.0
 37
0.0
 40
210.0
 41
1.4142857143
 42
50.0
 43
0.0
 44
0.0
 50
0.0
 51
0.0
 71
0
 72
100
 73
1
 74
1
 75
0
 76
0
 77
0
 78
0
  0
ENDTAB
  0
TABLE
  2
LTYPE
  5
5
100
AcDbSymbolTable
 70
6
  0
LTYPE
  5
14
100
AcDbSymbolTableRecord
100
AcDbLinetypeTableRecord
  2
BYBLOCK
 70
0
  3

 72
65
 73
0
 40
0.0
  0
LTYPE
  5
15
100
AcDbSymbolTableRecord
100
AcDbLinetypeTableRecord
  2
BYLAYER
 70
0
  3

 72
65
 73
0
 40
0.0
  0
LTYPE
  5
16
100
AcDbSymbolTableRecord
100
AcDbLinetypeTableRecord
  2
CONTINUOUS
 70
64
  3
Solid line
 72
65
 73
0
 40
0.0
  0
LTYPE
  5
1F5
100
AcDbSymbolTableRecord
100
AcDbLinetypeTableRecord
  2
CENTER
 70
64
  3
____ _ ____ _ ____ _ ____ _ ____ _ ____ _ ____
 72
65
 73
4
 40
0.6
 49
0.375
 74
0
 49
-0.075
 74
0
 49
0.075
 74
0
 49
-0.075
 74
0
  0
LTYPE
  5
1F6
100
AcDbSymbolTableRecord
100
AcDbLinetypeTableRecord
  2
HIDDEN
 70
64
  3
- - - - - - - - - - - - - - - - - - - -
 72
65
 73
2
 40
0.2
 49
0.1
 74
0
 49
-0.1
 74
0
  0
LTYPE
  5
1F7
100
AcDbSymbolTableRecord
100
AcDbLinetypeTableRecord
  2
PHANTOM
 70
64
  3
_____ _ _ _____ _ _ _____ _ _ _____
 72
65
 73
6
 40
0.8
 49
0.45
 74
0
 49
-0.05
 74
0
 49
0.1
 74
0
 49
-0.05
 74
0
 49
0.1
 74
0
 49
-0.05
 74
0
  0
LTYPE
  5
1F8
100
AcDbSymbolTableRecord
100
AcDbLinetypeTableRecord
  2
DOT
 70
64
  3
. . . . . . . . . . . . . . . . . . . .
 72
65
 73
2
 40
0.2
 49
0.1
 74
0
 49
-0.1
 74
0
  0
LTYPE
  5
1F9
100
AcDbSymbolTableRecord
100
AcDbLinetypeTableRecord
  2
DASHED
 70
64
  3
- - - - - - - - - - - - - - - - - - - -
 72
65
 73
2
 40
0.2
 49
0.1
 74
0
 49
-0.1
 74
0
  0
ENDTAB
  0
TABLE
  2
LAYER
  5
2
100
AcDbSymbolTable
 70
36
  0
LAYER
  5
10
100
AcDbSymbolTableRecord
100
AcDbLayerTableRecord
  2
0
 70
0
 62
7
  6
CONTINUOUS
370
-3
390
F
  0
LAYER
  5
1FA
100
AcDbSymbolTableRecord
100
AcDbLayerTableRecord
  2
DEFAULT_1
 70
0
 62
7
  6
CENTER
370
-3
390
F
  0
LAYER
  5
1FB
100
AcDbSymbolTableRecord
100
AcDbLayerTableRecord
  2
DEFAULT_2
 70
0
 62
8
  6
HIDDEN
370
-3
390
F
  0
LAYER
  5
1FC
100
AcDbSymbolTableRecord
100
AcDbLayerTableRecord
  2
DEFAULT_3
 70
0
 62
7
  6
PHANTOM
370
-3
390
F
  0
LAYER
  5
1FD
100
AcDbSymbolTableRecord
100
AcDbLayerTableRecord
  2
01___PRT_ALL_DTM_PLN
 70
0
 62
7
  6
CONTINUOUS
370
-3
390
F
  0
LAYER
  5
1FE
100
AcDbSymbolTableRecord
100
AcDbLayerTableRecord
  2
01___PRT_DEF_DTM_PLN
 70
0
 62
7
  6
CONTINUOUS
370
-3
390
F
  0
LAYER
  5
1FF
100
AcDbSymbolTableRecord
100
AcDbLayerTableRecord
  2
02___PRT_ALL_AXES
 70
0
 62
7
  6
CONTINUOUS
370
-3
390
F
  0
LAYER
  5
200
100
AcDbSymbolTableRecord
100
AcDbLayerTableRecord
  2
03___PRT_ALL_CURVES
 70
0
 62
7
  6
CONTINUOUS
370
-3
390
F
  0
LAYER
  5
201
100
AcDbSymbolTableRecord
100
AcDbLayerTableRecord
  2
04___PRT_ALL_DTM_PNT
 70
0
 62
7
  6
CONTINUOUS
370
-3
390
F
  0
LAYER
  5
202
100
AcDbSymbolTableRecord
100
AcDbLayerTableRecord
  2
05___PRT_ALL_DTM_CSYS
 70
0
 62
7
  6
CONTINUOUS
370
-3
390
F
  0
LAYER
  5
203
100
AcDbSymbolTableRecord
100
AcDbLayerTableRecord
  2
05___PRT_DEF_DTM_CSYS
 70
0
 62
7
  6
CONTINUOUS
370
-3
390
F
  0
LAYER
  5
204
100
AcDbSymbolTableRecord
100
AcDbLayerTableRecord
  2
06___PRT_ALL_SURFS
 70
0
 62
7
  6
CONTINUOUS
370
-3
390
F
  0
LAYER
  5
205
100
AcDbSymbolTableRecord
100
AcDbLayerTableRecord
  2
AXES
 70
0
 62
7
  6
CONTINUOUS
370
-3
390
F
  0
LAYER
  5
206
100
AcDbSymbolTableRecord
100
AcDbLayerTableRecord
  2
DTM_ALL
 70
0
 62
7
  6
CONTINUOUS
370
-3
390
F
  0
LAYER
  5
207
100
AcDbSymbolTableRecord
100
AcDbLayerTableRecord
  2
DTM_AXIS
 70
0
 62
7
  6
CONTINUOUS
370
-3
390
F
  0
LAYER
  5
208
100
AcDbSymbolTableRecord
100
AcDbLayerTableRecord
  2
DTM_CSYS
 70
0
 62
7
  6
CONTINUOUS
370
-3
390
F
  0
LAYER
  5
209
100
AcDbSymbolTableRecord
100
AcDbLayerTableRecord
  2
DTM_CURVE
 70
0
 62
7
  6
CONTINUOUS
370
-3
390
F
  0
LAYER
  5
20A
100
AcDbSymbolTableRecord
100
AcDbLayerTableRecord
  2
DTM_MASTER
 70
0
 62
7
  6
CONTINUOUS
370
-3
390
F
  0
LAYER
  5
20B
100
AcDbSymbolTableRecord
100
AcDbLayerTableRecord
  2
DTM_POINT
 70
0
 62
7
  6
CONTINUOUS
370
-3
390
F
  0
LAYER
  5
20C
100
AcDbSymbolTableRecord
100
AcDbLayerTableRecord
  2
DTM_QUILT
 70
0
 62
7
  6
CONTINUOUS
370
-3
390
F
  0
LAYER
  5
20D
100
AcDbSymbolTableRecord
100
AcDbLayerTableRecord
  2
GTOL
 70
0
 62
7
  6
CONTINUOUS
370
-3
390
F
  0
LAYER
  5
20E
100
AcDbSymbolTableRecord
100
AcDbLayerTableRecord
  2
NOTES
 70
0
 62
7
  6
CONTINUOUS
370
-3
390
F
  0
LAYER
  5
20F
100
AcDbSymbolTableRecord
100
AcDbLayerTableRecord
  2
REF_PLANS
 70
0
 62
7
  6
CONTINUOUS
370
-3
390
F
  0
LAYER
  5
210
100
AcDbSymbolTableRecord
100
AcDbLayerTableRecord
  2
XSEC_DATUMS
 70
0
 62
7
  6
CONTINUOUS
370
-3
390
F
  0
ENDTAB
  0
TABLE
  2
STYLE
  5
3
100
AcDbSymbolTable
 70
1
  0
STYLE
  5
11
100
AcDbSymbolTableRecord
100
AcDbTextStyleTableRecord
  2
STANDARD
 70
0
 40
0.0
 41
1.0
 50
0.0
 71
0
 42
0.2
  3
cgtime.ttf
  4

  0
STYLE
  5
211
100
AcDbSymbolTableRecord
100
AcDbTextStyleTableRecord
  2
TEXTSTYLE_1
 70
0
 40
0.0
 41
0.8
 50
0.0
 71
0
 42
0.2
  3
gdt
  4

  0
STYLE
  5
212
100
AcDbSymbolTableRecord
100
AcDbTextStyleTableRecord
  2
TEXTSTYLE_2
 70
0
 40
0.0
 41
1.0
 50
0.0
 71
0
 42
0.2
  3
trium.ttf
  4

  0
STYLE
  5
213
100
AcDbSymbolTableRecord
100
AcDbTextStyleTableRecord
  2
TEXTSTYLE_3
 70
0
 40
0.0
 41
1.0
 50
0.0
 71
0
 42
0.2
  3
calibri.ttf
  4

  0
ENDTAB
  0
TABLE
  2
VIEW
  5
6
100
AcDbSymbolTable
 70
0
  0
ENDTAB
  0
TABLE
  2
UCS
  5
7
100
AcDbSymbolTable
 70
0
  0
ENDTAB
  0
TABLE
  2
APPID
  5
9
100
AcDbSymbolTable
 70
1
  0
APPID
  5
214
100
AcDbSymbolTableRecord
100
AcDbRegAppTableRecord
  2
ACAD
 70
0
  0
ENDTAB
  0
TABLE
  2
BLOCK_RECORD
  5
1
100
AcDbSymbolTable
 70
0
  0
BLOCK_RECORD
  5
215
100
AcDbSymbolTableRecord
100
AcDbBlockTableRecord
  2
*Model_Space
  0
BLOCK_RECORD
  5
216
100
AcDbSymbolTableRecord
100
AcDbBlockTableRecord
  2
*Paper_Space
  0
BLOCK_RECORD
  5
217
100
AcDbSymbolTableRecord
100
AcDbBlockTableRecord
  2
_FILLED
  0
BLOCK_RECORD
  5
218
100
AcDbSymbolTableRecord
100
AcDbBlockTableRecord
  2
*D0
  0
BLOCK_RECORD
  5
219
100
AcDbSymbolTableRecord
100
AcDbBlockTableRecord
  2
*D1
  0
BLOCK_RECORD
  5
21A
100
AcDbSymbolTableRecord
100
AcDbBlockTableRecord
  2
*T1
  0
ENDTAB
  0
TABLE
  2
DIMSTYLE
  5
A
100
AcDbSymbolTable
 70
1
100
AcDbDimStyleTable
 71
0
  0
DIMSTYLE
105
21B
100
AcDbSymbolTableRecord
100
AcDbDimStyleTableRecord
  2
STANDARD
 70
0
  3

  4

 40
1.0
 41
3.5
 42
1.0
 43
0.38
 44
1.5
 45
0.0
 46
0.0
 47
0.001
 48
0.001
140
2.5
141
0.09
142
0.0
143
25.4
144
1.0
145
0.0
146
1.0
147
0.625
 71
1.0
 72
0.0
 73
1
 74
1
 75
0
 76
0
 77
0
 78
8
170
0
171
2
172
0
173
0
174
0
175
0
176
0
177
0
178
0
270
2
271
3
272
3
273
2
274
2
275
0
280
0
281
0
282
0
283
1
284
8
285
0
286
0
287
3
288
0
340
11
278
44
341
217
342
217
343
217
344
217
  0
DIMSTYLE
105
21C
100
AcDbSymbolTableRecord
100
AcDbDimStyleTableRecord
  2
DIMSTYLE_1
 70
0
  3

  4

 40
1.0
 41
3.5
 42
1.0
 43
0.38
 44
1.5
 45
0.0
 46
0.0
 47
0.0
 48
0.0
140
2.5
141
0.09
142
0.0
143
25.4
144
1.0
145
0.0
146
1.0
147
1.25
 71
0.0
 72
0.0
 73
1
 74
1
 75
0
 76
0
 77
0
 78
8
170
0
171
2
172
0
173
0
174
0
175
0
176
0
177
0
178
0
270
2
271
0
272
0
273
2
274
2
275
0
280
0
281
0
282
0
283
1
284
8
285
0
286
0
287
3
288
0
340
11
278
44
341
217
342
217
343
217
344
217
  0
ENDTAB
  0
ENDSEC
  0
SECTION
  2
BLOCKS
  0
BLOCK
  5
20
100
AcDbEntity
  8
0
100
AcDbBlockBegin
  2
*Model_Space
 70
0
 10
0.0
 20
0.0
 30
0.0
  3
*Model_Space
  1

  0
ENDBLK
  5
21
100
AcDbEntity
  8
0
100
AcDbBlockEnd
  0
BLOCK
  5
1C
100
AcDbEntity
  8
0
100
AcDbBlockBegin
  2
*Paper_Space
 70
0
 10
0.0
 20
0.0
 30
0.0
  3
*Paper_Space
  1

  0
ENDBLK
  5
1D
100
AcDbEntity
  8
0
100
AcDbBlockEnd
  0
BLOCK
  5
21D
100
AcDbEntity
  8
0
100
AcDbBlockBegin
  2
_FILLED
 70
64
 10
0.0
 20
0.0
  3
_FILLED
  1

  0
SOLID
  5
21E
100
AcDbEntity
  8
0
  6
BYBLOCK
 62
0
100
AcDbTrace
 10
0.0
 20
0.0
 11
-1.0
 21
0.2142857143
 12
-1.0
 22
-0.2142857143
 13
-1.0
 23
-0.2142857143
  0
ENDBLK
  5
21F
100
AcDbEntity
  8
0
  6
BYBLOCK
 62
0
100
AcDbBlockEnd
  0
BLOCK
  5
220
100
AcDbEntity
  8
0
100
AcDbBlockBegin
 62
2
  6
CONTINUOUS
  2
*D0
 70
65
 10
0.0
 20
0.0
  3
*D0
  1

  0
TEXT
  5
221
100
AcDbEntity
  8
0
100
AcDbText
 62
2
  6
CONTINUOUS
 10
39.2963811163
 20
107.0055876676
  7
STANDARD
 40
2.5
  1
120
 72
5
 11
44.7535795598
 21
107.0055876676
100
AcDbText
  0
LINE
  5
222
100
AcDbEntity
  8
0
100
AcDbLine
 62
2
  6
CONTINUOUS
 10
54.4177265389
 20
168.2468601352
 11
40.5249803381
 21
168.2468601352
  0
LINE
  5
223
100
AcDbEntity
  8
0
100
AcDbLine
 62
2
  6
CONTINUOUS
 10
54.4177265389
 20
48.2643152001
 11
40.5249803381
 21
48.2643152001
  0
LINE
  5
224
100
AcDbEntity
  8
0
100
AcDbLine
 62
2
  6
CONTINUOUS
 10
42.0249803381
 20
168.2468601352
 11
42.0249803381
 21
110.7555876676
  0
LINE
  5
225
100
AcDbEntity
  8
0
100
AcDbLine
 62
2
  6
CONTINUOUS
 10
42.0249803381
 20
48.2643152001
 11
42.0249803381
 21
105.7555876676
  0
INSERT
  5
226
100
AcDbEntity
  8
0
100
AcDbBlockReference
 62
2
  6
CONTINUOUS
  2
_FILLED
 10
42.0249803381
 20
168.2468601352
 41
3.5
 42
3.5
 43
3.5
 50
90.0
  0
INSERT
  5
227
100
AcDbEntity
  8
0
100
AcDbBlockReference
 62
2
  6
CONTINUOUS
  2
_FILLED
 10
42.0249803381
 20
48.2643152001
 41
3.5
 42
3.5
 43
3.5
 50
270.0
  0
ENDBLK
  5
228
100
AcDbEntity
  8
0
  6
BYBLOCK
 62
0
100
AcDbBlockEnd
  0
BLOCK
  5
229
100
AcDbEntity
  8
0
100
AcDbBlockBegin
 62
2
  6
CONTINUOUS
  2
*D1
 70
65
 10
0.0
 20
0.0
  3
*D1
  1

  0
TEXT
  5
22A
100
AcDbEntity
  8
0
100
AcDbText
 62
2
  6
CONTINUOUS
 10
68.7629331183
 20
177.0190781088
  7
STANDARD
 40
2.5
  1
30
 72
5
 11
72.401065414
 21
177.0190781088
100
AcDbText
  0
LINE
  5
22B
100
AcDbEntity
  8
0
100
AcDbLine
 62
2
  6
CONTINUOUS
 10
55.4177265389
 20
169.2468601352
 11
55.4177265389
 21
179.7690781088
  0
LINE
  5
22C
100
AcDbEntity
  8
0
100
AcDbLine
 62
2
  6
CONTINUOUS
 10
85.7462719934
 20
133.2613298019
 11
85.7462719934
 21
179.7690781088
  0
LINE
  5
22D
100
AcDbEntity
  8
0
100
AcDbLine
 62
2
  6
CONTINUOUS
 10
55.4177265389
 20
178.2690781088
 11
67.5129331183
 21
178.2690781088
  0
LINE
  5
22E
100
AcDbEntity
  8
0
100
AcDbLine
 62
2
  6
CONTINUOUS
 10
85.7462719934
 20
178.2690781088
 11
73.651065414
 21
178.2690781088
  0
INSERT
  5
22F
100
AcDbEntity
  8
0
100
AcDbBlockReference
 62
2
  6
CONTINUOUS
  2
_FILLED
 10
55.4177265389
 20
178.2690781088
 41
3.5
 42
3.5
 43
3.5
 50
180.0
  0
INSERT
  5
230
100
AcDbEntity
  8
0
100
AcDbBlockReference
 62
2
  6
CONTINUOUS
  2
_FILLED
 10
85.7462719934
 20
178.2690781088
 41
3.5
 42
3.5
 43
3.5
 50
360.0
  0
ENDBLK
  5
231
100
AcDbEntity
  8
0
  6
BYBLOCK
 62
0
100
AcDbBlockEnd
  0
BLOCK
  5
232
100
AcDbEntity
  8
0
100
AcDbBlockBegin
  2
*T1
 70
1
 10
0.0
 20
0.0
  3
*T1
  1

  0
LINE
  5
233
100
AcDbEntity
  8
0
100
AcDbLine
 62
7
  6
CONTINUOUS
 10
0.0
 20
0.0
 11
148.0
 21
0.0
  0
LINE
  5
234
100
AcDbEntity
  8
0
100
AcDbLine
 62
7
  6
CONTINUOUS
 10
0.0
 20
0.0
 11
0.0
 21
-43.0
  0
LINE
  5
235
100
AcDbEntity
  8
0
100
AcDbLine
 62
7
  6
CONTINUOUS
 10
45.0
 20
-23.0
 11
148.0
 21
-23.0
  0
LINE
  5
236
100
AcDbEntity
  8
0
100
AcDbLine
 62
7
  6
CONTINUOUS
 10
45.0
 20
-28.0
 11
148.0
 21
-28.0
  0
LINE
  5
237
100
AcDbEntity
  8
0
100
AcDbLine
 62
7
  6
CONTINUOUS
 10
0.0
 20
-43.0
 11
148.0
 21
-43.0
  0
LINE
  5
238
100
AcDbEntity
  8
0
100
AcDbLine
 62
7
  6
CONTINUOUS
 10
45.0
 20
0.0
 11
45.0
 21
-43.0
  0
LINE
  5
239
100
AcDbEntity
  8
0
100
AcDbLine
 62
7
  6
CONTINUOUS
 10
143.0
 20
0.0
 11
143.0
 21
-23.0
  0
LINE
  5
23A
100
AcDbEntity
  8
0
100
AcDbLine
 62
7
  6
CONTINUOUS
 10
148.0
 20
0.0
 11
148.0
 21
-43.0
  0
TEXT
  5
23B
100
AcDbEntity
  8
0
100
AcDbText
 62
7
  6
CONTINUOUS
 10
8.9659749243
 20
-10.675
  7
STANDARD
 40
8.0
  1
O
 72
5
 11
17.370644185
 21
-10.675
100
AcDbText
  0
TEXT
  5
23C
100
AcDbEntity
  8
0
100
AcDbText
 62
7
  6
CONTINUOUS
 10
17.370644185
 20
-10.675
  7
STANDARD
 40
5.5
  1
RAC
 72
5
 11
33.9562472979
 21
-10.675
100
AcDbText
  0
TEXT
  5
23D
100
AcDbEntity
  8
0
100
AcDbText
 62
7
  6
CONTINUOUS
 10
33.9562472979
 20
-5.925
  7
TEXTSTYLE_2
 40
3.0
  1
®
 72
5
 11
36.0340250757
 21
-5.925
100
AcDbText
  0
TEXT
  5
23E
100
AcDbEntity
  8
0
100
AcDbText
 62
7
  6
CONTINUOUS
 10
9.5323389537
 20
-15.325
  7
TEXTSTYLE_2
 40
3.0
  1
D  E  C  O  R
 72
5
 11
34.3878945093
 21
-15.325
100
AcDbText
  0
TEXT
  5
23F
100
AcDbEntity
  8
0
100
AcDbText
 62
7
  6
CONTINUOUS
 10
34.3878945093
 20
-15.325
  7
STANDARD
 40
2.5
  1
 
 72
5
 11
35.4676610463
 21
-15.325
100
AcDbText
  0
TEXT
  5
240
100
AcDbEntity
  8
0
100
AcDbText
 62
7
  6
CONTINUOUS
 10
52.5257352941
 20
-6.0
  7
TEXTSTYLE_3
 40
2.75
  1
Part name:
 72
5
 11
71.9375
 21
-6.0
100
AcDbText
  0
TEXT
  5
241
100
AcDbEntity
  8
0
100
AcDbText
 62
7
  6
CONTINUOUS
 10
49.2788865546
 20
-12.875
  7
TEXTSTYLE_3
 40
2.75
  1
Designed by:
 72
5
 11
71.9375
 21
-12.875
100
AcDbText
  0
TEXT
  5
242
100
AcDbEntity
  8
0
100
AcDbText
 62
7
  6
CONTINUOUS
 10
48.9553571429
 20
-19.75
  7
TEXTSTYLE_3
 40
2.75
  1
Designed on:
 72
5
 11
71.9375
 21
-19.75
100
AcDbText
  0
TEXT
  5
243
100
AcDbEntity
  8
0
100
AcDbText
 62
2
  6
CONTINUOUS
 10
74.0625
 20
-6.0
  7
TEXTSTYLE_3
 40
2.75
  1
P8050
 72
5
 11
85.0856092437
 21
-6.0
100
AcDbText
  0
TEXT
  5
244
100
AcDbEntity
  8
0
100
AcDbText
 62
2
  6
CONTINUOUS
 10
74.0625
 20
-12.875
  7
TEXTSTYLE_3
 40
2.75
  1
ORAC
 72
5
 11
84.1034663866
 21
-12.875
100
AcDbText
  0
TEXT
  5
245
100
AcDbEntity
  8
0
100
AcDbText
 62
2
  6
CONTINUOUS
 10
74.0625
 20
-19.75
  7
TEXTSTYLE_3
 40
2.75
  1
02-Sep-2008
 72
5
 11
96.3167016807
 21
-19.75
100
AcDbText
  0
TEXT
  5
246
100
AcDbEntity
  8
0
100
AcDbText
 62
2
  6
CONTINUOUS
 10
96.3167016807
 20
-19.75
  7
TEXTSTYLE_3
 40
2.75
  1
 
 72
5
 11
97.2988445378
 21
-19.75
100
AcDbText
  0
TEXT
  5
247
100
AcDbEntity
  8
0
100
AcDbText
 62
2
  6
CONTINUOUS
 10
146.5625
 20
-17.5
  7
TEXTSTYLE_3
 40
1.5
  1
Version: 
 50
90.0
 72
5
 11
146.5625
 21
-9.0294117647
100
AcDbText
  0
TEXT
  5
248
100
AcDbEntity
  8
0
100
AcDbText
 62
2
  6
CONTINUOUS
 10
146.5625
 20
-9.0294117647
  7
TEXTSTYLE_3
 40
1.5
  1
1.0
 50
90.0
 72
5
 11
146.5625
 21
-6.0357142857
100
AcDbText
  0
TEXT
  5
249
100
AcDbEntity
  8
0
100
AcDbText
 62
2
  6
CONTINUOUS
 10
146.5625
 20
-6.0357142857
  7
TEXTSTYLE_3
 40
1.5
  1
 
 50
90.0
 72
5
 11
146.5625
 21
-5.5
100
AcDbText
  0
TEXT
  5
24A
100
AcDbEntity
  8
0
100
AcDbText
 62
7
  6
CONTINUOUS
 10
9.6586134454
 20
-24.25
  7
TEXTSTYLE_3
 40
2.5
  1
Biekorfstraat 32
 72
5
 11
35.3413865546
 21
-24.25
100
AcDbText
  0
TEXT
  5
24B
100
AcDbEntity
  8
0
100
AcDbText
 62
7
  6
CONTINUOUS
 10
2.2584033613
 20
-28.0
  7
TEXTSTYLE_3
 40
2.5
  1
8400 Oostende - Belgium
 72
5
 11
42.7415966387
 21
-28.0
100
AcDbText
  0
TEXT
  5
24C
100
AcDbEntity
  8
0
100
AcDbText
 62
7
  6
CONTINUOUS
 10
4.2699579832
 20
-31.75
  7
TEXTSTYLE_3
 40
2.5
  1
Tel  +32 (0)59 80 32 52
 72
5
 11
40.7300420168
 21
-31.75
100
AcDbText
  0
TEXT
  5
24D
100
AcDbEntity
  8
0
100
AcDbText
 62
7
  6
CONTINUOUS
 10
5.7405462185
 20
-35.5
  7
TEXTSTYLE_3
 40
2.5
  1
www.oracdecor.com
 72
5
 11
39.2594537815
 21
-35.5
100
AcDbText
  0
TEXT
  5
24E
100
AcDbEntity
  8
0
100
AcDbText
 62
7
  6
CONTINUOUS
 10
5.5777310924
 20
-39.25
  7
TEXTSTYLE_3
 40
2.5
  1
info@oracdecor.com
 72
5
 11
39.4222689076
 21
-39.25
100
AcDbText
  0
TEXT
  5
24F
100
AcDbEntity
  8
0
100
AcDbText
 62
7
  6
CONTINUOUS
 10
46.0625
 20
-26.75
  7
TEXTSTYLE_3
 40
2.5
  1
All dimensions are in mm unless otherwise specified   
 72
5
 11
132.3019957983
 21
-26.75
100
AcDbText
  0
TEXT
  5
250
100
AcDbEntity
  8
0
100
AcDbText
 62
7
  6
CONTINUOUS
 10
46.0625
 20
-31.7075
  7
TEXTSTYLE_3
 40
1.85
  1
All information in this document is Orac's exclusive property.  It may in no case 
 72
5
 11
140.0471638655
 21
-31.7075
100
AcDbText
  0
TEXT
  5
251
100
AcDbEntity
  8
0
100
AcDbText
 62
7
  6
CONTINUOUS
 10
46.0625
 20
-34.8525
  7
TEXTSTYLE_3
 40
1.85
  1
be reproduced, even partly, be communicated to a third party or used for any 
 72
5
 11
138.8345588235
 21
-34.8525
100
AcDbText
  0
TEXT
  5
252
100
AcDbEntity
  8
0
100
AcDbText
 62
7
  6
CONTINUOUS
 10
46.0625
 20
-37.9975
  7
TEXTSTYLE_3
 40
1.85
  1
possible purpose without ORAC's express written permission. 
 72
5
 11
119.4484243697
 21
-37.9975
100
AcDbText
  0
TEXT
  5
253
100
AcDbEntity
  8
0
100
AcDbText
 62
7
  6
CONTINUOUS
 10
46.0625
 20
-41.1425
  7
TEXTSTYLE_3
 40
1.85
  1
Further legal information can be found at http://www.oracdecor.be/nl/disclaimer 
 72
5
 11
143.7316176471
 21
-41.1425
100
AcDbText
  0
ENDBLK
  5
254
100
AcDbEntity
  8
0
  6
BYBLOCK
 62
0
100
AcDbBlockEnd
  0
ENDSEC
  0
SECTION
  2
ENTITIES
  0
DIMENSION
  5
255
100
AcDbEntity
  8
0
100
AcDbDimension
 62
2
  6
CONTINUOUS
  2
*D0
 10
42.0249803381
 20
48.2643152001
 11
42.0249803381
 21
108.2555876676
 70
160
 71
2
 42
119.9825449351
  3
DIMSTYLE_1
100
AcDbAlignedDimension
 13
55.4177265389
 23
168.2468601352
 14
55.4177265389
 24
48.2643152001
 50
270.0
100
AcDbRotatedDimension
  0
DIMENSION
  5
256
100
AcDbEntity
  8
0
100
AcDbDimension
 62
2
  6
CONTINUOUS
  2
*D1
 10
85.7462719934
 20
178.2690781088
 11
70.5819992662
 21
178.2690781088
 70
160
 71
2
 42
30.3285454545
  3
DIMSTYLE_1
100
AcDbAlignedDimension
 13
55.4177265389
 23
168.2468601352
 14
85.7462719934
 24
132.2613298019
 50
360.0
100
AcDbRotatedDimension
  0
ACAD_TABLE
  5
257
100
AcDbEntity
  8
0
 62
2
  6
CONTINUOUS
100
AcDbBlockReference
  2
*T1
 10
143.9999958937
 20
47.9999925619
 30
0.0
100
AcDbTable
342
       2C7
343
21A
 11
1.0
 21
0.0
 31
0.0
 90
22
 91
4
 92
4
 93
0
 94
0
 95
0
 96
0
141
18.0
141
5.0
141
5.0
141
15.0
142
45.0
142
28.0
142
70.0
142
5.0
171
1
172
0
173
0
174
0
175
1
176
1
 91
41
178
0
145
0.0
301
CELL_VALUE
 90
4
  1
O\H5.5;RAC\P\Ftrium.ttf;\H3.0;®\PD  E  C  O  R\Fcgtime.ttf;\H2.5; 
304
ACVALUE_END
170
5
140
8.0
 64
7
171
1
172
0
173
0
174
0
175
1
176
2
 91
41
178
0
145
0.0
301
CELL_VALUE
 90
4
  1
Part name:\PDesigned by:\PDesigned on:
304
ACVALUE_END
170
6
140
2.75
 64
7
171
1
172
0
173
0
174
0
175
1
176
2
 91
33
178
0
145
0.0
301
CELL_VALUE
 90
4
  1
P8050\PORAC\P02-Sep-2008 
304
ACVALUE_END
170
4
140
2.75
171
1
172
0
173
0
174
0
175
1
176
2
 91
33
178
0
145
0.0
301
CELL_VALUE
 90
4
  1
Version: 1.0 
304
ACVALUE_END
170
6
140
1.5
171
1
172
0
173
0
174
0
175
1
176
3
 91
41
178
0
145
0.0
301
CELL_VALUE
 90
4
  1
Biekorfstraat 32\P8400 Oostende - Belgium\PTel  +32 (0)59 80 32 52\Pwww.oracdecor.com\Pinfo@oracdecor.com
304
ACVALUE_END
170
5
140
2.5
 64
7
171
1
172
0
173
1
174
0
175
1
176
1
 91
1
178
0
145
0.0
170
1
171
1
172
0
173
1
174
0
175
1
176
1
 91
1
178
0
145
0.0
170
1
171
1
172
0
173
1
174
0
175
1
176
1
 91
1
178
0
145
0.0
170
1
171
1
172
0
173
1
174
0
175
1
176
1
 91
1
178
0
145
0.0
170
1
171
1
172
0
173
0
174
0
175
3
176
1
 91
41
178
0
145
0.0
301
CELL_VALUE
 90
4
  1
All dimensions are in mm unless otherwise specified   
304
ACVALUE_END
170
1
140
2.5
 64
7
171
1
172
0
173
1
174
0
175
1
176
1
 91
1
178
0
145
0.0
170
1
171
1
172
0
173
1
174
0
175
1
176
1
 91
1
178
0
145
0.0
170
1
171
1
172
0
173
1
174
0
175
1
176
1
 91
1
178
0
145
0.0
170
1
171
1
172
0
173
0
174
0
175
3
176
1
 91
41
178
0
145
0.0
301
CELL_VALUE
 90
4
  2
All information in this document is Orac's exclusive property.  It may in no case \Pbe reproduced, even partly, be communicated to a third party or used for any \Ppossible purpose without ORAC's express written permission. \PFurther legal information
  1
 can be found at http://www.oracdecor.be/nl/disclaimer 
304
ACVALUE_END
170
4
140
1.85
 64
7
171
1
172
0
173
1
174
0
175
1
176
1
 91
1
178
0
145
0.0
170
1
171
1
172
0
173
1
174
0
175
1
176
1
 91
1
178
0
145
0.0
170
1
  0
LINE
  5
258
100
AcDbEntity
  8
0
100
AcDbLine
 62
5
  6
CONTINUOUS
 10
0.0
 20
0.0
 11
0.0
 21
210.0
  0
LINE
  5
259
100
AcDbEntity
  8
0
100
AcDbLine
 62
7
  6
CONTINUOUS
 10
5.0
 20
5.0
 11
5.0
 21
195.0
  0
LINE
  5
25A
100
AcDbEntity
  8
0
100
AcDbLine
 62
5
  6
CONTINUOUS
 10
0.0
 20
0.0
 11
297.0
 21
0.0
  0
LINE
  5
25B
100
AcDbEntity
  8
0
100
AcDbLine
 62
7
  6
CONTINUOUS
 10
5.0
 20
5.0
 11
292.0
 21
5.0
  0
LINE
  5
25C
100
AcDbEntity
  8
0
100
AcDbLine
 62
4
  6
CONTINUOUS
 10
148.5
 20
195.0
 11
148.5
 21
205.0
  0
LINE
  5
25D
100
AcDbEntity
  8
0
100
AcDbLine
 62
7
  6
CONTINUOUS
 10
5.0
 20
195.0
 11
292.0
 21
195.0
  0
LINE
  5
25E
100
AcDbEntity
  8
0
100
AcDbLine
 62
5
  6
CONTINUOUS
 10
0.0
 20
210.0
 11
297.0
 21
210.0
  0
LINE
  5
25F
100
AcDbEntity
  8
0
100
AcDbLine
 62
7
  6
CONTINUOUS
 10
292.0
 20
5.0
 11
292.0
 21
195.0
  0
LINE
  5
260
100
AcDbEntity
  8
0
100
AcDbLine
 62
5
  6
CONTINUOUS
 10
297.0
 20
0.0
 11
297.0
 21
210.0
  0
LINE
  5
261
100
AcDbEntity
  8
0
100
AcDbLine
 62
7
  6
CONTINUOUS
 10
182.4553536609
 20
56.7506994324
 11
186.9492152548
 21
56.9651459858
  0
LINE
  5
262
100
AcDbEntity
  8
0
100
AcDbLine
 62
7
  6
CONTINUOUS
 10
241.9089409096
 20
61.8163279861
 11
186.9492152548
 21
56.9651459858
  0
LINE
  5
263
100
AcDbEntity
  8
0
100
AcDbLine
 62
7
  6
CONTINUOUS
 10
248.8567806677
 20
74.4926492735
 11
193.8970550129
 21
69.6414672731
  0
LINE
  5
264
100
AcDbEntity
  8
0
100
AcDbLine
 62
7
  6
CONTINUOUS
 10
182.4553536609
 20
56.7506994324
 11
182.2747308733
 21
62.716385043
  0
LINE
  5
265
100
AcDbEntity
  8
0
100
AcDbLine
 62
7
  6
CONTINUOUS
 10
182.184143709
 20
65.7083361147
 11
181.9798118841
 21
72.4570938115
  0
LINE
  5
266
100
AcDbEntity
  8
0
100
AcDbLine
 62
7
  6
CONTINUOUS
 10
181.3470687768
 20
93.3556000395
 11
180.7595354446
 21
112.7608987502
  0
LINE
  5
267
100
AcDbEntity
  8
0
100
AcDbLine
 62
7
  6
CONTINUOUS
 10
179.2846400192
 20
161.4743669471
 11
179.0955261503
 21
167.7204995753
  0
LINE
  5
268
100
AcDbEntity
  8
0
100
AcDbLine
 62
7
  6
CONTINUOUS
 10
179.0049389859
 20
170.712450647
 11
178.8243161984
 21
176.6781362576
  0
LINE
  5
269
100
AcDbEntity
  8
0
100
AcDbLine
 62
7
  6
CONTINUOUS
 10
250.9537947097
 20
77.0001050129
 11
195.9940690549
 21
72.1489230126
  0
LINE
  5
26A
100
AcDbEntity
  8
0
100
AcDbLine
 62
7
  6
CONTINUOUS
 10
183.7635081386
 20
75.9150828501
 11
183.4157537888
 21
87.4008601921
  0
LINE
  5
26B
100
AcDbEntity
  8
0
100
AcDbLine
 62
7
  6
CONTINUOUS
 10
247.6509169612
 20
83.1781850638
 11
192.6911913064
 21
78.3270030634
  0
LINE
  5
26C
100
AcDbEntity
  8
0
100
AcDbLine
 62
7
  6
CONTINUOUS
 10
192.6911913064
 20
78.3270030634
 11
192.5756414885
 21
82.1434311866
  0
LINE
  5
26D
100
AcDbEntity
  8
0
100
AcDbLine
 62
7
  6
CONTINUOUS
 10
247.5353671433
 20
86.994613187
 11
250.7904845123
 21
87.3214231238
  0
LINE
  5
26E
100
AcDbEntity
  8
0
100
AcDbLine
 62
7
  6
CONTINUOUS
 10
192.5756414885
 20
82.1434311866
 11
195.8307588575
 21
82.4702411235
  0
LINE
  5
26F
100
AcDbEntity
  8
0
100
AcDbLine
 62
7
  6
CONTINUOUS
 10
247.5353671433
 20
86.994613187
 11
192.5756414885
 21
82.1434311866
  0
LINE
  5
270
100
AcDbEntity
  8
0
100
AcDbLine
 62
7
  6
CONTINUOUS
 10
250.7904845123
 20
87.3214231238
 11
195.8307588575
 21
82.4702411235
  0
LINE
  5
271
100
AcDbEntity
  8
0
100
AcDbLine
 62
7
  6
CONTINUOUS
 10
195.8307588575
 20
82.4702411235
 11
195.6326734554
 21
89.0126893347
  0
LINE
  5
272
100
AcDbEntity
  8
0
100
AcDbLine
 62
7
  6
CONTINUOUS
 10
189.6316400141
 20
124.5772994746
 11
197.1484474309
 21
135.2084606969
  0
LINE
  5
273
100
AcDbEntity
  8
0
100
AcDbLine
 62
7
  6
CONTINUOUS
 10
250.5923991101
 20
93.8638713351
 11
195.6326734554
 21
89.0126893347
  0
LINE
  5
274
100
AcDbEntity
  8
0
100
AcDbLine
 62
7
  6
CONTINUOUS
 10
199.4571544435
 20
118.6355769162
 11
199.2643183045
 21
125.0046502499
  0
LINE
  5
275
100
AcDbEntity
  8
0
100
AcDbLine
 62
7
  6
CONTINUOUS
 10
198.2788261794
 20
157.553899822
 11
198.0859900404
 21
163.9229731556
  0
LINE
  5
276
100
AcDbEntity
  8
0
100
AcDbLine
 62
7
  6
CONTINUOUS
 10
243.4518748076
 20
109.948724898
 11
188.4921491528
 21
105.0975428976
  0
LINE
  5
277
100
AcDbEntity
  8
0
100
AcDbLine
 62
7
  6
CONTINUOUS
 10
181.9798118841
 20
72.4570938115
 11
183.4117999965
 21
74.6594459696
  0
LINE
  5
278
100
AcDbEntity
  8
0
100
AcDbLine
 62
7
  6
CONTINUOUS
 10
196.6321607999
 20
147.4258580844
 11
188.7417086714
 21
156.79591948
  0
LINE
  5
279
100
AcDbEntity
  8
0
100
AcDbLine
 62
7
  6
CONTINUOUS
 10
254.4168800983
 20
123.4867589166
 11
199.4571544435
 21
118.6355769162
  0
LINE
  5
27A
100
AcDbEntity
  8
0
100
AcDbLine
 62
7
  6
CONTINUOUS
 10
254.2240439593
 20
129.8558322502
 11
199.2643183045
 21
125.0046502499
  0
LINE
  5
27B
100
AcDbEntity
  8
0
100
AcDbLine
 62
7
  6
CONTINUOUS
 10
247.6509169612
 20
83.1781850638
 11
247.5353671433
 21
86.994613187
  0
LINE
  5
27C
100
AcDbEntity
  8
0
100
AcDbLine
 62
7
  6
CONTINUOUS
 10
265.1762691064
 20
146.4764729882
 11
210.2165434516
 21
141.6252909878
  0
LINE
  5
27D
100
AcDbEntity
  8
0
100
AcDbLine
 62
7
  6
CONTINUOUS
 10
187.1660945272
 20
157.9770782042
 11
179.5297947425
 21
161.3470542858
  0
LINE
  5
27E
100
AcDbEntity
  8
0
100
AcDbLine
 62
7
  6
CONTINUOUS
 10
250.7904845123
 20
87.3214231238
 11
250.5923991101
 21
93.8638713351
  0
LINE
  5
27F
100
AcDbEntity
  8
0
100
AcDbLine
 62
7
  6
CONTINUOUS
 10
254.4168800983
 20
123.4867589166
 11
254.2240439593
 21
129.8558322502
  0
LINE
  5
280
100
AcDbEntity
  8
0
100
AcDbLine
 62
7
  6
CONTINUOUS
 10
253.2385518342
 20
162.4050818223
 11
253.0457156952
 21
168.774155156
  0
LINE
  5
281
100
AcDbEntity
  8
0
100
AcDbLine
 62
7
  6
CONTINUOUS
 10
253.2385518342
 20
162.4050818223
 11
198.2788261794
 21
157.553899822
  0
LINE
  5
282
100
AcDbEntity
  8
0
100
AcDbLine
 62
7
  6
CONTINUOUS
 10
253.0457156952
 20
168.774155156
 11
198.0859900404
 21
163.9229731556
  0
LINE
  5
283
100
AcDbEntity
  8
0
100
AcDbLine
 62
7
  6
CONTINUOUS
 10
241.2817348283
 20
181.6250234633
 11
186.3220091735
 21
176.7738414629
  0
LINE
  5
284
100
AcDbEntity
  8
0
100
AcDbLine
 62
7
  6
CONTINUOUS
 10
233.7840418532
 20
181.529318258
 11
178.8243161984
 21
176.6781362576
  0
LINE
  5
285
100
AcDbEntity
  8
0
100
AcDbLine
 62
7
  6
CONTINUOUS
 10
186.3220091735
 20
176.7738414629
 11
178.8243161984
 21
176.6781362576
  0
LINE
  5
286
100
AcDbEntity
  8
0
100
AcDbLine
 62
7
  6
CONTINUOUS
 10
241.2817348283
 20
181.6250234633
 11
233.7840418532
 21
181.529318258
  0
LINE
  5
287
100
AcDbEntity
  8
0
100
AcDbLine
 62
7
  6
CONTINUOUS
 10
55.4177265389
 20
48.2643152001
 11
59.9177265389
 21
48.3428629923
  0
LINE
  5
288
100
AcDbEntity
  8
0
100
AcDbLine
 62
7
  6
CONTINUOUS
 10
66.3059714653
 20
73.3396547925
 11
69.5707265389
 21
73.5679487066
  0
LINE
  5
289
100
AcDbEntity
  8
0
100
AcDbLine
 62
7
  6
CONTINUOUS
 10
55.4177265389
 20
48.2643152001
 11
55.4177265389
 21
54.2327421155
  0
LINE
  5
28A
100
AcDbEntity
  8
0
100
AcDbLine
 62
7
  6
CONTINUOUS
 10
55.4177265389
 20
57.2260680249
 11
55.4177265389
 21
63.9779268576
  0
LINE
  5
28B
100
AcDbEntity
  8
0
100
AcDbLine
 62
7
  6
CONTINUOUS
 10
55.4177265389
 20
84.8860362024
 11
55.4177265389
 21
104.3002518829
  0
LINE
  5
28C
100
AcDbEntity
  8
0
100
AcDbLine
 62
7
  6
CONTINUOUS
 10
55.4177265389
 20
153.0361045085
 11
55.4177265389
 21
159.2851073103
  0
LINE
  5
28D
100
AcDbEntity
  8
0
100
AcDbLine
 62
7
  6
CONTINUOUS
 10
55.4177265389
 20
162.2784332197
 11
55.4177265389
 21
168.2468601352
  0
LINE
  5
28E
100
AcDbEntity
  8
0
100
AcDbLine
 62
7
  6
CONTINUOUS
 10
57.3059714653
 20
67.3804390585
 11
57.3059714653
 21
78.8714942542
  0
LINE
  5
28F
100
AcDbEntity
  8
0
100
AcDbLine
 62
7
  6
CONTINUOUS
 10
64.6468689171
 20
115.8431627281
 11
72.4849382502
 21
126.242329924
  0
LINE
  5
290
100
AcDbEntity
  8
0
100
AcDbLine
 62
7
  6
CONTINUOUS
 10
66.3059714653
 20
69.5214729744
 11
66.3059714653
 21
73.3396547925
  0
LINE
  5
291
100
AcDbEntity
  8
0
100
AcDbLine
 62
7
  6
CONTINUOUS
 10
69.5707265389
 20
73.5679487066
 11
69.5707265389
 21
80.1134032521
  0
LINE
  5
292
100
AcDbEntity
  8
0
100
AcDbLine
 62
7
  6
CONTINUOUS
 10
74.2917265389
 20
109.6072266286
 11
74.2917265389
 21
115.9792266286
  0
LINE
  5
293
100
AcDbEntity
  8
0
100
AcDbLine
 62
7
  6
CONTINUOUS
 10
74.2917265389
 20
148.5434329751
 11
74.2917265389
 21
154.9154329751
  0
LINE
  5
294
100
AcDbEntity
  8
0
100
AcDbLine
 62
7
  6
CONTINUOUS
 10
55.4177265389
 20
63.9779268576
 11
56.9162771525
 21
66.1360023921
  0
LINE
  5
295
100
AcDbEntity
  8
0
100
AcDbLine
 62
7
  6
CONTINUOUS
 10
72.3385687221
 20
138.4697648783
 11
64.7324125067
 21
148.0740023136
  0
LINE
  5
296
100
AcDbEntity
  8
0
100
AcDbLine
 62
7
  6
CONTINUOUS
 10
63.1926815069
 20
149.3022369638
 11
55.6590076213
 21
152.9014414396
  0
LINE
  5
297
100
AcDbEntity
  8
0
100
AcDbLine
 62
7
  6
CONTINUOUS
 10
62.9177265389
 20
168.1159471482
 11
55.4177265389
 21
168.2468601352
  0
ARC
  5
298
100
AcDbEntity
  8
0
100
AcDbCircle
 62
7
  6
CONTINUOUS
 10
256.1577194098
 20
62.2490451772
 40
14.2552568474
100
AcDbArc
 50
120.8078917843
 51
181.7394649773
  0
ARC
  5
299
100
AcDbEntity
  8
0
100
AcDbCircle
 62
7
  6
CONTINUOUS
 10
201.197993755
 20
57.3978631769
 40
14.2552568474
100
AcDbArc
 50
120.8078917843
 51
181.7394649773
  0
ARC
  5
29A
100
AcDbEntity
  8
0
100
AcDbCircle
 62
7
  6
CONTINUOUS
 10
188.9804951105
 20
140.9828843662
 40
10.0029981163
100
AcDbArc
 50
324.7411794636
 51
40.0985669178
  0
ARC
  5
29B
100
AcDbEntity
  8
0
100
AcDbCircle
 62
7
  6
CONTINUOUS
 10
177.4163751542
 20
87.2192242767
 40
6.00212759
100
AcDbArc
 50
1.7341451481
 51
26.8263278245
  0
ARC
  5
29C
100
AcDbEntity
  8
0
100
AcDbCircle
 62
7
  6
CONTINUOUS
 10
246.3231893304
 20
78.7421271534
 40
4.9474384601
100
AcDbArc
 50
300.803920436
 51
339.3838260444
  0
ARC
  5
29D
100
AcDbEntity
  8
0
100
AcDbCircle
 62
7
  6
CONTINUOUS
 10
191.3634636756
 20
73.8909451531
 40
4.9474384601
100
AcDbArc
 50
300.8039204361
 51
339.3838260445
  0
ARC
  5
29E
100
AcDbEntity
  8
0
100
AcDbCircle
 62
7
  6
CONTINUOUS
 10
246.5935891833
 20
78.6411431771
 40
4.6587184987
100
AcDbArc
 50
339.3753106787
 51
76.8817316044
  0
ARC
  5
29F
100
AcDbEntity
  8
0
100
AcDbCircle
 62
7
  6
CONTINUOUS
 10
191.6338635285
 20
73.7899611768
 40
4.6587184987
100
AcDbArc
 50
339.3753106781
 51
76.8817316039
  0
ARC
  5
2A0
100
AcDbEntity
  8
0
100
AcDbCircle
 62
7
  6
CONTINUOUS
 10
185.4046406181
 20
153.9858960466
 40
4.3625972642
100
AcDbArc
 50
40.0995097831
 51
66.1863872588
  0
ARC
  5
2A1
100
AcDbEntity
  8
0
100
AcDbCircle
 62
7
  6
CONTINUOUS
 10
186.0696904385
 20
127.0957207736
 40
4.3623308699
100
AcDbArc
 50
306.8011617334
 51
324.7383706869
  0
ARC
  5
2A2
100
AcDbEntity
  8
0
100
AcDbCircle
 62
7
  6
CONTINUOUS
 10
180.4113203436
 20
163.3442228165
 40
2.1830642514
100
AcDbArc
 50
238.9289646205
 51
246.1839270883
  0
ARC
  5
2A3
100
AcDbEntity
  8
0
100
AcDbCircle
 62
7
  6
CONTINUOUS
 10
181.5821504909
 20
75.8490127527
 40
2.1823580011
100
AcDbArc
 50
326.9696474475
 51
1.7348740434
  0
ARC
  5
2A4
100
AcDbEntity
  8
0
100
AcDbCircle
 62
7
  6
CONTINUOUS
 10
178.0500164624
 20
169.1861815888
 40
1.8003866159
100
AcDbArc
 50
305.501266113
 51
57.9675121669
  0
ARC
  5
2A5
100
AcDbEntity
  8
0
100
AcDbCircle
 62
7
  6
CONTINUOUS
 10
181.2292211854
 20
64.1820670565
 40
1.8003866159
100
AcDbArc
 50
305.5012661133
 51
57.9675121666
  0
ARC
  5
2A6
100
AcDbEntity
  8
0
100
AcDbCircle
 62
7
  6
CONTINUOUS
 10
74.1728748243
 20
48.3428629923
 40
14.2551482854
100
AcDbArc
 50
119.0599997554
 51
180.0
  0
ARC
  5
2A7
100
AcDbEntity
  8
0
100
AcDbCircle
 62
7
  6
CONTINUOUS
 10
64.499223475
 20
132.2613298019
 40
10.0
100
AcDbArc
 50
322.9939042153
 51
38.3777580675
  0
ARC
  5
2A8
100
AcDbEntity
  8
0
100
AcDbCircle
 62
7
  6
CONTINUOUS
 10
51.3059714653
 20
78.8714942542
 40
6.0
100
AcDbArc
 50
0.0
 51
25.1014756392
  0
ARC
  5
2A9
100
AcDbEntity
  8
0
100
AcDbCircle
 62
7
  6
CONTINUOUS
 10
64.8452441926
 20
65.1288743388
 40
4.9483636364
100
AcDbArc
 50
299.0599997553
 51
337.6400277847
  0
ARC
  5
2AA
100
AcDbEntity
  8
0
100
AcDbCircle
 62
7
  6
CONTINUOUS
 10
65.1136078289
 20
65.0184821005
 40
4.6581818182
100
AcDbArc
 50
337.6400277847
 51
75.1688177648
  0
ARC
  5
2AB
100
AcDbEntity
  8
0
100
AcDbCircle
 62
7
  6
CONTINUOUS
 10
61.1621933788
 20
118.4696354021
 40
4.3636363636
100
AcDbArc
 50
305.0581521838
 51
322.9939042153
  0
ARC
  5
2AC
100
AcDbEntity
  8
0
100
AcDbCircle
 62
7
  6
CONTINUOUS
 10
61.3116073079
 20
145.3648670076
 40
4.3636363636
100
AcDbArc
 50
38.3777580675
 51
64.4639123038
  0
ARC
  5
2AD
100
AcDbEntity
  8
0
100
AcDbCircle
 62
7
  6
CONTINUOUS
 10
56.5995447209
 20
154.8701264179
 40
2.181818182
100
AcDbArc
 50
237.2028317016
 51
244.4639123038
  0
ARC
  5
2AE
100
AcDbEntity
  8
0
100
AcDbCircle
 62
7
  6
CONTINUOUS
 10
55.1241532833
 20
67.3804390585
 40
2.181818182
100
AcDbArc
 50
325.2241918296
 51
360.0
  0
ARC
  5
2AF
100
AcDbEntity
  8
0
100
AcDbCircle
 62
7
  6
CONTINUOUS
 10
54.4177265389
 20
160.781770265
 40
1.8
100
AcDbArc
 50
303.7489885959
 51
56.2510114041
  0
ARC
  5
2B0
100
AcDbEntity
  8
0
100
AcDbCircle
 62
7
  6
CONTINUOUS
 10
54.4177265389
 20
55.7294050702
 40
1.8
100
AcDbArc
 50
303.7489885959
 51
56.2510114041
  0
SPLINE
  5
2B1
100
AcDbEntity
  8
0
100
AcDbSpline
 62
7
  6
CONTINUOUS
 70
0
 71
3
 72
17
 73
13
 74
0
 42
0.0000001
 43
0.0000001
 44
0.0000000001
 40
0.0
 40
0.0
 40
0.0
 40
0.0
 40
0.1351276109
 40
0.2658567045
 40
0.3922299914
 40
0.5145008066
 40
0.6335175097
 40
0.7510713883
 40
0.8104034466
 40
0.8709610598
 40
0.9337122202
 40
1.0
 40
1.0
 40
1.0
 40
1.0
 10
243.4518748076
 20
109.948724898
 30
0.0
 10
243.4770756583
 20
109.1163805711
 30
0.0
 10
243.5677726279
 20
107.4795303508
 30
0.0
 10
243.8523678531
 20
105.077410398
 30
0.0
 10
244.3023803558
 20
102.7803661704
 30
0.0
 10
244.9520050547
 20
100.605199137
 30
0.0
 10
245.8361509978
 20
98.5713676426
 30
0.0
 10
246.8173702936
 20
97.0222409773
 30
0.0
 10
247.771249405
 20
95.9096189865
 30
0.0
 10
248.5925331969
 20
95.1365440254
 30
0.0
 10
249.5315049716
 20
94.4367923199
 30
0.0
 10
250.2254462443
 20
94.0433631439
 30
0.0
 10
250.5923991101
 20
93.8638713351
 30
0.0
  0
SPLINE
  5
2B2
100
AcDbEntity
  8
0
100
AcDbSpline
 62
7
  6
CONTINUOUS
 70
0
 71
3
 72
18
 73
14
 74
0
 42
0.0000001
 43
0.0000001
 44
0.0000000001
 40
0.0
 40
0.0
 40
0.0
 40
0.0
 40
0.073281534
 40
0.1402906761
 40
0.2034983428
 40
0.2642178291
 40
0.3813761456
 40
0.4962860135
 40
0.6118784406
 40
0.7310058189
 40
0.793089884
 40
0.85778621
 40
1.0
 40
1.0
 40
1.0
 40
1.0
 10
254.4168800983
 20
123.4867589166
 30
0.0
 10
253.9570331734
 20
123.4324659341
 30
0.0
 10
253.0831108382
 20
123.2640893921
 30
0.0
 10
251.8597165484
 20
122.8597574675
 30
0.0
 10
250.7599837581
 20
122.3580604996
 30
0.0
 10
249.4431931487
 20
121.5882720478
 30
0.0
 10
247.9753011561
 20
120.4465929955
 30
0.0
 10
246.4746957452
 20
118.8305887209
 30
0.0
 10
245.2292129305
 20
116.9959281378
 30
0.0
 10
244.4226079025
 20
115.2936769719
 30
0.0
 10
243.9301555244
 20
113.8180365267
 30
0.0
 10
243.5374826903
 20
112.163042518
 30
0.0
 10
243.4246803894
 20
110.8469136119
 30
0.0
 10
243.4518748076
 20
109.948724898
 30
0.0
  0
SPLINE
  5
2B3
100
AcDbEntity
  8
0
100
AcDbSpline
 62
7
  6
CONTINUOUS
 70
0
 71
3
 72
17
 73
13
 74
0
 42
0.0000001
 43
0.0000001
 44
0.0000000001
 40
0.0
 40
0.0
 40
0.0
 40
0.0
 40
0.2498119225
 40
0.3748770623
 40
0.4998911755
 40
0.6248277162
 40
0.6873685475
 40
0.7499018597
 40
0.8124289556
 40
0.8749527388
 40
0.9374738846
 40
1.0
 40
1.0
 40
1.0
 40
1.0
 10
265.1762691064
 20
146.4764729882
 30
0.0
 10
265.2316365992
 20
144.6477720838
 30
0.0
 10
265.0481282475
 20
141.8774658938
 30
0.0
 10
264.1069616232
 20
138.3287708302
 30
0.0
 10
262.9973048777
 20
135.8022640975
 30
0.0
 10
261.6909239895
 20
133.901037203
 30
0.0
 10
260.4122740256
 20
132.5851851332
 30
0.0
 10
259.3398659189
 20
131.7204893492
 30
0.0
 10
258.1658013454
 20
130.9996966566
 30
0.0
 10
256.9072543998
 20
130.4390850543
 30
0.0
 10
255.5864653554
 20
130.0481933187
 30
0.0
 10
254.6796736984
 20
129.9015769376
 30
0.0
 10
254.2240439593
 20
129.8558322502
 30
0.0
  0
SPLINE
  5
2B4
100
AcDbEntity
  8
0
100
AcDbSpline
 62
7
  6
CONTINUOUS
 70
0
 71
3
 72
17
 73
13
 74
0
 42
0.0000001
 43
0.0000001
 44
0.0000000001
 40
0.0
 40
0.0
 40
0.0
 40
0.0
 40
0.0625270668
 40
0.1250513511
 40
0.187579448
 40
0.2501112188
 40
0.3126480404
 40
0.3751906346
 40
0.5001282279
 40
0.6251387495
 40
0.7501977971
 40
1.0
 40
1.0
 40
1.0
 40
1.0
 10
253.2385518342
 20
162.4050818223
 30
0.0
 10
253.6961320853
 20
162.386945078
 30
0.0
 10
254.6101786206
 20
162.2953681079
 30
0.0
 10
255.9522665037
 20
161.9849608266
 30
0.0
 10
257.2424949609
 20
161.5013458795
 30
0.0
 10
258.4580730753
 20
160.8527375889
 30
0.0
 10
259.5808498119
 20
160.0543436515
 30
0.0
 10
260.9367393623
 20
158.8180902211
 30
0.0
 10
262.3556799356
 20
156.9992607669
 30
0.0
 10
263.6160750652
 20
154.5444657585
 30
0.0
 10
264.7701381769
 20
151.0592362301
 30
0.0
 10
265.1209022879
 20
148.3051516215
 30
0.0
 10
265.1762691064
 20
146.4764729882
 30
0.0
  0
SPLINE
  5
2B5
100
AcDbEntity
  8
0
100
AcDbSpline
 62
7
  6
CONTINUOUS
 70
0
 71
3
 72
20
 73
16
 74
0
 42
0.0000001
 43
0.0000001
 44
0.0000000001
 40
0.0
 40
0.0
 40
0.0
 40
0.0
 40
0.1452039747
 40
0.2109390074
 40
0.2737268725
 40
0.3933192699
 40
0.5082834134
 40
0.6217194821
 40
0.6789076372
 40
0.7370386202
 40
0.7967911896
 40
0.8592275577
 40
0.9259264559
 40
0.9617429362
 40
1.0
 40
1.0
 40
1.0
 40
1.0
 10
241.2817348283
 20
181.6250234633
 30
0.0
 10
241.3097951542
 20
180.6982351849
 30
0.0
 10
241.4934973509
 20
179.3515381783
 30
0.0
 10
241.9720255283
 20
177.6689918843
 30
0.0
 10
242.5369274024
 20
176.1868969088
 30
0.0
 10
243.4246344815
 20
174.4986509999
 30
0.0
 10
244.7616668905
 20
172.7127337503
 30
0.0
 10
246.0821137537
 20
171.4414378646
 30
0.0
 10
247.2584836449
 20
170.5725933303
 30
0.0
 10
248.2169471743
 20
169.9938650364
 30
0.0
 10
249.2579300027
 20
169.4968064136
 30
0.0
 10
250.4004005971
 20
169.1018800376
 30
0.0
 10
251.4335390071
 20
168.8805286403
 30
0.0
 10
252.3279605732
 20
168.7840866005
 30
0.0
 10
252.8014416911
 20
168.771037091
 30
0.0
 10
253.0457156952
 20
168.774155156
 30
0.0
  0
SPLINE
  5
2B6
100
AcDbEntity
  8
0
100
AcDbSpline
 62
7
  6
CONTINUOUS
 70
0
 71
3
 72
9
 73
5
 74
0
 42
0.0000001
 43
0.0000001
 44
0.0000000001
 40
0.0
 40
0.0
 40
0.0
 40
0.0
 40
0.2572067909
 40
1.0
 40
1.0
 40
1.0
 40
1.0
 10
182.7725450263
 20
89.927910288
 30
0.0
 10
182.628835794
 20
90.2120744622
 30
0.0
 10
182.0924446059
 20
91.3281460114
 30
0.0
 10
181.6410307464
 20
92.4842301434
 30
0.0
 10
181.3470687768
 20
93.3556000395
 30
0.0
  0
SPLINE
  5
2B7
100
AcDbEntity
  8
0
100
AcDbSpline
 62
7
  6
CONTINUOUS
 70
0
 71
3
 72
12
 73
8
 74
0
 42
0.0000001
 43
0.0000001
 44
0.0000000001
 40
0.0
 40
0.0
 40
0.0
 40
0.0
 40
0.1301340513
 40
0.2562657579
 40
0.5025187196
 40
0.7479314559
 40
1.0
 40
1.0
 40
1.0
 40
1.0
 10
180.7595354446
 20
112.7608987502
 30
0.0
 10
180.9557819287
 20
113.3178400954
 30
0.0
 10
181.3837536061
 20
114.400586549
 30
0.0
 10
182.3804966961
 20
116.4532193958
 30
0.0
 10
183.8748326783
 20
118.837641298
 30
0.0
 10
186.0636021554
 20
121.4202294331
 30
0.0
 10
187.7670314577
 20
122.9175394791
 30
0.0
 10
188.682900399
 20
123.6027185805
 30
0.0
  0
SPLINE
  5
2B8
100
AcDbEntity
  8
0
100
AcDbSpline
 62
7
  6
CONTINUOUS
 70
0
 71
3
 72
20
 73
16
 74
0
 42
0.0000001
 43
0.0000001
 44
0.0000000001
 40
0.0
 40
0.0
 40
0.0
 40
0.0
 40
0.1452039747
 40
0.2109390074
 40
0.2737268725
 40
0.3933192699
 40
0.5082834134
 40
0.6217194821
 40
0.6789076372
 40
0.7370386202
 40
0.7967911896
 40
0.8592275577
 40
0.9259264559
 40
0.9617429362
 40
1.0
 40
1.0
 40
1.0
 40
1.0
 10
186.3220091735
 20
176.7738414629
 30
0.0
 10
186.3500694994
 20
175.8470531845
 30
0.0
 10
186.5337716961
 20
174.5003561779
 30
0.0
 10
187.0122998736
 20
172.8178098839
 30
0.0
 10
187.5772017476
 20
171.3357149084
 30
0.0
 10
188.4649088267
 20
169.6474689995
 30
0.0
 10
189.8019412357
 20
167.86155175
 30
0.0
 10
191.122388099
 20
166.5902558643
 30
0.0
 10
192.2987579901
 20
165.7214113299
 30
0.0
 10
193.2572215195
 20
165.142683036
 30
0.0
 10
194.2982043479
 20
164.6456244132
 30
0.0
 10
195.4406749423
 20
164.2506980373
 30
0.0
 10
196.4738133523
 20
164.02934664
 30
0.0
 10
197.3682349184
 20
163.9329046001
 30
0.0
 10
197.8417160364
 20
163.9198550907
 30
0.0
 10
198.0859900404
 20
163.9229731556
 30
0.0
  0
SPLINE
  5
2B9
100
AcDbEntity
  8
0
100
AcDbSpline
 62
7
  6
CONTINUOUS
 70
0
 71
3
 72
17
 73
13
 74
0
 42
0.0000001
 43
0.0000001
 44
0.0000000001
 40
0.0
 40
0.0
 40
0.0
 40
0.0
 40
0.1351276109
 40
0.2658567045
 40
0.3922299914
 40
0.5145008066
 40
0.6335175097
 40
0.7510713883
 40
0.8104034466
 40
0.8709610598
 40
0.9337122202
 40
1.0
 40
1.0
 40
1.0
 40
1.0
 10
188.4921491528
 20
105.0975428976
 30
0.0
 10
188.5173500035
 20
104.2651985708
 30
0.0
 10
188.6080469731
 20
102.6283483505
 30
0.0
 10
188.8926421983
 20
100.2262283976
 30
0.0
 10
189.342654701
 20
97.92918417
 30
0.0
 10
189.9922794
 20
95.7540171366
 30
0.0
 10
190.8764253431
 20
93.7201856422
 30
0.0
 10
191.8576446389
 20
92.1710589769
 30
0.0
 10
192.8115237502
 20
91.0584369861
 30
0.0
 10
193.6328075421
 20
90.285362025
 30
0.0
 10
194.5717793168
 20
89.5856103196
 30
0.0
 10
195.2657205895
 20
89.1921811435
 30
0.0
 10
195.6326734554
 20
89.0126893347
 30
0.0
  0
SPLINE
  5
2BA
100
AcDbEntity
  8
0
100
AcDbSpline
 62
7
  6
CONTINUOUS
 70
0
 71
3
 72
18
 73
14
 74
0
 42
0.0000001
 43
0.0000001
 44
0.0000000001
 40
0.0
 40
0.0
 40
0.0
 40
0.0
 40
0.073281534
 40
0.1402906761
 40
0.2034983428
 40
0.2642178291
 40
0.3813761456
 40
0.4962860135
 40
0.6118784406
 40
0.7310058189
 40
0.793089884
 40
0.85778621
 40
1.0
 40
1.0
 40
1.0
 40
1.0
 10
199.4571544435
 20
118.6355769162
 30
0.0
 10
198.9973075187
 20
118.5812839338
 30
0.0
 10
198.1233851835
 20
118.4129073917
 30
0.0
 10
196.8999908936
 20
118.0085754671
 30
0.0
 10
195.8002581033
 20
117.5068784992
 30
0.0
 10
194.483467494
 20
116.7370900475
 30
0.0
 10
193.0155755013
 20
115.5954109952
 30
0.0
 10
191.5149700905
 20
113.9794067206
 30
0.0
 10
190.2694872757
 20
112.1447461374
 30
0.0
 10
189.4628822477
 20
110.4424949715
 30
0.0
 10
188.9704298697
 20
108.9668545263
 30
0.0
 10
188.5777570355
 20
107.3118605176
 30
0.0
 10
188.4649547346
 20
105.9957316115
 30
0.0
 10
188.4921491528
 20
105.0975428976
 30
0.0
  0
SPLINE
  5
2BB
100
AcDbEntity
  8
0
100
AcDbSpline
 62
7
  6
CONTINUOUS
 70
0
 71
3
 72
17
 73
13
 74
0
 42
0.0000001
 43
0.0000001
 44
0.0000000001
 40
0.0
 40
0.0
 40
0.0
 40
0.0
 40
0.2498119225
 40
0.3748770623
 40
0.4998911755
 40
0.6248277162
 40
0.6873685475
 40
0.7499018597
 40
0.8124289556
 40
0.8749527388
 40
0.9374738846
 40
1.0
 40
1.0
 40
1.0
 40
1.0
 10
210.2165434516
 20
141.6252909878
 30
0.0
 10
210.2719109444
 20
139.7965900835
 30
0.0
 10
210.0884025927
 20
137.0262838934
 30
0.0
 10
209.1472359684
 20
133.4775888299
 30
0.0
 10
208.0375792229
 20
130.9510820972
 30
0.0
 10
206.7311983347
 20
129.0498552026
 30
0.0
 10
205.4525483708
 20
127.7340031329
 30
0.0
 10
204.3801402641
 20
126.8693073489
 30
0.0
 10
203.2060756907
 20
126.1485146563
 30
0.0
 10
201.9475287451
 20
125.5879030539
 30
0.0
 10
200.6267397006
 20
125.1970113183
 30
0.0
 10
199.7199480436
 20
125.0503949372
 30
0.0
 10
199.2643183045
 20
125.0046502499
 30
0.0
  0
SPLINE
  5
2BC
100
AcDbEntity
  8
0
100
AcDbSpline
 62
7
  6
CONTINUOUS
 70
0
 71
3
 72
17
 73
13
 74
0
 42
0.0000001
 43
0.0000001
 44
0.0000000001
 40
0.0
 40
0.0
 40
0.0
 40
0.0
 40
0.0625270668
 40
0.1250513511
 40
0.187579448
 40
0.2501112188
 40
0.3126480404
 40
0.3751906346
 40
0.5001282279
 40
0.6251387495
 40
0.7501977971
 40
1.0
 40
1.0
 40
1.0
 40
1.0
 10
198.2788261794
 20
157.553899822
 30
0.0
 10
198.7364064305
 20
157.5357630776
 30
0.0
 10
199.6504529658
 20
157.4441861075
 30
0.0
 10
200.9925408489
 20
157.1337788263
 30
0.0
 10
202.2827693061
 20
156.6501638792
 30
0.0
 10
203.4983474205
 20
156.0015555886
 30
0.0
 10
204.6211241571
 20
155.2031616511
 30
0.0
 10
205.9770137075
 20
153.9669082208
 30
0.0
 10
207.3959542808
 20
152.1480787666
 30
0.0
 10
208.6563494104
 20
149.6932837581
 30
0.0
 10
209.8104125222
 20
146.2080542297
 30
0.0
 10
210.1611766332
 20
143.4539696211
 30
0.0
 10
210.2165434516
 20
141.6252909878
 30
0.0
  0
SPLINE
  5
2BD
100
AcDbEntity
  8
0
100
AcDbSpline
 62
7
  6
CONTINUOUS
 70
0
 71
3
 72
13
 73
9
 74
0
 42
0.0000001
 43
0.0000001
 44
0.0000000001
 40
0.0
 40
0.0
 40
0.0
 40
0.0
 40
0.25
 40
0.5
 40
0.625
 40
0.75
 40
0.875
 40
1.0
 40
1.0
 40
1.0
 40
1.0
 10
62.9177265389
 20
96.4067124556
 30
0.0
 10
62.9177265389
 20
94.7144151141
 30
0.0
 10
63.0911830571
 20
91.4344798888
 30
0.0
 10
63.8711843153
 20
87.6743703828
 30
0.0
 10
64.964675197
 20
84.9495615856
 30
0.0
 10
66.0718967768
 20
83.0791862293
 30
0.0
 10
67.5368301706
 20
81.4246455088
 30
0.0
 10
68.8221601543
 20
80.5078851158
 30
0.0
 10
69.5707265389
 20
80.1134032521
 30
0.0
  0
SPLINE
  5
2BE
100
AcDbEntity
  8
0
100
AcDbSpline
 62
7
  6
CONTINUOUS
 70
0
 71
3
 72
17
 73
13
 74
0
 42
0.0000001
 43
0.0000001
 44
0.0000000001
 40
0.0
 40
0.0
 40
0.0
 40
0.0
 40
0.0625
 40
0.125
 40
0.25
 40
0.375
 40
0.5
 40
0.625
 40
0.75
 40
0.875
 40
0.9375
 40
1.0
 40
1.0
 40
1.0
 40
1.0
 10
74.2917265389
 20
109.6072266286
 30
0.0
 10
73.8014562719
 20
109.5643335382
 30
0.0
 10
72.8948729695
 20
109.4107780406
 30
0.0
 10
71.2782314199
 20
108.9235850109
 30
0.0
 10
69.5324445979
 20
108.0625888005
 30
0.0
 10
67.7438443457
 20
106.7486808511
 30
0.0
 10
66.2140064215
 20
105.197660914
 30
0.0
 10
64.9265075882
 20
103.4245781132
 30
0.0
 10
63.8919651722
 20
101.4197034615
 30
0.0
 10
63.2732603581
 20
99.5259268716
 30
0.0
 10
62.9787172968
 20
97.8272537819
 30
0.0
 10
62.9177265389
 20
96.8988554753
 30
0.0
 10
62.9177265389
 20
96.4067124556
 30
0.0
  0
SPLINE
  5
2BF
100
AcDbEntity
  8
0
100
AcDbSpline
 62
7
  6
CONTINUOUS
 70
0
 71
3
 72
12
 73
8
 74
0
 42
0.0000001
 43
0.0000001
 44
0.0000000001
 40
0.0
 40
0.0
 40
0.0
 40
0.0
 40
0.039587196
 40
0.3058560156
 40
0.5721248352
 40
0.8383936548
 40
1.0
 40
1.0
 40
1.0
 40
1.0
 10
55.4177265389
 20
104.3002518829
 30
0.0
 10
55.4865589114
 20
104.4781557744
 30
0.0
 10
56.0318070654
 20
105.8368477935
 30
0.0
 10
57.2332603292
 20
108.1601104771
 30
0.0
 10
59.3181178933
 20
111.0349217069
 30
0.0
 10
61.4975129262
 20
113.2451830653
 30
0.0
 10
63.0460477113
 20
114.4607682917
 30
0.0
 10
63.6686989938
 20
114.8976958846
 30
0.0
  0
SPLINE
  5
2C0
100
AcDbEntity
  8
0
100
AcDbSpline
 62
7
  6
CONTINUOUS
 70
0
 71
3
 72
9
 73
5
 74
0
 42
0.0000001
 43
0.0000001
 44
0.0000000001
 40
0.0
 40
0.0
 40
0.0
 40
0.0
 40
0.7944297555
 40
1.0
 40
1.0
 40
1.0
 40
1.0
 10
56.7393187066
 20
81.4168307261
 30
0.0
 10
56.3052726248
 20
82.3433577717
 30
0.0
 10
55.8543611756
 20
83.5028975451
 30
0.0
 10
55.4893244784
 20
84.6505889703
 30
0.0
 10
55.4177265389
 20
84.8860362024
 30
0.0
  0
SPLINE
  5
2C1
100
AcDbEntity
  8
0
100
AcDbSpline
 62
7
  6
CONTINUOUS
 70
0
 71
3
 72
16
 73
12
 74
0
 42
0.0000001
 43
0.0000001
 44
0.0000000001
 40
0.0
 40
0.0
 40
0.0
 40
0.0
 40
0.125
 40
0.25
 40
0.375
 40
0.5
 40
0.625
 40
0.75
 40
0.875
 40
0.9375
 40
1.0
 40
1.0
 40
1.0
 40
1.0
 10
85.7462719934
 20
132.2613298019
 30
0.0
 10
85.7462719934
 20
131.1378448179
 30
0.0
 10
85.6123476413
 20
129.0157613288
 30
0.0
 10
85.0661743704
 20
126.1546211918
 30
0.0
 10
84.2005655282
 20
123.591359544
 30
0.0
 10
83.0210828779
 20
121.3207899574
 30
0.0
 10
81.5145965179
 20
119.3551562634
 30
0.0
 10
79.6442557499
 20
117.728822294
 30
0.0
 10
77.7232450851
 20
116.7114812597
 30
0.0
 10
75.8912657709
 20
116.1728596398
 30
0.0
 10
74.8521006544
 20
116.018411804
 30
0.0
 10
74.2917265389
 20
115.9792266286
 30
0.0
  0
SPLINE
  5
2C2
100
AcDbEntity
  8
0
100
AcDbSpline
 62
7
  6
CONTINUOUS
 70
0
 71
3
 72
17
 73
13
 74
0
 42
0.0000001
 43
0.0000001
 44
0.0000000001
 40
0.0
 40
0.0
 40
0.0
 40
0.0
 40
0.0625
 40
0.125
 40
0.25
 40
0.375
 40
0.5
 40
0.625
 40
0.75
 40
0.875
 40
0.9375
 40
1.0
 40
1.0
 40
1.0
 40
1.0
 10
62.9177265389
 20
168.1159471482
 30
0.0
 10
62.9177265389
 20
167.6080781306
 30
0.0
 10
62.9751314242
 20
166.6487517192
 30
0.0
 10
63.2568890894
 20
164.8941581353
 30
0.0
 10
63.8556784507
 20
162.943241714
 30
0.0
 10
64.8680325792
 20
160.8908652399
 30
0.0
 10
66.138014178
 20
159.0916585757
 30
0.0
 10
67.6575823257
 20
157.5377199301
 30
0.0
 10
69.4467246682
 20
156.248691108
 30
0.0
 10
71.2069343237
 20
155.4390992311
 30
0.0
 10
72.8527796307
 20
155.0249908395
 30
0.0
 10
73.7839348722
 20
154.9242965116
 30
0.0
 10
74.2917265389
 20
154.9154329751
 30
0.0
  0
SPLINE
  5
2C3
100
AcDbEntity
  8
0
100
AcDbSpline
 62
7
  6
CONTINUOUS
 70
0
 71
3
 72
16
 73
12
 74
0
 42
0.0000001
 43
0.0000001
 44
0.0000000001
 40
0.0
 40
0.0
 40
0.0
 40
0.0
 40
0.0625
 40
0.125
 40
0.25
 40
0.375
 40
0.5
 40
0.625
 40
0.75
 40
0.875
 40
1.0
 40
1.0
 40
1.0
 40
1.0
 10
74.2917265389
 20
148.5434329751
 30
0.0
 10
74.8521006544
 20
148.5042477997
 30
0.0
 10
75.8912657709
 20
148.349799964
 30
0.0
 10
77.7232450851
 20
147.8111783441
 30
0.0
 10
79.6442557499
 20
146.7938373097
 30
0.0
 10
81.5145965179
 20
145.1675033404
 30
0.0
 10
83.0210828779
 20
143.2018696463
 30
0.0
 10
84.2005655282
 20
140.9313000597
 30
0.0
 10
85.0661743704
 20
138.368038412
 30
0.0
 10
85.6123476413
 20
135.5068982749
 30
0.0
 10
85.7462719934
 20
133.3848147858
 30
0.0
 10
85.7462719934
 20
132.2613298019
 30
0.0
  0
ENDSEC
  0
SECTION
  2
OBJECTS
  0
DICTIONARY
  5
C
100
AcDbDictionary
280
0
281
1
  3
ACAD_GROUP
350
D
  3
ACAD_MLINESTYLE
350
17
  3
ACAD_LAYOUT
350
1A
  3
ACAD_PLOTSETTINGS
350
19
  3
ACAD_PLOTSTYLENAME
350
E
  3
ACAD_TABLESTYLE
350
       2C4
  0
DICTIONARY
  5
D
102
{ACAD_REACTORS
330
C
102
}
100
AcDbDictionary
280
0
281
1
  0
ACDBDICTIONARYWDFLT
  5
E
102
{ACAD_REACTORS
330
C
102
}
100
AcDbDictionary
281
1
  3
Normal
350
F
100
AcDbDictionaryWithDefault
340
F
  0
DICTIONARY
  5
17
102
{ACAD_REACTORS
330
C
102
}
100
AcDbDictionary
280
0
281
1
  3
Standard
350
18
  0
DICTIONARY
  5
2C4
330
C
100
AcDbDictionary
281
1
  3
Standard
350
       2C7
  3
Standard1
350
       2C8
  0
DICTIONARY
  5
19
102
{ACAD_REACTORS
330
C
102
}
100
AcDbDictionary
281
1
  0
DICTIONARY
  5
1A
102
{ACAD_REACTORS
330
C
102
}
100
AcDbDictionary
281
1
  3
Model
350
2C5
  3
Layout1
350
2C6
  0
ACDBPLACEHOLDER
  5
F
102
{ACAD_REACTORS
330
E
102
}
  0
MLINESTYLE
  5
18
102
{ACAD_REACTORS
330
17
102
}
100
AcDbMlineStyle
  2
STANDARD
 70
0
  3

 62
256
 51
90.0
 52
90.0
 71
2
 49
0.5
 62
256
  6
BYLAYER
 49
-0.5
 62
256
  6
BYLAYER
  0
LAYOUT
  5
2C5
102
{ACAD_REACTORS
330
1A
102
}
100
AcDbPlotSettings
  1

  2
none_device
  4
ISO_A4_(297.00_x_210.00_MM)
  6

 40
0.0
 41
0.0
 42
0.0
 43
0.0
 44
297.0
 45
210.0
 46
0.0
 47
0.0
 48
0.0
 49
0.0
140
0.0
141
0.0
142
1.0
143
1.0
 70
1024
 72
1
 73
0
 74
0
  7

 75
0
147
1.0
148
0.0
149
0.0
100
AcDbLayout
  1
Model
 70
0
 71
0
 10
0.0
 20
0.0
 11
297.0
 21
210.0
 12
0.0
 22
0.0
 32
0.0
 14
0.0
 24
0.0
 34
0.0
 15
0.0
 25
0.0
 35
0.0
146
0.0
 13
0.0
 23
0.0
 33
0.0
 16
1.0
 26
0.0
 36
0.0
 17
0.0
 27
1.0
 37
0.0
 76
0
330
215
345
0
346
0
  0
LAYOUT
  5
2C6
102
{ACAD_REACTORS
330
1A
102
}
100
AcDbPlotSettings
  1

  2
none_device
  4
ISO_A4_(297.00_x_210.00_MM)
  6

 40
0.0
 41
0.0
 42
0.0
 43
0.0
 44
297.0
 45
210.0
 46
0.0
 47
0.0
 48
0.0
 49
0.0
140
0.0
141
0.0
142
1.0
143
1.0
 70
0
 72
1
 73
0
 74
0
  7

 75
0
147
1.0
148
0.0
149
0.0
100
AcDbLayout
  1
Layout1
 70
0
 71
1
 10
0.0
 20
0.0
 11
297.0
 21
210.0
 12
0.0
 22
0.0
 32
0.0
 14
0.0
 24
0.0
 34
0.0
 15
0.0
 25
0.0
 35
0.0
146
0.0
 13
0.0
 23
0.0
 33
0.0
 16
1.0
 26
0.0
 36
0.0
 17
0.0
 27
1.0
 37
0.0
 76
0
330
216
345
0
346
0
  0
TABLESTYLE
  5
2C7
102
{ACAD_REACTORS
330
2C4
330
257
102
}
330
2C4
100
AcDbTableStyle
  3
Standard
 70
0
 71
0
 40
0.06
 41
0.06
280
1
281
1
  7
Standard
140
0.18
170
1
 62
0
 63
7
283
0
  7
Standard
140
0.18
170
1
 62
0
 63
7
283
0
  7
Standard
140
0.18
170
1
 62
0
 63
7
283
0
  0
TABLESTYLE
  5
2C8
102
{ACAD_REACTORS
330
2C4
102
}
330
2C4
100
AcDbTableStyle
  3
Standard1
 70
1
 71
0
 40
0.06
 41
0.06
280
1
281
1
  7
Standard
140
0.18
170
1
 62
0
 63
7
283
0
  7
Standard
140
0.18
170
1
 62
0
 63
7
283
0
  7
Standard
140
0.18
170
1
 62
0
 63
7
283
0
  0
ENDSEC
  0
EOF
