999
DXF file: O:\ORAC_PRODUCTEN\ORAC_LIJN6\P-TYPE\P6020\p6020-prod-mm.dxf
999
Pro/ENGINEER 2013050 by Parametric Technology Corporation
  0
SECTION
  2
HEADER
  9
$ACADVER
  1
AC1024
  9
$DWGCODEPAGE
  3
ANSI_1252
  9
$EXTMAX
 10
297.0
 20
210.0
 30
0.0
  9
$EXTMIN
 10
0.0
 20
0.0
 30
0.0
  9
$LIMMIN
 10
0.0
 20
0.0
  9
$LIMMAX
 10
297.0
 20
210.0
  9
$VIEWCTR
 10
148.5
 20
105.0
  9
$VIEWSIZE
 40
210.0
  9
$CLAYER
  8
0
  9
$LTSCALE
 40
16.335
  9
$CELTYPE
  6
BYLAYER
  9
$DIMSCALE
 40
1.0
  9
$DIMASZ
 40
3.5
  9
$DIMEXO
 40
1.0
  9
$DIMDLI
 40
11.286
  9
$DIMEXE
 40
1.5
  9
$DIMCEN
 40
2.673
  9
$DIMLFAC
 40
1.0
  9
$DIMBLK
  1
_FILLED
  9
$DIMTXT
 40
2.5
  9
$DIMTOL
 70
1
  9
$DIMLIM
 70
0
  9
$DIMTFAC
 40
1.0
  9
$DIMTP
 40
0.001
  9
$DIMTM
 40
0.001
  9
$DIMGAP
 40
0.625
  9
$DIMDSEP
 70
44
  9
$PDMODE
 70
3
  9
$PDSIZE
 40
8.0
  9
$HANDSEED
  5
499
  9
$TILEMODE
 70
1
  9
$MEASUREMENT
 70
1
  9
$INSUNITS
 70
4
  0
ENDSEC
  0
SECTION
  2
CLASSES
  0
CLASS
  1
ACDBDICTIONARYWDFLT
  2
AcDbDictionaryWithDefault
  3
AutoCAD 2000
 90
0
 91
1
280
0
281
0
  0
CLASS
  1
ACDBPLACEHOLDER
  2
AcDbPlaceHolder
  3
AutoCAD 2000
 90
0
 91
1
280
0
281
0
  0
CLASS
  1
LAYOUT
  2
AcDbLayout
  3
AutoCAD 2000
 90
0
 91
0
280
0
281
0
  0
CLASS
  1
TABLESTYLE
  2
AcDbTableStyle
  3
ObjectDBX Classes
 90
2047
 91
1
280
0
281
0
  0
CLASS
  1
ACAD_TABLE
  2
AcDbTable
  3
ObjectDBX Classes
 90
1025
 91
1
280
0
281
1
  0
ENDSEC
  0
SECTION
  2
TABLES
  0
TABLE
  2
VPORT
  5
8
100
AcDbSymbolTable
 70
2
  0
VPORT
  5
1F4
100
AcDbSymbolTableRecord
100
AcDbViewportTableRecord
  2
*ACTIVE
 70
0
 10
0.0
 20
0.0
 11
1.0
 21
1.0
 12
148.5
 22
105.0
 13
0.0
 23
0.0
 14
1.0
 24
1.0
 15
0.0
 25
0.0
 16
0.0
 26
0.0
 36
1.0
 17
0.0
 27
0.0
 37
0.0
 40
210.0
 41
1.4142857143
 42
50.0
 43
0.0
 44
0.0
 50
0.0
 51
0.0
 71
0
 72
100
 73
1
 74
1
 75
0
 76
0
 77
0
 78
0
  0
ENDTAB
  0
TABLE
  2
LTYPE
  5
5
100
AcDbSymbolTable
 70
6
  0
LTYPE
  5
14
100
AcDbSymbolTableRecord
100
AcDbLinetypeTableRecord
  2
BYBLOCK
 70
0
  3

 72
65
 73
0
 40
0.0
  0
LTYPE
  5
15
100
AcDbSymbolTableRecord
100
AcDbLinetypeTableRecord
  2
BYLAYER
 70
0
  3

 72
65
 73
0
 40
0.0
  0
LTYPE
  5
16
100
AcDbSymbolTableRecord
100
AcDbLinetypeTableRecord
  2
CONTINUOUS
 70
64
  3
Solid line
 72
65
 73
0
 40
0.0
  0
LTYPE
  5
1F5
100
AcDbSymbolTableRecord
100
AcDbLinetypeTableRecord
  2
CENTER
 70
64
  3
____ _ ____ _ ____ _ ____ _ ____ _ ____ _ ____
 72
65
 73
4
 40
0.6
 49
0.375
 74
0
 49
-0.075
 74
0
 49
0.075
 74
0
 49
-0.075
 74
0
  0
LTYPE
  5
1F6
100
AcDbSymbolTableRecord
100
AcDbLinetypeTableRecord
  2
HIDDEN
 70
64
  3
- - - - - - - - - - - - - - - - - - - -
 72
65
 73
2
 40
0.2
 49
0.1
 74
0
 49
-0.1
 74
0
  0
LTYPE
  5
1F7
100
AcDbSymbolTableRecord
100
AcDbLinetypeTableRecord
  2
PHANTOM
 70
64
  3
_____ _ _ _____ _ _ _____ _ _ _____
 72
65
 73
6
 40
0.8
 49
0.45
 74
0
 49
-0.05
 74
0
 49
0.1
 74
0
 49
-0.05
 74
0
 49
0.1
 74
0
 49
-0.05
 74
0
  0
LTYPE
  5
1F8
100
AcDbSymbolTableRecord
100
AcDbLinetypeTableRecord
  2
DOT
 70
64
  3
. . . . . . . . . . . . . . . . . . . .
 72
65
 73
2
 40
0.2
 49
0.1
 74
0
 49
-0.1
 74
0
  0
LTYPE
  5
1F9
100
AcDbSymbolTableRecord
100
AcDbLinetypeTableRecord
  2
DASHED
 70
64
  3
- - - - - - - - - - - - - - - - - - - -
 72
65
 73
2
 40
0.2
 49
0.1
 74
0
 49
-0.1
 74
0
  0
ENDTAB
  0
TABLE
  2
LAYER
  5
2
100
AcDbSymbolTable
 70
36
  0
LAYER
  5
10
100
AcDbSymbolTableRecord
100
AcDbLayerTableRecord
  2
0
 70
0
 62
7
  6
CONTINUOUS
370
-3
390
F
  0
LAYER
  5
1FA
100
AcDbSymbolTableRecord
100
AcDbLayerTableRecord
  2
DEFAULT_1
 70
0
 62
7
  6
CENTER
370
-3
390
F
  0
LAYER
  5
1FB
100
AcDbSymbolTableRecord
100
AcDbLayerTableRecord
  2
DEFAULT_2
 70
0
 62
8
  6
HIDDEN
370
-3
390
F
  0
LAYER
  5
1FC
100
AcDbSymbolTableRecord
100
AcDbLayerTableRecord
  2
DEFAULT_3
 70
0
 62
7
  6
PHANTOM
370
-3
390
F
  0
LAYER
  5
1FD
100
AcDbSymbolTableRecord
100
AcDbLayerTableRecord
  2
DTM_ALL
 70
0
 62
7
  6
CONTINUOUS
370
-3
390
F
  0
LAYER
  5
1FE
100
AcDbSymbolTableRecord
100
AcDbLayerTableRecord
  2
DTM_AXIS
 70
0
 62
7
  6
CONTINUOUS
370
-3
390
F
  0
LAYER
  5
1FF
100
AcDbSymbolTableRecord
100
AcDbLayerTableRecord
  2
DTM_CSYS
 70
0
 62
7
  6
CONTINUOUS
370
-3
390
F
  0
LAYER
  5
200
100
AcDbSymbolTableRecord
100
AcDbLayerTableRecord
  2
DTM_CURVE
 70
0
 62
7
  6
CONTINUOUS
370
-3
390
F
  0
LAYER
  5
201
100
AcDbSymbolTableRecord
100
AcDbLayerTableRecord
  2
DTM_MASTER
 70
0
 62
7
  6
CONTINUOUS
370
-3
390
F
  0
LAYER
  5
202
100
AcDbSymbolTableRecord
100
AcDbLayerTableRecord
  2
DTM_POINT
 70
0
 62
7
  6
CONTINUOUS
370
-3
390
F
  0
LAYER
  5
203
100
AcDbSymbolTableRecord
100
AcDbLayerTableRecord
  2
DTM_QUILT
 70
0
 62
7
  6
CONTINUOUS
370
-3
390
F
  0
LAYER
  5
204
100
AcDbSymbolTableRecord
100
AcDbLayerTableRecord
  2
GTOL
 70
0
 62
7
  6
CONTINUOUS
370
-3
390
F
  0
LAYER
  5
205
100
AcDbSymbolTableRecord
100
AcDbLayerTableRecord
  2
NOTES
 70
0
 62
7
  6
CONTINUOUS
370
-3
390
F
  0
ENDTAB
  0
TABLE
  2
STYLE
  5
3
100
AcDbSymbolTable
 70
1
  0
STYLE
  5
11
100
AcDbSymbolTableRecord
100
AcDbTextStyleTableRecord
  2
STANDARD
 70
0
 40
0.0
 41
1.0
 50
0.0
 71
0
 42
0.2
  3
cgtime.ttf
  4

  0
STYLE
  5
206
100
AcDbSymbolTableRecord
100
AcDbTextStyleTableRecord
  2
TEXTSTYLE_1
 70
0
 40
0.0
 41
0.8
 50
0.0
 71
0
 42
0.2
  3
gdt
  4

  0
STYLE
  5
207
100
AcDbSymbolTableRecord
100
AcDbTextStyleTableRecord
  2
TEXTSTYLE_2
 70
0
 40
0.0
 41
1.0
 50
0.0
 71
0
 42
0.2
  3
cgtime.ttf
  4

  0
STYLE
  5
208
100
AcDbSymbolTableRecord
100
AcDbTextStyleTableRecord
  2
TEXTSTYLE_3
 70
0
 40
0.0
 41
1.0
 50
0.0
 71
0
 42
0.2
  3
cgtime.ttf
  4

  0
STYLE
  5
209
100
AcDbSymbolTableRecord
100
AcDbTextStyleTableRecord
  2
TEXTSTYLE_4
 70
0
 40
0.0
 41
0.85
 50
0.0
 71
0
 42
0.2
  3
gdt
  4

  0
ENDTAB
  0
TABLE
  2
VIEW
  5
6
100
AcDbSymbolTable
 70
0
  0
ENDTAB
  0
TABLE
  2
UCS
  5
7
100
AcDbSymbolTable
 70
0
  0
ENDTAB
  0
TABLE
  2
APPID
  5
9
100
AcDbSymbolTable
 70
1
  0
APPID
  5
20A
100
AcDbSymbolTableRecord
100
AcDbRegAppTableRecord
  2
ACAD
 70
0
  0
ENDTAB
  0
TABLE
  2
BLOCK_RECORD
  5
1
100
AcDbSymbolTable
 70
0
  0
BLOCK_RECORD
  5
20B
100
AcDbSymbolTableRecord
100
AcDbBlockTableRecord
  2
*Model_Space
  0
BLOCK_RECORD
  5
20C
100
AcDbSymbolTableRecord
100
AcDbBlockTableRecord
  2
*Paper_Space
  0
BLOCK_RECORD
  5
20D
100
AcDbSymbolTableRecord
100
AcDbBlockTableRecord
  2
_FILLED
  0
BLOCK_RECORD
  5
20E
100
AcDbSymbolTableRecord
100
AcDbBlockTableRecord
  2
*D0
  0
BLOCK_RECORD
  5
20F
100
AcDbSymbolTableRecord
100
AcDbBlockTableRecord
  2
*D1
  0
BLOCK_RECORD
  5
210
100
AcDbSymbolTableRecord
100
AcDbBlockTableRecord
  2
SYMBOL_2_BL0
  0
BLOCK_RECORD
  5
211
100
AcDbSymbolTableRecord
100
AcDbBlockTableRecord
  2
*T1
  0
ENDTAB
  0
TABLE
  2
DIMSTYLE
  5
A
100
AcDbSymbolTable
 70
1
100
AcDbDimStyleTable
 71
0
  0
DIMSTYLE
105
212
100
AcDbSymbolTableRecord
100
AcDbDimStyleTableRecord
  2
STANDARD
 70
0
  3

  4

 40
1.0
 41
3.5
 42
1.0
 43
0.38
 44
1.5
 45
0.0
 46
0.0
 47
0.001
 48
0.001
140
2.5
141
0.09
142
0.0
143
25.4
144
1.0
145
0.0
146
1.0
147
0.625
 71
1.0
 72
0.0
 73
1
 74
1
 75
0
 76
0
 77
0
 78
8
170
0
171
2
172
0
173
0
174
0
175
0
176
0
177
0
178
0
270
2
271
3
272
3
273
2
274
2
275
0
280
0
281
0
282
0
283
1
284
8
285
0
286
0
287
3
288
0
340
11
278
44
341
20D
342
20D
343
20D
344
20D
  0
DIMSTYLE
105
213
100
AcDbSymbolTableRecord
100
AcDbDimStyleTableRecord
  2
DIMSTYLE_1
 70
0
  3

  4

 40
1.0
 41
3.5
 42
1.0
 43
0.38
 44
1.5
 45
0.0
 46
0.0
 47
0.0
 48
0.0
140
2.5
141
0.09
142
0.0
143
25.4
144
1.0
145
0.0
146
1.0
147
1.25
 71
0.0
 72
0.0
 73
1
 74
1
 75
0
 76
0
 77
0
 78
8
170
0
171
2
172
0
173
0
174
0
175
0
176
0
177
0
178
0
270
2
271
0
272
0
273
2
274
2
275
0
280
0
281
0
282
0
283
1
284
8
285
0
286
0
287
3
288
0
340
11
278
44
341
20D
342
20D
343
20D
344
20D
  0
ENDTAB
  0
ENDSEC
  0
SECTION
  2
BLOCKS
  0
BLOCK
  5
20
100
AcDbEntity
  8
0
100
AcDbBlockBegin
  2
*Model_Space
 70
0
 10
0.0
 20
0.0
 30
0.0
  3
*Model_Space
  1

  0
ENDBLK
  5
21
100
AcDbEntity
  8
0
100
AcDbBlockEnd
  0
BLOCK
  5
1C
100
AcDbEntity
  8
0
100
AcDbBlockBegin
  2
*Paper_Space
 70
0
 10
0.0
 20
0.0
 30
0.0
  3
*Paper_Space
  1

  0
ENDBLK
  5
1D
100
AcDbEntity
  8
0
100
AcDbBlockEnd
  0
BLOCK
  5
214
100
AcDbEntity
  8
0
100
AcDbBlockBegin
 62
7
  6
CONTINUOUS
  2
SYMBOL_2_BL0
 70
64
 10
200.6298462176
 20
16.2178244018
  3
SYMBOL_2_BL0
  1

  0
TEXT
  5
215
100
AcDbEntity
  8
0
100
AcDbText
 62
7
  6
CONTINUOUS
 10
194.3577811993
 20
12.7178244018
  7
TEXTSTYLE_2
 40
0.7334566062
  1
EUROPEAN PROJECTION
 72
5
 11
206.9549697578
 21
12.7178244018
100
AcDbText
  0
LINE
  5
216
100
AcDbEntity
  8
DEFAULT_1
100
AcDbLine
 62
7
  6
CENTER
 10
202.0967594299
 20
16.7839979772
 11
207.9644122791
 21
16.7839979772
  0
LINE
  5
217
100
AcDbEntity
  8
DEFAULT_1
100
AcDbLine
 62
7
  6
CENTER
 10
193.2952801561
 20
16.7839979772
 11
200.6298462176
 21
16.7839979772
  0
LINE
  5
218
100
AcDbEntity
  8
DEFAULT_1
100
AcDbLine
 62
7
  6
CENTER
 10
205.0305858545
 20
19.7178244018
 11
205.0305858545
 21
13.8501715526
  0
LINE
  5
219
100
AcDbEntity
  8
0
100
AcDbLine
 62
7
  6
CONTINUOUS
 10
194.0427054433
 20
15.3153384047
 11
194.0427054433
 21
18.2526568162
  0
CIRCLE
  5
21A
100
AcDbEntity
  8
0
100
AcDbCircle
 62
7
  6
CONTINUOUS
 10
205.0305858545
 20
16.7839979772
 40
2.2003698185
  0
CIRCLE
  5
21B
100
AcDbEntity
  8
0
100
AcDbCircle
 62
7
  6
CONTINUOUS
 10
205.0305858545
 20
16.7839979772
 40
1.4669132123
  0
LINE
  5
21C
100
AcDbEntity
  8
0
100
AcDbLine
 62
7
  6
CONTINUOUS
 10
194.0287367622
 20
18.2509111895
 11
199.8963896115
 21
18.9843677957
  0
LINE
  5
21D
100
AcDbEntity
  8
0
100
AcDbLine
 62
7
  6
CONTINUOUS
 10
199.8963896115
 20
18.9843677957
 11
199.8963896115
 21
14.5836281587
  0
LINE
  5
21E
100
AcDbEntity
  8
0
100
AcDbLine
 62
7
  6
CONTINUOUS
 10
199.8963896115
 20
14.5836281587
 11
194.0287367622
 21
15.3170847649
  0
ENDBLK
  5
21F
100
AcDbEntity
  8
0
  6
BYBLOCK
 62
0
100
AcDbBlockEnd
  0
BLOCK
  5
220
100
AcDbEntity
  8
0
100
AcDbBlockBegin
  2
_FILLED
 70
64
 10
0.0
 20
0.0
  3
_FILLED
  1

  0
SOLID
  5
221
100
AcDbEntity
  8
0
  6
BYBLOCK
 62
0
100
AcDbTrace
 10
0.0
 20
0.0
 11
-1.0
 21
0.2142857143
 12
-1.0
 22
-0.2142857143
 13
-1.0
 23
-0.2142857143
  0
ENDBLK
  5
222
100
AcDbEntity
  8
0
  6
BYBLOCK
 62
0
100
AcDbBlockEnd
  0
BLOCK
  5
223
100
AcDbEntity
  8
0
100
AcDbBlockBegin
 62
2
  6
CONTINUOUS
  2
*D0
 70
65
 10
0.0
 20
0.0
  3
*D0
  1

  0
TEXT
  5
224
100
AcDbEntity
  8
0
100
AcDbText
 62
2
  6
CONTINUOUS
 10
43.1533534858
 20
116.1603211736
  7
STANDARD
 40
2.5
  1
64
 72
5
 11
46.7914857815
 21
116.1603211736
100
AcDbText
  0
LINE
  5
225
100
AcDbEntity
  8
0
100
AcDbLine
 62
2
  6
CONTINUOUS
 10
60.9581813551
 20
149.1603211736
 11
43.4724196337
 21
149.1603211736
  0
LINE
  5
226
100
AcDbEntity
  8
0
100
AcDbLine
 62
2
  6
CONTINUOUS
 10
60.9581813551
 20
85.6603211736
 11
43.4724196337
 21
85.6603211736
  0
LINE
  5
227
100
AcDbEntity
  8
0
100
AcDbLine
 62
2
  6
CONTINUOUS
 10
44.9724196337
 20
149.1603211736
 11
44.9724196337
 21
119.9103211736
  0
LINE
  5
228
100
AcDbEntity
  8
0
100
AcDbLine
 62
2
  6
CONTINUOUS
 10
44.9724196337
 20
85.6603211736
 11
44.9724196337
 21
114.9103211736
  0
INSERT
  5
229
100
AcDbEntity
  8
0
100
AcDbBlockReference
 62
2
  6
CONTINUOUS
  2
_FILLED
 10
44.9724196337
 20
149.1603211736
 41
3.5
 42
3.5
 43
3.5
 50
90.0
  0
INSERT
  5
22A
100
AcDbEntity
  8
0
100
AcDbBlockReference
 62
2
  6
CONTINUOUS
  2
_FILLED
 10
44.9724196337
 20
85.6603211736
 41
3.5
 42
3.5
 43
3.5
 50
270.0
  0
ENDBLK
  5
22B
100
AcDbEntity
  8
0
  6
BYBLOCK
 62
0
100
AcDbBlockEnd
  0
BLOCK
  5
22C
100
AcDbEntity
  8
0
100
AcDbBlockBegin
 62
2
  6
CONTINUOUS
  2
*D1
 70
65
 10
0.0
 20
0.0
  3
*D1
  1

  0
TEXT
  5
22D
100
AcDbEntity
  8
0
100
AcDbText
 62
2
  6
CONTINUOUS
 10
74.1601267524
 20
158.831999661
  7
STANDARD
 40
2.5
  1
28
 72
5
 11
77.7982590481
 21
158.831999661
100
AcDbText
  0
LINE
  5
22E
100
AcDbEntity
  8
0
100
AcDbLine
 62
2
  6
CONTINUOUS
 10
61.9581813551
 20
150.1603211736
 11
61.9581813551
 21
161.581999661
  0
LINE
  5
22F
100
AcDbEntity
  8
0
100
AcDbLine
 62
2
  6
CONTINUOUS
 10
90.0002044455
 20
133.9573100056
 11
90.0002044455
 21
161.581999661
  0
LINE
  5
230
100
AcDbEntity
  8
0
100
AcDbLine
 62
2
  6
CONTINUOUS
 10
61.9581813551
 20
160.081999661
 11
72.9101267524
 21
160.081999661
  0
LINE
  5
231
100
AcDbEntity
  8
0
100
AcDbLine
 62
2
  6
CONTINUOUS
 10
90.0002044455
 20
160.081999661
 11
79.0482590481
 21
160.081999661
  0
INSERT
  5
232
100
AcDbEntity
  8
0
100
AcDbBlockReference
 62
2
  6
CONTINUOUS
  2
_FILLED
 10
61.9581813551
 20
160.081999661
 41
3.5
 42
3.5
 43
3.5
 50
180.0
  0
INSERT
  5
233
100
AcDbEntity
  8
0
100
AcDbBlockReference
 62
2
  6
CONTINUOUS
  2
_FILLED
 10
90.0002044455
 20
160.081999661
 41
3.5
 42
3.5
 43
3.5
  0
ENDBLK
  5
234
100
AcDbEntity
  8
0
  6
BYBLOCK
 62
0
100
AcDbBlockEnd
  0
BLOCK
  5
235
100
AcDbEntity
  8
0
100
AcDbBlockBegin
  2
*T1
 70
1
 10
0.0
 20
0.0
  3
*T1
  1

  0
LINE
  5
236
100
AcDbEntity
  8
0
100
AcDbLine
 62
7
  6
CONTINUOUS
 10
174.0
 20
0.0
 11
0.0
 21
0.0
  0
LINE
  5
237
100
AcDbEntity
  8
0
100
AcDbLine
 62
7
  6
CONTINUOUS
 10
174.0
 20
0.0
 11
174.0
 21
42.5
  0
LINE
  5
238
100
AcDbEntity
  8
0
100
AcDbLine
 62
7
  6
CONTINUOUS
 10
140.0
 20
6.5
 11
0.0
 21
6.5
  0
LINE
  5
239
100
AcDbEntity
  8
0
100
AcDbLine
 62
7
  6
CONTINUOUS
 10
174.0
 20
18.5
 11
91.0
 21
18.5
  0
LINE
  5
23A
100
AcDbEntity
  8
0
100
AcDbLine
 62
7
  6
CONTINUOUS
 10
174.0
 20
27.5
 11
91.0
 21
27.5
  0
LINE
  5
23B
100
AcDbEntity
  8
0
100
AcDbLine
 62
7
  6
CONTINUOUS
 10
91.0
 20
31.5
 11
59.0
 21
31.5
  0
LINE
  5
23C
100
AcDbEntity
  8
0
100
AcDbLine
 62
7
  6
CONTINUOUS
 10
174.0
 20
42.5
 11
0.0
 21
42.5
  0
LINE
  5
23D
100
AcDbEntity
  8
0
100
AcDbLine
 62
7
  6
CONTINUOUS
 10
140.0
 20
0.0
 11
140.0
 21
18.5
  0
LINE
  5
23E
100
AcDbEntity
  8
0
100
AcDbLine
 62
7
  6
CONTINUOUS
 10
122.0
 20
0.0
 11
122.0
 21
6.5
  0
LINE
  5
23F
100
AcDbEntity
  8
0
100
AcDbLine
 62
7
  6
CONTINUOUS
 10
91.0
 20
6.5
 11
91.0
 21
42.5
  0
LINE
  5
240
100
AcDbEntity
  8
0
100
AcDbLine
 62
7
  6
CONTINUOUS
 10
59.0
 20
6.5
 11
59.0
 21
42.5
  0
LINE
  5
241
100
AcDbEntity
  8
0
100
AcDbLine
 62
7
  6
CONTINUOUS
 10
10.0
 20
6.5
 11
10.0
 21
42.5
  0
LINE
  5
242
100
AcDbEntity
  8
0
100
AcDbLine
 62
7
  6
CONTINUOUS
 10
0.0
 20
0.0
 11
0.0
 21
42.5
  0
TEXT
  5
243
100
AcDbEntity
  8
0
100
AcDbText
 62
7
  6
CONTINUOUS
 10
166.0625
 20
15.45
  7
TEXTSTYLE_3
 40
1.8
  1
 
 72
5
 11
166.8399319066
 21
15.45
100
AcDbText
  0
TEXT
  5
244
100
AcDbEntity
  8
0
100
AcDbText
 62
7
  6
CONTINUOUS
 10
166.8399319066
 20
15.45
  7
TEXTSTYLE_3
 40
1.8
  1
 
 72
5
 11
167.6173638132
 21
15.45
100
AcDbText
  0
TEXT
  5
245
100
AcDbEntity
  8
0
100
AcDbText
 62
7
  6
CONTINUOUS
 10
166.0625
 20
11.976
  7
TEXTSTYLE_3
 40
1.8
  1
 
 72
5
 11
166.8399319066
 21
11.976
100
AcDbText
  0
TEXT
  5
246
100
AcDbEntity
  8
0
100
AcDbText
 62
7
  6
CONTINUOUS
 10
166.0625
 20
8.502
  7
TEXTSTYLE_3
 40
1.8
  1
 
 72
5
 11
166.8399319066
 21
8.502
100
AcDbText
  0
TEXT
  5
247
100
AcDbEntity
  8
0
100
AcDbText
 62
7
  6
CONTINUOUS
 10
166.0625
 20
5.028
  7
TEXTSTYLE_3
 40
1.8
  1
 
 72
5
 11
166.8399319066
 21
5.028
100
AcDbText
  0
TEXT
  5
248
100
AcDbEntity
  8
0
100
AcDbText
 62
7
  6
CONTINUOUS
 10
166.0625
 20
1.554
  7
TEXTSTYLE_3
 40
1.8
  1
dm²/m
 72
5
 11
173.2484922179
 21
1.554
100
AcDbText
  0
TEXT
  5
249
100
AcDbEntity
  8
0
100
AcDbText
 62
7
  6
CONTINUOUS
 10
162.9657101167
 20
15.0
  7
STANDARD
 40
2.25
  1
 
 72
5
 11
163.9375
 21
15.0
100
AcDbText
  0
TEXT
  5
24A
100
AcDbEntity
  8
0
100
AcDbText
 62
7
  6
CONTINUOUS
 10
162.9657101167
 20
11.625
  7
STANDARD
 40
2.25
  1
 
 72
5
 11
163.9375
 21
11.625
100
AcDbText
  0
TEXT
  5
24B
100
AcDbEntity
  8
0
100
AcDbText
 62
7
  6
CONTINUOUS
 10
162.9657101167
 20
8.25
  7
STANDARD
 40
2.25
  1
 
 72
5
 11
163.9375
 21
8.25
100
AcDbText
  0
TEXT
  5
24C
100
AcDbEntity
  8
0
100
AcDbText
 62
7
  6
CONTINUOUS
 10
162.9657101167
 20
4.875
  7
STANDARD
 40
2.25
  1
 
 72
5
 11
163.9375
 21
4.875
100
AcDbText
  0
TEXT
  5
24D
100
AcDbEntity
  8
0
100
AcDbText
 62
7
  6
CONTINUOUS
 10
157.9316634241
 20
1.5
  7
STANDARD
 40
2.25
  1
10,3
 72
5
 11
163.9375
 21
1.5
100
AcDbText
  0
TEXT
  5
24E
100
AcDbEntity
  8
0
100
AcDbText
 62
7
  6
CONTINUOUS
 10
141.0625
 20
15.0
  7
STANDARD
 40
2.25
  1
 
 72
5
 11
142.0342898833
 21
15.0
100
AcDbText
  0
TEXT
  5
24F
100
AcDbEntity
  8
0
100
AcDbText
 62
7
  6
CONTINUOUS
 10
141.0625
 20
11.625
  7
STANDARD
 40
2.25
  1
 
 72
5
 11
142.0342898833
 21
11.625
100
AcDbText
  0
TEXT
  5
250
100
AcDbEntity
  8
0
100
AcDbText
 62
7
  6
CONTINUOUS
 10
141.0625
 20
8.25
  7
STANDARD
 40
2.25
  1
 
 72
5
 11
142.0342898833
 21
8.25
100
AcDbText
  0
TEXT
  5
251
100
AcDbEntity
  8
0
100
AcDbText
 62
7
  6
CONTINUOUS
 10
141.0625
 20
4.875
  7
STANDARD
 40
2.25
  1
Painted Surface :
 72
5
 11
164.0352626459
 21
4.875
100
AcDbText
  0
TEXT
  5
252
100
AcDbEntity
  8
0
100
AcDbText
 62
2
  6
CONTINUOUS
 10
123.0625
 20
2.0
  7
STANDARD
 40
2.5
  1
Rev:   
 72
5
 11
133.3737840467
 21
2.0
100
AcDbText
  0
TEXT
  5
253
100
AcDbEntity
  8
0
100
AcDbText
 62
7
  6
CONTINUOUS
 10
2.3984435798
 20
3.7
  7
STANDARD
 40
1.8
  1
All information in this document is Orac's exclusive property.  It may in no case be reproduced, even partly,
 72
5
 11
119.6015564202
 21
3.7
100
AcDbText
  0
TEXT
  5
254
100
AcDbEntity
  8
0
100
AcDbText
 62
7
  6
CONTINUOUS
 10
0.5424124514
 20
1.0
  7
STANDARD
 40
1.8
  1
be communicated to a third party or used for any possible purpose without ORAC's express written permission. 
 72
5
 11
121.4575875486
 21
1.0
100
AcDbText
  0
TEXT
  5
255
100
AcDbEntity
  8
0
100
AcDbText
 62
2
  6
CONTINUOUS
 10
108.0625
 20
13.85
  7
STANDARD
 40
2.25
  1
Anton Smolko
 72
5
 11
127.3407101167
 21
13.85
100
AcDbText
  0
TEXT
  5
256
100
AcDbEntity
  8
0
100
AcDbText
 62
2
  6
CONTINUOUS
 10
108.0625
 20
8.9
  7
STANDARD
 40
2.25
  1
18-Jul-2014
 72
5
 11
123.8912937743
 21
8.9
100
AcDbText
  0
TEXT
  5
257
100
AcDbEntity
  8
0
100
AcDbText
 62
7
  6
CONTINUOUS
 10
92.0625
 20
13.85
  7
STANDARD
 40
2.25
  1
Drawn by:
 72
5
 11
106.4905155642
 21
13.85
100
AcDbText
  0
TEXT
  5
258
100
AcDbEntity
  8
0
100
AcDbText
 62
7
  6
CONTINUOUS
 10
92.0625
 20
8.9
  7
STANDARD
 40
2.25
  1
Drawn on:
 72
5
 11
106.4905155642
 21
8.9
100
AcDbText
  0
TEXT
  5
259
100
AcDbEntity
  8
0
100
AcDbText
 62
7
  6
CONTINUOUS
 10
77.0625
 20
24.25
  7
STANDARD
 40
2.0
  1
Creo 2.0
 72
5
 11
87.622811284
 21
24.25
100
AcDbText
  0
TEXT
  5
25A
100
AcDbEntity
  8
0
100
AcDbText
 62
7
  6
CONTINUOUS
 10
77.0625
 20
21.25
  7
STANDARD
 40
2.0
  1
A4
 72
5
 11
80.6189202335
 21
21.25
100
AcDbText
  0
TEXT
  5
25B
100
AcDbEntity
  8
0
100
AcDbText
 62
7
  6
CONTINUOUS
 10
77.0625
 20
18.25
  7
STANDARD
 40
2.0
  1
1:1
 72
5
 11
80.9457684825
 21
18.25
100
AcDbText
  0
TEXT
  5
25C
100
AcDbEntity
  8
0
100
AcDbText
 62
7
  6
CONTINUOUS
 10
77.0625
 20
15.25
  7
STANDARD
 40
2.0
  1
1
 72
5
 11
78.5177529183
 21
15.25
100
AcDbText
  0
TEXT
  5
25D
100
AcDbEntity
  8
0
100
AcDbText
 62
7
  6
CONTINUOUS
 10
78.5177529183
 20
15.25
  7
STANDARD
 40
2.0
  1
 / 
 72
5
 11
81.2181420233
 21
15.25
100
AcDbText
  0
TEXT
  5
25E
100
AcDbEntity
  8
0
100
AcDbText
 62
7
  6
CONTINUOUS
 10
81.2181420233
 20
15.25
  7
STANDARD
 40
2.0
  1
1
 72
5
 11
82.6733949416
 21
15.25
100
AcDbText
  0
TEXT
  5
25F
100
AcDbEntity
  8
0
100
AcDbText
 62
7
  6
CONTINUOUS
 10
59.8480058366
 20
24.25
  7
STANDARD
 40
2.0
  1
Drawn with:
 72
5
 11
74.9375
 21
24.25
100
AcDbText
  0
TEXT
  5
260
100
AcDbEntity
  8
0
100
AcDbText
 62
7
  6
CONTINUOUS
 10
62.8752431907
 20
21.25
  7
STANDARD
 40
2.0
  1
Page size:
 72
5
 11
74.9375
 21
21.25
100
AcDbText
  0
TEXT
  5
261
100
AcDbEntity
  8
0
100
AcDbText
 62
7
  6
CONTINUOUS
 10
61.5834143969
 20
18.25
  7
STANDARD
 40
2.0
  1
Page scale:
 72
5
 11
74.9375
 21
18.25
100
AcDbText
  0
TEXT
  5
262
100
AcDbEntity
  8
0
100
AcDbText
 62
7
  6
CONTINUOUS
 10
64.1592898833
 20
15.25
  7
STANDARD
 40
2.0
  1
Sheet nr:
 72
5
 11
74.9375
 21
15.25
100
AcDbText
  0
TEXT
  5
263
100
AcDbEntity
  8
0
100
AcDbText
 62
7
  6
CONTINUOUS
 10
61.8480058366
 20
12.25
  7
STANDARD
 40
2.0
  1
Projection:
 72
5
 11
74.9375
 21
12.25
100
AcDbText
  0
TEXT
  5
264
100
AcDbEntity
  8
0
100
AcDbText
 62
7
  6
CONTINUOUS
 10
27.3015564202
 20
34.4375
  7
STANDARD
 40
5.0
  1
Orac
 72
5
 11
41.6984435798
 21
34.4375
100
AcDbText
  0
TEXT
  5
265
100
AcDbEntity
  8
0
100
AcDbText
 62
7
  6
CONTINUOUS
 10
33.91692607
 20
29.8125
  7
STANDARD
 40
2.7
  1
 
 72
5
 11
35.08307393
 21
29.8125
100
AcDbText
  0
TEXT
  5
266
100
AcDbEntity
  8
0
100
AcDbText
 62
7
  6
CONTINUOUS
 10
21.6303501946
 20
25.7625
  7
STANDARD
 40
2.7
  1
Biekorfstraat 32
 72
5
 11
47.3696498054
 21
25.7625
100
AcDbText
  0
TEXT
  5
267
100
AcDbEntity
  8
0
100
AcDbText
 62
7
  6
CONTINUOUS
 10
14.0451361868
 20
21.7125
  7
STANDARD
 40
2.7
  1
8400 Oostende - Belgium
 72
5
 11
54.9548638132
 21
21.7125
100
AcDbText
  0
TEXT
  5
268
100
AcDbEntity
  8
0
100
AcDbText
 62
7
  6
CONTINUOUS
 10
14.486381323
 20
17.6625
  7
STANDARD
 40
2.7
  1
Tel  +32 (0)59 80 32 52
 72
5
 11
54.513618677
 21
17.6625
100
AcDbText
  0
TEXT
  5
269
100
AcDbEntity
  8
0
100
AcDbText
 62
7
  6
CONTINUOUS
 10
14.1239299611
 20
13.6125
  7
STANDARD
 40
2.7
  1
Fax  +32 (0)59 80 28 10
 72
5
 11
54.8760700389
 21
13.6125
100
AcDbText
  0
TEXT
  5
26A
100
AcDbEntity
  8
0
100
AcDbText
 62
7
  6
CONTINUOUS
 10
17.6538910506
 20
9.5625
  7
STANDARD
 40
2.7
  1
www.oracdecor.com
 72
5
 11
51.3461089494
 21
9.5625
100
AcDbText
  0
TEXT
  5
26B
100
AcDbEntity
  8
0
100
AcDbText
 62
7
  6
CONTINUOUS
 10
2.36
 20
19.7080090791
  7
TEXTSTYLE_4
 40
1.1
  1
u
 50
90.0
 72
5
 11
2.36
 21
22.3663424125
100
AcDbText
  0
TEXT
  5
26C
100
AcDbEntity
  8
0
100
AcDbText
 62
7
  6
CONTINUOUS
 10
2.36
 20
22.3663424125
  7
STANDARD
 40
1.1
  1
ROHS
 50
90.0
 72
5
 11
2.36
 21
26.6336575875
100
AcDbText
  0
TEXT
  5
26D
100
AcDbEntity
  8
0
100
AcDbText
 62
7
  6
CONTINUOUS
 10
2.36
 20
26.6336575875
  7
TEXTSTYLE_4
 40
1.1
  1
u
 50
90.0
 72
5
 11
2.36
 21
29.2919909209
100
AcDbText
  0
TEXT
  5
26E
100
AcDbEntity
  8
0
100
AcDbText
 62
7
  6
CONTINUOUS
 10
4.23
 20
9.219844358
  7
STANDARD
 40
1.1
  1
Parts must be compliant to rohs regulations. If
 50
90.0
 72
5
 11
4.23
 21
39.780155642
100
AcDbText
  0
TEXT
  5
26F
100
AcDbEntity
  8
0
100
AcDbText
 62
7
  6
CONTINUOUS
 10
6.1
 20
8.1048638132
  7
STANDARD
 40
1.1
  1
any notification on drawing is in contradictin with
 50
90.0
 72
5
 11
6.1
 21
40.8951361868
100
AcDbText
  0
TEXT
  5
270
100
AcDbEntity
  8
0
100
AcDbText
 62
7
  6
CONTINUOUS
 10
7.97
 20
8.2011673152
  7
STANDARD
 40
1.1
  1
ROHS regulations, contact Orac before delivery! 
 50
90.0
 72
5
 11
7.97
 21
40.7988326848
100
AcDbText
  0
TEXT
  5
271
100
AcDbEntity
  8
0
100
AcDbText
 62
2
  6
CONTINUOUS
 10
108.0625
 20
23.7875
  7
STANDARD
 40
2.25
  1
PUROTOUCH
 72
5
 11
128.4175583658
 21
23.7875
100
AcDbText
  0
TEXT
  5
272
100
AcDbEntity
  8
0
100
AcDbText
 62
2
  6
CONTINUOUS
 10
128.4175583658
 20
23.7875
  7
STANDARD
 40
2.25
  1
 
 72
5
 11
129.389348249
 21
23.7875
100
AcDbText
  0
TEXT
  5
273
100
AcDbEntity
  8
0
100
AcDbText
 62
2
  6
CONTINUOUS
 10
108.0625
 20
19.9625
  7
STANDARD
 40
2.25
  1
 
 72
5
 11
109.0342898833
 21
19.9625
100
AcDbText
  0
TEXT
  5
274
100
AcDbEntity
  8
0
100
AcDbText
 62
7
  6
CONTINUOUS
 10
92.0625
 20
23.625
  7
STANDARD
 40
2.5
  1
Material:
 72
5
 11
105.7979085603
 21
23.625
100
AcDbText
  0
TEXT
  5
275
100
AcDbEntity
  8
0
100
AcDbText
 62
7
  6
CONTINUOUS
 10
92.0625
 20
19.875
  7
STANDARD
 40
2.5
  1
Remarks:
 72
5
 11
106.3232003891
 21
19.875
100
AcDbText
  0
TEXT
  5
276
100
AcDbEntity
  8
0
100
AcDbText
 62
2
  6
CONTINUOUS
 10
108.0625
 20
37.525
  7
STANDARD
 40
1.8
  1
  
 72
5
 11
109.6173638132
 21
37.525
100
AcDbText
  0
TEXT
  5
277
100
AcDbEntity
  8
0
100
AcDbText
 62
2
  6
CONTINUOUS
 10
109.6173638132
 20
37.525
  7
STANDARD
 40
2.5
  1
P6020-PROD-MM
 72
5
 11
137.8274805447
 21
37.525
100
AcDbText
  0
TEXT
  5
278
100
AcDbEntity
  8
0
100
AcDbText
 62
2
  6
CONTINUOUS
 10
108.0625
 20
33.575
  7
STANDARD
 40
1.8
  1
  
 72
5
 11
109.6173638132
 21
33.575
100
AcDbText
  0
TEXT
  5
279
100
AcDbEntity
  8
0
100
AcDbText
 62
2
  6
CONTINUOUS
 10
108.0625
 20
29.975
  7
STANDARD
 40
1.8
  1
  
 72
5
 11
109.6173638132
 21
29.975
100
AcDbText
  0
TEXT
  5
27A
100
AcDbEntity
  8
0
100
AcDbText
 62
7
  6
CONTINUOUS
 10
92.0625
 20
37.35
  7
STANDARD
 40
2.5
  1
Part name:
 72
5
 11
108.2784533074
 21
37.35
100
AcDbText
  0
TEXT
  5
27B
100
AcDbEntity
  8
0
100
AcDbText
 62
7
  6
CONTINUOUS
 10
92.0625
 20
33.55
  7
STANDARD
 40
1.7
  1
Part description:
 72
5
 11
108.8177529183
 21
33.55
100
AcDbText
  0
TEXT
  5
27C
100
AcDbEntity
  8
0
100
AcDbText
 62
7
  6
CONTINUOUS
 10
92.0625
 20
30.15
  7
STANDARD
 40
1.7
  1
 
 72
5
 11
92.7967412451
 21
30.15
100
AcDbText
  0
TEXT
  5
27D
100
AcDbEntity
  8
0
100
AcDbText
 62
7
  6
CONTINUOUS
 10
60.593385214
 20
27.75
  7
STANDARD
 40
2.5
  1
Drawing properties
 72
5
 11
89.406614786
 21
27.75
100
AcDbText
  0
TEXT
  5
27E
100
AcDbEntity
  8
0
100
AcDbText
 62
7
  6
CONTINUOUS
 10
61.8287937743
 20
39.0
  7
STANDARD
 40
2.0
  1
All dimensions are in 
 72
5
 11
88.1712062257
 21
39.0
100
AcDbText
  0
TEXT
  5
27F
100
AcDbEntity
  8
0
100
AcDbText
 62
7
  6
CONTINUOUS
 10
62.1050583658
 20
36.0
  7
STANDARD
 40
2.0
  1
mm unless otherwise 
 72
5
 11
87.8949416342
 21
36.0
100
AcDbText
  0
TEXT
  5
280
100
AcDbEntity
  8
0
100
AcDbText
 62
7
  6
CONTINUOUS
 10
69.7470817121
 20
33.0
  7
STANDARD
 40
2.0
  1
specified
 72
5
 11
80.2529182879
 21
33.0
100
AcDbText
  0
ENDBLK
  5
281
100
AcDbEntity
  8
0
  6
BYBLOCK
 62
0
100
AcDbBlockEnd
  0
ENDSEC
  0
SECTION
  2
ENTITIES
  0
INSERT
  5
282
100
AcDbEntity
  8
0
100
AcDbBlockReference
 62
7
  6
CONTINUOUS
  2
SYMBOL_2_BL0
 10
200.6298462176
 20
16.2178244018
  0
DIMENSION
  5
283
100
AcDbEntity
  8
0
100
AcDbDimension
 62
2
  6
CONTINUOUS
  2
*D0
 10
44.9724196337
 20
85.6603211736
 11
44.9724196337
 21
117.4103211736
 70
160
 71
2
 42
63.5
  3
DIMSTYLE_1
100
AcDbAlignedDimension
 13
61.9581813551
 23
149.1603211736
 14
61.9581813551
 24
85.6603211736
 50
270.0
100
AcDbRotatedDimension
  0
DIMENSION
  5
284
100
AcDbEntity
  8
0
100
AcDbDimension
 62
2
  6
CONTINUOUS
  2
*D1
 10
90.0002044455
 20
160.081999661
 11
75.9791929003
 21
160.081999661
 70
160
 71
2
 42
28.0420230905
  3
DIMSTYLE_1
100
AcDbAlignedDimension
 13
61.9581813551
 23
149.1603211736
 14
90.0002044455
 24
132.9573100056
100
AcDbRotatedDimension
  0
ACAD_TABLE
  5
285
100
AcDbEntity
  8
0
 62
2
  6
CONTINUOUS
100
AcDbBlockReference
  2
*T1
 10
117.9999793246
 20
4.9999996476
 30
0.0
100
AcDbTable
342
       498
343
211
 11
1.0
 21
0.0
 31
0.0
 90
6
 91
5
 92
10
 93
4
 94
0
 95
0
 96
0
 70
1
141
6.5
141
12.0
141
9.0
141
4.0
141
11.0
142
10.0
142
49.0
142
17.0
142
15.0
142
16.0
142
15.0
142
18.0
142
15.0
142
10.0
142
9.0
171
1
172
0
173
0
174
0
175
6
176
1
 91
33
178
0
145
0.0
301
CELL_VALUE
 90
4
  1
All information in this document is Orac's exclusive property.  It may in no case be reproduced, even partly,\Pbe communicated to a third party or used for any possible purpose without ORAC's express written permission. 
304
ACVALUE_END
170
5
140
1.8
171
1
172
0
173
1
174
0
175
1
176
1
 91
1
178
0
145
0.0
170
1
171
1
172
0
173
1
174
0
175
1
176
1
 91
1
178
0
145
0.0
170
1
171
1
172
0
173
1
174
0
175
1
176
1
 91
1
178
0
145
0.0
170
1
171
1
172
0
173
1
174
0
175
1
176
1
 91
1
178
0
145
0.0
170
1
171
1
172
0
173
1
174
0
175
1
176
1
 91
1
178
0
145
0.0
170
5
171
1
172
0
173
0
174
0
175
1
176
1
 91
33
178
0
145
0.0
301
CELL_VALUE
 90
4
  1
Rev:   
304
ACVALUE_END
170
4
140
2.5
171
1
172
0
173
0
174
0
175
1
176
2
 91
41
178
0
145
0.0
301
CELL_VALUE
 90
4
  1
 \P \P \PPainted Surface :
304
ACVALUE_END
170
1
140
2.25
 64
7
171
1
172
0
173
0
174
0
175
1
176
2
 91
41
178
0
145
0.0
301
CELL_VALUE
 90
4
  1
 \P \P \P \P10,3
304
ACVALUE_END
170
3
140
2.25
 64
7
171
1
172
0
173
0
174
0
175
1
176
2
 91
41
178
0
145
0.0
301
CELL_VALUE
 90
4
  1
  \P \P \P \Pdm²/m
304
ACVALUE_END
170
1
140
1.8
 64
7
171
1
172
0
173
0
174
0
175
1
176
4
 91
41
178
0
145
0.0
301
CELL_VALUE
 90
4
  1
{\Fgdt;u}\Fcgtime.ttf;ROHS\Fgdt;{\Fgdt;u}\P\Fcgtime.ttf;Parts must be compliant to rohs regulations. If\Pany notification on drawing is in contradictin with\PROHS regulations, contact Orac before delivery! 
304
ACVALUE_END
170
5
140
1.1
 64
7
171
1
172
0
173
0
174
0
175
1
176
4
 91
41
178
0
145
0.0
301
CELL_VALUE
 90
4
  1
Orac\P\H2.7; \PBiekorfstraat 32\P8400 Oostende - Belgium\PTel  +32 (0)59 80 32 52\PFax  +32 (0)59 80 28 10\Pwww.oracdecor.com
304
ACVALUE_END
170
5
140
5.0
 64
7
171
1
172
0
173
0
174
0
175
1
176
2
 91
41
178
0
145
0.0
301
CELL_VALUE
 90
4
  1
Drawn with:\PPage size:\PPage scale:\PSheet nr:\PProjection:
304
ACVALUE_END
170
3
140
2.0
 64
7
171
1
172
0
173
0
174
0
175
1
176
2
 91
41
178
0
145
0.0
301
CELL_VALUE
 90
4
  1
Creo 2.0\PA4\P1:1\P1 / 1
304
ACVALUE_END
170
1
140
2.0
 64
7
171
1
172
0
173
0
174
0
175
1
176
1
 91
41
178
0
145
0.0
301
CELL_VALUE
 90
4
  1
Drawn by:\PDrawn on:
304
ACVALUE_END
170
4
140
2.25
 64
7
171
1
172
0
173
0
174
0
175
2
176
1
 91
33
178
0
145
0.0
301
CELL_VALUE
 90
4
  1
Anton Smolko\P18-Jul-2014
304
ACVALUE_END
170
4
140
2.25
171
1
172
0
173
1
174
0
175
1
176
1
 91
1
178
0
145
0.0
170
4
171
1
172
0
173
1
174
0
175
1
176
1
 91
1
178
0
145
0.0
170
1
171
1
172
0
173
1
174
0
175
1
176
1
 91
1
178
0
145
0.0
170
1
171
1
172
0
173
1
174
0
175
1
176
1
 91
1
178
0
145
0.0
170
1
171
1
172
0
173
1
174
0
175
1
176
1
 91
1
178
0
145
0.0
170
1
171
1
172
0
173
1
174
0
175
1
176
1
 91
1
178
0
145
0.0
170
1
171
1
172
0
173
1
174
0
175
1
176
1
 91
1
178
0
145
0.0
170
1
171
1
172
0
173
1
174
0
175
1
176
1
 91
1
178
0
145
0.0
170
1
171
1
172
0
173
0
174
0
175
1
176
1
 91
41
178
0
145
0.0
301
CELL_VALUE
 90
4
  1
Material:\PRemarks:
304
ACVALUE_END
170
4
140
2.5
 64
7
171
1
172
0
173
0
174
0
175
5
176
1
 91
33
178
0
145
0.0
301
CELL_VALUE
 90
4
  1
PUROTOUCH \P 
304
ACVALUE_END
170
4
140
2.25
171
1
172
0
173
1
174
0
175
1
176
1
 91
1
178
0
145
0.0
170
1
171
1
172
0
173
1
174
0
175
1
176
1
 91
1
178
0
145
0.0
170
1
171
1
172
0
173
1
174
0
175
1
176
1
 91
1
178
0
145
0.0
170
1
171
1
172
0
173
1
174
0
175
1
176
1
 91
1
178
0
145
0.0
170
4
171
1
172
0
173
1
174
0
175
1
176
1
 91
1
178
0
145
0.0
170
1
171
1
172
0
173
1
174
0
175
1
176
1
 91
1
178
0
145
0.0
170
1
171
1
172
0
173
0
174
0
175
2
176
1
 91
33
178
0
145
0.0
301
CELL_VALUE
 90
4
  1
Drawing properties
304
ACVALUE_END
170
2
140
2.5
171
1
172
0
173
1
174
0
175
1
176
1
 91
1
178
0
145
0.0
170
2
171
1
172
0
173
0
174
0
175
1
176
2
 91
41
178
0
145
0.0
301
CELL_VALUE
 90
4
  1
Part name:\P\H1.7;Part description:\P 
304
ACVALUE_END
170
4
140
2.5
 64
7
171
1
172
0
173
0
174
0
175
5
176
2
 91
33
178
0
145
0.0
301
CELL_VALUE
 90
4
  1
  \H2.5;P6020-PROD-MM\P\H1.8;  \P  
304
ACVALUE_END
170
4
140
1.8
171
1
172
0
173
1
174
0
175
1
176
1
 91
1
178
0
145
0.0
170
1
171
1
172
0
173
1
174
0
175
1
176
1
 91
1
178
0
145
0.0
170
1
171
1
172
0
173
1
174
0
175
1
176
1
 91
1
178
0
145
0.0
170
1
171
1
172
0
173
1
174
0
175
1
176
1
 91
1
178
0
145
0.0
170
4
171
1
172
0
173
1
174
0
175
1
176
1
 91
1
178
0
145
0.0
170
1
171
1
172
0
173
1
174
0
175
1
176
1
 91
1
178
0
145
0.0
170
1
171
1
172
0
173
0
174
0
175
2
176
1
 91
33
178
0
145
0.0
301
CELL_VALUE
 90
4
  1
All dimensions are in \Pmm unless otherwise \Pspecified
304
ACVALUE_END
170
5
140
2.0
171
1
172
0
173
1
174
0
175
1
176
1
 91
1
178
0
145
0.0
170
5
171
1
172
0
173
1
174
0
175
1
176
1
 91
1
178
0
145
0.0
170
1
171
1
172
0
173
1
174
0
175
1
176
1
 91
1
178
0
145
0.0
170
1
171
1
172
0
173
1
174
0
175
1
176
1
 91
1
178
0
145
0.0
170
1
171
1
172
0
173
1
174
0
175
1
176
1
 91
1
178
0
145
0.0
170
1
171
1
172
0
173
1
174
0
175
1
176
1
 91
1
178
0
145
0.0
170
1
171
1
172
0
173
1
174
0
175
1
176
1
 91
1
178
0
145
0.0
170
1
  0
LINE
  5
286
100
AcDbEntity
  8
0
100
AcDbLine
 62
5
  6
CONTINUOUS
 10
0.0
 20
0.0
 11
0.0
 21
210.0
  0
LINE
  5
287
100
AcDbEntity
  8
0
100
AcDbLine
 62
7
  6
CONTINUOUS
 10
5.0
 20
5.0
 11
5.0
 21
195.0
  0
LINE
  5
288
100
AcDbEntity
  8
0
100
AcDbLine
 62
5
  6
CONTINUOUS
 10
0.0
 20
0.0
 11
297.0
 21
0.0
  0
LINE
  5
289
100
AcDbEntity
  8
0
100
AcDbLine
 62
7
  6
CONTINUOUS
 10
5.0
 20
5.0
 11
292.0
 21
5.0
  0
LINE
  5
28A
100
AcDbEntity
  8
0
100
AcDbLine
 62
4
  6
CONTINUOUS
 10
148.5
 20
195.0
 11
148.5
 21
205.0
  0
LINE
  5
28B
100
AcDbEntity
  8
0
100
AcDbLine
 62
7
  6
CONTINUOUS
 10
5.0
 20
195.0
 11
292.0
 21
195.0
  0
LINE
  5
28C
100
AcDbEntity
  8
0
100
AcDbLine
 62
5
  6
CONTINUOUS
 10
0.0
 20
210.0
 11
297.0
 21
210.0
  0
LINE
  5
28D
100
AcDbEntity
  8
0
100
AcDbLine
 62
7
  6
CONTINUOUS
 10
292.0
 20
5.0
 11
292.0
 21
195.0
  0
LINE
  5
28E
100
AcDbEntity
  8
0
100
AcDbLine
 62
5
  6
CONTINUOUS
 10
297.0
 20
0.0
 11
297.0
 21
210.0
  0
LINE
  5
28F
100
AcDbEntity
  8
0
100
AcDbLine
 62
7
  6
CONTINUOUS
 10
156.4463554424
 20
143.7376044973
 11
156.3690334283
 21
137.9674864768
  0
LINE
  5
290
100
AcDbEntity
  8
0
100
AcDbLine
 62
7
  6
CONTINUOUS
 10
156.3226962229
 20
134.5095948616
 11
156.2453742087
 21
128.739476841
  0
LINE
  5
291
100
AcDbEntity
  8
0
100
AcDbLine
 62
7
  6
CONTINUOUS
 10
155.7965161202
 20
95.2436584086
 11
155.719194106
 21
89.4735403881
  0
LINE
  5
292
100
AcDbEntity
  8
0
100
AcDbLine
 62
7
  6
CONTINUOUS
 10
155.6728569006
 20
86.0156487729
 11
155.5955348865
 21
80.2455307523
  0
LINE
  5
293
100
AcDbEntity
  8
0
100
AcDbLine
 62
7
  6
CONTINUOUS
 10
160.5902449651
 20
80.3073911579
 11
160.6420856678
 21
84.1759786014
  0
LINE
  5
294
100
AcDbEntity
  8
0
100
AcDbLine
 62
7
  6
CONTINUOUS
 10
161.7950964948
 20
95.6856614351
 11
162.1068629122
 21
118.9510800015
  0
LINE
  5
295
100
AcDbEntity
  8
0
100
AcDbLine
 62
7
  6
CONTINUOUS
 10
169.7513346973
 20
93.1505475662
 11
169.803589818
 21
97.0500607569
  0
LINE
  5
296
100
AcDbEntity
  8
0
100
AcDbLine
 62
7
  6
CONTINUOUS
 10
171.1423002502
 20
122.4174870862
 11
171.2066579864
 21
127.2201521192
  0
LINE
  5
297
100
AcDbEntity
  8
0
100
AcDbLine
 62
7
  6
CONTINUOUS
 10
172.3000890762
 20
97.0809803607
 11
172.4876715609
 21
111.0792328399
  0
LINE
  5
298
100
AcDbEntity
  8
DTM_AXIS
100
AcDbLine
 62
7
  6
CONTINUOUS
 10
172.7439183249
 20
111.0824065033
 11
172.5568075211
 21
97.1193529915
  0
LINE
  5
299
100
AcDbEntity
  8
DTM_AXIS
100
AcDbLine
 62
7
  6
CONTINUOUS
 10
173.1548356356
 20
111.08749579
 11
172.9684812195
 21
97.1808873423
  0
LINE
  5
29A
100
AcDbEntity
  8
DTM_AXIS
100
AcDbLine
 62
7
  6
CONTINUOUS
 10
173.6673291635
 20
111.0938431169
 11
173.4819181094
 21
97.257632604
  0
LINE
  5
29B
100
AcDbEntity
  8
DTM_AXIS
100
AcDbLine
 62
7
  6
CONTINUOUS
 10
174.0782149301
 20
111.0965784429
 11
173.8935918077
 21
97.3191669549
  0
LINE
  5
29C
100
AcDbEntity
  8
DTM_AXIS
100
AcDbLine
 62
7
  6
CONTINUOUS
 10
174.591851434
 20
111.1882197972
 11
174.4070286976
 21
97.3959122166
  0
LINE
  5
29D
100
AcDbEntity
  8
DTM_AXIS
100
AcDbLine
 62
7
  6
CONTINUOUS
 10
175.0035251323
 20
111.2497541481
 11
174.818702396
 21
97.4574465674
  0
LINE
  5
29E
100
AcDbEntity
  8
DTM_AXIS
100
AcDbLine
 62
7
  6
CONTINUOUS
 10
175.5169620222
 20
111.3264994098
 11
175.3321392859
 21
97.5341918291
  0
LINE
  5
29F
100
AcDbEntity
  8
DTM_AXIS
100
AcDbLine
 62
7
  6
CONTINUOUS
 10
175.9286357206
 20
111.3880337606
 11
175.7438129843
 21
97.59572618
  0
LINE
  5
2A0
100
AcDbEntity
  8
DTM_AXIS
100
AcDbLine
 62
7
  6
CONTINUOUS
 10
176.4420726105
 20
111.4647790223
 11
176.2572498742
 21
97.6724714417
  0
LINE
  5
2A1
100
AcDbEntity
  8
DTM_AXIS
100
AcDbLine
 62
7
  6
CONTINUOUS
 10
176.8537463088
 20
111.5263133731
 11
176.6689235725
 21
97.7340057925
  0
LINE
  5
2A2
100
AcDbEntity
  8
DTM_AXIS
100
AcDbLine
 62
7
  6
CONTINUOUS
 10
177.3671831988
 20
111.6030586348
 11
177.1823604624
 21
97.8107510542
  0
LINE
  5
2A3
100
AcDbEntity
  8
0
100
AcDbLine
 62
7
  6
CONTINUOUS
 10
177.5542991004
 20
116.4440474212
 11
177.5810965982
 21
118.4437977753
  0
LINE
  5
2A4
100
AcDbEntity
  8
DTM_AXIS
100
AcDbLine
 62
7
  6
CONTINUOUS
 10
177.7788568971
 20
111.6645929857
 11
177.5940341608
 21
97.872285405
  0
LINE
  5
2A5
100
AcDbEntity
  8
DTM_AXIS
100
AcDbLine
 62
7
  6
CONTINUOUS
 10
178.292293787
 20
111.7413382474
 11
178.1074710507
 21
97.9490306667
  0
LINE
  5
2A6
100
AcDbEntity
  8
DTM_AXIS
100
AcDbLine
 62
7
  6
CONTINUOUS
 10
178.7039674854
 20
111.8028725982
 11
178.519144749
 21
98.0105650176
  0
LINE
  5
2A7
100
AcDbEntity
  8
DTM_AXIS
100
AcDbLine
 62
7
  6
CONTINUOUS
 10
179.2174043753
 20
111.8796178599
 11
179.032581639
 21
98.0873102793
  0
LINE
  5
2A8
100
AcDbEntity
  8
DTM_AXIS
100
AcDbLine
 62
7
  6
CONTINUOUS
 10
179.6290780736
 20
111.9411522107
 11
179.4442553373
 21
98.1488446301
  0
LINE
  5
2A9
100
AcDbEntity
  8
DTM_AXIS
100
AcDbLine
 62
7
  6
CONTINUOUS
 10
180.1425149635
 20
112.0178974725
 11
179.9576922272
 21
98.2255898918
  0
LINE
  5
2AA
100
AcDbEntity
  8
DTM_AXIS
100
AcDbLine
 62
7
  6
CONTINUOUS
 10
180.5541886619
 20
112.0794318233
 11
180.3693659256
 21
98.2871242426
  0
LINE
  5
2AB
100
AcDbEntity
  8
DTM_AXIS
100
AcDbLine
 62
7
  6
CONTINUOUS
 10
181.0676255518
 20
112.156177085
 11
180.8828028155
 21
98.3638695043
  0
LINE
  5
2AC
100
AcDbEntity
  8
DTM_AXIS
100
AcDbLine
 62
7
  6
CONTINUOUS
 10
181.4792992502
 20
112.2177114358
 11
181.2944765138
 21
98.4254038552
  0
LINE
  5
2AD
100
AcDbEntity
  8
DTM_AXIS
100
AcDbLine
 62
7
  6
CONTINUOUS
 10
181.9927361401
 20
112.2944566975
 11
181.8079134038
 21
98.5021491169
  0
LINE
  5
2AE
100
AcDbEntity
  8
DTM_AXIS
100
AcDbLine
 62
7
  6
CONTINUOUS
 10
182.4044098384
 20
112.3559910484
 11
182.2195871021
 21
98.5636834677
  0
LINE
  5
2AF
100
AcDbEntity
  8
DTM_AXIS
100
AcDbLine
 62
7
  6
CONTINUOUS
 10
182.9178467283
 20
112.4327363101
 11
182.733023992
 21
98.6404287294
  0
LINE
  5
2B0
100
AcDbEntity
  8
DTM_AXIS
100
AcDbLine
 62
7
  6
CONTINUOUS
 10
183.3295204267
 20
112.4942706609
 11
183.1446976904
 21
98.7019630802
  0
LINE
  5
2B1
100
AcDbEntity
  8
DTM_AXIS
100
AcDbLine
 62
7
  6
CONTINUOUS
 10
183.8429573166
 20
112.5710159226
 11
183.6581345803
 21
98.778708342
  0
LINE
  5
2B2
100
AcDbEntity
  8
DTM_AXIS
100
AcDbLine
 62
7
  6
CONTINUOUS
 10
184.2546310149
 20
112.6325502734
 11
184.0698082786
 21
98.8402426928
  0
LINE
  5
2B3
100
AcDbEntity
  8
DTM_AXIS
100
AcDbLine
 62
7
  6
CONTINUOUS
 10
184.7680679049
 20
112.7092955351
 11
184.5832451686
 21
98.9169879545
  0
LINE
  5
2B4
100
AcDbEntity
  8
DTM_AXIS
100
AcDbLine
 62
7
  6
CONTINUOUS
 10
185.1797416032
 20
112.770829886
 11
184.9949188669
 21
98.9785223053
  0
LINE
  5
2B5
100
AcDbEntity
  8
DTM_AXIS
100
AcDbLine
 62
7
  6
CONTINUOUS
 10
185.6931784931
 20
112.8475751477
 11
185.5083557568
 21
99.055267567
  0
LINE
  5
2B6
100
AcDbEntity
  8
DTM_AXIS
100
AcDbLine
 62
7
  6
CONTINUOUS
 10
186.1048521915
 20
112.9091094985
 11
185.9200294552
 21
99.1168019179
  0
LINE
  5
2B7
100
AcDbEntity
  8
0
100
AcDbLine
 62
7
  6
CONTINUOUS
 10
155.5955348865
 20
80.2455307523
 11
160.5902449651
 21
80.3073911579
  0
LINE
  5
2B8
100
AcDbEntity
  8
DTM_AXIS
100
AcDbLine
 62
7
  6
CONTINUOUS
 10
186.6182890814
 20
112.9858547602
 11
186.4334663451
 21
99.1935471796
  0
LINE
  5
2B9
100
AcDbEntity
  8
DTM_AXIS
100
AcDbLine
 62
7
  6
CONTINUOUS
 10
187.0299627797
 20
113.047389111
 11
186.8451400434
 21
99.2550815304
  0
LINE
  5
2BA
100
AcDbEntity
  8
DTM_AXIS
100
AcDbLine
 62
7
  6
CONTINUOUS
 10
187.5433996697
 20
113.1241343727
 11
187.3585769333
 21
99.3318267921
  0
LINE
  5
2BB
100
AcDbEntity
  8
DTM_AXIS
100
AcDbLine
 62
7
  6
CONTINUOUS
 10
187.955073368
 20
113.1856687236
 11
187.7702506317
 21
99.3933611429
  0
LINE
  5
2BC
100
AcDbEntity
  8
DTM_AXIS
100
AcDbLine
 62
7
  6
CONTINUOUS
 10
188.4685102579
 20
113.2624139853
 11
188.2836875216
 21
99.4701064046
  0
LINE
  5
2BD
100
AcDbEntity
  8
DTM_AXIS
100
AcDbLine
 62
7
  6
CONTINUOUS
 10
188.8801839563
 20
113.3239483361
 11
188.69536122
 21
99.5316407555
  0
LINE
  5
2BE
100
AcDbEntity
  8
DTM_AXIS
100
AcDbLine
 62
7
  6
CONTINUOUS
 10
189.3936208462
 20
113.4006935978
 11
189.2087981099
 21
99.6083860172
  0
LINE
  5
2BF
100
AcDbEntity
  8
DTM_AXIS
100
AcDbLine
 62
7
  6
CONTINUOUS
 10
189.8052945445
 20
113.4622279487
 11
189.6204718082
 21
99.669920368
  0
LINE
  5
2C0
100
AcDbEntity
  8
DTM_AXIS
100
AcDbLine
 62
7
  6
CONTINUOUS
 10
190.3187314345
 20
113.5389732104
 11
190.1339086981
 21
99.7466656297
  0
LINE
  5
2C1
100
AcDbEntity
  8
DTM_AXIS
100
AcDbLine
 62
7
  6
CONTINUOUS
 10
190.7304051328
 20
113.6005075612
 11
190.5455823965
 21
99.8081999805
  0
LINE
  5
2C2
100
AcDbEntity
  8
0
100
AcDbLine
 62
7
  6
CONTINUOUS
 10
263.2776229499
 20
95.6564434986
 11
160.5902449651
 21
80.3073911579
  0
LINE
  5
2C3
100
AcDbEntity
  8
DTM_AXIS
100
AcDbLine
 62
7
  6
CONTINUOUS
 10
191.2438420227
 20
113.6772528229
 11
191.0590192864
 21
99.8849452422
  0
LINE
  5
2C4
100
AcDbEntity
  8
DTM_AXIS
100
AcDbLine
 62
7
  6
CONTINUOUS
 10
191.6555157211
 20
113.7387871737
 11
191.4706929847
 21
99.9464795931
  0
LINE
  5
2C5
100
AcDbEntity
  8
DTM_AXIS
100
AcDbLine
 62
7
  6
CONTINUOUS
 10
192.168952611
 20
113.8155324354
 11
191.9841298747
 21
100.0232248548
  0
LINE
  5
2C6
100
AcDbEntity
  8
DTM_AXIS
100
AcDbLine
 62
7
  6
CONTINUOUS
 10
192.5806263093
 20
113.8770667863
 11
192.395803573
 21
100.0847592056
  0
LINE
  5
2C7
100
AcDbEntity
  8
DTM_AXIS
100
AcDbLine
 62
7
  6
CONTINUOUS
 10
193.0940631992
 20
113.953812048
 11
192.9092404629
 21
100.1615044673
  0
LINE
  5
2C8
100
AcDbEntity
  8
DTM_AXIS
100
AcDbLine
 62
7
  6
CONTINUOUS
 10
193.5057368976
 20
114.0153463988
 11
193.3209141613
 21
100.2230388182
  0
LINE
  5
2C9
100
AcDbEntity
  8
DTM_AXIS
100
AcDbLine
 62
7
  6
CONTINUOUS
 10
194.0191737875
 20
114.0920916605
 11
193.8343510512
 21
100.2997840799
  0
LINE
  5
2CA
100
AcDbEntity
  8
DTM_AXIS
100
AcDbLine
 62
7
  6
CONTINUOUS
 10
194.4308474859
 20
114.1536260113
 11
194.2460247495
 21
100.3613184307
  0
LINE
  5
2CB
100
AcDbEntity
  8
DTM_AXIS
100
AcDbLine
 62
7
  6
CONTINUOUS
 10
194.9442843758
 20
114.230371273
 11
194.7594616395
 21
100.4380636924
  0
LINE
  5
2CC
100
AcDbEntity
  8
DTM_AXIS
100
AcDbLine
 62
7
  6
CONTINUOUS
 10
195.3559580741
 20
114.2919056239
 11
195.1711353378
 21
100.4995980432
  0
LINE
  5
2CD
100
AcDbEntity
  8
DTM_AXIS
100
AcDbLine
 62
7
  6
CONTINUOUS
 10
195.869394964
 20
114.3686508856
 11
195.6845722277
 21
100.5763433049
  0
LINE
  5
2CE
100
AcDbEntity
  8
DTM_AXIS
100
AcDbLine
 62
7
  6
CONTINUOUS
 10
196.2810686624
 20
114.4301852364
 11
196.0962459261
 21
100.6378776558
  0
LINE
  5
2CF
100
AcDbEntity
  8
DTM_AXIS
100
AcDbLine
 62
7
  6
CONTINUOUS
 10
161.359417401
 20
84.2556377281
 11
264.0467953857
 21
99.6046900687
  0
LINE
  5
2D0
100
AcDbEntity
  8
DTM_AXIS
100
AcDbLine
 62
7
  6
CONTINUOUS
 10
196.7945055523
 20
114.5069304981
 11
196.609682816
 21
100.7146229175
  0
LINE
  5
2D1
100
AcDbEntity
  8
DTM_AXIS
100
AcDbLine
 62
7
  6
CONTINUOUS
 10
197.2061792506
 20
114.568464849
 11
197.0213565143
 21
100.7761572683
  0
LINE
  5
2D2
100
AcDbEntity
  8
DTM_AXIS
100
AcDbLine
 62
7
  6
CONTINUOUS
 10
197.7196161406
 20
114.6452101107
 11
197.5347934043
 21
100.85290253
  0
LINE
  5
2D3
100
AcDbEntity
  8
DTM_AXIS
100
AcDbLine
 62
7
  6
CONTINUOUS
 10
198.1312898389
 20
114.7067444615
 11
197.9464671026
 21
100.9144368808
  0
LINE
  5
2D4
100
AcDbEntity
  8
DTM_AXIS
100
AcDbLine
 62
7
  6
CONTINUOUS
 10
198.6447267288
 20
114.7834897232
 11
198.4599039925
 21
100.9911821425
  0
LINE
  5
2D5
100
AcDbEntity
  8
DTM_AXIS
100
AcDbLine
 62
7
  6
CONTINUOUS
 10
199.0564004272
 20
114.845024074
 11
198.8715776909
 21
101.0527164934
  0
LINE
  5
2D6
100
AcDbEntity
  8
DTM_AXIS
100
AcDbLine
 62
7
  6
CONTINUOUS
 10
199.5698373171
 20
114.9217693357
 11
199.3850145808
 21
101.1294617551
  0
LINE
  5
2D7
100
AcDbEntity
  8
DTM_AXIS
100
AcDbLine
 62
7
  6
CONTINUOUS
 10
199.9815110154
 20
114.9833036866
 11
199.7966882791
 21
101.1909961059
  0
LINE
  5
2D8
100
AcDbEntity
  8
DTM_AXIS
100
AcDbLine
 62
7
  6
CONTINUOUS
 10
200.4949479054
 20
115.0600489483
 11
200.310125169
 21
101.2677413676
  0
LINE
  5
2D9
100
AcDbEntity
  8
DTM_AXIS
100
AcDbLine
 62
7
  6
CONTINUOUS
 10
200.9066216037
 20
115.1215832991
 11
200.7217988674
 21
101.3292757185
  0
LINE
  5
2DA
100
AcDbEntity
  8
DTM_AXIS
100
AcDbLine
 62
7
  6
CONTINUOUS
 10
201.4200584936
 20
115.1983285608
 11
201.2352357573
 21
101.4060209802
  0
LINE
  5
2DB
100
AcDbEntity
  8
0
100
AcDbLine
 62
7
  6
CONTINUOUS
 10
168.2521080867
 20
93.0712759063
 11
169.7513346973
 21
93.1505475662
  0
LINE
  5
2DC
100
AcDbEntity
  8
DTM_AXIS
100
AcDbLine
 62
7
  6
CONTINUOUS
 10
172.5560992211
 20
97.1757039297
 11
172.9684812195
 21
97.1808873423
  0
LINE
  5
2DD
100
AcDbEntity
  8
DTM_AXIS
100
AcDbLine
 62
7
  6
CONTINUOUS
 10
173.4812098094
 20
97.3139835422
 11
173.8935918077
 21
97.3191669549
  0
LINE
  5
2DE
100
AcDbEntity
  8
DTM_AXIS
100
AcDbLine
 62
7
  6
CONTINUOUS
 10
174.4063203977
 20
97.4522631548
 11
174.818702396
 21
97.4574465674
  0
LINE
  5
2DF
100
AcDbEntity
  8
DTM_AXIS
100
AcDbLine
 62
7
  6
CONTINUOUS
 10
175.3314309859
 20
97.5905427673
 11
175.7438129843
 21
97.59572618
  0
LINE
  5
2E0
100
AcDbEntity
  8
DTM_AXIS
100
AcDbLine
 62
7
  6
CONTINUOUS
 10
176.2565415742
 20
97.7288223798
 11
176.6689235725
 21
97.7340057925
  0
LINE
  5
2E1
100
AcDbEntity
  8
DTM_AXIS
100
AcDbLine
 62
7
  6
CONTINUOUS
 10
177.1816521624
 20
97.8671019924
 11
177.5940341608
 21
97.872285405
  0
LINE
  5
2E2
100
AcDbEntity
  8
DTM_AXIS
100
AcDbLine
 62
7
  6
CONTINUOUS
 10
178.1067627507
 20
98.0053816049
 11
178.519144749
 21
98.0105650176
  0
LINE
  5
2E3
100
AcDbEntity
  8
DTM_AXIS
100
AcDbLine
 62
7
  6
CONTINUOUS
 10
179.031873339
 20
98.1436612174
 11
179.4442553373
 21
98.1488446301
  0
LINE
  5
2E4
100
AcDbEntity
  8
DTM_AXIS
100
AcDbLine
 62
7
  6
CONTINUOUS
 10
179.9569839272
 20
98.28194083
 11
180.3693659256
 21
98.2871242426
  0
LINE
  5
2E5
100
AcDbEntity
  8
DTM_AXIS
100
AcDbLine
 62
7
  6
CONTINUOUS
 10
180.8820945155
 20
98.4202204425
 11
181.2944765138
 21
98.4254038552
  0
LINE
  5
2E6
100
AcDbEntity
  8
DTM_AXIS
100
AcDbLine
 62
7
  6
CONTINUOUS
 10
181.8072051038
 20
98.5585000551
 11
182.2195871021
 21
98.5636834677
  0
LINE
  5
2E7
100
AcDbEntity
  8
DTM_AXIS
100
AcDbLine
 62
7
  6
CONTINUOUS
 10
182.732315692
 20
98.6967796676
 11
183.1446976904
 21
98.7019630802
  0
LINE
  5
2E8
100
AcDbEntity
  8
DTM_AXIS
100
AcDbLine
 62
7
  6
CONTINUOUS
 10
183.6574262803
 20
98.8350592801
 11
184.0698082786
 21
98.8402426928
  0
LINE
  5
2E9
100
AcDbEntity
  8
DTM_AXIS
100
AcDbLine
 62
7
  6
CONTINUOUS
 10
184.5825368686
 20
98.9733388927
 11
184.9949188669
 21
98.9785223053
  0
LINE
  5
2EA
100
AcDbEntity
  8
DTM_AXIS
100
AcDbLine
 62
7
  6
CONTINUOUS
 10
185.5076474568
 20
99.1116185052
 11
185.9200294552
 21
99.1168019179
  0
LINE
  5
2EB
100
AcDbEntity
  8
DTM_AXIS
100
AcDbLine
 62
7
  6
CONTINUOUS
 10
186.4327580451
 20
99.2498981177
 11
186.8451400434
 21
99.2550815304
  0
LINE
  5
2EC
100
AcDbEntity
  8
DTM_AXIS
100
AcDbLine
 62
7
  6
CONTINUOUS
 10
187.3578686334
 20
99.3881777303
 11
187.7702506317
 21
99.3933611429
  0
LINE
  5
2ED
100
AcDbEntity
  8
0
100
AcDbLine
 62
7
  6
CONTINUOUS
 10
169.803589818
 20
97.0500607569
 11
172.3000890762
 21
97.0809803607
  0
LINE
  5
2EE
100
AcDbEntity
  8
DTM_AXIS
100
AcDbLine
 62
7
  6
CONTINUOUS
 10
201.831732192
 20
115.2598629116
 11
201.6469094557
 21
101.467555331
  0
LINE
  5
2EF
100
AcDbEntity
  8
DTM_AXIS
100
AcDbLine
 62
7
  6
CONTINUOUS
 10
202.3451690819
 20
115.3366081733
 11
202.1603463456
 21
101.5443005927
  0
LINE
  5
2F0
100
AcDbEntity
  8
DTM_AXIS
100
AcDbLine
 62
7
  6
CONTINUOUS
 10
202.7568427802
 20
115.3981425242
 11
202.5720200439
 21
101.6058349435
  0
LINE
  5
2F1
100
AcDbEntity
  8
DTM_AXIS
100
AcDbLine
 62
7
  6
CONTINUOUS
 10
203.2702796702
 20
115.4748877859
 11
203.0854569338
 21
101.6825802052
  0
LINE
  5
2F2
100
AcDbEntity
  8
DTM_AXIS
100
AcDbLine
 62
7
  6
CONTINUOUS
 10
203.6819533685
 20
115.5364221367
 11
203.4971306322
 21
101.7441145561
  0
LINE
  5
2F3
100
AcDbEntity
  8
DTM_AXIS
100
AcDbLine
 62
7
  6
CONTINUOUS
 10
204.1953902584
 20
115.6131673984
 11
204.0105675221
 21
101.8208598178
  0
LINE
  5
2F4
100
AcDbEntity
  8
DTM_AXIS
100
AcDbLine
 62
7
  6
CONTINUOUS
 10
204.6070639568
 20
115.6747017492
 11
204.4222412204
 21
101.8823941686
  0
LINE
  5
2F5
100
AcDbEntity
  8
DTM_AXIS
100
AcDbLine
 62
7
  6
CONTINUOUS
 10
205.1205008467
 20
115.751447011
 11
204.9356781104
 21
101.9591394303
  0
LINE
  5
2F6
100
AcDbEntity
  8
DTM_AXIS
100
AcDbLine
 62
7
  6
CONTINUOUS
 10
205.532174545
 20
115.8129813618
 11
205.3473518087
 21
102.0206737811
  0
LINE
  5
2F7
100
AcDbEntity
  8
DTM_AXIS
100
AcDbLine
 62
7
  6
CONTINUOUS
 10
206.0456114349
 20
115.8897266235
 11
205.8607886986
 21
102.0974190428
  0
LINE
  5
2F8
100
AcDbEntity
  8
DTM_AXIS
100
AcDbLine
 62
7
  6
CONTINUOUS
 10
206.4572851333
 20
115.9512609743
 11
206.272462397
 21
102.1589533937
  0
LINE
  5
2F9
100
AcDbEntity
  8
0
100
AcDbLine
 62
7
  6
CONTINUOUS
 10
272.438712682
 20
108.4995999069
 11
169.7513346973
 21
93.1505475662
  0
LINE
  5
2FA
100
AcDbEntity
  8
0
100
AcDbLine
 62
7
  6
CONTINUOUS
 10
274.9874670609
 20
112.4300327013
 11
274.7306459285
 21
112.3916447214
  0
LINE
  5
2FB
100
AcDbEntity
  8
DTM_AXIS
100
AcDbLine
 62
7
  6
CONTINUOUS
 10
274.3189722302
 20
112.3301103706
 11
273.8055353403
 21
112.2533651089
  0
LINE
  5
2FC
100
AcDbEntity
  8
DTM_AXIS
100
AcDbLine
 62
7
  6
CONTINUOUS
 10
273.3938616419
 20
112.191830758
 11
272.880424752
 21
112.1150854963
  0
LINE
  5
2FD
100
AcDbEntity
  8
DTM_AXIS
100
AcDbLine
 62
7
  6
CONTINUOUS
 10
272.4687510537
 20
112.0535511455
 11
271.9553141637
 21
111.9768058838
  0
LINE
  5
2FE
100
AcDbEntity
  8
DTM_AXIS
100
AcDbLine
 62
7
  6
CONTINUOUS
 10
271.5436404654
 20
111.915271533
 11
271.0302035755
 21
111.8385262713
  0
LINE
  5
2FF
100
AcDbEntity
  8
DTM_AXIS
100
AcDbLine
 62
7
  6
CONTINUOUS
 10
270.6185298771
 20
111.7769919204
 11
270.1050929872
 21
111.7002466587
  0
LINE
  5
300
100
AcDbEntity
  8
DTM_AXIS
100
AcDbLine
 62
7
  6
CONTINUOUS
 10
269.6934192889
 20
111.6387123079
 11
269.1799823989
 21
111.5619670462
  0
LINE
  5
301
100
AcDbEntity
  8
DTM_AXIS
100
AcDbLine
 62
7
  6
CONTINUOUS
 10
268.7683087006
 20
111.5004326954
 11
268.2548718107
 21
111.4236874337
  0
LINE
  5
302
100
AcDbEntity
  8
DTM_AXIS
100
AcDbLine
 62
7
  6
CONTINUOUS
 10
267.8431981123
 20
111.3621530828
 11
267.3297612224
 21
111.2854078211
  0
LINE
  5
303
100
AcDbEntity
  8
DTM_AXIS
100
AcDbLine
 62
7
  6
CONTINUOUS
 10
266.9180875241
 20
111.2238734703
 11
266.4046506342
 21
111.1471282086
  0
LINE
  5
304
100
AcDbEntity
  8
DTM_AXIS
100
AcDbLine
 62
7
  6
CONTINUOUS
 10
265.9929769358
 20
111.0855938577
 11
265.4795400459
 21
111.008848596
  0
LINE
  5
305
100
AcDbEntity
  8
DTM_AXIS
100
AcDbLine
 62
7
  6
CONTINUOUS
 10
265.0678663476
 20
110.9473142452
 11
264.5544294576
 21
110.8705689835
  0
LINE
  5
306
100
AcDbEntity
  8
DTM_AXIS
100
AcDbLine
 62
7
  6
CONTINUOUS
 10
264.1427557593
 20
110.8090346327
 11
263.6293188694
 21
110.732289371
  0
LINE
  5
307
100
AcDbEntity
  8
DTM_AXIS
100
AcDbLine
 62
7
  6
CONTINUOUS
 10
263.217645171
 20
110.6707550201
 11
262.7042082811
 21
110.5940097584
  0
LINE
  5
308
100
AcDbEntity
  8
DTM_AXIS
100
AcDbLine
 62
7
  6
CONTINUOUS
 10
262.2925345828
 20
110.5324754076
 11
261.7790976928
 21
110.4557301459
  0
LINE
  5
309
100
AcDbEntity
  8
DTM_AXIS
100
AcDbLine
 62
7
  6
CONTINUOUS
 10
261.3674239945
 20
110.3941957951
 11
260.8539871046
 21
110.3174505334
  0
LINE
  5
30A
100
AcDbEntity
  8
DTM_AXIS
100
AcDbLine
 62
7
  6
CONTINUOUS
 10
260.4423134062
 20
110.2559161825
 11
259.9288765163
 21
110.1791709208
  0
LINE
  5
30B
100
AcDbEntity
  8
DTM_AXIS
100
AcDbLine
 62
7
  6
CONTINUOUS
 10
259.517202818
 20
110.11763657
 11
259.003765928
 21
110.0408913083
  0
LINE
  5
30C
100
AcDbEntity
  8
DTM_AXIS
100
AcDbLine
 62
7
  6
CONTINUOUS
 10
258.5920922297
 20
109.9793569574
 11
258.0786553398
 21
109.9026116957
  0
LINE
  5
30D
100
AcDbEntity
  8
DTM_AXIS
100
AcDbLine
 62
7
  6
CONTINUOUS
 10
257.6669816414
 20
109.8410773449
 11
257.1535447515
 21
109.7643320832
  0
LINE
  5
30E
100
AcDbEntity
  8
DTM_AXIS
100
AcDbLine
 62
7
  6
CONTINUOUS
 10
256.7418710532
 20
109.7027977324
 11
256.2284341632
 21
109.6260524707
  0
LINE
  5
30F
100
AcDbEntity
  8
DTM_AXIS
100
AcDbLine
 62
7
  6
CONTINUOUS
 10
255.8167604649
 20
109.5645181198
 11
255.303323575
 21
109.4877728581
  0
LINE
  5
310
100
AcDbEntity
  8
DTM_AXIS
100
AcDbLine
 62
7
  6
CONTINUOUS
 10
254.8916498766
 20
109.4262385073
 11
254.3782129867
 21
109.3494932456
  0
LINE
  5
311
100
AcDbEntity
  8
DTM_AXIS
100
AcDbLine
 62
7
  6
CONTINUOUS
 10
253.9665392884
 20
109.2879588948
 11
253.4531023985
 21
109.2112136331
  0
LINE
  5
312
100
AcDbEntity
  8
DTM_AXIS
100
AcDbLine
 62
7
  6
CONTINUOUS
 10
253.0414287001
 20
109.1496792822
 11
252.5279918102
 21
109.0729340205
  0
LINE
  5
313
100
AcDbEntity
  8
DTM_AXIS
100
AcDbLine
 62
7
  6
CONTINUOUS
 10
252.1163181118
 20
109.0113996697
 11
251.6028812219
 21
108.934654408
  0
LINE
  5
314
100
AcDbEntity
  8
DTM_AXIS
100
AcDbLine
 62
7
  6
CONTINUOUS
 10
251.1912075236
 20
108.8731200572
 11
250.6777706337
 21
108.7963747954
  0
LINE
  5
315
100
AcDbEntity
  8
DTM_AXIS
100
AcDbLine
 62
7
  6
CONTINUOUS
 10
250.2660969353
 20
108.7348404446
 11
249.7526600454
 21
108.6580951829
  0
LINE
  5
316
100
AcDbEntity
  8
DTM_AXIS
100
AcDbLine
 62
7
  6
CONTINUOUS
 10
249.3409863471
 20
108.5965608321
 11
248.8275494571
 21
108.5198155704
  0
LINE
  5
317
100
AcDbEntity
  8
DTM_AXIS
100
AcDbLine
 62
7
  6
CONTINUOUS
 10
248.4158757588
 20
108.4582812195
 11
247.9024388689
 21
108.3815359578
  0
LINE
  5
318
100
AcDbEntity
  8
DTM_AXIS
100
AcDbLine
 62
7
  6
CONTINUOUS
 10
247.4907651705
 20
108.320001607
 11
246.9773282806
 21
108.2432563453
  0
LINE
  5
319
100
AcDbEntity
  8
DTM_AXIS
100
AcDbLine
 62
7
  6
CONTINUOUS
 10
246.5656545823
 20
108.1817219945
 11
246.0522176923
 21
108.1049767328
  0
LINE
  5
31A
100
AcDbEntity
  8
DTM_AXIS
100
AcDbLine
 62
7
  6
CONTINUOUS
 10
245.640543994
 20
108.0434423819
 11
245.1271071041
 21
107.9666971202
  0
LINE
  5
31B
100
AcDbEntity
  8
DTM_AXIS
100
AcDbLine
 62
7
  6
CONTINUOUS
 10
244.7154334057
 20
107.9051627694
 11
244.2019965158
 21
107.8284175077
  0
LINE
  5
31C
100
AcDbEntity
  8
DTM_AXIS
100
AcDbLine
 62
7
  6
CONTINUOUS
 10
243.7903228175
 20
107.7668831569
 11
243.2768859275
 21
107.6901378952
  0
LINE
  5
31D
100
AcDbEntity
  8
DTM_AXIS
100
AcDbLine
 62
7
  6
CONTINUOUS
 10
242.8652122292
 20
107.6286035443
 11
242.3517753393
 21
107.5518582826
  0
LINE
  5
31E
100
AcDbEntity
  8
DTM_AXIS
100
AcDbLine
 62
7
  6
CONTINUOUS
 10
241.9401016409
 20
107.4903239318
 11
241.426664751
 21
107.4135786701
  0
LINE
  5
31F
100
AcDbEntity
  8
DTM_AXIS
100
AcDbLine
 62
7
  6
CONTINUOUS
 10
241.0149910527
 20
107.3520443192
 11
240.5015541628
 21
107.2752990575
  0
LINE
  5
320
100
AcDbEntity
  8
DTM_AXIS
100
AcDbLine
 62
7
  6
CONTINUOUS
 10
240.0898804644
 20
107.2137647067
 11
239.5764435745
 21
107.137019445
  0
LINE
  5
321
100
AcDbEntity
  8
DTM_AXIS
100
AcDbLine
 62
7
  6
CONTINUOUS
 10
239.1647698761
 20
107.0754850942
 11
238.6513329862
 21
106.9987398325
  0
LINE
  5
322
100
AcDbEntity
  8
DTM_AXIS
100
AcDbLine
 62
7
  6
CONTINUOUS
 10
238.2396592879
 20
106.9372054816
 11
237.726222398
 21
106.8604602199
  0
LINE
  5
323
100
AcDbEntity
  8
DTM_AXIS
100
AcDbLine
 62
7
  6
CONTINUOUS
 10
237.3145486996
 20
106.7989258691
 11
236.8011118097
 21
106.7221806074
  0
LINE
  5
324
100
AcDbEntity
  8
DTM_AXIS
100
AcDbLine
 62
7
  6
CONTINUOUS
 10
236.3894381114
 20
106.6606462566
 11
235.8760012214
 21
106.5839009949
  0
LINE
  5
325
100
AcDbEntity
  8
DTM_AXIS
100
AcDbLine
 62
7
  6
CONTINUOUS
 10
235.4643275231
 20
106.522366644
 11
234.9508906332
 21
106.4456213823
  0
LINE
  5
326
100
AcDbEntity
  8
DTM_AXIS
100
AcDbLine
 62
7
  6
CONTINUOUS
 10
234.5392169348
 20
106.3840870315
 11
234.0257800449
 21
106.3073417698
  0
LINE
  5
327
100
AcDbEntity
  8
DTM_AXIS
100
AcDbLine
 62
7
  6
CONTINUOUS
 10
233.6141063466
 20
106.2458074189
 11
233.1006694566
 21
106.1690621572
  0
LINE
  5
328
100
AcDbEntity
  8
DTM_AXIS
100
AcDbLine
 62
7
  6
CONTINUOUS
 10
232.6889957583
 20
106.1075278064
 11
232.1755588684
 21
106.0307825447
  0
LINE
  5
329
100
AcDbEntity
  8
DTM_AXIS
100
AcDbLine
 62
7
  6
CONTINUOUS
 10
231.76388517
 20
105.9692481939
 11
231.2504482801
 21
105.8925029322
  0
LINE
  5
32A
100
AcDbEntity
  8
DTM_AXIS
100
AcDbLine
 62
7
  6
CONTINUOUS
 10
230.8387745818
 20
105.8309685813
 11
230.3253376918
 21
105.7542233196
  0
LINE
  5
32B
100
AcDbEntity
  8
DTM_AXIS
100
AcDbLine
 62
7
  6
CONTINUOUS
 10
229.9136639935
 20
105.6926889688
 11
229.4002271036
 21
105.6159437071
  0
LINE
  5
32C
100
AcDbEntity
  8
DTM_AXIS
100
AcDbLine
 62
7
  6
CONTINUOUS
 10
228.9885534052
 20
105.5544093563
 11
228.4751165153
 21
105.4776640946
  0
LINE
  5
32D
100
AcDbEntity
  8
DTM_AXIS
100
AcDbLine
 62
7
  6
CONTINUOUS
 10
228.063442817
 20
105.4161297437
 11
227.5500059271
 21
105.339384482
  0
LINE
  5
32E
100
AcDbEntity
  8
DTM_AXIS
100
AcDbLine
 62
7
  6
CONTINUOUS
 10
227.1383322287
 20
105.2778501312
 11
226.6248953388
 21
105.2011048695
  0
LINE
  5
32F
100
AcDbEntity
  8
DTM_AXIS
100
AcDbLine
 62
7
  6
CONTINUOUS
 10
226.2132216404
 20
105.1395705187
 11
225.6997847505
 21
105.062825257
  0
LINE
  5
330
100
AcDbEntity
  8
DTM_AXIS
100
AcDbLine
 62
7
  6
CONTINUOUS
 10
225.2881110522
 20
105.0012909061
 11
224.7746741623
 21
104.9245456444
  0
LINE
  5
331
100
AcDbEntity
  8
DTM_AXIS
100
AcDbLine
 62
7
  6
CONTINUOUS
 10
224.3630004639
 20
104.8630112936
 11
223.849563574
 21
104.7862660319
  0
LINE
  5
332
100
AcDbEntity
  8
DTM_AXIS
100
AcDbLine
 62
7
  6
CONTINUOUS
 10
223.4378898757
 20
104.724731681
 11
222.9244529857
 21
104.6479864193
  0
LINE
  5
333
100
AcDbEntity
  8
DTM_AXIS
100
AcDbLine
 62
7
  6
CONTINUOUS
 10
222.5127792874
 20
104.5864520685
 11
221.9993423975
 21
104.5097068068
  0
LINE
  5
334
100
AcDbEntity
  8
DTM_AXIS
100
AcDbLine
 62
7
  6
CONTINUOUS
 10
221.5876686991
 20
104.448172456
 11
221.0742318092
 21
104.3714271943
  0
LINE
  5
335
100
AcDbEntity
  8
DTM_AXIS
100
AcDbLine
 62
7
  6
CONTINUOUS
 10
220.6625581109
 20
104.3098928434
 11
220.1491212209
 21
104.2331475817
  0
LINE
  5
336
100
AcDbEntity
  8
DTM_AXIS
100
AcDbLine
 62
7
  6
CONTINUOUS
 10
219.7374475226
 20
104.1716132309
 11
219.2240106327
 21
104.0948679692
  0
LINE
  5
337
100
AcDbEntity
  8
DTM_AXIS
100
AcDbLine
 62
7
  6
CONTINUOUS
 10
218.8123369343
 20
104.0333336184
 11
218.2989000444
 21
103.9565883567
  0
LINE
  5
338
100
AcDbEntity
  8
DTM_AXIS
100
AcDbLine
 62
7
  6
CONTINUOUS
 10
217.8872263461
 20
103.8950540058
 11
217.3737894561
 21
103.8183087441
  0
LINE
  5
339
100
AcDbEntity
  8
DTM_AXIS
100
AcDbLine
 62
7
  6
CONTINUOUS
 10
216.9621157578
 20
103.7567743933
 11
216.4486788679
 21
103.6800291316
  0
LINE
  5
33A
100
AcDbEntity
  8
DTM_AXIS
100
AcDbLine
 62
7
  6
CONTINUOUS
 10
216.0370051695
 20
103.6184947807
 11
215.5235682796
 21
103.541749519
  0
LINE
  5
33B
100
AcDbEntity
  8
DTM_AXIS
100
AcDbLine
 62
7
  6
CONTINUOUS
 10
215.1118945813
 20
103.4802151682
 11
214.5984576914
 21
103.4034699065
  0
LINE
  5
33C
100
AcDbEntity
  8
DTM_AXIS
100
AcDbLine
 62
7
  6
CONTINUOUS
 10
214.186783993
 20
103.3419355557
 11
213.6733471031
 21
103.265190294
  0
LINE
  5
33D
100
AcDbEntity
  8
DTM_AXIS
100
AcDbLine
 62
7
  6
CONTINUOUS
 10
213.2616734047
 20
103.2036559431
 11
212.7482365148
 21
103.1269106814
  0
LINE
  5
33E
100
AcDbEntity
  8
DTM_AXIS
100
AcDbLine
 62
7
  6
CONTINUOUS
 10
212.3365628165
 20
103.0653763306
 11
211.8231259266
 21
102.9886310689
  0
LINE
  5
33F
100
AcDbEntity
  8
DTM_AXIS
100
AcDbLine
 62
7
  6
CONTINUOUS
 10
211.4114522282
 20
102.9270967181
 11
210.8980153383
 21
102.8503514564
  0
LINE
  5
340
100
AcDbEntity
  8
DTM_AXIS
100
AcDbLine
 62
7
  6
CONTINUOUS
 10
210.48634164
 20
102.7888171055
 11
209.97290475
 21
102.7120718438
  0
LINE
  5
341
100
AcDbEntity
  8
DTM_AXIS
100
AcDbLine
 62
7
  6
CONTINUOUS
 10
209.5612310517
 20
102.650537493
 11
209.0477941618
 21
102.5737922313
  0
LINE
  5
342
100
AcDbEntity
  8
DTM_AXIS
100
AcDbLine
 62
7
  6
CONTINUOUS
 10
208.6361204634
 20
102.5122578805
 11
208.1226835735
 21
102.4355126187
  0
LINE
  5
343
100
AcDbEntity
  8
DTM_AXIS
100
AcDbLine
 62
7
  6
CONTINUOUS
 10
207.7110098752
 20
102.3739782679
 11
207.1975729852
 21
102.2972330062
  0
LINE
  5
344
100
AcDbEntity
  8
DTM_AXIS
100
AcDbLine
 62
7
  6
CONTINUOUS
 10
206.7858992869
 20
102.2356986554
 11
206.272462397
 21
102.1589533937
  0
LINE
  5
345
100
AcDbEntity
  8
DTM_AXIS
100
AcDbLine
 62
7
  6
CONTINUOUS
 10
205.8607886986
 20
102.0974190428
 11
205.3473518087
 21
102.0206737811
  0
LINE
  5
346
100
AcDbEntity
  8
DTM_AXIS
100
AcDbLine
 62
7
  6
CONTINUOUS
 10
204.9356781104
 20
101.9591394303
 11
204.4222412204
 21
101.8823941686
  0
LINE
  5
347
100
AcDbEntity
  8
DTM_AXIS
100
AcDbLine
 62
7
  6
CONTINUOUS
 10
204.0105675221
 20
101.8208598178
 11
203.4971306322
 21
101.7441145561
  0
LINE
  5
348
100
AcDbEntity
  8
DTM_AXIS
100
AcDbLine
 62
7
  6
CONTINUOUS
 10
203.0854569338
 20
101.6825802052
 11
202.5720200439
 21
101.6058349435
  0
LINE
  5
349
100
AcDbEntity
  8
DTM_AXIS
100
AcDbLine
 62
7
  6
CONTINUOUS
 10
202.1603463456
 20
101.5443005927
 11
201.6469094557
 21
101.467555331
  0
LINE
  5
34A
100
AcDbEntity
  8
DTM_AXIS
100
AcDbLine
 62
7
  6
CONTINUOUS
 10
201.2352357573
 20
101.4060209802
 11
200.7217988674
 21
101.3292757185
  0
LINE
  5
34B
100
AcDbEntity
  8
DTM_AXIS
100
AcDbLine
 62
7
  6
CONTINUOUS
 10
200.310125169
 20
101.2677413676
 11
199.7966882791
 21
101.1909961059
  0
LINE
  5
34C
100
AcDbEntity
  8
DTM_AXIS
100
AcDbLine
 62
7
  6
CONTINUOUS
 10
199.3850145808
 20
101.1294617551
 11
198.8715776909
 21
101.0527164934
  0
LINE
  5
34D
100
AcDbEntity
  8
DTM_AXIS
100
AcDbLine
 62
7
  6
CONTINUOUS
 10
198.4599039925
 20
100.9911821425
 11
197.9464671026
 21
100.9144368808
  0
LINE
  5
34E
100
AcDbEntity
  8
DTM_AXIS
100
AcDbLine
 62
7
  6
CONTINUOUS
 10
197.5347934043
 20
100.85290253
 11
197.0213565143
 21
100.7761572683
  0
LINE
  5
34F
100
AcDbEntity
  8
DTM_AXIS
100
AcDbLine
 62
7
  6
CONTINUOUS
 10
196.609682816
 20
100.7146229175
 11
196.0962459261
 21
100.6378776558
  0
LINE
  5
350
100
AcDbEntity
  8
DTM_AXIS
100
AcDbLine
 62
7
  6
CONTINUOUS
 10
195.6845722277
 20
100.5763433049
 11
195.1711353378
 21
100.4995980432
  0
LINE
  5
351
100
AcDbEntity
  8
DTM_AXIS
100
AcDbLine
 62
7
  6
CONTINUOUS
 10
194.7594616395
 20
100.4380636924
 11
194.2460247495
 21
100.3613184307
  0
LINE
  5
352
100
AcDbEntity
  8
DTM_AXIS
100
AcDbLine
 62
7
  6
CONTINUOUS
 10
193.8343510512
 20
100.2997840799
 11
193.3209141613
 21
100.2230388182
  0
LINE
  5
353
100
AcDbEntity
  8
DTM_AXIS
100
AcDbLine
 62
7
  6
CONTINUOUS
 10
192.9092404629
 20
100.1615044673
 11
192.395803573
 21
100.0847592056
  0
LINE
  5
354
100
AcDbEntity
  8
DTM_AXIS
100
AcDbLine
 62
7
  6
CONTINUOUS
 10
191.9841298747
 20
100.0232248548
 11
191.4706929847
 21
99.9464795931
  0
LINE
  5
355
100
AcDbEntity
  8
DTM_AXIS
100
AcDbLine
 62
7
  6
CONTINUOUS
 10
191.0590192864
 20
99.8849452422
 11
190.5455823965
 21
99.8081999805
  0
LINE
  5
356
100
AcDbEntity
  8
DTM_AXIS
100
AcDbLine
 62
7
  6
CONTINUOUS
 10
190.1339086981
 20
99.7466656297
 11
189.6204718082
 21
99.669920368
  0
LINE
  5
357
100
AcDbEntity
  8
DTM_AXIS
100
AcDbLine
 62
7
  6
CONTINUOUS
 10
189.2087981099
 20
99.6083860172
 11
188.69536122
 21
99.5316407555
  0
LINE
  5
358
100
AcDbEntity
  8
DTM_AXIS
100
AcDbLine
 62
7
  6
CONTINUOUS
 10
188.2836875216
 20
99.4701064046
 11
187.7702506317
 21
99.3933611429
  0
LINE
  5
359
100
AcDbEntity
  8
DTM_AXIS
100
AcDbLine
 62
7
  6
CONTINUOUS
 10
187.3585769333
 20
99.3318267921
 11
186.8451400434
 21
99.2550815304
  0
LINE
  5
35A
100
AcDbEntity
  8
DTM_AXIS
100
AcDbLine
 62
7
  6
CONTINUOUS
 10
186.4334663451
 20
99.1935471796
 11
185.9200294552
 21
99.1168019179
  0
LINE
  5
35B
100
AcDbEntity
  8
DTM_AXIS
100
AcDbLine
 62
7
  6
CONTINUOUS
 10
185.5083557568
 20
99.055267567
 11
184.9949188669
 21
98.9785223053
  0
LINE
  5
35C
100
AcDbEntity
  8
DTM_AXIS
100
AcDbLine
 62
7
  6
CONTINUOUS
 10
184.5832451686
 20
98.9169879545
 11
184.0698082786
 21
98.8402426928
  0
LINE
  5
35D
100
AcDbEntity
  8
DTM_AXIS
100
AcDbLine
 62
7
  6
CONTINUOUS
 10
183.6581345803
 20
98.778708342
 11
183.1446976904
 21
98.7019630802
  0
LINE
  5
35E
100
AcDbEntity
  8
DTM_AXIS
100
AcDbLine
 62
7
  6
CONTINUOUS
 10
182.733023992
 20
98.6404287294
 11
182.2195871021
 21
98.5636834677
  0
LINE
  5
35F
100
AcDbEntity
  8
DTM_AXIS
100
AcDbLine
 62
7
  6
CONTINUOUS
 10
181.8079134038
 20
98.5021491169
 11
181.2944765138
 21
98.4254038552
  0
LINE
  5
360
100
AcDbEntity
  8
DTM_AXIS
100
AcDbLine
 62
7
  6
CONTINUOUS
 10
180.8828028155
 20
98.3638695043
 11
180.3693659256
 21
98.2871242426
  0
LINE
  5
361
100
AcDbEntity
  8
DTM_AXIS
100
AcDbLine
 62
7
  6
CONTINUOUS
 10
179.9576922272
 20
98.2255898918
 11
179.4442553373
 21
98.1488446301
  0
LINE
  5
362
100
AcDbEntity
  8
DTM_AXIS
100
AcDbLine
 62
7
  6
CONTINUOUS
 10
179.032581639
 20
98.0873102793
 11
178.519144749
 21
98.0105650176
  0
LINE
  5
363
100
AcDbEntity
  8
DTM_AXIS
100
AcDbLine
 62
7
  6
CONTINUOUS
 10
178.1074710507
 20
97.9490306667
 11
177.5940341608
 21
97.872285405
  0
LINE
  5
364
100
AcDbEntity
  8
DTM_AXIS
100
AcDbLine
 62
7
  6
CONTINUOUS
 10
177.1823604624
 20
97.8107510542
 11
176.6689235725
 21
97.7340057925
  0
LINE
  5
365
100
AcDbEntity
  8
DTM_AXIS
100
AcDbLine
 62
7
  6
CONTINUOUS
 10
176.2572498742
 20
97.6724714417
 11
175.7438129842
 21
97.59572618
  0
LINE
  5
366
100
AcDbEntity
  8
DTM_AXIS
100
AcDbLine
 62
7
  6
CONTINUOUS
 10
175.3321392859
 20
97.5341918291
 11
174.818702396
 21
97.4574465674
  0
LINE
  5
367
100
AcDbEntity
  8
DTM_AXIS
100
AcDbLine
 62
7
  6
CONTINUOUS
 10
174.4070286976
 20
97.3959122166
 11
173.8935918077
 21
97.3191669549
  0
LINE
  5
368
100
AcDbEntity
  8
DTM_AXIS
100
AcDbLine
 62
7
  6
CONTINUOUS
 10
173.4819181094
 20
97.257632604
 11
172.9684812195
 21
97.1808873423
  0
LINE
  5
369
100
AcDbEntity
  8
0
100
AcDbLine
 62
7
  6
CONTINUOUS
 10
172.5568075211
 20
97.1193529915
 11
172.3000890762
 21
97.0809803607
  0
LINE
  5
36A
100
AcDbEntity
  8
0
100
AcDbLine
 62
7
  6
CONTINUOUS
 10
155.7965161202
 20
95.2436584086
 11
161.7950964948
 21
95.6856614351
  0
LINE
  5
36B
100
AcDbEntity
  8
DTM_AXIS
100
AcDbLine
 62
7
  6
CONTINUOUS
 10
188.2829792216
 20
99.5264573428
 11
188.69536122
 21
99.5316407555
  0
LINE
  5
36C
100
AcDbEntity
  8
DTM_AXIS
100
AcDbLine
 62
7
  6
CONTINUOUS
 10
189.2080898099
 20
99.6647369554
 11
189.6204718082
 21
99.669920368
  0
LINE
  5
36D
100
AcDbEntity
  8
DTM_AXIS
100
AcDbLine
 62
7
  6
CONTINUOUS
 10
190.1332003981
 20
99.8030165679
 11
190.5455823965
 21
99.8081999805
  0
LINE
  5
36E
100
AcDbEntity
  8
DTM_AXIS
100
AcDbLine
 62
7
  6
CONTINUOUS
 10
191.0583109864
 20
99.9412961804
 11
191.4706929847
 21
99.9464795931
  0
LINE
  5
36F
100
AcDbEntity
  8
DTM_AXIS
100
AcDbLine
 62
7
  6
CONTINUOUS
 10
191.9834215747
 20
100.079575793
 11
192.395803573
 21
100.0847592056
  0
LINE
  5
370
100
AcDbEntity
  8
DTM_AXIS
100
AcDbLine
 62
7
  6
CONTINUOUS
 10
192.9085321629
 20
100.2178554055
 11
193.3209141613
 21
100.2230388182
  0
LINE
  5
371
100
AcDbEntity
  8
DTM_AXIS
100
AcDbLine
 62
7
  6
CONTINUOUS
 10
193.8336427512
 20
100.356135018
 11
194.2460247495
 21
100.3613184307
  0
LINE
  5
372
100
AcDbEntity
  8
DTM_AXIS
100
AcDbLine
 62
7
  6
CONTINUOUS
 10
194.7587533395
 20
100.4944146306
 11
195.1711353378
 21
100.4995980432
  0
LINE
  5
373
100
AcDbEntity
  8
DTM_AXIS
100
AcDbLine
 62
7
  6
CONTINUOUS
 10
195.6838639277
 20
100.6326942431
 11
196.0962459261
 21
100.6378776558
  0
LINE
  5
374
100
AcDbEntity
  8
DTM_AXIS
100
AcDbLine
 62
7
  6
CONTINUOUS
 10
196.608974516
 20
100.7709738556
 11
197.0213565143
 21
100.7761572683
  0
LINE
  5
375
100
AcDbEntity
  8
DTM_AXIS
100
AcDbLine
 62
7
  6
CONTINUOUS
 10
197.5340851043
 20
100.9092534682
 11
197.9464671026
 21
100.9144368808
  0
LINE
  5
376
100
AcDbEntity
  8
DTM_AXIS
100
AcDbLine
 62
7
  6
CONTINUOUS
 10
198.4591956925
 20
101.0475330807
 11
198.8715776909
 21
101.0527164934
  0
LINE
  5
377
100
AcDbEntity
  8
DTM_AXIS
100
AcDbLine
 62
7
  6
CONTINUOUS
 10
199.3843062808
 20
101.1858126933
 11
199.7966882791
 21
101.1909961059
  0
LINE
  5
378
100
AcDbEntity
  8
DTM_AXIS
100
AcDbLine
 62
7
  6
CONTINUOUS
 10
200.3094168691
 20
101.3240923058
 11
200.7217988674
 21
101.3292757185
  0
LINE
  5
379
100
AcDbEntity
  8
DTM_AXIS
100
AcDbLine
 62
7
  6
CONTINUOUS
 10
201.2345274573
 20
101.4623719183
 11
201.6469094557
 21
101.467555331
  0
LINE
  5
37A
100
AcDbEntity
  8
DTM_AXIS
100
AcDbLine
 62
7
  6
CONTINUOUS
 10
202.1596380456
 20
101.6006515309
 11
202.5720200439
 21
101.6058349435
  0
LINE
  5
37B
100
AcDbEntity
  8
DTM_AXIS
100
AcDbLine
 62
7
  6
CONTINUOUS
 10
203.0847486338
 20
101.7389311434
 11
203.4971306322
 21
101.7441145561
  0
LINE
  5
37C
100
AcDbEntity
  8
DTM_AXIS
100
AcDbLine
 62
7
  6
CONTINUOUS
 10
204.0098592221
 20
101.8772107559
 11
204.4222412204
 21
101.8823941686
  0
LINE
  5
37D
100
AcDbEntity
  8
DTM_AXIS
100
AcDbLine
 62
7
  6
CONTINUOUS
 10
204.9349698104
 20
102.0154903685
 11
205.3473518087
 21
102.0206737811
  0
LINE
  5
37E
100
AcDbEntity
  8
DTM_AXIS
100
AcDbLine
 62
7
  6
CONTINUOUS
 10
205.8600803986
 20
102.153769981
 11
206.272462397
 21
102.1589533937
  0
LINE
  5
37F
100
AcDbEntity
  8
DTM_AXIS
100
AcDbLine
 62
7
  6
CONTINUOUS
 10
206.7851909869
 20
102.2920495936
 11
207.1975729852
 21
102.2972330062
  0
LINE
  5
380
100
AcDbEntity
  8
DTM_AXIS
100
AcDbLine
 62
7
  6
CONTINUOUS
 10
207.7103015752
 20
102.4303292061
 11
208.1226835735
 21
102.4355126187
  0
LINE
  5
381
100
AcDbEntity
  8
DTM_AXIS
100
AcDbLine
 62
7
  6
CONTINUOUS
 10
208.6354121634
 20
102.5686088186
 11
209.0477941618
 21
102.5737922313
  0
LINE
  5
382
100
AcDbEntity
  8
DTM_AXIS
100
AcDbLine
 62
7
  6
CONTINUOUS
 10
209.5605227517
 20
102.7068884312
 11
209.97290475
 21
102.7120718438
  0
LINE
  5
383
100
AcDbEntity
  8
DTM_AXIS
100
AcDbLine
 62
7
  6
CONTINUOUS
 10
210.48563334
 20
102.8451680437
 11
210.8980153383
 21
102.8503514564
  0
LINE
  5
384
100
AcDbEntity
  8
DTM_AXIS
100
AcDbLine
 62
7
  6
CONTINUOUS
 10
211.4107439282
 20
102.9834476562
 11
211.8231259266
 21
102.9886310689
  0
LINE
  5
385
100
AcDbEntity
  8
DTM_AXIS
100
AcDbLine
 62
7
  6
CONTINUOUS
 10
212.3358545165
 20
103.1217272688
 11
212.7482365148
 21
103.1269106814
  0
LINE
  5
386
100
AcDbEntity
  8
DTM_AXIS
100
AcDbLine
 62
7
  6
CONTINUOUS
 10
213.2609651048
 20
103.2600068813
 11
213.6733471031
 21
103.265190294
  0
LINE
  5
387
100
AcDbEntity
  8
DTM_AXIS
100
AcDbLine
 62
7
  6
CONTINUOUS
 10
214.186075693
 20
103.3982864938
 11
214.5984576914
 21
103.4034699065
  0
LINE
  5
388
100
AcDbEntity
  8
DTM_AXIS
100
AcDbLine
 62
7
  6
CONTINUOUS
 10
215.1111862813
 20
103.5365661064
 11
215.5235682796
 21
103.541749519
  0
LINE
  5
389
100
AcDbEntity
  8
DTM_AXIS
100
AcDbLine
 62
7
  6
CONTINUOUS
 10
216.0362968695
 20
103.6748457189
 11
216.4486788679
 21
103.6800291316
  0
LINE
  5
38A
100
AcDbEntity
  8
DTM_AXIS
100
AcDbLine
 62
7
  6
CONTINUOUS
 10
216.9614074578
 20
103.8131253315
 11
217.3737894561
 21
103.8183087441
  0
LINE
  5
38B
100
AcDbEntity
  8
DTM_AXIS
100
AcDbLine
 62
7
  6
CONTINUOUS
 10
217.8865180461
 20
103.951404944
 11
218.2989000444
 21
103.9565883567
  0
LINE
  5
38C
100
AcDbEntity
  8
DTM_AXIS
100
AcDbLine
 62
7
  6
CONTINUOUS
 10
218.8116286343
 20
104.0896845565
 11
219.2240106327
 21
104.0948679692
  0
LINE
  5
38D
100
AcDbEntity
  8
DTM_AXIS
100
AcDbLine
 62
7
  6
CONTINUOUS
 10
219.7367392226
 20
104.2279641691
 11
220.1491212209
 21
104.2331475817
  0
LINE
  5
38E
100
AcDbEntity
  8
DTM_AXIS
100
AcDbLine
 62
7
  6
CONTINUOUS
 10
220.6618498109
 20
104.3662437816
 11
221.0742318092
 21
104.3714271943
  0
LINE
  5
38F
100
AcDbEntity
  8
DTM_AXIS
100
AcDbLine
 62
7
  6
CONTINUOUS
 10
221.5869603991
 20
104.5045233941
 11
221.9993423975
 21
104.5097068068
  0
LINE
  5
390
100
AcDbEntity
  8
DTM_AXIS
100
AcDbLine
 62
7
  6
CONTINUOUS
 10
222.5120709874
 20
104.6428030067
 11
222.9244529857
 21
104.6479864193
  0
LINE
  5
391
100
AcDbEntity
  8
DTM_AXIS
100
AcDbLine
 62
7
  6
CONTINUOUS
 10
223.4371815757
 20
104.7810826192
 11
223.849563574
 21
104.7862660319
  0
LINE
  5
392
100
AcDbEntity
  8
DTM_AXIS
100
AcDbLine
 62
7
  6
CONTINUOUS
 10
224.3622921639
 20
104.9193622318
 11
224.7746741623
 21
104.9245456444
  0
LINE
  5
393
100
AcDbEntity
  8
DTM_AXIS
100
AcDbLine
 62
7
  6
CONTINUOUS
 10
225.2874027522
 20
105.0576418443
 11
225.6997847505
 21
105.062825257
  0
LINE
  5
394
100
AcDbEntity
  8
DTM_AXIS
100
AcDbLine
 62
7
  6
CONTINUOUS
 10
206.9707220232
 20
116.028006236
 11
206.7858992869
 21
102.2356986554
  0
LINE
  5
395
100
AcDbEntity
  8
DTM_AXIS
100
AcDbLine
 62
7
  6
CONTINUOUS
 10
207.3823957216
 20
116.0895405869
 11
207.1975729852
 21
102.2972330062
  0
LINE
  5
396
100
AcDbEntity
  8
DTM_AXIS
100
AcDbLine
 62
7
  6
CONTINUOUS
 10
207.8958326115
 20
116.1662858486
 11
207.7110098752
 21
102.3739782679
  0
LINE
  5
397
100
AcDbEntity
  8
DTM_AXIS
100
AcDbLine
 62
7
  6
CONTINUOUS
 10
208.3075063098
 20
116.2278201994
 11
208.1226835735
 21
102.4355126187
  0
LINE
  5
398
100
AcDbEntity
  8
DTM_AXIS
100
AcDbLine
 62
7
  6
CONTINUOUS
 10
208.8209431997
 20
116.3045654611
 11
208.6361204634
 21
102.5122578805
  0
LINE
  5
399
100
AcDbEntity
  8
DTM_AXIS
100
AcDbLine
 62
7
  6
CONTINUOUS
 10
209.2326168981
 20
116.3660998119
 11
209.0477941618
 21
102.5737922313
  0
LINE
  5
39A
100
AcDbEntity
  8
DTM_AXIS
100
AcDbLine
 62
7
  6
CONTINUOUS
 10
209.746053788
 20
116.4428450736
 11
209.5612310517
 21
102.650537493
  0
LINE
  5
39B
100
AcDbEntity
  8
DTM_AXIS
100
AcDbLine
 62
7
  6
CONTINUOUS
 10
210.1577274863
 20
116.5043794245
 11
209.97290475
 21
102.7120718438
  0
LINE
  5
39C
100
AcDbEntity
  8
DTM_AXIS
100
AcDbLine
 62
7
  6
CONTINUOUS
 10
210.6711643763
 20
116.5811246862
 11
210.48634164
 21
102.7888171055
  0
LINE
  5
39D
100
AcDbEntity
  8
DTM_AXIS
100
AcDbLine
 62
7
  6
CONTINUOUS
 10
211.0828380746
 20
116.642659037
 11
210.8980153383
 21
102.8503514564
  0
LINE
  5
39E
100
AcDbEntity
  8
DTM_AXIS
100
AcDbLine
 62
7
  6
CONTINUOUS
 10
211.5962749645
 20
116.7194042987
 11
211.4114522282
 21
102.9270967181
  0
LINE
  5
39F
100
AcDbEntity
  8
0
100
AcDbLine
 62
7
  6
CONTINUOUS
 10
161.8012009074
 20
96.1412002769
 11
155.7965161202
 21
95.2436584086
  0
LINE
  5
3A0
100
AcDbEntity
  8
DTM_AXIS
100
AcDbLine
 62
7
  6
CONTINUOUS
 10
226.2125133405
 20
105.1959214568
 11
226.6248953388
 21
105.2011048695
  0
LINE
  5
3A1
100
AcDbEntity
  8
DTM_AXIS
100
AcDbLine
 62
7
  6
CONTINUOUS
 10
227.1376239287
 20
105.3342010694
 11
227.5500059271
 21
105.339384482
  0
LINE
  5
3A2
100
AcDbEntity
  8
DTM_AXIS
100
AcDbLine
 62
7
  6
CONTINUOUS
 10
228.062734517
 20
105.4724806819
 11
228.4751165153
 21
105.4776640946
  0
LINE
  5
3A3
100
AcDbEntity
  8
DTM_AXIS
100
AcDbLine
 62
7
  6
CONTINUOUS
 10
228.9878451052
 20
105.6107602944
 11
229.4002271036
 21
105.6159437071
  0
LINE
  5
3A4
100
AcDbEntity
  8
DTM_AXIS
100
AcDbLine
 62
7
  6
CONTINUOUS
 10
229.9129556935
 20
105.749039907
 11
230.3253376918
 21
105.7542233196
  0
LINE
  5
3A5
100
AcDbEntity
  8
DTM_AXIS
100
AcDbLine
 62
7
  6
CONTINUOUS
 10
230.8380662818
 20
105.8873195195
 11
231.2504482801
 21
105.8925029322
  0
LINE
  5
3A6
100
AcDbEntity
  8
DTM_AXIS
100
AcDbLine
 62
7
  6
CONTINUOUS
 10
231.76317687
 20
106.0255991321
 11
232.1755588684
 21
106.0307825447
  0
LINE
  5
3A7
100
AcDbEntity
  8
DTM_AXIS
100
AcDbLine
 62
7
  6
CONTINUOUS
 10
232.6882874583
 20
106.1638787446
 11
233.1006694566
 21
106.1690621572
  0
LINE
  5
3A8
100
AcDbEntity
  8
DTM_AXIS
100
AcDbLine
 62
7
  6
CONTINUOUS
 10
233.6133980466
 20
106.3021583571
 11
234.0257800449
 21
106.3073417698
  0
LINE
  5
3A9
100
AcDbEntity
  8
DTM_AXIS
100
AcDbLine
 62
7
  6
CONTINUOUS
 10
234.5385086348
 20
106.4404379697
 11
234.9508906332
 21
106.4456213823
  0
LINE
  5
3AA
100
AcDbEntity
  8
DTM_AXIS
100
AcDbLine
 62
7
  6
CONTINUOUS
 10
235.4636192231
 20
106.5787175822
 11
235.8760012214
 21
106.5839009949
  0
LINE
  5
3AB
100
AcDbEntity
  8
DTM_AXIS
100
AcDbLine
 62
7
  6
CONTINUOUS
 10
236.3887298114
 20
106.7169971947
 11
236.8011118097
 21
106.7221806074
  0
LINE
  5
3AC
100
AcDbEntity
  8
DTM_AXIS
100
AcDbLine
 62
7
  6
CONTINUOUS
 10
237.3138403996
 20
106.8552768073
 11
237.726222398
 21
106.8604602199
  0
LINE
  5
3AD
100
AcDbEntity
  8
DTM_AXIS
100
AcDbLine
 62
7
  6
CONTINUOUS
 10
238.2389509879
 20
106.9935564198
 11
238.6513329862
 21
106.9987398325
  0
LINE
  5
3AE
100
AcDbEntity
  8
DTM_AXIS
100
AcDbLine
 62
7
  6
CONTINUOUS
 10
239.1640615762
 20
107.1318360323
 11
239.5764435745
 21
107.137019445
  0
LINE
  5
3AF
100
AcDbEntity
  8
DTM_AXIS
100
AcDbLine
 62
7
  6
CONTINUOUS
 10
240.0891721644
 20
107.2701156449
 11
240.5015541628
 21
107.2752990575
  0
LINE
  5
3B0
100
AcDbEntity
  8
DTM_AXIS
100
AcDbLine
 62
7
  6
CONTINUOUS
 10
241.0142827527
 20
107.4083952574
 11
241.426664751
 21
107.4135786701
  0
LINE
  5
3B1
100
AcDbEntity
  8
DTM_AXIS
100
AcDbLine
 62
7
  6
CONTINUOUS
 10
241.9393933409
 20
107.54667487
 11
242.3517753393
 21
107.5518582826
  0
LINE
  5
3B2
100
AcDbEntity
  8
DTM_AXIS
100
AcDbLine
 62
7
  6
CONTINUOUS
 10
242.8645039292
 20
107.6849544825
 11
243.2768859275
 21
107.6901378952
  0
LINE
  5
3B3
100
AcDbEntity
  8
DTM_AXIS
100
AcDbLine
 62
7
  6
CONTINUOUS
 10
243.7896145175
 20
107.823234095
 11
244.2019965158
 21
107.8284175077
  0
LINE
  5
3B4
100
AcDbEntity
  8
DTM_AXIS
100
AcDbLine
 62
7
  6
CONTINUOUS
 10
244.7147251057
 20
107.9615137076
 11
245.1271071041
 21
107.9666971202
  0
LINE
  5
3B5
100
AcDbEntity
  8
DTM_AXIS
100
AcDbLine
 62
7
  6
CONTINUOUS
 10
245.639835694
 20
108.0997933201
 11
246.0522176923
 21
108.1049767328
  0
LINE
  5
3B6
100
AcDbEntity
  8
DTM_AXIS
100
AcDbLine
 62
7
  6
CONTINUOUS
 10
246.5649462823
 20
108.2380729326
 11
246.9773282806
 21
108.2432563453
  0
LINE
  5
3B7
100
AcDbEntity
  8
DTM_AXIS
100
AcDbLine
 62
7
  6
CONTINUOUS
 10
247.4900568705
 20
108.3763525452
 11
247.9024388689
 21
108.3815359578
  0
LINE
  5
3B8
100
AcDbEntity
  8
DTM_AXIS
100
AcDbLine
 62
7
  6
CONTINUOUS
 10
248.4151674588
 20
108.5146321577
 11
248.8275494571
 21
108.5198155704
  0
LINE
  5
3B9
100
AcDbEntity
  8
DTM_AXIS
100
AcDbLine
 62
7
  6
CONTINUOUS
 10
249.3402780471
 20
108.6529117703
 11
249.7526600454
 21
108.6580951829
  0
LINE
  5
3BA
100
AcDbEntity
  8
DTM_AXIS
100
AcDbLine
 62
7
  6
CONTINUOUS
 10
250.2653886353
 20
108.7911913828
 11
250.6777706337
 21
108.7963747955
  0
LINE
  5
3BB
100
AcDbEntity
  8
DTM_AXIS
100
AcDbLine
 62
7
  6
CONTINUOUS
 10
251.1904992236
 20
108.9294709953
 11
251.6028812219
 21
108.934654408
  0
LINE
  5
3BC
100
AcDbEntity
  8
DTM_AXIS
100
AcDbLine
 62
7
  6
CONTINUOUS
 10
252.1156098119
 20
109.0677506079
 11
252.5279918102
 21
109.0729340205
  0
LINE
  5
3BD
100
AcDbEntity
  8
DTM_AXIS
100
AcDbLine
 62
7
  6
CONTINUOUS
 10
253.0407204001
 20
109.2060302204
 11
253.4531023985
 21
109.2112136331
  0
LINE
  5
3BE
100
AcDbEntity
  8
DTM_AXIS
100
AcDbLine
 62
7
  6
CONTINUOUS
 10
253.9658309884
 20
109.3443098329
 11
254.3782129867
 21
109.3494932456
  0
LINE
  5
3BF
100
AcDbEntity
  8
DTM_AXIS
100
AcDbLine
 62
7
  6
CONTINUOUS
 10
254.8909415767
 20
109.4825894455
 11
255.303323575
 21
109.4877728581
  0
LINE
  5
3C0
100
AcDbEntity
  8
DTM_AXIS
100
AcDbLine
 62
7
  6
CONTINUOUS
 10
255.8160521649
 20
109.620869058
 11
256.2284341632
 21
109.6260524707
  0
LINE
  5
3C1
100
AcDbEntity
  8
DTM_AXIS
100
AcDbLine
 62
7
  6
CONTINUOUS
 10
256.7411627532
 20
109.7591486706
 11
257.1535447515
 21
109.7643320832
  0
LINE
  5
3C2
100
AcDbEntity
  8
DTM_AXIS
100
AcDbLine
 62
7
  6
CONTINUOUS
 10
257.6662733414
 20
109.8974282831
 11
258.0786553398
 21
109.9026116957
  0
LINE
  5
3C3
100
AcDbEntity
  8
DTM_AXIS
100
AcDbLine
 62
7
  6
CONTINUOUS
 10
258.5913839297
 20
110.0357078956
 11
259.003765928
 21
110.0408913083
  0
LINE
  5
3C4
100
AcDbEntity
  8
DTM_AXIS
100
AcDbLine
 62
7
  6
CONTINUOUS
 10
259.516494518
 20
110.1739875082
 11
259.9288765163
 21
110.1791709208
  0
LINE
  5
3C5
100
AcDbEntity
  8
DTM_AXIS
100
AcDbLine
 62
7
  6
CONTINUOUS
 10
260.4416051062
 20
110.3122671207
 11
260.8539871046
 21
110.3174505334
  0
LINE
  5
3C6
100
AcDbEntity
  8
DTM_AXIS
100
AcDbLine
 62
7
  6
CONTINUOUS
 10
261.3667156945
 20
110.4505467332
 11
261.7790976928
 21
110.4557301459
  0
LINE
  5
3C7
100
AcDbEntity
  8
DTM_AXIS
100
AcDbLine
 62
7
  6
CONTINUOUS
 10
262.2918262828
 20
110.5888263458
 11
262.7042082811
 21
110.5940097584
  0
LINE
  5
3C8
100
AcDbEntity
  8
DTM_AXIS
100
AcDbLine
 62
7
  6
CONTINUOUS
 10
212.0079486629
 20
116.7809386495
 11
211.8231259266
 21
102.9886310689
  0
LINE
  5
3C9
100
AcDbEntity
  8
DTM_AXIS
100
AcDbLine
 62
7
  6
CONTINUOUS
 10
212.5213855528
 20
116.8576839112
 11
212.3365628165
 21
103.0653763306
  0
LINE
  5
3CA
100
AcDbEntity
  8
DTM_AXIS
100
AcDbLine
 62
7
  6
CONTINUOUS
 10
212.9330592511
 20
116.9192182621
 11
212.7482365148
 21
103.1269106814
  0
LINE
  5
3CB
100
AcDbEntity
  8
DTM_AXIS
100
AcDbLine
 62
7
  6
CONTINUOUS
 10
213.4464961411
 20
116.9959635238
 11
213.2616734047
 21
103.2036559431
  0
LINE
  5
3CC
100
AcDbEntity
  8
DTM_AXIS
100
AcDbLine
 62
7
  6
CONTINUOUS
 10
213.8581698394
 20
117.0574978746
 11
213.6733471031
 21
103.265190294
  0
LINE
  5
3CD
100
AcDbEntity
  8
DTM_AXIS
100
AcDbLine
 62
7
  6
CONTINUOUS
 10
214.3716067293
 20
117.1342431363
 11
214.186783993
 21
103.3419355557
  0
LINE
  5
3CE
100
AcDbEntity
  8
DTM_AXIS
100
AcDbLine
 62
7
  6
CONTINUOUS
 10
214.7832804277
 20
117.1957774872
 11
214.5984576914
 21
103.4034699065
  0
LINE
  5
3CF
100
AcDbEntity
  8
DTM_AXIS
100
AcDbLine
 62
7
  6
CONTINUOUS
 10
215.2967173176
 20
117.2725227489
 11
215.1118945813
 21
103.4802151682
  0
LINE
  5
3D0
100
AcDbEntity
  8
DTM_AXIS
100
AcDbLine
 62
7
  6
CONTINUOUS
 10
215.7083910159
 20
117.3340570997
 11
215.5235682796
 21
103.541749519
  0
LINE
  5
3D1
100
AcDbEntity
  8
DTM_AXIS
100
AcDbLine
 62
7
  6
CONTINUOUS
 10
216.2218279059
 20
117.4108023614
 11
216.0370051695
 21
103.6184947807
  0
LINE
  5
3D2
100
AcDbEntity
  8
DTM_AXIS
100
AcDbLine
 62
7
  6
CONTINUOUS
 10
216.6335016042
 20
117.4723367122
 11
216.4486788679
 21
103.6800291316
  0
LINE
  5
3D3
100
AcDbEntity
  8
DTM_AXIS
100
AcDbLine
 62
7
  6
CONTINUOUS
 10
263.216936871
 20
110.7271059583
 11
263.6293188694
 21
110.732289371
  0
LINE
  5
3D4
100
AcDbEntity
  8
DTM_AXIS
100
AcDbLine
 62
7
  6
CONTINUOUS
 10
264.1420474593
 20
110.8653855708
 11
264.5544294576
 21
110.8705689835
  0
LINE
  5
3D5
100
AcDbEntity
  8
DTM_AXIS
100
AcDbLine
 62
7
  6
CONTINUOUS
 10
265.0671580476
 20
111.0036651834
 11
265.4795400459
 21
111.008848596
  0
LINE
  5
3D6
100
AcDbEntity
  8
DTM_AXIS
100
AcDbLine
 62
7
  6
CONTINUOUS
 10
265.9922686358
 20
111.1419447959
 11
266.4046506342
 21
111.1471282086
  0
LINE
  5
3D7
100
AcDbEntity
  8
DTM_AXIS
100
AcDbLine
 62
7
  6
CONTINUOUS
 10
266.9173792241
 20
111.2802244085
 11
267.3297612224
 21
111.2854078211
  0
LINE
  5
3D8
100
AcDbEntity
  8
DTM_AXIS
100
AcDbLine
 62
7
  6
CONTINUOUS
 10
267.8424898124
 20
111.418504021
 11
268.2548718107
 21
111.4236874337
  0
LINE
  5
3D9
100
AcDbEntity
  8
DTM_AXIS
100
AcDbLine
 62
7
  6
CONTINUOUS
 10
268.7676004006
 20
111.5567836335
 11
269.1799823989
 21
111.5619670462
  0
LINE
  5
3DA
100
AcDbEntity
  8
DTM_AXIS
100
AcDbLine
 62
7
  6
CONTINUOUS
 10
269.6927109889
 20
111.6950632461
 11
270.1050929872
 21
111.7002466587
  0
LINE
  5
3DB
100
AcDbEntity
  8
DTM_AXIS
100
AcDbLine
 62
7
  6
CONTINUOUS
 10
270.6178215771
 20
111.8333428586
 11
271.0302035755
 21
111.8385262713
  0
LINE
  5
3DC
100
AcDbEntity
  8
DTM_AXIS
100
AcDbLine
 62
7
  6
CONTINUOUS
 10
271.5429321654
 20
111.9716224711
 11
271.9553141637
 21
111.9768058838
  0
LINE
  5
3DD
100
AcDbEntity
  8
DTM_AXIS
100
AcDbLine
 62
7
  6
CONTINUOUS
 10
272.4680427537
 20
112.1099020837
 11
272.880424752
 21
112.1150854963
  0
LINE
  5
3DE
100
AcDbEntity
  8
DTM_AXIS
100
AcDbLine
 62
7
  6
CONTINUOUS
 10
273.3931533419
 20
112.2481816962
 11
273.8055353403
 21
112.2533651089
  0
LINE
  5
3DF
100
AcDbEntity
  8
DTM_AXIS
100
AcDbLine
 62
7
  6
CONTINUOUS
 10
274.3182639302
 20
112.3864613088
 11
274.7306459285
 21
112.3916447214
  0
LINE
  5
3E0
100
AcDbEntity
  8
0
100
AcDbLine
 62
7
  6
CONTINUOUS
 10
172.4876715609
 20
111.0792328399
 11
173.9869403657
 21
111.0978015605
  0
LINE
  5
3E1
100
AcDbEntity
  8
DTM_AXIS
100
AcDbLine
 62
7
  6
CONTINUOUS
 10
217.1469384941
 20
117.5490819739
 11
216.9621157578
 21
103.7567743933
  0
LINE
  5
3E2
100
AcDbEntity
  8
DTM_AXIS
100
AcDbLine
 62
7
  6
CONTINUOUS
 10
217.5586121925
 20
117.6106163248
 11
217.3737894561
 21
103.8183087441
  0
LINE
  5
3E3
100
AcDbEntity
  8
DTM_AXIS
100
AcDbLine
 62
7
  6
CONTINUOUS
 10
218.0720490824
 20
117.6873615865
 11
217.8872263461
 21
103.8950540058
  0
LINE
  5
3E4
100
AcDbEntity
  8
DTM_AXIS
100
AcDbLine
 62
7
  6
CONTINUOUS
 10
218.4837227807
 20
117.7488959373
 11
218.2989000444
 21
103.9565883567
  0
LINE
  5
3E5
100
AcDbEntity
  8
DTM_AXIS
100
AcDbLine
 62
7
  6
CONTINUOUS
 10
218.9971596706
 20
117.825641199
 11
218.8123369343
 21
104.0333336184
  0
LINE
  5
3E6
100
AcDbEntity
  8
DTM_AXIS
100
AcDbLine
 62
7
  6
CONTINUOUS
 10
219.408833369
 20
117.8871755498
 11
219.2240106327
 21
104.0948679692
  0
LINE
  5
3E7
100
AcDbEntity
  8
DTM_AXIS
100
AcDbLine
 62
7
  6
CONTINUOUS
 10
219.9222702589
 20
117.9639208115
 11
219.7374475226
 21
104.1716132309
  0
LINE
  5
3E8
100
AcDbEntity
  8
DTM_AXIS
100
AcDbLine
 62
7
  6
CONTINUOUS
 10
220.3339439573
 20
118.0254551624
 11
220.1491212209
 21
104.2331475817
  0
LINE
  5
3E9
100
AcDbEntity
  8
DTM_AXIS
100
AcDbLine
 62
7
  6
CONTINUOUS
 10
220.8473808472
 20
118.1022004241
 11
220.6625581109
 21
104.3098928434
  0
LINE
  5
3EA
100
AcDbEntity
  8
DTM_AXIS
100
AcDbLine
 62
7
  6
CONTINUOUS
 10
221.2590545455
 20
118.1637347749
 11
221.0742318092
 21
104.3714271943
  0
LINE
  5
3EB
100
AcDbEntity
  8
DTM_AXIS
100
AcDbLine
 62
7
  6
CONTINUOUS
 10
221.7724914354
 20
118.2404800366
 11
221.5876686991
 21
104.448172456
  0
LINE
  5
3EC
100
AcDbEntity
  8
0
100
AcDbLine
 62
7
  6
CONTINUOUS
 10
276.6743183505
 20
126.4468539012
 11
173.9869403657
 21
111.0978015605
  0
LINE
  5
3ED
100
AcDbEntity
  8
0
100
AcDbLine
 62
7
  6
CONTINUOUS
 10
162.1068629122
 20
118.9510800015
 11
167.9497446354
 21
119.0234451693
  0
LINE
  5
3EE
100
AcDbEntity
  8
DTM_AXIS
100
AcDbLine
 62
7
  6
CONTINUOUS
 10
222.1841651338
 20
118.3020143875
 11
221.9993423975
 21
104.5097068068
  0
LINE
  5
3EF
100
AcDbEntity
  8
DTM_AXIS
100
AcDbLine
 62
7
  6
CONTINUOUS
 10
222.6976020237
 20
118.3787596492
 11
222.5127792874
 21
104.5864520685
  0
LINE
  5
3F0
100
AcDbEntity
  8
DTM_AXIS
100
AcDbLine
 62
7
  6
CONTINUOUS
 10
223.109275722
 20
118.440294
 11
222.9244529857
 21
104.6479864193
  0
LINE
  5
3F1
100
AcDbEntity
  8
DTM_AXIS
100
AcDbLine
 62
7
  6
CONTINUOUS
 10
223.622712612
 20
118.5170392617
 11
223.4378898757
 21
104.724731681
  0
LINE
  5
3F2
100
AcDbEntity
  8
DTM_AXIS
100
AcDbLine
 62
7
  6
CONTINUOUS
 10
224.0343863103
 20
118.5785736125
 11
223.849563574
 21
104.7862660319
  0
LINE
  5
3F3
100
AcDbEntity
  8
DTM_AXIS
100
AcDbLine
 62
7
  6
CONTINUOUS
 10
224.5478232002
 20
118.6553188742
 11
224.3630004639
 21
104.8630112936
  0
LINE
  5
3F4
100
AcDbEntity
  8
DTM_AXIS
100
AcDbLine
 62
7
  6
CONTINUOUS
 10
224.9594968986
 20
118.7168532251
 11
224.7746741623
 21
104.9245456444
  0
LINE
  5
3F5
100
AcDbEntity
  8
DTM_AXIS
100
AcDbLine
 62
7
  6
CONTINUOUS
 10
225.4729337885
 20
118.7935984868
 11
225.2881110522
 21
105.0012909061
  0
LINE
  5
3F6
100
AcDbEntity
  8
DTM_AXIS
100
AcDbLine
 62
7
  6
CONTINUOUS
 10
225.8846074868
 20
118.8551328376
 11
225.6997847505
 21
105.062825257
  0
LINE
  5
3F7
100
AcDbEntity
  8
DTM_AXIS
100
AcDbLine
 62
7
  6
CONTINUOUS
 10
226.3980443768
 20
118.9318780993
 11
226.2132216404
 21
105.1395705187
  0
LINE
  5
3F8
100
AcDbEntity
  8
DTM_AXIS
100
AcDbLine
 62
7
  6
CONTINUOUS
 10
226.8097180751
 20
118.9934124501
 11
226.6248953388
 21
105.2011048695
  0
LINE
  5
3F9
100
AcDbEntity
  8
0
100
AcDbLine
 62
7
  6
CONTINUOUS
 10
280.2416770851
 20
131.7930997618
 11
177.5542991004
 21
116.4440474212
  0
LINE
  5
3FA
100
AcDbEntity
  8
0
100
AcDbLine
 62
7
  6
CONTINUOUS
 10
280.268474583
 20
133.792850116
 11
177.5810965982
 21
118.4437977753
  0
LINE
  5
3FB
100
AcDbEntity
  8
0
100
AcDbLine
 62
7
  6
CONTINUOUS
 10
171.2066579864
 20
127.2201521192
 11
156.2453742087
 21
128.739476841
  0
LINE
  5
3FC
100
AcDbEntity
  8
DTM_AXIS
100
AcDbLine
 62
7
  6
CONTINUOUS
 10
227.323154965
 20
119.0701577118
 11
227.1383322287
 21
105.2778501312
  0
LINE
  5
3FD
100
AcDbEntity
  8
DTM_AXIS
100
AcDbLine
 62
7
  6
CONTINUOUS
 10
227.7348286634
 20
119.1316920627
 11
227.5500059271
 21
105.339384482
  0
LINE
  5
3FE
100
AcDbEntity
  8
DTM_AXIS
100
AcDbLine
 62
7
  6
CONTINUOUS
 10
228.2482655533
 20
119.2084373244
 11
228.063442817
 21
105.4161297437
  0
LINE
  5
3FF
100
AcDbEntity
  8
DTM_AXIS
100
AcDbLine
 62
7
  6
CONTINUOUS
 10
228.6599392516
 20
119.2699716752
 11
228.4751165153
 21
105.4776640946
  0
LINE
  5
400
100
AcDbEntity
  8
DTM_AXIS
100
AcDbLine
 62
7
  6
CONTINUOUS
 10
229.1733761416
 20
119.3467169369
 11
228.9885534052
 21
105.5544093563
  0
LINE
  5
401
100
AcDbEntity
  8
DTM_AXIS
100
AcDbLine
 62
7
  6
CONTINUOUS
 10
229.5850498399
 20
119.4082512877
 11
229.4002271036
 21
105.6159437071
  0
LINE
  5
402
100
AcDbEntity
  8
DTM_AXIS
100
AcDbLine
 62
7
  6
CONTINUOUS
 10
230.0984867298
 20
119.4849965495
 11
229.9136639935
 21
105.6926889688
  0
LINE
  5
403
100
AcDbEntity
  8
DTM_AXIS
100
AcDbLine
 62
7
  6
CONTINUOUS
 10
230.5101604282
 20
119.5465309003
 11
230.3253376918
 21
105.7542233196
  0
LINE
  5
404
100
AcDbEntity
  8
DTM_AXIS
100
AcDbLine
 62
7
  6
CONTINUOUS
 10
231.0235973181
 20
119.623276162
 11
230.8387745818
 21
105.8309685813
  0
LINE
  5
405
100
AcDbEntity
  8
DTM_AXIS
100
AcDbLine
 62
7
  6
CONTINUOUS
 10
231.4352710164
 20
119.6848105128
 11
231.2504482801
 21
105.8925029322
  0
LINE
  5
406
100
AcDbEntity
  8
DTM_AXIS
100
AcDbLine
 62
7
  6
CONTINUOUS
 10
231.9487079063
 20
119.7615557745
 11
231.76388517
 21
105.9692481939
  0
LINE
  5
407
100
AcDbEntity
  8
0
100
AcDbLine
 62
7
  6
CONTINUOUS
 10
168.5532861548
 20
119.9146501082
 11
162.1068629122
 21
118.9510800015
  0
LINE
  5
408
100
AcDbEntity
  8
DTM_AXIS
100
AcDbLine
 62
7
  6
CONTINUOUS
 10
232.3603816047
 20
119.8230901254
 11
232.1755588684
 21
106.0307825447
  0
LINE
  5
409
100
AcDbEntity
  8
DTM_AXIS
100
AcDbLine
 62
7
  6
CONTINUOUS
 10
232.8738184946
 20
119.8998353871
 11
232.6889957583
 21
106.1075278064
  0
LINE
  5
40A
100
AcDbEntity
  8
DTM_AXIS
100
AcDbLine
 62
7
  6
CONTINUOUS
 10
233.285492193
 20
119.9613697379
 11
233.1006694566
 21
106.1690621572
  0
LINE
  5
40B
100
AcDbEntity
  8
DTM_AXIS
100
AcDbLine
 62
7
  6
CONTINUOUS
 10
233.7989290829
 20
120.0381149996
 11
233.6141063466
 21
106.245807419
  0
LINE
  5
40C
100
AcDbEntity
  8
DTM_AXIS
100
AcDbLine
 62
7
  6
CONTINUOUS
 10
234.2106027812
 20
120.0996493504
 11
234.0257800449
 21
106.3073417698
  0
LINE
  5
40D
100
AcDbEntity
  8
DTM_AXIS
100
AcDbLine
 62
7
  6
CONTINUOUS
 10
234.7240396711
 20
120.1763946121
 11
234.5392169348
 21
106.3840870315
  0
LINE
  5
40E
100
AcDbEntity
  8
DTM_AXIS
100
AcDbLine
 62
7
  6
CONTINUOUS
 10
235.1357133695
 20
120.237928963
 11
234.9508906332
 21
106.4456213823
  0
LINE
  5
40F
100
AcDbEntity
  8
DTM_AXIS
100
AcDbLine
 62
7
  6
CONTINUOUS
 10
235.6491502594
 20
120.3146742247
 11
235.4643275231
 21
106.522366644
  0
LINE
  5
410
100
AcDbEntity
  8
DTM_AXIS
100
AcDbLine
 62
7
  6
CONTINUOUS
 10
236.0608239577
 20
120.3762085755
 11
235.8760012214
 21
106.5839009949
  0
LINE
  5
411
100
AcDbEntity
  8
DTM_AXIS
100
AcDbLine
 62
7
  6
CONTINUOUS
 10
236.5742608477
 20
120.4529538372
 11
236.3894381114
 21
106.6606462566
  0
LINE
  5
412
100
AcDbEntity
  8
DTM_AXIS
100
AcDbLine
 62
7
  6
CONTINUOUS
 10
236.985934546
 20
120.514488188
 11
236.8011118097
 21
106.7221806074
  0
LINE
  5
413
100
AcDbEntity
  8
DTM_AXIS
100
AcDbLine
 62
7
  6
CONTINUOUS
 10
237.4993714359
 20
120.5912334497
 11
237.3145486996
 21
106.7989258691
  0
LINE
  5
414
100
AcDbEntity
  8
DTM_AXIS
100
AcDbLine
 62
7
  6
CONTINUOUS
 10
237.9110451343
 20
120.6527678006
 11
237.726222398
 21
106.8604602199
  0
LINE
  5
415
100
AcDbEntity
  8
DTM_AXIS
100
AcDbLine
 62
7
  6
CONTINUOUS
 10
238.4244820242
 20
120.7295130623
 11
238.2396592879
 21
106.9372054816
  0
LINE
  5
416
100
AcDbEntity
  8
DTM_AXIS
100
AcDbLine
 62
7
  6
CONTINUOUS
 10
238.8361557225
 20
120.7910474131
 11
238.6513329862
 21
106.9987398325
  0
LINE
  5
417
100
AcDbEntity
  8
DTM_AXIS
100
AcDbLine
 62
7
  6
CONTINUOUS
 10
239.3495926125
 20
120.8677926748
 11
239.1647698761
 21
107.0754850942
  0
LINE
  5
418
100
AcDbEntity
  8
DTM_AXIS
100
AcDbLine
 62
7
  6
CONTINUOUS
 10
239.7612663108
 20
120.9293270257
 11
239.5764435745
 21
107.137019445
  0
LINE
  5
419
100
AcDbEntity
  8
DTM_AXIS
100
AcDbLine
 62
7
  6
CONTINUOUS
 10
240.2747032007
 20
121.0060722874
 11
240.0898804644
 21
107.2137647067
  0
LINE
  5
41A
100
AcDbEntity
  8
DTM_AXIS
100
AcDbLine
 62
7
  6
CONTINUOUS
 10
240.6863768991
 20
121.0676066382
 11
240.5015541628
 21
107.2752990575
  0
LINE
  5
41B
100
AcDbEntity
  8
DTM_AXIS
100
AcDbLine
 62
7
  6
CONTINUOUS
 10
241.199813789
 20
121.1443518999
 11
241.0149910527
 21
107.3520443192
  0
LINE
  5
41C
100
AcDbEntity
  8
DTM_AXIS
100
AcDbLine
 62
7
  6
CONTINUOUS
 10
241.6114874873
 20
121.2058862507
 11
241.426664751
 21
107.4135786701
  0
LINE
  5
41D
100
AcDbEntity
  8
DTM_AXIS
100
AcDbLine
 62
7
  6
CONTINUOUS
 10
242.1249243773
 20
121.2826315124
 11
241.9401016409
 21
107.4903239318
  0
LINE
  5
41E
100
AcDbEntity
  8
DTM_AXIS
100
AcDbLine
 62
7
  6
CONTINUOUS
 10
242.5365980756
 20
121.3441658633
 11
242.3517753393
 21
107.5518582826
  0
LINE
  5
41F
100
AcDbEntity
  8
DTM_AXIS
100
AcDbLine
 62
7
  6
CONTINUOUS
 10
243.0500349655
 20
121.420911125
 11
242.8652122292
 21
107.6286035443
  0
LINE
  5
420
100
AcDbEntity
  8
DTM_AXIS
100
AcDbLine
 62
7
  6
CONTINUOUS
 10
243.4617086639
 20
121.4824454758
 11
243.2768859275
 21
107.6901378952
  0
LINE
  5
421
100
AcDbEntity
  8
DTM_AXIS
100
AcDbLine
 62
7
  6
CONTINUOUS
 10
243.9751455538
 20
121.5591907375
 11
243.7903228175
 21
107.7668831569
  0
LINE
  5
422
100
AcDbEntity
  8
DTM_AXIS
100
AcDbLine
 62
7
  6
CONTINUOUS
 10
244.3868192521
 20
121.6207250883
 11
244.2019965158
 21
107.8284175077
  0
LINE
  5
423
100
AcDbEntity
  8
DTM_AXIS
100
AcDbLine
 62
7
  6
CONTINUOUS
 10
244.900256142
 20
121.69747035
 11
244.7154334057
 21
107.9051627694
  0
LINE
  5
424
100
AcDbEntity
  8
DTM_AXIS
100
AcDbLine
 62
7
  6
CONTINUOUS
 10
245.3119298404
 20
121.7590047009
 11
245.1271071041
 21
107.9666971202
  0
LINE
  5
425
100
AcDbEntity
  8
DTM_AXIS
100
AcDbLine
 62
7
  6
CONTINUOUS
 10
245.8253667303
 20
121.8357499626
 11
245.640543994
 21
108.0434423819
  0
LINE
  5
426
100
AcDbEntity
  8
DTM_AXIS
100
AcDbLine
 62
7
  6
CONTINUOUS
 10
246.2370404287
 20
121.8972843134
 11
246.0522176923
 21
108.1049767328
  0
LINE
  5
427
100
AcDbEntity
  8
DTM_AXIS
100
AcDbLine
 62
7
  6
CONTINUOUS
 10
246.7504773186
 20
121.9740295751
 11
246.5656545823
 21
108.1817219945
  0
LINE
  5
428
100
AcDbEntity
  8
DTM_AXIS
100
AcDbLine
 62
7
  6
CONTINUOUS
 10
247.1621510169
 20
122.035563926
 11
246.9773282806
 21
108.2432563453
  0
LINE
  5
429
100
AcDbEntity
  8
0
100
AcDbLine
 62
7
  6
CONTINUOUS
 10
167.4269987266
 20
143.2976790243
 11
156.4463554424
 21
143.7376044973
  0
LINE
  5
42A
100
AcDbEntity
  8
DTM_AXIS
100
AcDbLine
 62
7
  6
CONTINUOUS
 10
247.6755879068
 20
122.1123091877
 11
247.4907651705
 21
108.320001607
  0
LINE
  5
42B
100
AcDbEntity
  8
DTM_AXIS
100
AcDbLine
 62
7
  6
CONTINUOUS
 10
248.0872616052
 20
122.1738435385
 11
247.9024388689
 21
108.3815359578
  0
LINE
  5
42C
100
AcDbEntity
  8
DTM_AXIS
100
AcDbLine
 62
7
  6
CONTINUOUS
 10
248.6006984951
 20
122.2505888002
 11
248.4158757588
 21
108.4582812195
  0
LINE
  5
42D
100
AcDbEntity
  8
DTM_AXIS
100
AcDbLine
 62
7
  6
CONTINUOUS
 10
249.0123721934
 20
122.312123151
 11
248.8275494571
 21
108.5198155704
  0
LINE
  5
42E
100
AcDbEntity
  8
DTM_AXIS
100
AcDbLine
 62
7
  6
CONTINUOUS
 10
249.5258090834
 20
122.3888684127
 11
249.3409863471
 21
108.5965608321
  0
LINE
  5
42F
100
AcDbEntity
  8
DTM_AXIS
100
AcDbLine
 62
7
  6
CONTINUOUS
 10
249.9374827817
 20
122.4504027636
 11
249.7526600454
 21
108.6580951829
  0
LINE
  5
430
100
AcDbEntity
  8
DTM_AXIS
100
AcDbLine
 62
7
  6
CONTINUOUS
 10
250.4509196716
 20
122.5271480253
 11
250.2660969353
 21
108.7348404446
  0
LINE
  5
431
100
AcDbEntity
  8
DTM_AXIS
100
AcDbLine
 62
7
  6
CONTINUOUS
 10
250.86259337
 20
122.5886823761
 11
250.6777706337
 21
108.7963747955
  0
LINE
  5
432
100
AcDbEntity
  8
DTM_AXIS
100
AcDbLine
 62
7
  6
CONTINUOUS
 10
251.3760302599
 20
122.6654276378
 11
251.1912075236
 21
108.8731200572
  0
LINE
  5
433
100
AcDbEntity
  8
DTM_AXIS
100
AcDbLine
 62
7
  6
CONTINUOUS
 10
251.7877039582
 20
122.7269619886
 11
251.6028812219
 21
108.934654408
  0
LINE
  5
434
100
AcDbEntity
  8
DTM_AXIS
100
AcDbLine
 62
7
  6
CONTINUOUS
 10
252.3011408482
 20
122.8037072503
 11
252.1163181118
 21
109.0113996697
  0
LINE
  5
435
100
AcDbEntity
  8
DTM_AXIS
100
AcDbLine
 62
7
  6
CONTINUOUS
 10
252.7128145465
 20
122.8652416012
 11
252.5279918102
 21
109.0729340205
  0
LINE
  5
436
100
AcDbEntity
  8
DTM_AXIS
100
AcDbLine
 62
7
  6
CONTINUOUS
 10
253.2262514364
 20
122.9419868629
 11
253.0414287001
 21
109.1496792822
  0
LINE
  5
437
100
AcDbEntity
  8
DTM_AXIS
100
AcDbLine
 62
7
  6
CONTINUOUS
 10
253.6379251348
 20
123.0035212137
 11
253.4531023985
 21
109.2112136331
  0
LINE
  5
438
100
AcDbEntity
  8
DTM_AXIS
100
AcDbLine
 62
7
  6
CONTINUOUS
 10
254.1513620247
 20
123.0802664754
 11
253.9665392884
 21
109.2879588948
  0
LINE
  5
439
100
AcDbEntity
  8
DTM_AXIS
100
AcDbLine
 62
7
  6
CONTINUOUS
 10
254.563035723
 20
123.1418008262
 11
254.3782129867
 21
109.3494932456
  0
LINE
  5
43A
100
AcDbEntity
  8
DTM_AXIS
100
AcDbLine
 62
7
  6
CONTINUOUS
 10
255.076472613
 20
123.218546088
 11
254.8916498766
 21
109.4262385073
  0
LINE
  5
43B
100
AcDbEntity
  8
DTM_AXIS
100
AcDbLine
 62
7
  6
CONTINUOUS
 10
255.4881463113
 20
123.2800804388
 11
255.303323575
 21
109.4877728581
  0
LINE
  5
43C
100
AcDbEntity
  8
DTM_AXIS
100
AcDbLine
 62
7
  6
CONTINUOUS
 10
256.0015832012
 20
123.3568257005
 11
255.8167604649
 21
109.5645181198
  0
LINE
  5
43D
100
AcDbEntity
  8
DTM_AXIS
100
AcDbLine
 62
7
  6
CONTINUOUS
 10
256.4132568996
 20
123.4183600513
 11
256.2284341632
 21
109.6260524707
  0
LINE
  5
43E
100
AcDbEntity
  8
DTM_AXIS
100
AcDbLine
 62
7
  6
CONTINUOUS
 10
256.9266937895
 20
123.495105313
 11
256.7418710532
 21
109.7027977324
  0
LINE
  5
43F
100
AcDbEntity
  8
DTM_AXIS
100
AcDbLine
 62
7
  6
CONTINUOUS
 10
257.3383674878
 20
123.5566396639
 11
257.1535447515
 21
109.7643320832
  0
LINE
  5
440
100
AcDbEntity
  8
0
100
AcDbLine
 62
7
  6
CONTINUOUS
 10
270.1143767113
 20
158.646731365
 11
167.4269987266
 21
143.2976790243
  0
LINE
  5
441
100
AcDbEntity
  8
0
100
AcDbLine
 62
7
  6
CONTINUOUS
 10
259.1337334272
 20
159.086656838
 11
156.4463554424
 21
143.7376044973
  0
LINE
  5
442
100
AcDbEntity
  8
DTM_AXIS
100
AcDbLine
 62
7
  6
CONTINUOUS
 10
257.8518043778
 20
123.6333849256
 11
257.6669816414
 21
109.8410773449
  0
LINE
  5
443
100
AcDbEntity
  8
DTM_AXIS
100
AcDbLine
 62
7
  6
CONTINUOUS
 10
258.2634780761
 20
123.6949192764
 11
258.0786553398
 21
109.9026116957
  0
LINE
  5
444
100
AcDbEntity
  8
DTM_AXIS
100
AcDbLine
 62
7
  6
CONTINUOUS
 10
258.776914966
 20
123.7716645381
 11
258.5920922297
 21
109.9793569574
  0
LINE
  5
445
100
AcDbEntity
  8
DTM_AXIS
100
AcDbLine
 62
7
  6
CONTINUOUS
 10
259.1885886644
 20
123.8331988889
 11
259.003765928
 21
110.0408913083
  0
LINE
  5
446
100
AcDbEntity
  8
DTM_AXIS
100
AcDbLine
 62
7
  6
CONTINUOUS
 10
259.7020255543
 20
123.9099441506
 11
259.517202818
 21
110.11763657
  0
LINE
  5
447
100
AcDbEntity
  8
DTM_AXIS
100
AcDbLine
 62
7
  6
CONTINUOUS
 10
260.1136992526
 20
123.9714785015
 11
259.9288765163
 21
110.1791709208
  0
LINE
  5
448
100
AcDbEntity
  8
DTM_AXIS
100
AcDbLine
 62
7
  6
CONTINUOUS
 10
260.6271361425
 20
124.0482237632
 11
260.4423134062
 21
110.2559161825
  0
LINE
  5
449
100
AcDbEntity
  8
DTM_AXIS
100
AcDbLine
 62
7
  6
CONTINUOUS
 10
261.0388098409
 20
124.109758114
 11
260.8539871046
 21
110.3174505334
  0
LINE
  5
44A
100
AcDbEntity
  8
DTM_AXIS
100
AcDbLine
 62
7
  6
CONTINUOUS
 10
261.5522467308
 20
124.1865033757
 11
261.3674239945
 21
110.3941957951
  0
LINE
  5
44B
100
AcDbEntity
  8
DTM_AXIS
100
AcDbLine
 62
7
  6
CONTINUOUS
 10
261.9639204291
 20
124.2480377265
 11
261.7790976928
 21
110.4557301459
  0
LINE
  5
44C
100
AcDbEntity
  8
DTM_AXIS
100
AcDbLine
 62
7
  6
CONTINUOUS
 10
262.4773573191
 20
124.3247829882
 11
262.2925345828
 21
110.5324754076
  0
LINE
  5
44D
100
AcDbEntity
  8
0
100
AcDbLine
 62
7
  6
CONTINUOUS
 10
270.1143767113
 20
158.646731365
 11
259.1337334272
 21
159.086656838
  0
LINE
  5
44E
100
AcDbEntity
  8
DTM_AXIS
100
AcDbLine
 62
7
  6
CONTINUOUS
 10
262.8890310174
 20
124.3863173391
 11
262.7042082811
 21
110.5940097584
  0
LINE
  5
44F
100
AcDbEntity
  8
DTM_AXIS
100
AcDbLine
 62
7
  6
CONTINUOUS
 10
263.4024679073
 20
124.4630626008
 11
263.217645171
 21
110.6707550201
  0
LINE
  5
450
100
AcDbEntity
  8
0
100
AcDbLine
 62
7
  6
CONTINUOUS
 10
263.2776229499
 20
95.6564434986
 11
263.329093555
 21
99.4974125904
  0
LINE
  5
451
100
AcDbEntity
  8
DTM_AXIS
100
AcDbLine
 62
7
  6
CONTINUOUS
 10
263.8141416057
 20
124.5245969516
 11
263.6293188694
 21
110.732289371
  0
LINE
  5
452
100
AcDbEntity
  8
DTM_AXIS
100
AcDbLine
 62
7
  6
CONTINUOUS
 10
264.3275784956
 20
124.6013422133
 11
264.1427557593
 21
110.8090346327
  0
LINE
  5
453
100
AcDbEntity
  8
DTM_AXIS
100
AcDbLine
 62
7
  6
CONTINUOUS
 10
264.7392521939
 20
124.6628765642
 11
264.5544294576
 21
110.8705689835
  0
LINE
  5
454
100
AcDbEntity
  8
DTM_AXIS
100
AcDbLine
 62
7
  6
CONTINUOUS
 10
265.2526890839
 20
124.7396218259
 11
265.0678663475
 21
110.9473142452
  0
LINE
  5
455
100
AcDbEntity
  8
DTM_AXIS
100
AcDbLine
 62
7
  6
CONTINUOUS
 10
265.6643627822
 20
124.8011561767
 11
265.4795400459
 21
111.008848596
  0
LINE
  5
456
100
AcDbEntity
  8
DTM_AXIS
100
AcDbLine
 62
7
  6
CONTINUOUS
 10
266.1777996721
 20
124.8779014384
 11
265.9929769358
 21
111.0855938577
  0
LINE
  5
457
100
AcDbEntity
  8
DTM_AXIS
100
AcDbLine
 62
7
  6
CONTINUOUS
 10
266.5894733705
 20
124.9394357892
 11
266.4046506342
 21
111.1471282086
  0
LINE
  5
458
100
AcDbEntity
  8
DTM_AXIS
100
AcDbLine
 62
7
  6
CONTINUOUS
 10
267.1029102604
 20
125.0161810509
 11
266.9180875241
 21
111.2238734703
  0
LINE
  5
459
100
AcDbEntity
  8
DTM_AXIS
100
AcDbLine
 62
7
  6
CONTINUOUS
 10
267.5145839587
 20
125.0777154018
 11
267.3297612224
 21
111.2854078211
  0
LINE
  5
45A
100
AcDbEntity
  8
DTM_AXIS
100
AcDbLine
 62
7
  6
CONTINUOUS
 10
268.0280208487
 20
125.1544606635
 11
267.8431981123
 21
111.3621530828
  0
LINE
  5
45B
100
AcDbEntity
  8
DTM_AXIS
100
AcDbLine
 62
7
  6
CONTINUOUS
 10
268.439694547
 20
125.2159950143
 11
268.2548718107
 21
111.4236874337
  0
LINE
  5
45C
100
AcDbEntity
  8
DTM_AXIS
100
AcDbLine
 62
7
  6
CONTINUOUS
 10
268.9531314369
 20
125.292740276
 11
268.7683087006
 21
111.5004326954
  0
LINE
  5
45D
100
AcDbEntity
  8
DTM_AXIS
100
AcDbLine
 62
7
  6
CONTINUOUS
 10
269.3648051353
 20
125.3542746268
 11
269.1799823989
 21
111.5619670462
  0
LINE
  5
45E
100
AcDbEntity
  8
DTM_AXIS
100
AcDbLine
 62
7
  6
CONTINUOUS
 10
269.8782420252
 20
125.4310198885
 11
269.6934192889
 21
111.6387123079
  0
LINE
  5
45F
100
AcDbEntity
  8
DTM_AXIS
100
AcDbLine
 62
7
  6
CONTINUOUS
 10
270.2899157235
 20
125.4925542394
 11
270.1050929872
 21
111.7002466587
  0
LINE
  5
460
100
AcDbEntity
  8
DTM_AXIS
100
AcDbLine
 62
7
  6
CONTINUOUS
 10
270.8033526135
 20
125.5692995011
 11
270.6185298771
 21
111.7769919204
  0
LINE
  5
461
100
AcDbEntity
  8
DTM_AXIS
100
AcDbLine
 62
7
  6
CONTINUOUS
 10
271.2150263118
 20
125.6308338519
 11
271.0302035755
 21
111.8385262713
  0
LINE
  5
462
100
AcDbEntity
  8
DTM_AXIS
100
AcDbLine
 62
7
  6
CONTINUOUS
 10
271.7284632017
 20
125.7075791136
 11
271.5436404654
 21
111.915271533
  0
LINE
  5
463
100
AcDbEntity
  8
DTM_AXIS
100
AcDbLine
 62
7
  6
CONTINUOUS
 10
272.1401369001
 20
125.7691134645
 11
271.9553141637
 21
111.9768058838
  0
LINE
  5
464
100
AcDbEntity
  8
DTM_AXIS
100
AcDbLine
 62
7
  6
CONTINUOUS
 10
272.65357379
 20
125.8458587262
 11
272.4687510537
 21
112.0535511455
  0
LINE
  5
465
100
AcDbEntity
  8
0
100
AcDbLine
 62
7
  6
CONTINUOUS
 10
272.438712682
 20
108.4995999069
 11
272.4870954624
 21
112.1101415656
  0
LINE
  5
466
100
AcDbEntity
  8
DTM_AXIS
100
AcDbLine
 62
7
  6
CONTINUOUS
 10
273.0652474883
 20
125.907393077
 11
272.880424752
 21
112.1150854963
  0
LINE
  5
467
100
AcDbEntity
  8
DTM_AXIS
100
AcDbLine
 62
7
  6
CONTINUOUS
 10
273.5786843782
 20
125.9841383387
 11
273.3938616419
 21
112.191830758
  0
LINE
  5
468
100
AcDbEntity
  8
DTM_AXIS
100
AcDbLine
 62
7
  6
CONTINUOUS
 10
273.9903580766
 20
126.0456726895
 11
273.8055353403
 21
112.2533651089
  0
LINE
  5
469
100
AcDbEntity
  8
DTM_AXIS
100
AcDbLine
 62
7
  6
CONTINUOUS
 10
274.5037949665
 20
126.1224179512
 11
274.3189722302
 21
112.3301103706
  0
LINE
  5
46A
100
AcDbEntity
  8
DTM_AXIS
100
AcDbLine
 62
7
  6
CONTINUOUS
 10
274.9154686648
 20
126.1839523021
 11
274.7306459285
 21
112.3916447214
  0
LINE
  5
46B
100
AcDbEntity
  8
0
100
AcDbLine
 62
7
  6
CONTINUOUS
 10
274.9874670609
 20
112.4300327013
 11
275.1722897972
 21
126.222340282
  0
LINE
  5
46C
100
AcDbEntity
  8
0
100
AcDbLine
 62
7
  6
CONTINUOUS
 10
280.2416770851
 20
131.7930997618
 11
280.268474583
 21
133.792850116
  0
LINE
  5
46D
100
AcDbEntity
  8
0
100
AcDbLine
 62
7
  6
CONTINUOUS
 10
61.9581813551
 20
85.6603211736
 11
66.9581813551
 21
85.7912507815
  0
LINE
  5
46E
100
AcDbEntity
  8
0
100
AcDbLine
 62
7
  6
CONTINUOUS
 10
74.4581813551
 20
98.6603211736
 11
75.9581813551
 21
98.7603211736
  0
LINE
  5
46F
100
AcDbEntity
  8
0
100
AcDbLine
 62
7
  6
CONTINUOUS
 10
61.9581813551
 20
149.1603211736
 11
61.9581813551
 21
143.3894828202
  0
LINE
  5
470
100
AcDbEntity
  8
0
100
AcDbLine
 62
7
  6
CONTINUOUS
 10
61.9581813551
 20
139.931159527
 11
61.9581813551
 21
134.1603211736
  0
LINE
  5
471
100
AcDbEntity
  8
0
100
AcDbLine
 62
7
  6
CONTINUOUS
 10
61.9581813551
 20
100.6603211736
 11
61.9581813551
 21
94.8894828202
  0
LINE
  5
472
100
AcDbEntity
  8
0
100
AcDbLine
 62
7
  6
CONTINUOUS
 10
61.9581813551
 20
91.431159527
 11
61.9581813551
 21
85.6603211736
  0
LINE
  5
473
100
AcDbEntity
  8
0
100
AcDbLine
 62
7
  6
CONTINUOUS
 10
61.9581813551
 20
100.6603211736
 11
67.9581813551
 21
101.1852531548
  0
LINE
  5
474
100
AcDbEntity
  8
DTM_AXIS
100
AcDbLine
 62
8
  6
HIDDEN
 10
75.9581813551
 20
102.6603211736
 11
78.4573246675
 21
102.7257635444
  0
LINE
  5
475
100
AcDbEntity
  8
0
100
AcDbLine
 62
7
  6
CONTINUOUS
 10
75.9581813551
 20
102.6603211736
 11
78.4573246675
 21
102.7257635444
  0
LINE
  5
476
100
AcDbEntity
  8
0
100
AcDbLine
 62
7
  6
CONTINUOUS
 10
66.9581813551
 20
85.7912507815
 11
66.9581813551
 21
89.6603211736
  0
LINE
  5
477
100
AcDbEntity
  8
0
100
AcDbLine
 62
7
  6
CONTINUOUS
 10
67.9581813551
 20
101.1852531548
 11
67.9581813551
 21
124.453576141
  0
LINE
  5
478
100
AcDbEntity
  8
DTM_AXIS
100
AcDbLine
 62
8
  6
HIDDEN
 10
75.9581813551
 20
116.6603211736
 11
75.9581813551
 21
102.6603211736
  0
LINE
  5
479
100
AcDbEntity
  8
0
100
AcDbLine
 62
7
  6
CONTINUOUS
 10
75.9581813551
 20
98.7603211736
 11
75.9581813551
 21
102.6603211736
  0
LINE
  5
47A
100
AcDbEntity
  8
DTM_AXIS
100
AcDbLine
 62
8
  6
HIDDEN
 10
75.9581813551
 20
116.6603211736
 11
78.4573246675
 21
116.7257635444
  0
LINE
  5
47B
100
AcDbEntity
  8
0
100
AcDbLine
 62
7
  6
CONTINUOUS
 10
78.4573246675
 20
116.7257635444
 11
79.9581813551
 21
116.7650648599
  0
LINE
  5
47C
100
AcDbEntity
  8
0
100
AcDbLine
 62
7
  6
CONTINUOUS
 10
76.9581813551
 20
128.0447266302
 11
76.9581813551
 21
132.8479912207
  0
LINE
  5
47D
100
AcDbEntity
  8
DTM_AXIS
100
AcDbLine
 62
8
  6
HIDDEN
 10
78.4573246675
 20
116.7257635444
 11
78.4573246675
 21
102.7257635444
  0
LINE
  5
47E
100
AcDbEntity
  8
0
100
AcDbLine
 62
7
  6
CONTINUOUS
 10
78.4573246675
 20
102.7257635444
 11
78.4573246675
 21
116.7257635444
  0
LINE
  5
47F
100
AcDbEntity
  8
0
100
AcDbLine
 62
7
  6
CONTINUOUS
 10
67.9581813551
 20
124.453576141
 11
73.8072513023
 21
124.6067394279
  0
LINE
  5
480
100
AcDbEntity
  8
0
100
AcDbLine
 62
7
  6
CONTINUOUS
 10
83.4581813551
 20
122.1603211736
 11
83.4581813551
 21
124.1603211736
  0
LINE
  5
481
100
AcDbEntity
  8
0
100
AcDbLine
 62
7
  6
CONTINUOUS
 10
76.9581813551
 20
132.8479912207
 11
61.9581813551
 21
134.1603211736
  0
LINE
  5
482
100
AcDbEntity
  8
0
100
AcDbLine
 62
7
  6
CONTINUOUS
 10
72.9581813551
 20
148.8722760364
 11
61.9581813551
 21
149.1603211736
  0
ARC
  5
483
100
AcDbEntity
  8
0
100
AcDbCircle
 62
7
  6
CONTINUOUS
 10
159.9276473889
 20
93.9118945875
 40
9.7620941473
100
AcDbArc
 50
274.1969404073
 51
278.4340175626
  0
ARC
  5
484
100
AcDbEntity
  8
0
100
AcDbCircle
 62
7
  6
CONTINUOUS
 10
177.9091519632
 20
111.5724046197
 40
4.8845495329
100
AcDbArc
 50
94.1660951466
 51
98.4520108756
  0
ARC
  5
485
100
AcDbEntity
  8
0
100
AcDbCircle
 62
7
  6
CONTINUOUS
 10
155.1938247032
 20
87.7511549343
 40
1.8006834391
100
AcDbArc
 50
285.430501951
 51
73.0370207703
  0
ARC
  5
486
100
AcDbEntity
  8
0
100
AcDbCircle
 62
7
  6
CONTINUOUS
 10
155.8436640254
 20
136.245101023
 40
1.8006834391
100
AcDbArc
 50
285.430501951
 51
73.0370207703
  0
ARC
  5
487
100
AcDbEntity
  8
0
100
AcDbCircle
 62
7
  6
CONTINUOUS
 10
61.4581813551
 20
93.1603211736
 40
1.8
100
AcDbArc
 50
286.1276202132
 51
73.8723797868
  0
ARC
  5
488
100
AcDbEntity
  8
0
100
AcDbCircle
 62
7
  6
CONTINUOUS
 10
61.4581813551
 20
141.6603211736
 40
1.8
100
AcDbArc
 50
286.1276202132
 51
73.8723797868
  0
SPLINE
  5
489
100
AcDbEntity
  8
0
100
AcDbSpline
 62
7
  6
CONTINUOUS
 70
0
 71
3
 72
15
 73
11
 74
0
 42
0.0000001
 43
0.0000001
 44
0.0000000001
 40
0.0
 40
0.0
 40
0.0
 40
0.0
 40
0.1369355419
 40
0.2603522793
 40
0.3765091401
 40
0.4900729991
 40
0.6050305377
 40
0.7252515288
 40
0.8550393783
 40
1.0
 40
1.0
 40
1.0
 40
1.0
 10
264.0468351588
 20
99.6044256663
 30
0.0
 10
264.596422108
 20
99.6863789262
 30
0.0
 10
265.6305199521
 20
99.9372437114
 30
0.0
 10
267.0277487501
 20
100.5767851947
 30
0.0
 10
268.2004586799
 20
101.4154264854
 30
0.0
 10
269.1703834387
 20
102.434359873
 30
0.0
 10
269.9453819314
 20
103.6276661538
 30
0.0
 10
270.5217830352
 20
105.0000909482
 30
0.0
 10
270.883001587
 20
106.5689267783
 30
0.0
 10
270.9512073884
 20
107.6875808747
 30
0.0
 10
270.9425058397
 20
108.2757447737
 30
0.0
  0
SPLINE
  5
48A
100
AcDbEntity
  8
0
100
AcDbSpline
 62
7
  6
CONTINUOUS
 70
0
 71
3
 72
9
 73
5
 74
0
 42
0.0000001
 43
0.0000001
 44
0.0000000001
 40
0.0
 40
0.0
 40
0.0
 40
0.0
 40
0.4811897687
 40
1.0
 40
1.0
 40
1.0
 40
1.0
 10
167.9497446354
 20
119.0234451693
 30
0.0
 10
168.3413249998
 20
119.6648570002
 30
0.0
 10
169.2859730199
 20
120.9224956845
 30
0.0
 10
170.4758855256
 20
121.9566253021
 30
0.0
 10
171.1423002502
 20
122.4174870862
 30
0.0
  0
SPLINE
  5
48B
100
AcDbEntity
  8
0
100
AcDbSpline
 62
7
  6
CONTINUOUS
 70
0
 71
3
 72
39
 73
35
 74
0
 42
0.0000001
 43
0.0000001
 44
0.0000000001
 40
0.0
 40
0.0
 40
0.0
 40
0.0
 40
0.0617622441
 40
0.0932012555
 40
0.1247006238
 40
0.1560476161
 40
0.1871341349
 40
0.2181198921
 40
0.2492048353
 40
0.2805758301
 40
0.312411534
 40
0.3447072126
 40
0.377138553
 40
0.4093504516
 40
0.441035871
 40
0.5020066285
 40
0.5318144332
 40
0.5619504275
 40
0.5928531024
 40
0.624614462
 40
0.6570830303
 40
0.6899503686
 40
0.7227793756
 40
0.7551003219
 40
0.7865418009
 40
0.81695768
 40
0.8465873419
 40
0.8613499395
 40
0.8762681811
 40
0.8914730077
 40
0.9069425625
 40
0.9383326898
 40
0.9696612185
 40
1.0
 40
1.0
 40
1.0
 40
1.0
 10
280.268474583
 20
133.792850116
 30
0.0
 10
281.0156559781
 20
133.995587075
 30
0.0
 10
282.1036825502
 20
134.4698486405
 30
0.0
 10
283.3967207039
 20
135.3520618765
 30
0.0
 10
284.2860885017
 20
136.1355595339
 30
0.0
 10
285.0671995893
 20
137.02089054
 30
0.0
 10
285.7213671488
 20
137.9963333718
 30
0.0
 10
286.2403647607
 20
139.046105837
 30
0.0
 10
286.6198962101
 20
140.1576618173
 30
0.0
 10
286.8560785124
 20
141.3190753126
 30
0.0
 10
286.9441469545
 20
142.5161197027
 30
0.0
 10
286.8840016059
 20
143.7280054615
 30
0.0
 10
286.680669064
 20
144.9287540185
 30
0.0
 10
286.3361437668
 20
146.0898255588
 30
0.0
 10
285.702805289
 20
147.5233841424
 30
0.0
 10
284.7842427365
 20
148.7947760965
 30
0.0
 10
283.5853453382
 20
149.733975145
 30
0.0
 10
282.5869148366
 20
150.2892690129
 30
0.0
 10
281.5075631143
 20
150.7284878288
 30
0.0
 10
280.3669945568
 20
151.0799878279
 30
0.0
 10
279.1847492013
 20
151.3708979223
 30
0.0
 10
277.9809625278
 20
151.6261537272
 30
0.0
 10
276.7783576082
 20
151.8778510898
 30
0.0
 10
275.6007313711
 20
152.1608996252
 30
0.0
 10
274.4716161013
 20
152.5101272931
 30
0.0
 10
273.4144723013
 20
152.9618170866
 30
0.0
 10
272.6126532182
 20
153.4581808489
 30
0.0
 10
272.0435071717
 20
153.938399289
 30
0.0
 10
271.6537959224
 20
154.3458239354
 30
0.0
 10
271.3055885367
 20
154.8003469381
 30
0.0
 10
270.8941724785
 20
155.4617816674
 30
0.0
 10
270.4908094878
 20
156.3608256272
 30
0.0
 10
270.1893118192
 20
157.4922378618
 30
0.0
 10
270.1144137753
 20
158.2664307517
 30
0.0
 10
270.1143767113
 20
158.646731365
 30
0.0
  0
SPLINE
  5
48C
100
AcDbEntity
  8
0
100
AcDbSpline
 62
7
  6
CONTINUOUS
 70
0
 71
3
 72
14
 73
10
 74
0
 42
0.0000001
 43
0.0000001
 44
0.0000000001
 40
0.0
 40
0.0
 40
0.0
 40
0.0
 40
0.2502395723
 40
0.3754142429
 40
0.5005264719
 40
0.6255310643
 40
0.7503855881
 40
0.8751692311
 40
1.0
 40
1.0
 40
1.0
 40
1.0
 10
276.6743183505
 20
126.4468539012
 30
0.0
 10
276.6674008098
 20
126.9895226483
 30
0.0
 10
276.7020219836
 20
127.8070708596
 30
0.0
 10
276.9003117382
 20
128.8763108943
 30
0.0
 10
277.1507371679
 20
129.653905608
 30
0.0
 10
277.5330473722
 20
130.3778759817
 30
0.0
 10
278.0728901874
 20
130.9971785067
 30
0.0
 10
278.758527033
 20
131.4503179475
 30
0.0
 10
279.276011055
 20
131.6271712586
 30
0.0
 10
279.5396875054
 20
131.6885654633
 30
0.0
  0
SPLINE
  5
48D
100
AcDbEntity
  8
0
100
AcDbSpline
 62
7
  6
CONTINUOUS
 70
0
 71
3
 72
15
 73
11
 74
0
 42
0.0000001
 43
0.0000001
 44
0.0000000001
 40
0.0
 40
0.0
 40
0.0
 40
0.0
 40
0.1365404586
 40
0.259532304
 40
0.3753103918
 40
0.4885969348
 40
0.6034343552
 40
0.7237650175
 40
0.8540082431
 40
1.0
 40
1.0
 40
1.0
 40
1.0
 10
161.3594571741
 20
84.2553733256
 30
0.0
 10
161.9139474954
 20
84.3380577661
 30
0.0
 10
162.9569382817
 20
84.5919528556
 30
0.0
 10
164.3646447031
 20
85.2408328355
 30
0.0
 10
165.5439240255
 20
86.092220646
 30
0.0
 10
166.5167798109
 20
87.1270976698
 30
0.0
 10
167.2909316093
 20
88.3397297754
 30
0.0
 10
167.8620677858
 20
89.7355216629
 30
0.0
 10
168.2124581137
 20
91.3332006722
 30
0.0
 10
168.2682525071
 20
92.4720659899
 30
0.0
 10
168.2521080867
 20
93.0712759063
 30
0.0
  0
SPLINE
  5
48E
100
AcDbEntity
  8
0
100
AcDbSpline
 62
7
  6
CONTINUOUS
 70
0
 71
3
 72
39
 73
35
 74
0
 42
0.0000001
 43
0.0000001
 44
0.0000000001
 40
0.0
 40
0.0
 40
0.0
 40
0.0
 40
0.0617622441
 40
0.0932012555
 40
0.1247006238
 40
0.1560476161
 40
0.1871341349
 40
0.2181198921
 40
0.2492048353
 40
0.2805758301
 40
0.312411534
 40
0.3447072126
 40
0.377138553
 40
0.4093504516
 40
0.441035871
 40
0.5020066285
 40
0.5318144332
 40
0.5619504275
 40
0.5928531024
 40
0.624614462
 40
0.6570830303
 40
0.6899503686
 40
0.7227793756
 40
0.7551003219
 40
0.7865418009
 40
0.81695768
 40
0.8465873419
 40
0.8613499395
 40
0.8762681811
 40
0.8914730077
 40
0.9069425625
 40
0.9383326898
 40
0.9696612185
 40
1.0
 40
1.0
 40
1.0
 40
1.0
 10
177.5810965982
 20
118.4437977753
 30
0.0
 10
178.3282779934
 20
118.6465347344
 30
0.0
 10
179.4163045655
 20
119.1207962998
 30
0.0
 10
180.7093427191
 20
120.0030095359
 30
0.0
 10
181.598710517
 20
120.7865071933
 30
0.0
 10
182.3798216045
 20
121.6718381993
 30
0.0
 10
183.0339891641
 20
122.6472810311
 30
0.0
 10
183.552986776
 20
123.6970534964
 30
0.0
 10
183.9325182254
 20
124.8086094767
 30
0.0
 10
184.1687005277
 20
125.9700229719
 30
0.0
 10
184.2567689698
 20
127.167067362
 30
0.0
 10
184.1966236212
 20
128.3789531209
 30
0.0
 10
183.9932910793
 20
129.5797016778
 30
0.0
 10
183.6487657821
 20
130.7407732181
 30
0.0
 10
183.0154273043
 20
132.1743318017
 30
0.0
 10
182.0968647518
 20
133.4457237559
 30
0.0
 10
180.8979673535
 20
134.3849228044
 30
0.0
 10
179.8995368519
 20
134.9402166723
 30
0.0
 10
178.8201851296
 20
135.3794354881
 30
0.0
 10
177.6796165721
 20
135.7309354872
 30
0.0
 10
176.4973712165
 20
136.0218455817
 30
0.0
 10
175.2935845431
 20
136.2771013865
 30
0.0
 10
174.0909796235
 20
136.5287987491
 30
0.0
 10
172.9133533863
 20
136.8118472845
 30
0.0
 10
171.7842381166
 20
137.1610749524
 30
0.0
 10
170.7270943166
 20
137.6127647459
 30
0.0
 10
169.9252752335
 20
138.1091285083
 30
0.0
 10
169.356129187
 20
138.5893469484
 30
0.0
 10
168.9664179377
 20
138.9967715947
 30
0.0
 10
168.6182105519
 20
139.4512945975
 30
0.0
 10
168.2067944938
 20
140.1127293268
 30
0.0
 10
167.803431503
 20
141.0117732866
 30
0.0
 10
167.5019338345
 20
142.1431855211
 30
0.0
 10
167.4270357906
 20
142.9173784111
 30
0.0
 10
167.4269987266
 20
143.2976790243
 30
0.0
  0
SPLINE
  5
48F
100
AcDbEntity
  8
0
100
AcDbSpline
 62
7
  6
CONTINUOUS
 70
0
 71
3
 72
15
 73
11
 74
0
 42
0.0000001
 43
0.0000001
 44
0.0000000001
 40
0.0
 40
0.0
 40
0.0
 40
0.0
 40
0.1252130874
 40
0.2504089552
 40
0.3755730411
 40
0.5006581382
 40
0.6256038503
 40
0.7503893045
 40
0.87514393
 40
1.0
 40
1.0
 40
1.0
 40
1.0
 10
173.9869403657
 20
111.0978015605
 30
0.0
 10
173.9832956906
 20
111.3837198305
 30
0.0
 10
173.9931601257
 20
111.95597759
 30
0.0
 10
174.0743819248
 20
112.810881347
 30
0.0
 10
174.2433340138
 20
113.653520433
 30
0.0
 10
174.5297301761
 20
114.4651322443
 30
0.0
 10
174.9698196074
 20
115.2078932701
 30
0.0
 10
175.587405622
 20
115.815857263
 30
0.0
 10
176.3507173601
 20
116.2241915276
 30
0.0
 10
176.9092228874
 20
116.3617523079
 30
0.0
 10
177.1912160317
 20
116.4039046081
 30
0.0
  0
SPLINE
  5
490
100
AcDbEntity
  8
0
100
AcDbSpline
 62
7
  6
CONTINUOUS
 70
0
 71
3
 72
15
 73
11
 74
0
 42
0.0000001
 43
0.0000001
 44
0.0000000001
 40
0.0
 40
0.0
 40
0.0
 40
0.0
 40
0.125
 40
0.25
 40
0.375
 40
0.5
 40
0.625
 40
0.75
 40
0.875
 40
1.0
 40
1.0
 40
1.0
 40
1.0
 10
66.9581813551
 20
89.6603211736
 30
0.0
 10
67.6300792373
 20
89.7191046214
 30
0.0
 10
68.835025029
 20
89.9588387911
 30
0.0
 10
70.3404153107
 20
90.5841800123
 30
0.0
 10
71.59638703
 20
91.4289723815
 30
0.0
 10
72.6295816302
 20
92.4697754008
 30
0.0
 10
73.4496866883
 20
93.6980654468
 30
0.0
 10
74.0531899661
 20
95.1169327654
 30
0.0
 10
74.4218839421
 20
96.742397261
 30
0.0
 10
74.4854143707
 20
97.986406772
 30
0.0
 10
74.4581813551
 20
98.6603211736
 30
0.0
  0
SPLINE
  5
491
100
AcDbEntity
  8
0
100
AcDbSpline
 62
7
  6
CONTINUOUS
 70
0
 71
3
 72
13
 73
9
 74
0
 42
0.0000001
 43
0.0000001
 44
0.0000000001
 40
0.0
 40
0.0
 40
0.0
 40
0.0
 40
0.2094171878
 40
0.5041615941
 40
0.6515337972
 40
0.7989060003
 40
0.9462782035
 40
1.0
 40
1.0
 40
1.0
 40
1.0
 10
73.8072513023
 20
124.6067394279
 30
0.0
 10
73.9602679696
 20
124.8648389019
 30
0.0
 10
74.3606715735
 20
125.4860613847
 30
0.0
 10
74.985572332
 20
126.2735721639
 30
0.0
 10
75.6364281476
 20
126.9509556005
 30
0.0
 10
76.1671697342
 20
127.4367906635
 30
0.0
 10
76.6160828809
 20
127.7965233169
 30
0.0
 10
76.8854982766
 20
127.9930440345
 30
0.0
 10
76.9581813551
 20
128.0447266302
 30
0.0
  0
SPLINE
  5
492
100
AcDbEntity
  8
0
100
AcDbSpline
 62
7
  6
CONTINUOUS
 70
0
 71
3
 72
14
 73
10
 74
0
 42
0.0000001
 43
0.0000001
 44
0.0000000001
 40
0.0
 40
0.0
 40
0.0
 40
0.0
 40
0.1554831941
 40
0.30264582
 40
0.4996099356
 40
0.6656855308
 40
0.8718000919
 40
0.9267108087
 40
1.0
 40
1.0
 40
1.0
 40
1.0
 10
83.4581813551
 20
124.1603211736
 30
0.0
 10
85.2902625734
 20
124.6840011223
 30
0.0
 10
88.6342064861
 20
127.0391648192
 30
0.0
 10
90.7595257152
 20
133.0897165245
 30
0.0
 10
88.4351588073
 20
140.1035843244
 30
0.0
 10
81.3585743273
 20
142.0579939835
 30
0.0
 10
75.585269288
 20
142.7801924983
 30
0.0
 10
73.3329777328
 20
146.3756705551
 30
0.0
 10
72.9699400138
 20
148.0022474451
 30
0.0
 10
72.9581813551
 20
148.8722760364
 30
0.0
  0
SPLINE
  5
493
100
AcDbEntity
  8
0
100
AcDbSpline
 62
7
  6
CONTINUOUS
 70
0
 71
3
 72
11
 73
7
 74
0
 42
0.0000001
 43
0.0000001
 44
0.0000000001
 40
0.0
 40
0.0
 40
0.0
 40
0.0
 40
0.25
 40
0.5
 40
0.75
 40
1.0
 40
1.0
 40
1.0
 40
1.0
 10
79.9581813551
 20
116.7650648599
 30
0.0
 10
79.9391463762
 20
117.4919813738
 30
0.0
 10
80.0151452859
 20
118.8440040451
 30
0.0
 10
80.5440529231
 20
120.5017173675
 30
0.0
 10
81.5903773587
 20
121.6976185408
 30
0.0
 10
82.7337827446
 20
122.0969445073
 30
0.0
 10
83.4581813551
 20
122.1603211736
 30
0.0
  0
ENDSEC
  0
SECTION
  2
OBJECTS
  0
DICTIONARY
  5
C
100
AcDbDictionary
280
0
281
1
  3
ACAD_GROUP
350
D
  3
ACAD_MLINESTYLE
350
17
  3
ACAD_LAYOUT
350
1A
  3
ACAD_PLOTSETTINGS
350
19
  3
ACAD_PLOTSTYLENAME
350
E
  3
ACAD_TABLESTYLE
350
       494
  0
DICTIONARY
  5
D
102
{ACAD_REACTORS
330
C
102
}
100
AcDbDictionary
280
0
281
1
  0
ACDBDICTIONARYWDFLT
  5
E
102
{ACAD_REACTORS
330
C
102
}
100
AcDbDictionary
281
1
  3
Normal
350
F
100
AcDbDictionaryWithDefault
340
F
  0
DICTIONARY
  5
17
102
{ACAD_REACTORS
330
C
102
}
100
AcDbDictionary
280
0
281
1
  3
Standard
350
18
  0
DICTIONARY
  5
494
330
C
100
AcDbDictionary
281
1
  3
Standard
350
       497
  3
Standard1
350
       498
  0
DICTIONARY
  5
19
102
{ACAD_REACTORS
330
C
102
}
100
AcDbDictionary
281
1
  0
DICTIONARY
  5
1A
102
{ACAD_REACTORS
330
C
102
}
100
AcDbDictionary
281
1
  3
Model
350
495
  3
Layout1
350
496
  0
ACDBPLACEHOLDER
  5
F
102
{ACAD_REACTORS
330
E
102
}
  0
MLINESTYLE
  5
18
102
{ACAD_REACTORS
330
17
102
}
100
AcDbMlineStyle
  2
STANDARD
 70
0
  3

 62
256
 51
90.0
 52
90.0
 71
2
 49
0.5
 62
256
  6
BYLAYER
 49
-0.5
 62
256
  6
BYLAYER
  0
LAYOUT
  5
495
102
{ACAD_REACTORS
330
1A
102
}
100
AcDbPlotSettings
  1

  2
none_device
  4
ISO_A4_(297.00_x_210.00_MM)
  6

 40
0.0
 41
0.0
 42
0.0
 43
0.0
 44
297.0
 45
210.0
 46
0.0
 47
0.0
 48
0.0
 49
0.0
140
0.0
141
0.0
142
1.0
143
1.0
 70
1024
 72
1
 73
0
 74
0
  7

 75
0
147
1.0
148
0.0
149
0.0
100
AcDbLayout
  1
Model
 70
0
 71
0
 10
0.0
 20
0.0
 11
297.0
 21
210.0
 12
0.0
 22
0.0
 32
0.0
 14
0.0
 24
0.0
 34
0.0
 15
0.0
 25
0.0
 35
0.0
146
0.0
 13
0.0
 23
0.0
 33
0.0
 16
1.0
 26
0.0
 36
0.0
 17
0.0
 27
1.0
 37
0.0
 76
0
330
20B
345
0
346
0
  0
LAYOUT
  5
496
102
{ACAD_REACTORS
330
1A
102
}
100
AcDbPlotSettings
  1

  2
none_device
  4
ISO_A4_(297.00_x_210.00_MM)
  6

 40
0.0
 41
0.0
 42
0.0
 43
0.0
 44
297.0
 45
210.0
 46
0.0
 47
0.0
 48
0.0
 49
0.0
140
0.0
141
0.0
142
1.0
143
1.0
 70
0
 72
1
 73
0
 74
0
  7

 75
0
147
1.0
148
0.0
149
0.0
100
AcDbLayout
  1
Layout1
 70
0
 71
1
 10
0.0
 20
0.0
 11
297.0
 21
210.0
 12
0.0
 22
0.0
 32
0.0
 14
0.0
 24
0.0
 34
0.0
 15
0.0
 25
0.0
 35
0.0
146
0.0
 13
0.0
 23
0.0
 33
0.0
 16
1.0
 26
0.0
 36
0.0
 17
0.0
 27
1.0
 37
0.0
 76
0
330
20C
345
0
346
0
  0
TABLESTYLE
  5
497
102
{ACAD_REACTORS
330
494
102
}
330
494
100
AcDbTableStyle
  3
Standard
 70
0
 71
0
 40
0.06
 41
0.06
280
1
281
1
  7
Standard
140
0.18
170
1
 62
0
 63
7
283
0
  7
Standard
140
0.18
170
1
 62
0
 63
7
283
0
  7
Standard
140
0.18
170
1
 62
0
 63
7
283
0
  0
TABLESTYLE
  5
498
102
{ACAD_REACTORS
330
494
330
285
102
}
330
494
100
AcDbTableStyle
  3
Standard1
 70
1
 71
0
 40
0.06
 41
0.06
280
1
281
1
  7
Standard
140
0.18
170
1
 62
0
 63
7
283
0
  7
Standard
140
0.18
170
1
 62
0
 63
7
283
0
  7
Standard
140
0.18
170
1
 62
0
 63
7
283
0
  0
ENDSEC
  0
EOF
