999
DXF file: O:\ORAC_PRODUCTEN\ORAC_EXTRUSIE\DX\170\dx170-prod-mm.dxf
999
Pro/ENGINEER 2013050 by Parametric Technology Corporation
  0
SECTION
  2
HEADER
  9
$ACADVER
  1
AC1024
  9
$DWGCODEPAGE
  3
ANSI_1252
  9
$EXTMAX
 10
297.0
 20
210.0
 30
0.0
  9
$EXTMIN
 10
0.0
 20
0.0
 30
0.0
  9
$LIMMIN
 10
0.0
 20
0.0
  9
$LIMMAX
 10
297.0
 20
210.0
  9
$VIEWCTR
 10
148.5
 20
105.0
  9
$VIEWSIZE
 40
210.0
  9
$CLAYER
  8
0
  9
$LTSCALE
 40
16.335
  9
$CELTYPE
  6
BYLAYER
  9
$DIMSCALE
 40
1.0
  9
$DIMASZ
 40
3.5
  9
$DIMEXO
 40
1.0
  9
$DIMDLI
 40
11.286
  9
$DIMEXE
 40
1.5
  9
$DIMCEN
 40
2.673
  9
$DIMLFAC
 40
1.0
  9
$DIMBLK
  1
_FILLED
  9
$DIMTXT
 40
2.5
  9
$DIMTOL
 70
1
  9
$DIMLIM
 70
0
  9
$DIMTFAC
 40
1.0
  9
$DIMTP
 40
0.001
  9
$DIMTM
 40
0.001
  9
$DIMGAP
 40
0.625
  9
$DIMDSEP
 70
44
  9
$PDMODE
 70
3
  9
$PDSIZE
 40
8.0
  9
$HANDSEED
  5
337
  9
$TILEMODE
 70
1
  9
$MEASUREMENT
 70
1
  9
$INSUNITS
 70
4
  0
ENDSEC
  0
SECTION
  2
CLASSES
  0
CLASS
  1
ACDBDICTIONARYWDFLT
  2
AcDbDictionaryWithDefault
  3
AutoCAD 2000
 90
0
 91
1
280
0
281
0
  0
CLASS
  1
ACDBPLACEHOLDER
  2
AcDbPlaceHolder
  3
AutoCAD 2000
 90
0
 91
1
280
0
281
0
  0
CLASS
  1
LAYOUT
  2
AcDbLayout
  3
AutoCAD 2000
 90
0
 91
0
280
0
281
0
  0
CLASS
  1
TABLESTYLE
  2
AcDbTableStyle
  3
ObjectDBX Classes
 90
2047
 91
1
280
0
281
0
  0
CLASS
  1
ACAD_TABLE
  2
AcDbTable
  3
ObjectDBX Classes
 90
1025
 91
1
280
0
281
1
  0
ENDSEC
  0
SECTION
  2
TABLES
  0
TABLE
  2
VPORT
  5
8
100
AcDbSymbolTable
 70
2
  0
VPORT
  5
1F4
100
AcDbSymbolTableRecord
100
AcDbViewportTableRecord
  2
*ACTIVE
 70
0
 10
0.0
 20
0.0
 11
1.0
 21
1.0
 12
148.5
 22
105.0
 13
0.0
 23
0.0
 14
1.0
 24
1.0
 15
0.0
 25
0.0
 16
0.0
 26
0.0
 36
1.0
 17
0.0
 27
0.0
 37
0.0
 40
210.0
 41
1.4142857143
 42
50.0
 43
0.0
 44
0.0
 50
0.0
 51
0.0
 71
0
 72
100
 73
1
 74
1
 75
0
 76
0
 77
0
 78
0
  0
ENDTAB
  0
TABLE
  2
LTYPE
  5
5
100
AcDbSymbolTable
 70
6
  0
LTYPE
  5
14
100
AcDbSymbolTableRecord
100
AcDbLinetypeTableRecord
  2
BYBLOCK
 70
0
  3

 72
65
 73
0
 40
0.0
  0
LTYPE
  5
15
100
AcDbSymbolTableRecord
100
AcDbLinetypeTableRecord
  2
BYLAYER
 70
0
  3

 72
65
 73
0
 40
0.0
  0
LTYPE
  5
16
100
AcDbSymbolTableRecord
100
AcDbLinetypeTableRecord
  2
CONTINUOUS
 70
64
  3
Solid line
 72
65
 73
0
 40
0.0
  0
LTYPE
  5
1F5
100
AcDbSymbolTableRecord
100
AcDbLinetypeTableRecord
  2
CENTER
 70
64
  3
____ _ ____ _ ____ _ ____ _ ____ _ ____ _ ____
 72
65
 73
4
 40
0.6
 49
0.375
 74
0
 49
-0.075
 74
0
 49
0.075
 74
0
 49
-0.075
 74
0
  0
LTYPE
  5
1F6
100
AcDbSymbolTableRecord
100
AcDbLinetypeTableRecord
  2
HIDDEN
 70
64
  3
- - - - - - - - - - - - - - - - - - - -
 72
65
 73
2
 40
0.2
 49
0.1
 74
0
 49
-0.1
 74
0
  0
LTYPE
  5
1F7
100
AcDbSymbolTableRecord
100
AcDbLinetypeTableRecord
  2
PHANTOM
 70
64
  3
_____ _ _ _____ _ _ _____ _ _ _____
 72
65
 73
6
 40
0.8
 49
0.45
 74
0
 49
-0.05
 74
0
 49
0.1
 74
0
 49
-0.05
 74
0
 49
0.1
 74
0
 49
-0.05
 74
0
  0
LTYPE
  5
1F8
100
AcDbSymbolTableRecord
100
AcDbLinetypeTableRecord
  2
DOT
 70
64
  3
. . . . . . . . . . . . . . . . . . . .
 72
65
 73
2
 40
0.2
 49
0.1
 74
0
 49
-0.1
 74
0
  0
LTYPE
  5
1F9
100
AcDbSymbolTableRecord
100
AcDbLinetypeTableRecord
  2
DASHED
 70
64
  3
- - - - - - - - - - - - - - - - - - - -
 72
65
 73
2
 40
0.2
 49
0.1
 74
0
 49
-0.1
 74
0
  0
ENDTAB
  0
TABLE
  2
LAYER
  5
2
100
AcDbSymbolTable
 70
36
  0
LAYER
  5
10
100
AcDbSymbolTableRecord
100
AcDbLayerTableRecord
  2
0
 70
0
 62
7
  6
CONTINUOUS
370
-3
390
F
  0
LAYER
  5
1FA
100
AcDbSymbolTableRecord
100
AcDbLayerTableRecord
  2
DEFAULT_1
 70
0
 62
7
  6
CENTER
370
-3
390
F
  0
LAYER
  5
1FB
100
AcDbSymbolTableRecord
100
AcDbLayerTableRecord
  2
DEFAULT_2
 70
0
 62
8
  6
HIDDEN
370
-3
390
F
  0
LAYER
  5
1FC
100
AcDbSymbolTableRecord
100
AcDbLayerTableRecord
  2
DEFAULT_3
 70
0
 62
7
  6
PHANTOM
370
-3
390
F
  0
LAYER
  5
1FD
100
AcDbSymbolTableRecord
100
AcDbLayerTableRecord
  2
DTM_ALL
 70
0
 62
7
  6
CONTINUOUS
370
-3
390
F
  0
LAYER
  5
1FE
100
AcDbSymbolTableRecord
100
AcDbLayerTableRecord
  2
DTM_AXIS
 70
0
 62
7
  6
CONTINUOUS
370
-3
390
F
  0
LAYER
  5
1FF
100
AcDbSymbolTableRecord
100
AcDbLayerTableRecord
  2
DTM_CSYS
 70
0
 62
7
  6
CONTINUOUS
370
-3
390
F
  0
LAYER
  5
200
100
AcDbSymbolTableRecord
100
AcDbLayerTableRecord
  2
DTM_CURVE
 70
0
 62
7
  6
CONTINUOUS
370
-3
390
F
  0
LAYER
  5
201
100
AcDbSymbolTableRecord
100
AcDbLayerTableRecord
  2
DTM_MASTER
 70
0
 62
7
  6
CONTINUOUS
370
-3
390
F
  0
LAYER
  5
202
100
AcDbSymbolTableRecord
100
AcDbLayerTableRecord
  2
DTM_POINT
 70
0
 62
7
  6
CONTINUOUS
370
-3
390
F
  0
LAYER
  5
203
100
AcDbSymbolTableRecord
100
AcDbLayerTableRecord
  2
DTM_QUILT
 70
0
 62
7
  6
CONTINUOUS
370
-3
390
F
  0
LAYER
  5
204
100
AcDbSymbolTableRecord
100
AcDbLayerTableRecord
  2
GTOL
 70
0
 62
7
  6
CONTINUOUS
370
-3
390
F
  0
LAYER
  5
205
100
AcDbSymbolTableRecord
100
AcDbLayerTableRecord
  2
NONE
 70
0
 62
7
  6
CONTINUOUS
370
-3
390
F
  0
LAYER
  5
206
100
AcDbSymbolTableRecord
100
AcDbLayerTableRecord
  2
NOTES
 70
0
 62
7
  6
CONTINUOUS
370
-3
390
F
  0
LAYER
  5
207
100
AcDbSymbolTableRecord
100
AcDbLayerTableRecord
  2
_489
 70
0
 62
7
  6
CONTINUOUS
370
-3
390
F
  0
ENDTAB
  0
TABLE
  2
STYLE
  5
3
100
AcDbSymbolTable
 70
1
  0
STYLE
  5
11
100
AcDbSymbolTableRecord
100
AcDbTextStyleTableRecord
  2
STANDARD
 70
0
 40
0.0
 41
1.0
 50
0.0
 71
0
 42
0.2
  3
cgtime.ttf
  4

  0
STYLE
  5
208
100
AcDbSymbolTableRecord
100
AcDbTextStyleTableRecord
  2
TEXTSTYLE_1
 70
0
 40
0.0
 41
0.8
 50
0.0
 71
0
 42
0.2
  3
gdt
  4

  0
STYLE
  5
209
100
AcDbSymbolTableRecord
100
AcDbTextStyleTableRecord
  2
TEXTSTYLE_2
 70
0
 40
0.0
 41
1.0
 50
0.0
 71
0
 42
0.2
  3
trium.ttf
  4

  0
STYLE
  5
20A
100
AcDbSymbolTableRecord
100
AcDbTextStyleTableRecord
  2
TEXTSTYLE_3
 70
0
 40
0.0
 41
1.0
 50
0.0
 71
0
 42
0.2
  3
calibri.ttf
  4

  0
ENDTAB
  0
TABLE
  2
VIEW
  5
6
100
AcDbSymbolTable
 70
0
  0
ENDTAB
  0
TABLE
  2
UCS
  5
7
100
AcDbSymbolTable
 70
0
  0
ENDTAB
  0
TABLE
  2
APPID
  5
9
100
AcDbSymbolTable
 70
1
  0
APPID
  5
20B
100
AcDbSymbolTableRecord
100
AcDbRegAppTableRecord
  2
ACAD
 70
0
  0
ENDTAB
  0
TABLE
  2
BLOCK_RECORD
  5
1
100
AcDbSymbolTable
 70
0
  0
BLOCK_RECORD
  5
20C
100
AcDbSymbolTableRecord
100
AcDbBlockTableRecord
  2
*Model_Space
  0
BLOCK_RECORD
  5
20D
100
AcDbSymbolTableRecord
100
AcDbBlockTableRecord
  2
*Paper_Space
  0
BLOCK_RECORD
  5
20E
100
AcDbSymbolTableRecord
100
AcDbBlockTableRecord
  2
_FILLED
  0
BLOCK_RECORD
  5
20F
100
AcDbSymbolTableRecord
100
AcDbBlockTableRecord
  2
*D0
  0
BLOCK_RECORD
  5
210
100
AcDbSymbolTableRecord
100
AcDbBlockTableRecord
  2
*D1
  0
BLOCK_RECORD
  5
211
100
AcDbSymbolTableRecord
100
AcDbBlockTableRecord
  2
*T1
  0
ENDTAB
  0
TABLE
  2
DIMSTYLE
  5
A
100
AcDbSymbolTable
 70
1
100
AcDbDimStyleTable
 71
0
  0
DIMSTYLE
105
212
100
AcDbSymbolTableRecord
100
AcDbDimStyleTableRecord
  2
STANDARD
 70
0
  3

  4

 40
1.0
 41
3.5
 42
1.0
 43
0.38
 44
1.5
 45
0.0
 46
0.0
 47
0.001
 48
0.001
140
2.5
141
0.09
142
0.0
143
25.4
144
1.0
145
0.0
146
1.0
147
0.625
 71
1.0
 72
0.0
 73
1
 74
1
 75
0
 76
0
 77
0
 78
8
170
0
171
2
172
0
173
0
174
0
175
0
176
0
177
0
178
0
270
2
271
3
272
3
273
2
274
2
275
0
280
0
281
0
282
0
283
1
284
8
285
0
286
0
287
3
288
0
340
11
278
44
341
20E
342
20E
343
20E
344
20E
  0
DIMSTYLE
105
213
100
AcDbSymbolTableRecord
100
AcDbDimStyleTableRecord
  2
DIMSTYLE_1
 70
0
  3

  4

 40
1.0
 41
3.5
 42
1.0
 43
0.38
 44
1.5
 45
0.0
 46
0.0
 47
0.0
 48
0.0
140
2.5
141
0.09
142
0.0
143
25.4
144
1.0
145
0.0
146
1.0
147
1.25
 71
0.0
 72
0.0
 73
1
 74
1
 75
0
 76
0
 77
0
 78
8
170
0
171
2
172
0
173
0
174
0
175
0
176
0
177
0
178
0
270
2
271
1
272
1
273
2
274
2
275
0
280
0
281
0
282
0
283
1
284
8
285
0
286
0
287
3
288
0
340
11
278
44
341
20E
342
20E
343
20E
344
20E
  0
DIMSTYLE
105
214
100
AcDbSymbolTableRecord
100
AcDbDimStyleTableRecord
  2
DIMSTYLE_2
 70
0
  3

  4

 40
1.0
 41
3.5
 42
1.0
 43
0.38
 44
1.5
 45
0.0
 46
0.0
 47
0.0
 48
0.0
140
2.5
141
0.09
142
0.0
143
25.4
144
1.0
145
0.0
146
1.0
147
1.25
 71
0.0
 72
0.0
 73
1
 74
1
 75
0
 76
0
 77
0
 78
8
170
0
171
2
172
0
173
0
174
0
175
0
176
0
177
0
178
0
270
2
271
3
272
3
273
2
274
2
275
0
280
0
281
0
282
0
283
1
284
8
285
0
286
0
287
3
288
0
340
11
278
44
341
20E
342
20E
343
20E
344
20E
  0
ENDTAB
  0
ENDSEC
  0
SECTION
  2
BLOCKS
  0
BLOCK
  5
20
100
AcDbEntity
  8
0
100
AcDbBlockBegin
  2
*Model_Space
 70
0
 10
0.0
 20
0.0
 30
0.0
  3
*Model_Space
  1

  0
ENDBLK
  5
21
100
AcDbEntity
  8
0
100
AcDbBlockEnd
  0
BLOCK
  5
1C
100
AcDbEntity
  8
0
100
AcDbBlockBegin
  2
*Paper_Space
 70
0
 10
0.0
 20
0.0
 30
0.0
  3
*Paper_Space
  1

  0
ENDBLK
  5
1D
100
AcDbEntity
  8
0
100
AcDbBlockEnd
  0
BLOCK
  5
215
100
AcDbEntity
  8
0
100
AcDbBlockBegin
  2
_FILLED
 70
64
 10
0.0
 20
0.0
  3
_FILLED
  1

  0
SOLID
  5
216
100
AcDbEntity
  8
0
  6
BYBLOCK
 62
0
100
AcDbTrace
 10
0.0
 20
0.0
 11
-1.0
 21
0.2142857143
 12
-1.0
 22
-0.2142857143
 13
-1.0
 23
-0.2142857143
  0
ENDBLK
  5
217
100
AcDbEntity
  8
0
  6
BYBLOCK
 62
0
100
AcDbBlockEnd
  0
BLOCK
  5
218
100
AcDbEntity
  8
0
100
AcDbBlockBegin
 62
2
  6
CONTINUOUS
  2
*D0
 70
65
 10
0.0
 20
0.0
  3
*D0
  1

  0
TEXT
  5
219
100
AcDbEntity
  8
0
100
AcDbText
 62
2
  6
CONTINUOUS
 10
64.9056805313
 20
174.3362321174
  7
STANDARD
 40
2.5
  1
32
 72
5
 11
68.543812827
 21
174.3362321174
100
AcDbText
  0
LINE
  5
21A
100
AcDbEntity
  8
0
100
AcDbLine
 62
2
  6
CONTINUOUS
 10
82.9977676639
 20
167.8149307677
 11
82.9977676639
 21
177.0862321174
  0
LINE
  5
21B
100
AcDbEntity
  8
0
100
AcDbLine
 62
2
  6
CONTINUOUS
 10
50.4517256944
 20
127.0196112377
 11
50.4517256944
 21
177.0862321174
  0
LINE
  5
21C
100
AcDbEntity
  8
0
100
AcDbLine
 62
2
  6
CONTINUOUS
 10
82.9977676639
 20
175.5862321174
 11
69.793812827
 21
175.5862321174
  0
LINE
  5
21D
100
AcDbEntity
  8
0
100
AcDbLine
 62
2
  6
CONTINUOUS
 10
50.4517256944
 20
175.5862321174
 11
63.6556805313
 21
175.5862321174
  0
INSERT
  5
21E
100
AcDbEntity
  8
0
100
AcDbBlockReference
 62
2
  6
CONTINUOUS
  2
_FILLED
 10
82.9977676639
 20
175.5862321174
 41
3.5
 42
3.5
 43
3.5
  0
INSERT
  5
21F
100
AcDbEntity
  8
0
100
AcDbBlockReference
 62
2
  6
CONTINUOUS
  2
_FILLED
 10
50.4517256944
 20
175.5862321174
 41
3.5
 42
3.5
 43
3.5
 50
180.0
  0
ENDBLK
  5
220
100
AcDbEntity
  8
0
  6
BYBLOCK
 62
0
100
AcDbBlockEnd
  0
BLOCK
  5
221
100
AcDbEntity
  8
0
100
AcDbBlockBegin
 62
2
  6
CONTINUOUS
  2
*D1
 70
65
 10
0.0
 20
0.0
  3
*D1
  1

  0
TEXT
  5
222
100
AcDbEntity
  8
0
100
AcDbText
 62
2
  6
CONTINUOUS
 10
90.8038666724
 20
105.0649457677
  7
STANDARD
 40
2.5
  1
119
 72
5
 11
96.261065116
 21
105.0649457677
100
AcDbText
  0
LINE
  5
223
100
AcDbEntity
  8
0
100
AcDbLine
 62
2
  6
CONTINUOUS
 10
83.9977676639
 20
165.8149307677
 11
95.0324658942
 21
165.8149307677
  0
LINE
  5
224
100
AcDbEntity
  8
0
100
AcDbLine
 62
2
  6
CONTINUOUS
 10
83.9977676639
 20
46.8149607677
 11
95.0324658942
 21
46.8149607677
  0
LINE
  5
225
100
AcDbEntity
  8
0
100
AcDbLine
 62
2
  6
CONTINUOUS
 10
93.5324658942
 20
165.8149307677
 11
93.5324658942
 21
108.8149457677
  0
LINE
  5
226
100
AcDbEntity
  8
0
100
AcDbLine
 62
2
  6
CONTINUOUS
 10
93.5324658942
 20
46.8149607677
 11
93.5324658942
 21
103.8149457677
  0
INSERT
  5
227
100
AcDbEntity
  8
0
100
AcDbBlockReference
 62
2
  6
CONTINUOUS
  2
_FILLED
 10
93.5324658942
 20
165.8149307677
 41
3.5
 42
3.5
 43
3.5
 50
90.0
  0
INSERT
  5
228
100
AcDbEntity
  8
0
100
AcDbBlockReference
 62
2
  6
CONTINUOUS
  2
_FILLED
 10
93.5324658942
 20
46.8149607677
 41
3.5
 42
3.5
 43
3.5
 50
270.0
  0
ENDBLK
  5
229
100
AcDbEntity
  8
0
  6
BYBLOCK
 62
0
100
AcDbBlockEnd
  0
BLOCK
  5
22A
100
AcDbEntity
  8
0
100
AcDbBlockBegin
  2
*T1
 70
1
 10
0.0
 20
0.0
  3
*T1
  1

  0
LINE
  5
22B
100
AcDbEntity
  8
0
100
AcDbLine
 62
7
  6
CONTINUOUS
 10
0.0
 20
0.0
 11
148.0
 21
0.0
  0
LINE
  5
22C
100
AcDbEntity
  8
0
100
AcDbLine
 62
7
  6
CONTINUOUS
 10
0.0
 20
0.0
 11
0.0
 21
-43.0
  0
LINE
  5
22D
100
AcDbEntity
  8
0
100
AcDbLine
 62
7
  6
CONTINUOUS
 10
45.0
 20
-23.0
 11
148.0
 21
-23.0
  0
LINE
  5
22E
100
AcDbEntity
  8
0
100
AcDbLine
 62
7
  6
CONTINUOUS
 10
45.0
 20
-28.0
 11
148.0
 21
-28.0
  0
LINE
  5
22F
100
AcDbEntity
  8
0
100
AcDbLine
 62
7
  6
CONTINUOUS
 10
0.0
 20
-43.0
 11
148.0
 21
-43.0
  0
LINE
  5
230
100
AcDbEntity
  8
0
100
AcDbLine
 62
7
  6
CONTINUOUS
 10
45.0
 20
0.0
 11
45.0
 21
-43.0
  0
LINE
  5
231
100
AcDbEntity
  8
0
100
AcDbLine
 62
7
  6
CONTINUOUS
 10
143.0
 20
0.0
 11
143.0
 21
-23.0
  0
LINE
  5
232
100
AcDbEntity
  8
0
100
AcDbLine
 62
7
  6
CONTINUOUS
 10
148.0
 20
0.0
 11
148.0
 21
-43.0
  0
TEXT
  5
233
100
AcDbEntity
  8
0
100
AcDbText
 62
7
  6
CONTINUOUS
 10
8.9659749243
 20
-10.675
  7
STANDARD
 40
8.0
  1
O
 72
5
 11
17.370644185
 21
-10.675
100
AcDbText
  0
TEXT
  5
234
100
AcDbEntity
  8
0
100
AcDbText
 62
7
  6
CONTINUOUS
 10
17.370644185
 20
-10.675
  7
STANDARD
 40
5.5
  1
RAC
 72
5
 11
33.9562472979
 21
-10.675
100
AcDbText
  0
TEXT
  5
235
100
AcDbEntity
  8
0
100
AcDbText
 62
7
  6
CONTINUOUS
 10
33.9562472979
 20
-5.925
  7
TEXTSTYLE_2
 40
3.0
  1
®
 72
5
 11
36.0340250757
 21
-5.925
100
AcDbText
  0
TEXT
  5
236
100
AcDbEntity
  8
0
100
AcDbText
 62
7
  6
CONTINUOUS
 10
9.5323389537
 20
-15.325
  7
TEXTSTYLE_2
 40
3.0
  1
D  E  C  O  R
 72
5
 11
34.3878945093
 21
-15.325
100
AcDbText
  0
TEXT
  5
237
100
AcDbEntity
  8
0
100
AcDbText
 62
7
  6
CONTINUOUS
 10
34.3878945093
 20
-15.325
  7
STANDARD
 40
2.5
  1
 
 72
5
 11
35.4676610463
 21
-15.325
100
AcDbText
  0
TEXT
  5
238
100
AcDbEntity
  8
0
100
AcDbText
 62
7
  6
CONTINUOUS
 10
52.5257352941
 20
-6.0
  7
TEXTSTYLE_3
 40
2.75
  1
Part name:
 72
5
 11
71.9375
 21
-6.0
100
AcDbText
  0
TEXT
  5
239
100
AcDbEntity
  8
0
100
AcDbText
 62
7
  6
CONTINUOUS
 10
49.2788865546
 20
-12.875
  7
TEXTSTYLE_3
 40
2.75
  1
Designed by:
 72
5
 11
71.9375
 21
-12.875
100
AcDbText
  0
TEXT
  5
23A
100
AcDbEntity
  8
0
100
AcDbText
 62
7
  6
CONTINUOUS
 10
48.9553571429
 20
-19.75
  7
TEXTSTYLE_3
 40
2.75
  1
Designed on:
 72
5
 11
71.9375
 21
-19.75
100
AcDbText
  0
TEXT
  5
23B
100
AcDbEntity
  8
0
100
AcDbText
 62
2
  6
CONTINUOUS
 10
74.0625
 20
-6.0
  7
TEXTSTYLE_3
 40
2.75
  1
DX170-2300
 72
5
 11
95.681197479
 21
-6.0
100
AcDbText
  0
TEXT
  5
23C
100
AcDbEntity
  8
0
100
AcDbText
 62
2
  6
CONTINUOUS
 10
74.0625
 20
-12.875
  7
TEXTSTYLE_3
 40
2.75
  1
ORAC
 72
5
 11
84.1034663866
 21
-12.875
100
AcDbText
  0
TEXT
  5
23D
100
AcDbEntity
  8
0
100
AcDbText
 62
2
  6
CONTINUOUS
 10
74.0625
 20
-19.75
  7
TEXTSTYLE_3
 40
2.75
  1
25-Aug-2014
 72
5
 11
96.7211134454
 21
-19.75
100
AcDbText
  0
TEXT
  5
23E
100
AcDbEntity
  8
0
100
AcDbText
 62
2
  6
CONTINUOUS
 10
96.7211134454
 20
-19.75
  7
TEXTSTYLE_3
 40
2.75
  1
 
 72
5
 11
97.7032563025
 21
-19.75
100
AcDbText
  0
TEXT
  5
23F
100
AcDbEntity
  8
0
100
AcDbText
 62
2
  6
CONTINUOUS
 10
146.5625
 20
-17.5
  7
TEXTSTYLE_3
 40
1.5
  1
Version: 
 50
90.0
 72
5
 11
146.5625
 21
-9.0294117647
100
AcDbText
  0
TEXT
  5
240
100
AcDbEntity
  8
0
100
AcDbText
 62
2
  6
CONTINUOUS
 10
146.5625
 20
-9.0294117647
  7
TEXTSTYLE_3
 40
1.5
  1
1.0
 50
90.0
 72
5
 11
146.5625
 21
-6.0357142857
100
AcDbText
  0
TEXT
  5
241
100
AcDbEntity
  8
0
100
AcDbText
 62
2
  6
CONTINUOUS
 10
146.5625
 20
-6.0357142857
  7
TEXTSTYLE_3
 40
1.5
  1
 
 50
90.0
 72
5
 11
146.5625
 21
-5.5
100
AcDbText
  0
TEXT
  5
242
100
AcDbEntity
  8
0
100
AcDbText
 62
7
  6
CONTINUOUS
 10
9.6586134454
 20
-24.25
  7
TEXTSTYLE_3
 40
2.5
  1
Biekorfstraat 32
 72
5
 11
35.3413865546
 21
-24.25
100
AcDbText
  0
TEXT
  5
243
100
AcDbEntity
  8
0
100
AcDbText
 62
7
  6
CONTINUOUS
 10
2.2584033613
 20
-28.0
  7
TEXTSTYLE_3
 40
2.5
  1
8400 Oostende - Belgium
 72
5
 11
42.7415966387
 21
-28.0
100
AcDbText
  0
TEXT
  5
244
100
AcDbEntity
  8
0
100
AcDbText
 62
7
  6
CONTINUOUS
 10
4.2699579832
 20
-31.75
  7
TEXTSTYLE_3
 40
2.5
  1
Tel  +32 (0)59 80 32 52
 72
5
 11
40.7300420168
 21
-31.75
100
AcDbText
  0
TEXT
  5
245
100
AcDbEntity
  8
0
100
AcDbText
 62
7
  6
CONTINUOUS
 10
5.7405462185
 20
-35.5
  7
TEXTSTYLE_3
 40
2.5
  1
www.oracdecor.com
 72
5
 11
39.2594537815
 21
-35.5
100
AcDbText
  0
TEXT
  5
246
100
AcDbEntity
  8
0
100
AcDbText
 62
7
  6
CONTINUOUS
 10
5.5777310924
 20
-39.25
  7
TEXTSTYLE_3
 40
2.5
  1
info@oracdecor.com
 72
5
 11
39.4222689076
 21
-39.25
100
AcDbText
  0
TEXT
  5
247
100
AcDbEntity
  8
0
100
AcDbText
 62
7
  6
CONTINUOUS
 10
46.0625
 20
-26.75
  7
TEXTSTYLE_3
 40
2.5
  1
All dimensions are in mm unless otherwise specified   
 72
5
 11
132.3019957983
 21
-26.75
100
AcDbText
  0
TEXT
  5
248
100
AcDbEntity
  8
0
100
AcDbText
 62
7
  6
CONTINUOUS
 10
46.0625
 20
-31.7075
  7
TEXTSTYLE_3
 40
1.85
  1
All information in this document is Orac's exclusive property.  It may in no case 
 72
5
 11
140.0471638655
 21
-31.7075
100
AcDbText
  0
TEXT
  5
249
100
AcDbEntity
  8
0
100
AcDbText
 62
7
  6
CONTINUOUS
 10
46.0625
 20
-34.8525
  7
TEXTSTYLE_3
 40
1.85
  1
be reproduced, even partly, be communicated to a third party or used for any 
 72
5
 11
138.8345588235
 21
-34.8525
100
AcDbText
  0
TEXT
  5
24A
100
AcDbEntity
  8
0
100
AcDbText
 62
7
  6
CONTINUOUS
 10
46.0625
 20
-37.9975
  7
TEXTSTYLE_3
 40
1.85
  1
possible purpose without ORAC's express written permission. 
 72
5
 11
119.4484243697
 21
-37.9975
100
AcDbText
  0
TEXT
  5
24B
100
AcDbEntity
  8
0
100
AcDbText
 62
7
  6
CONTINUOUS
 10
46.0625
 20
-41.1425
  7
TEXTSTYLE_3
 40
1.85
  1
Further legal information can be found at http://www.oracdecor.be/nl/disclaimer 
 72
5
 11
143.7316176471
 21
-41.1425
100
AcDbText
  0
ENDBLK
  5
24C
100
AcDbEntity
  8
0
  6
BYBLOCK
 62
0
100
AcDbBlockEnd
  0
ENDSEC
  0
SECTION
  2
ENTITIES
  0
DIMENSION
  5
24D
100
AcDbEntity
  8
0
100
AcDbDimension
 62
2
  6
CONTINUOUS
  2
*D0
 10
50.4517256944
 20
175.5862321174
 11
66.7247466792
 21
175.5862321174
 70
160
 71
2
 42
32.5460419695
  3
DIMSTYLE_1
100
AcDbAlignedDimension
 13
82.9977676639
 23
166.8149307677
 14
50.4517256944
 24
126.0196112377
 50
180.0
100
AcDbRotatedDimension
  0
DIMENSION
  5
24E
100
AcDbEntity
  8
0
100
AcDbDimension
 62
2
  6
CONTINUOUS
  2
*D1
 10
93.5324658942
 20
46.8149607677
 11
93.5324658942
 21
106.3149457677
 70
160
 71
2
 42
118.99997
  3
DIMSTYLE_2
100
AcDbAlignedDimension
 13
82.9977676639
 23
165.8149307677
 14
82.9977676639
 24
46.8149607677
 50
270.0
100
AcDbRotatedDimension
  0
ACAD_TABLE
  5
24F
100
AcDbEntity
  8
0
 62
2
  6
CONTINUOUS
100
AcDbBlockReference
  2
*T1
 10
143.9999958937
 20
47.9999925619
 30
0.0
100
AcDbTable
342
       335
343
211
 11
1.0
 21
0.0
 31
0.0
 90
22
 91
4
 92
4
 93
0
 94
0
 95
0
 96
0
141
18.0
141
5.0
141
5.0
141
15.0
142
45.0
142
28.0
142
70.0
142
5.0
171
1
172
0
173
0
174
0
175
1
176
1
 91
41
178
0
145
0.0
301
CELL_VALUE
 90
4
  1
O\H5.5;RAC\P\Ftrium.ttf;\H3.0;®\PD  E  C  O  R\Fcgtime.ttf;\H2.5; 
304
ACVALUE_END
170
5
140
8.0
 64
7
171
1
172
0
173
0
174
0
175
1
176
2
 91
41
178
0
145
0.0
301
CELL_VALUE
 90
4
  1
Part name:\PDesigned by:\PDesigned on:
304
ACVALUE_END
170
6
140
2.75
 64
7
171
1
172
0
173
0
174
0
175
1
176
2
 91
33
178
0
145
0.0
301
CELL_VALUE
 90
4
  1
DX170-2300\PORAC\P25-Aug-2014 
304
ACVALUE_END
170
4
140
2.75
171
1
172
0
173
0
174
0
175
1
176
2
 91
33
178
0
145
0.0
301
CELL_VALUE
 90
4
  1
Version: 1.0 
304
ACVALUE_END
170
6
140
1.5
171
1
172
0
173
0
174
0
175
1
176
3
 91
41
178
0
145
0.0
301
CELL_VALUE
 90
4
  1
Biekorfstraat 32\P8400 Oostende - Belgium\PTel  +32 (0)59 80 32 52\Pwww.oracdecor.com\Pinfo@oracdecor.com
304
ACVALUE_END
170
5
140
2.5
 64
7
171
1
172
0
173
1
174
0
175
1
176
1
 91
1
178
0
145
0.0
170
1
171
1
172
0
173
1
174
0
175
1
176
1
 91
1
178
0
145
0.0
170
1
171
1
172
0
173
1
174
0
175
1
176
1
 91
1
178
0
145
0.0
170
1
171
1
172
0
173
1
174
0
175
1
176
1
 91
1
178
0
145
0.0
170
1
171
1
172
0
173
0
174
0
175
3
176
1
 91
41
178
0
145
0.0
301
CELL_VALUE
 90
4
  1
All dimensions are in mm unless otherwise specified   
304
ACVALUE_END
170
1
140
2.5
 64
7
171
1
172
0
173
1
174
0
175
1
176
1
 91
1
178
0
145
0.0
170
1
171
1
172
0
173
1
174
0
175
1
176
1
 91
1
178
0
145
0.0
170
1
171
1
172
0
173
1
174
0
175
1
176
1
 91
1
178
0
145
0.0
170
1
171
1
172
0
173
0
174
0
175
3
176
1
 91
41
178
0
145
0.0
301
CELL_VALUE
 90
4
  2
All information in this document is Orac's exclusive property.  It may in no case \Pbe reproduced, even partly, be communicated to a third party or used for any \Ppossible purpose without ORAC's express written permission. \PFurther legal information
  1
 can be found at http://www.oracdecor.be/nl/disclaimer 
304
ACVALUE_END
170
4
140
1.85
 64
7
171
1
172
0
173
1
174
0
175
1
176
1
 91
1
178
0
145
0.0
170
1
171
1
172
0
173
1
174
0
175
1
176
1
 91
1
178
0
145
0.0
170
1
  0
LINE
  5
250
100
AcDbEntity
  8
0
100
AcDbLine
 62
5
  6
CONTINUOUS
 10
0.0
 20
0.0
 11
0.0
 21
210.0
  0
LINE
  5
251
100
AcDbEntity
  8
0
100
AcDbLine
 62
7
  6
CONTINUOUS
 10
5.0
 20
5.0
 11
5.0
 21
195.0
  0
LINE
  5
252
100
AcDbEntity
  8
0
100
AcDbLine
 62
5
  6
CONTINUOUS
 10
0.0
 20
0.0
 11
297.0
 21
0.0
  0
LINE
  5
253
100
AcDbEntity
  8
0
100
AcDbLine
 62
7
  6
CONTINUOUS
 10
5.0
 20
5.0
 11
292.0
 21
5.0
  0
LINE
  5
254
100
AcDbEntity
  8
0
100
AcDbLine
 62
4
  6
CONTINUOUS
 10
148.5
 20
195.0
 11
148.5
 21
205.0
  0
LINE
  5
255
100
AcDbEntity
  8
0
100
AcDbLine
 62
7
  6
CONTINUOUS
 10
5.0
 20
195.0
 11
292.0
 21
195.0
  0
LINE
  5
256
100
AcDbEntity
  8
0
100
AcDbLine
 62
5
  6
CONTINUOUS
 10
0.0
 20
210.0
 11
297.0
 21
210.0
  0
LINE
  5
257
100
AcDbEntity
  8
0
100
AcDbLine
 62
7
  6
CONTINUOUS
 10
292.0
 20
5.0
 11
292.0
 21
195.0
  0
LINE
  5
258
100
AcDbEntity
  8
0
100
AcDbLine
 62
5
  6
CONTINUOUS
 10
297.0
 20
0.0
 11
297.0
 21
210.0
  0
LINE
  5
259
100
AcDbEntity
  8
DTM_AXIS
100
AcDbLine
 62
7
  6
CONTINUOUS
 10
230.9780081333
 20
77.4038604371
 11
233.7180286705
 21
77.2650021089
  0
LINE
  5
25A
100
AcDbEntity
  8
0
100
AcDbLine
 62
40
  6
CONTINUOUS
 10
184.2884942454
 20
162.2753395194
 11
184.2774443873
 21
162.1687386097
  0
LINE
  5
25B
100
AcDbEntity
  8
0
100
AcDbLine
 62
40
  6
CONTINUOUS
 10
184.2314744916
 20
161.7411426447
 11
184.2289119599
 21
161.7180067996
  0
LINE
  5
25C
100
AcDbEntity
  8
0
100
AcDbLine
 62
7
  6
CONTINUOUS
 10
193.5545108425
 20
105.3923938872
 11
209.7551913143
 21
93.2442217288
  0
LINE
  5
25D
100
AcDbEntity
  8
DTM_AXIS
100
AcDbLine
 62
7
  6
CONTINUOUS
 10
209.7551913143
 20
93.2442217288
 11
230.8160759275
 21
77.451597923
  0
LINE
  5
25E
100
AcDbEntity
  8
DTM_AXIS
100
AcDbLine
 62
7
  6
CONTINUOUS
 10
230.7925801446
 20
103.2576728342
 11
234.4364966296
 21
103.264011093
  0
LINE
  5
25F
100
AcDbEntity
  8
0
100
AcDbLine
 62
7
  6
CONTINUOUS
 10
233.5394137624
 20
80.8811234184
 11
233.7557062303
 21
80.7189352843
  0
LINE
  5
260
100
AcDbEntity
  8
0
100
AcDbLine
 62
7
  6
CONTINUOUS
 10
191.945276015
 20
113.0943424187
 11
229.0288221724
 21
85.2870349572
  0
LINE
  5
261
100
AcDbEntity
  8
0
100
AcDbLine
 62
40
  6
CONTINUOUS
 10
191.9022996807
 20
113.1267957503
 11
191.9452760157
 21
113.0943424182
  0
LINE
  5
262
100
AcDbEntity
  8
0
100
AcDbLine
 62
40
  6
CONTINUOUS
 10
191.8690598125
 20
113.1522112479
 11
191.9022996807
 21
113.1267957502
  0
LINE
  5
263
100
AcDbEntity
  8
DTM_AXIS
100
AcDbLine
 62
7
  6
CONTINUOUS
 10
234.5218768775
 20
104.9238077258
 11
230.6775474599
 21
105.3212289388
  0
LINE
  5
264
100
AcDbEntity
  8
0
100
AcDbLine
 62
7
  6
CONTINUOUS
 10
188.1756184142
 20
127.655900883
 11
204.3762988859
 21
115.5077287246
  0
LINE
  5
265
100
AcDbEntity
  8
DTM_AXIS
100
AcDbLine
 62
7
  6
CONTINUOUS
 10
204.3762988859
 20
115.5077287246
 11
225.4371834991
 21
99.7151049188
  0
LINE
  5
266
100
AcDbEntity
  8
0
100
AcDbLine
 62
40
  6
CONTINUOUS
 10
188.1266080342
 20
127.6933238157
 11
188.1322478137
 21
127.6889473473
  0
LINE
  5
267
100
AcDbEntity
  8
0
100
AcDbLine
 62
40
  6
CONTINUOUS
 10
188.8709995201
 20
156.887862582
 11
188.9068685865
 21
156.7828786946
  0
LINE
  5
268
100
AcDbEntity
  8
0
100
AcDbLine
 62
40
  6
CONTINUOUS
 10
188.9068685855
 20
156.7828786973
 11
188.9734995886
 21
156.5848974873
  0
LINE
  5
269
100
AcDbEntity
  8
0
100
AcDbLine
 62
40
  6
CONTINUOUS
 10
188.9734995875
 20
156.5848974903
 11
189.0388270697
 21
156.386879242
  0
LINE
  5
26A
100
AcDbEntity
  8
0
100
AcDbLine
 62
7
  6
CONTINUOUS
 10
189.1701194635
 20
132.6565465413
 11
202.9406978645
 21
122.3306002067
  0
LINE
  5
26B
100
AcDbEntity
  8
DTM_AXIS
100
AcDbLine
 62
7
  6
CONTINUOUS
 10
202.9406978645
 20
122.3306002067
 11
226.4316845485
 21
104.7157505771
  0
LINE
  5
26C
100
AcDbEntity
  8
DTM_AXIS
100
AcDbLine
 62
7
  6
CONTINUOUS
 10
232.8536349044
 20
120.8887285825
 11
235.3433381476
 21
120.8930591931
  0
LINE
  5
26D
100
AcDbEntity
  8
DTM_AXIS
100
AcDbLine
 62
7
  6
CONTINUOUS
 10
235.4287183955
 20
122.5528558259
 11
232.9551253618
 21
122.8085722948
  0
LINE
  5
26E
100
AcDbEntity
  8
0
100
AcDbLine
 62
7
  6
CONTINUOUS
 10
234.5839266257
 20
104.8995135871
 11
225.2219829254
 21
111.9196201811
  0
LINE
  5
26F
100
AcDbEntity
  8
DTM_AXIS
100
AcDbLine
 62
7
  6
CONTINUOUS
 10
234.123144601
 20
85.834023755
 11
234.0000089702
 21
86.0652892823
  0
LINE
  5
270
100
AcDbEntity
  8
0
100
AcDbLine
 62
7
  6
CONTINUOUS
 10
184.1731737074
 20
160.6588267118
 11
184.8564820427
 21
159.9026219058
  0
LINE
  5
271
100
AcDbEntity
  8
DTM_AXIS
100
AcDbLine
 62
7
  6
CONTINUOUS
 10
227.8774222991
 20
133.6184876112
 11
232.3130406118
 21
133.3937000466
  0
LINE
  5
272
100
AcDbEntity
  8
DTM_AXIS
100
AcDbLine
 62
7
  6
CONTINUOUS
 10
234.0000089702
 20
86.0652892823
 11
232.8775886907
 21
89.7240662309
  0
LINE
  5
273
100
AcDbEntity
  8
0
100
AcDbLine
 62
7
  6
CONTINUOUS
 10
222.2936271515
 20
137.4050567496
 11
236.7738959943
 21
136.6712279711
  0
LINE
  5
274
100
AcDbEntity
  8
0
100
AcDbLine
 62
7
  6
CONTINUOUS
 10
189.1792477489
 20
156.0706408199
 11
226.4408128339
 21
128.1298448557
  0
LINE
  5
275
100
AcDbEntity
  8
0
100
AcDbLine
 62
7
  6
CONTINUOUS
 10
222.1158324494
 20
131.9588724688
 11
184.8848437904
 21
159.8767405265
  0
LINE
  5
276
100
AcDbEntity
  8
0
100
AcDbLine
 62
7
  6
CONTINUOUS
 10
235.4907681437
 20
122.5285616872
 11
232.5364807606
 21
124.7438508411
  0
LINE
  5
277
100
AcDbEntity
  8
DTM_AXIS
100
AcDbLine
 62
7
  6
CONTINUOUS
 10
224.8691789846
 20
130.6424553952
 11
225.724568827
 21
130.0010364693
  0
LINE
  5
278
100
AcDbEntity
  8
DTM_AXIS
100
AcDbLine
 62
7
  6
CONTINUOUS
 10
221.4347387924
 20
132.7180307476
 11
222.1180471277
 21
131.9618259416
  0
LINE
  5
279
100
AcDbEntity
  8
DTM_AXIS
100
AcDbLine
 62
7
  6
CONTINUOUS
 10
230.8697436309
 20
98.387542006
 11
230.5435744256
 21
102.9898795031
  0
LINE
  5
27A
100
AcDbEntity
  8
DTM_AXIS
100
AcDbLine
 62
7
  6
CONTINUOUS
 10
232.3130406118
 20
133.3937000466
 11
236.144940216
 21
131.3634684397
  0
LINE
  5
27B
100
AcDbEntity
  8
DTM_AXIS
100
AcDbLine
 62
7
  6
CONTINUOUS
 10
230.8771650869
 20
130.071218436
 11
227.7794127476
 21
133.4086227181
  0
LINE
  5
27C
100
AcDbEntity
  8
DTM_AXIS
100
AcDbLine
 62
7
  6
CONTINUOUS
 10
234.5611471127
 20
103.3826509646
 11
234.6337051752
 21
104.7931836198
  0
LINE
  5
27D
100
AcDbEntity
  8
DTM_AXIS
100
AcDbLine
 62
7
  6
CONTINUOUS
 10
235.4679886307
 20
121.0116990647
 11
235.5405466932
 21
122.4222317199
  0
LINE
  5
27E
100
AcDbEntity
  8
DTM_AXIS
100
AcDbLine
 62
7
  6
CONTINUOUS
 10
233.7180286705
 20
77.2650021089
 11
233.8836648461
 21
80.4849783114
  0
LINE
  5
27F
100
AcDbEntity
  8
DTM_AXIS
100
AcDbLine
 62
7
  6
CONTINUOUS
 10
233.99004149
 20
82.5529460151
 11
234.1521200483
 21
85.7037619441
  0
LINE
  5
280
100
AcDbEntity
  8
DTM_AXIS
100
AcDbLine
 62
7
  6
CONTINUOUS
 10
236.5115752127
 20
131.5716978072
 11
236.5923098532
 21
133.1411835798
  0
LINE
  5
281
100
AcDbEntity
  8
0
100
AcDbLine
 62
7
  6
CONTINUOUS
 10
236.6986864971
 20
135.2091512836
 11
236.7738959943
 21
136.6712279711
  0
LINE
  5
282
100
AcDbEntity
  8
0
100
AcDbLine
 62
7
  6
CONTINUOUS
 10
236.2480587695
 20
133.5373286868
 11
236.4643512375
 21
133.3751405527
  0
LINE
  5
283
100
AcDbEntity
  8
0
100
AcDbLine
 62
7
  6
CONTINUOUS
 10
236.7738959943
 20
136.6712279711
 11
199.5123309093
 21
164.6120239353
  0
LINE
  5
284
100
AcDbEntity
  8
0
100
AcDbLine
 62
7
  6
CONTINUOUS
 10
199.5123309093
 20
164.6120239353
 11
185.0320620665
 21
165.3458527138
  0
LINE
  5
285
100
AcDbEntity
  8
DTM_AXIS
100
AcDbLine
 62
7
  6
CONTINUOUS
 10
77.5075944362
 20
46.8149607677
 11
82.9977676639
 21
46.8149607677
  0
LINE
  5
286
100
AcDbEntity
  8
DTM_AXIS
100
AcDbLine
 62
7
  6
CONTINUOUS
 10
74.4791797841
 20
98.45076216
 11
81.760851653
 21
98.8323784121
  0
LINE
  5
287
100
AcDbEntity
  8
DTM_AXIS
100
AcDbLine
 62
7
  6
CONTINUOUS
 10
82.9264693272
 20
63.9764402711
 11
82.6566095471
 21
64.4260291083
  0
LINE
  5
288
100
AcDbEntity
  8
DTM_AXIS
100
AcDbLine
 62
7
  6
CONTINUOUS
 10
81.760851653
 20
102.1572108961
 11
74.0371494164
 21
102.5619929782
  0
LINE
  5
289
100
AcDbEntity
  8
DTM_AXIS
100
AcDbLine
 62
7
  6
CONTINUOUS
 10
82.6566095471
 20
64.4260291083
 11
80.0373342903
 21
71.6224287317
  0
LINE
  5
28A
100
AcDbEntity
  8
DTM_AXIS
100
AcDbLine
 62
7
  6
CONTINUOUS
 10
75.1340521808
 20
88.7283062832
 11
74.0090746864
 21
97.8905127209
  0
LINE
  5
28B
100
AcDbEntity
  8
DTM_AXIS
100
AcDbLine
 62
7
  6
CONTINUOUS
 10
81.9977676639
 20
99.0820357958
 11
81.9977676639
 21
101.9075535124
  0
LINE
  5
28C
100
AcDbEntity
  8
DTM_AXIS
100
AcDbLine
 62
7
  6
CONTINUOUS
 10
81.9977676639
 20
134.3957788352
 11
81.9977676639
 21
137.2212965518
  0
LINE
  5
28D
100
AcDbEntity
  8
DTM_AXIS
100
AcDbLine
 62
7
  6
CONTINUOUS
 10
82.9977676639
 20
46.8149607677
 11
82.9977676639
 21
53.2650771644
  0
LINE
  5
28E
100
AcDbEntity
  8
DTM_AXIS
100
AcDbLine
 62
7
  6
CONTINUOUS
 10
82.9977676639
 20
57.4075401998
 11
82.9977676639
 21
63.7191177422
  0
LINE
  5
28F
100
AcDbEntity
  8
DTM_AXIS
100
AcDbLine
 62
7
  6
CONTINUOUS
 10
82.9977676639
 20
155.5997735563
 11
82.9977676639
 21
158.74369925
  0
LINE
  5
290
100
AcDbEntity
  8
0
100
AcDbLine
 62
7
  6
CONTINUOUS
 10
82.9977676639
 20
162.8861622854
 11
82.9977676639
 21
165.8149307677
  0
LINE
  5
291
100
AcDbEntity
  8
DTM_AXIS
100
AcDbLine
 62
7
  6
CONTINUOUS
 10
76.7856547346
 20
133.8853824295
 11
81.760851653
 21
134.1461214515
  0
LINE
  5
292
100
AcDbEntity
  8
DTM_AXIS
100
AcDbLine
 62
7
  6
CONTINUOUS
 10
52.7490446247
 20
156.3635319962
 11
54.1923679674
 21
154.9218601443
  0
LINE
  5
293
100
AcDbEntity
  8
DTM_AXIS
100
AcDbLine
 62
7
  6
CONTINUOUS
 10
81.760851653
 20
137.4709539355
 11
76.7911172803
 21
137.7314066776
  0
LINE
  5
294
100
AcDbEntity
  8
DTM_AXIS
100
AcDbLine
 62
7
  6
CONTINUOUS
 10
71.891719676
 20
152.0313999882
 11
65.3578048975
 21
158.3857079621
  0
LINE
  5
295
100
AcDbEntity
  8
DTM_AXIS
100
AcDbLine
 62
7
  6
CONTINUOUS
 10
65.5321011566
 20
158.8149307677
 11
74.4197399819
 21
158.8149307677
  0
LINE
  5
296
100
AcDbEntity
  8
DTM_AXIS
100
AcDbLine
 62
7
  6
CONTINUOUS
 10
74.4197399819
 20
158.8149307677
 11
82.2864585331
 21
155.1466196628
  0
LINE
  5
297
100
AcDbEntity
  8
0
100
AcDbLine
 62
7
  6
CONTINUOUS
 10
53.9836842833
 20
165.8149307677
 11
82.9977676639
 21
165.8149307677
  0
ARC
  5
298
100
AcDbEntity
  8
0
100
AcDbCircle
 62
7
  6
CONTINUOUS
 10
114.1243814672
 20
169.4942729991
 40
70.5344947071
100
AcDbArc
 50
352.9338061183
 51
356.2482613262
  0
ARC
  5
299
100
AcDbEntity
  8
0
100
AcDbCircle
 62
7
  6
CONTINUOUS
 10
151.3859465521
 20
141.5534770349
 40
70.5344947071
100
AcDbArc
 50
352.9338061183
 51
356.2482613262
  0
ARC
  5
29A
100
AcDbEntity
  8
0
100
AcDbCircle
 62
7
  6
CONTINUOUS
 10
155.8705317529
 20
145.554229614
 40
34.8924362799
100
AcDbArc
 50
17.7449009573
 51
18.954297594
  0
ARC
  5
29B
100
AcDbEntity
  8
0
100
AcDbCircle
 62
40
  6
CONTINUOUS
 10
169.947193666
 20
108.4337501384
 40
23.6100381446
100
AcDbArc
 50
7.4787713719
 51
8.1896108342
  0
ARC
  5
29C
100
AcDbEntity
  8
DTM_AXIS
100
AcDbCircle
 62
7
  6
CONTINUOUS
 10
175.5393855181
 20
25.3258449553
 40
114.7113706461
100
AcDbArc
 50
62.8541659546
 51
63.629421694
  0
ARC
  5
29D
100
AcDbEntity
  8
DTM_AXIS
100
AcDbCircle
 62
7
  6
CONTINUOUS
 10
233.9957285934
 20
91.5408891332
 40
7.9832063228
100
AcDbArc
 50
233.1399176253
 51
240.6221334137
  0
ARC
  5
29E
100
AcDbEntity
  8
DTM_AXIS
100
AcDbCircle
 62
7
  6
CONTINUOUS
 10
233.9911846165
 20
91.5339168648
 40
7.9749020469
100
AcDbArc
 50
231.5366516851
 51
233.1359894432
  0
ARC
  5
29F
100
AcDbEntity
  8
DTM_AXIS
100
AcDbCircle
 62
7
  6
CONTINUOUS
 10
229.5894454353
 20
83.714004116
 40
0.9987511618
100
AcDbArc
 50
8.1847237879
 51
60.6173827341
  0
ARC
  5
2A0
100
AcDbEntity
  8
DTM_AXIS
100
AcDbCircle
 62
7
  6
CONTINUOUS
 10
234.1868908694
 20
81.5058427957
 40
0.9000081459
100
AcDbArc
 50
112.8456400024
 51
237.992915998
  0
ARC
  5
2A1
100
AcDbEntity
  8
DTM_AXIS
100
AcDbCircle
 62
7
  6
CONTINUOUS
 10
234.1850932914
 20
81.5043070717
 40
0.8975993394
100
AcDbArc
 50
237.9921333347
 51
241.3101118389
  0
ARC
  5
2A2
100
AcDbEntity
  8
DTM_AXIS
100
AcDbCircle
 62
7
  6
CONTINUOUS
 10
233.7401995568
 20
82.565818299
 40
0.2501733145
100
AcDbArc
 50
292.8719726994
 51
357.0506312455
  0
ARC
  5
2A3
100
AcDbEntity
  8
DTM_AXIS
100
AcDbCircle
 62
7
  6
CONTINUOUS
 10
229.1861530424
 20
85.4851027632
 40
0.2498466895
100
AcDbArc
 50
160.020434101
 51
231.5190514407
  0
ARC
  5
2A4
100
AcDbEntity
  8
DTM_AXIS
100
AcDbCircle
 62
7
  6
CONTINUOUS
 10
233.634284336
 20
80.4978540645
 40
0.2497126826
100
AcDbArc
 50
357.0443888111
 51
61.2937003241
  0
ARC
  5
2A5
100
AcDbEntity
  8
DTM_AXIS
100
AcDbCircle
 62
7
  6
CONTINUOUS
 10
193.1289258649
 20
117.6122979674
 40
34.8958025203
100
AcDbArc
 50
17.7450901091
 51
20.6301716625
  0
ARC
  5
2A6
100
AcDbEntity
  8
DTM_AXIS
100
AcDbCircle
 62
7
  6
CONTINUOUS
 10
219.3094171621
 20
122.3503724373
 40
9.9843259459
100
AcDbArc
 50
50.0204187047
 51
73.1219089333
  0
ARC
  5
2A7
100
AcDbEntity
  8
0
100
AcDbCircle
 62
7
  6
CONTINUOUS
 10
196.7296195315
 20
119.4747128289
 40
7.9749020469
100
AcDbArc
 50
231.5366516851
 51
233.1359894432
  0
ARC
  5
2A8
100
AcDbEntity
  8
0
100
AcDbCircle
 62
40
  6
CONTINUOUS
 10
186.2237699732
 20
115.4981459918
 40
5.8159207327
100
AcDbArc
 50
340.0239393958
 51
342.0394180371
  0
ARC
  5
2A9
100
AcDbEntity
  8
DTM_AXIS
100
AcDbCircle
 62
7
  6
CONTINUOUS
 10
227.7656894801
 20
127.1834084628
 40
4.2450826721
100
AcDbArc
 50
11.8564576314
 51
42.8648850509
  0
ARC
  5
2AA
100
AcDbEntity
  8
0
100
AcDbCircle
 62
40
  6
CONTINUOUS
 10
190.2869984584
 20
130.4718862293
 40
3.5196163373
100
AcDbArc
 50
232.2503972729
 51
233.1380330262
  0
ARC
  5
2AB
100
AcDbEntity
  8
DTM_AXIS
100
AcDbCircle
 62
7
  6
CONTINUOUS
 10
227.8761653932
 20
98.1755439663
 40
3.0010754463
100
AcDbArc
 50
332.3571614821
 51
4.0507871413
  0
ARC
  5
2AC
100
AcDbEntity
  8
DTM_AXIS
100
AcDbCircle
 62
7
  6
CONTINUOUS
 10
236.8955358765
 20
134.1620480641
 40
0.9000081459
100
AcDbArc
 50
112.8456400034
 51
237.9929159981
  0
ARC
  5
2AD
100
AcDbEntity
  8
DTM_AXIS
100
AcDbCircle
 62
7
  6
CONTINUOUS
 10
236.8937382985
 20
134.1605123401
 40
0.8975993394
100
AcDbArc
 50
237.9921333346
 51
241.3101118391
  0
ARC
  5
2AE
100
AcDbEntity
  8
DTM_AXIS
100
AcDbCircle
 62
7
  6
CONTINUOUS
 10
224.0349554845
 20
116.8300191246
 40
0.5340807499
100
AcDbArc
 50
67.1230211189
 51
182.6630375769
  0
ARC
  5
2AF
100
AcDbEntity
  8
0
100
AcDbCircle
 62
7
  6
CONTINUOUS
 10
222.2684621572
 20
136.9054493423
 40
0.5002470475
100
AcDbArc
 50
87.1164749976
 51
176.2503241407
  0
ARC
  5
2B0
100
AcDbEntity
  8
0
100
AcDbCircle
 62
7
  6
CONTINUOUS
 10
185.0068970693
 20
164.8462453099
 40
0.5002470422
100
AcDbArc
 50
87.1164746377
 51
176.2503245007
  0
ARC
  5
2B1
100
AcDbEntity
  8
DTM_AXIS
100
AcDbCircle
 62
7
  6
CONTINUOUS
 10
236.4488445639
 20
135.2220235674
 40
0.2501733145
100
AcDbArc
 50
292.8719726994
 51
357.0506312455
  0
ARC
  5
2B2
100
AcDbEntity
  8
DTM_AXIS
100
AcDbCircle
 62
7
  6
CONTINUOUS
 10
230.7930830892
 20
103.0075434648
 40
0.2501321177
100
AcDbArc
 50
90.1152066432
 51
184.0494975187
  0
ARC
  5
2B3
100
AcDbEntity
  8
DTM_AXIS
100
AcDbCircle
 62
7
  6
CONTINUOUS
 10
232.8541350723
 20
120.638598219
 40
0.2501308635
100
AcDbArc
 50
90.1145701285
 51
170.1893883166
  0
ARC
  5
2B4
100
AcDbEntity
  8
DTM_AXIS
100
AcDbCircle
 62
7
  6
CONTINUOUS
 10
236.2618529778
 20
131.5844783785
 40
0.2500392458
100
AcDbArc
 50
242.1214626687
 51
357.0702070248
  0
ARC
  5
2B5
100
AcDbEntity
  8
0
100
AcDbCircle
 62
7
  6
CONTINUOUS
 10
191.924564524
 20
113.4258921098
 40
0.249826928
100
AcDbArc
 50
160.0171714309
 51
231.5223141109
  0
ARC
  5
2B6
100
AcDbEntity
  8
DTM_AXIS
100
AcDbCircle
 62
7
  6
CONTINUOUS
 10
236.3429293431
 20
133.1540593329
 40
0.2497126826
100
AcDbArc
 50
357.0443888111
 51
61.2937003243
  0
ARC
  5
2B7
100
AcDbEntity
  8
DTM_AXIS
100
AcDbCircle
 62
7
  6
CONTINUOUS
 10
232.9808417586
 20
123.0569272432
 40
0.2497008801
100
AcDbArc
 50
182.9365043736
 51
233.1427012179
  0
ARC
  5
2B8
100
AcDbEntity
  8
DTM_AXIS
100
AcDbCircle
 62
7
  6
CONTINUOUS
 10
230.7032151678
 20
105.5695465689
 40
0.2496415432
100
AcDbArc
 50
193.9754505962
 51
233.1490672964
  0
ARC
  5
2B9
100
AcDbEntity
  8
DTM_AXIS
100
AcDbCircle
 62
7
  6
CONTINUOUS
 10
227.7634443977
 20
127.1794518961
 40
0.2495207584
100
AcDbArc
 50
11.8458256299
 51
62.8255280449
  0
ARC
  5
2BA
100
AcDbEntity
  8
DTM_AXIS
100
AcDbCircle
 62
7
  6
CONTINUOUS
 10
226.796833202
 20
98.7395526381
 40
0.2220833392
100
AcDbArc
 50
332.3389600994
 51
67.0596457096
  0
ARC
  5
2BB
100
AcDbEntity
  8
0
100
AcDbCircle
 62
7
  6
CONTINUOUS
 10
185.0049411824
 20
160.0368286265
 40
0.2001288585
100
AcDbArc
 50
222.1135089194
 51
233.1220394406
  0
ARC
  5
2BC
100
AcDbEntity
  8
0
100
AcDbCircle
 62
7
  6
CONTINUOUS
 10
184.3214678781
 20
160.792791616
 40
0.199844331
100
AcDbArc
 50
172.925324514
 51
222.0937966413
  0
ARC
  5
2BD
100
AcDbEntity
  8
DTM_AXIS
100
AcDbCircle
 62
7
  6
CONTINUOUS
 10
221.5829993333
 20
132.8519850422
 40
0.1998122645
100
AcDbArc
 50
172.9211177071
 51
222.0980034483
  0
ARC
  5
2BE
100
AcDbEntity
  8
DTM_AXIS
100
AcDbCircle
 62
7
  6
CONTINUOUS
 10
222.2662034853
 20
132.0956972548
 40
0.199679116
100
AcDbArc
 50
222.1153235298
 51
253.0970641584
  0
ARC
  5
2BF
100
AcDbEntity
  8
DTM_AXIS
100
AcDbCircle
 62
7
  6
CONTINUOUS
 10
234.4362320795
 20
103.3890917858
 40
0.1250809725
100
AcDbArc
 50
270.1211824073
 51
357.0483508328
  0
ARC
  5
2C0
100
AcDbEntity
  8
DTM_AXIS
100
AcDbCircle
 62
7
  6
CONTINUOUS
 10
235.3430735975
 20
121.0181398859
 40
0.1250809725
100
AcDbArc
 50
270.1211824073
 51
357.0483508329
  0
ARC
  5
2C1
100
AcDbEntity
  8
DTM_AXIS
100
AcDbCircle
 62
7
  6
CONTINUOUS
 10
227.8711050686
 20
133.4936140556
 40
0.1250295698
100
AcDbArc
 50
87.1039317262
 51
222.8280156098
  0
ARC
  5
2C2
100
AcDbEntity
  8
DTM_AXIS
100
AcDbCircle
 62
7
  6
CONTINUOUS
 10
235.4158427645
 20
122.4286688523
 40
0.1248699583
100
AcDbArc
 50
357.0450533354
 51
53.1021715967
  0
ARC
  5
2C3
100
AcDbEntity
  8
DTM_AXIS
100
AcDbCircle
 62
7
  6
CONTINUOUS
 10
234.5090012465
 20
104.7996207522
 40
0.1248699583
100
AcDbArc
 50
357.0450533354
 51
53.1021715968
  0
ARC
  5
2C4
100
AcDbEntity
  8
DTM_AXIS
100
AcDbCircle
 62
7
  6
CONTINUOUS
 10
-28.1334957548
 20
-63.1422750314
 40
229.7796037642
100
AcDbArc
 50
65.7692698996
 51
66.543937612
  0
ARC
  5
2C5
100
AcDbEntity
  8
0
100
AcDbCircle
 62
7
  6
CONTINUOUS
 10
-88.0206312268
 20
166.8149307677
 40
141.0183988908
100
AcDbArc
 50
355.8767086683
 51
359.1930950642
  0
ARC
  5
2C6
100
AcDbEntity
  8
DTM_AXIS
100
AcDbCircle
 62
7
  6
CONTINUOUS
 10
-2.2766056212
 20
123.255802524
 40
69.84155247
100
AcDbArc
 50
20.6900191482
 51
23.5746665397
  0
ARC
  5
2C7
100
AcDbEntity
  8
DTM_AXIS
100
AcDbCircle
 62
7
  6
CONTINUOUS
 10
49.5498980373
 20
135.4083273795
 40
20.0
100
AcDbArc
 50
52.944974911
 51
76.0291061977
  0
ARC
  5
2C8
100
AcDbEntity
  8
DTM_AXIS
100
AcDbCircle
 62
7
  6
CONTINUOUS
 10
82.0910673098
 20
75.3723522491
 40
15.9753524179
100
AcDbArc
 50
234.4607516644
 51
243.5429881611
  0
ARC
  5
2C9
100
AcDbEntity
  8
DTM_AXIS
100
AcDbCircle
 62
7
  6
CONTINUOUS
 10
65.965646867
 20
145.9378245958
 40
8.5
100
AcDbArc
 50
14.8056157143
 51
45.7984068855
  0
ARC
  5
2CA
100
AcDbEntity
  8
DTM_AXIS
100
AcDbCircle
 62
7
  6
CONTINUOUS
 10
69.1787752709
 20
87.9970902228
 40
6.0
100
AcDbArc
 50
335.28991552
 51
7.0
  0
ARC
  5
2CB
100
AcDbEntity
  8
DTM_AXIS
100
AcDbCircle
 62
7
  6
CONTINUOUS
 10
74.0825762817
 20
59.2795785291
 40
2.0
100
AcDbArc
 50
11.1368371849
 51
63.5429881611
  0
ARC
  5
2CC
100
AcDbEntity
  8
DTM_AXIS
100
AcDbCircle
 62
7
  6
CONTINUOUS
 10
83.4977676639
 20
55.3363086821
 40
1.8
100
AcDbArc
 50
115.7714617405
 51
244.2285382595
  0
ARC
  5
2CD
100
AcDbEntity
  8
DTM_AXIS
100
AcDbCircle
 62
7
  6
CONTINUOUS
 10
83.4977676639
 20
160.8149307677
 40
1.8
100
AcDbArc
 50
115.7714617405
 51
244.2285382595
  0
ARC
  5
2CE
100
AcDbEntity
  8
DTM_AXIS
100
AcDbCircle
 62
7
  6
CONTINUOUS
 10
59.5779756788
 20
124.8840194246
 40
1.0678838813
100
AcDbArc
 50
70.0
 51
185.6014352855
  0
ARC
  5
2CF
100
AcDbEntity
  8
0
100
AcDbCircle
 62
7
  6
CONTINUOUS
 10
53.9836842833
 20
164.8149307677
 40
1.0
100
AcDbArc
 50
90.0
 51
179.1930950642
  0
ARC
  5
2D0
100
AcDbEntity
  8
DTM_AXIS
100
AcDbCircle
 62
7
  6
CONTINUOUS
 10
65.965646867
 20
145.9378245958
 40
0.5
100
AcDbArc
 50
14.8056157143
 51
65.7692698995
  0
ARC
  5
2D1
100
AcDbEntity
  8
DTM_AXIS
100
AcDbCircle
 62
7
  6
CONTINUOUS
 10
73.095856243
 20
62.7797865723
 40
0.5
100
AcDbArc
 50
162.9699561029
 51
234.4607516645
  0
ARC
  5
2D2
100
AcDbEntity
  8
DTM_AXIS
100
AcDbCircle
 62
7
  6
CONTINUOUS
 10
82.4977676639
 20
53.2650771644
 40
0.5
100
AcDbArc
 50
0.0
 51
64.2285382593
  0
ARC
  5
2D3
100
AcDbEntity
  8
DTM_AXIS
100
AcDbCircle
 62
7
  6
CONTINUOUS
 10
82.4977676639
 20
57.4075401998
 40
0.5
100
AcDbArc
 50
295.7714617407
 51
360.0
  0
ARC
  5
2D4
100
AcDbEntity
  8
DTM_AXIS
100
AcDbCircle
 62
7
  6
CONTINUOUS
 10
82.4977676639
 20
63.7191177422
 40
0.5
100
AcDbArc
 50
0.0
 51
30.9737331155
  0
ARC
  5
2D5
100
AcDbEntity
  8
DTM_AXIS
100
AcDbCircle
 62
7
  6
CONTINUOUS
 10
74.5053477622
 20
97.9514473926
 40
0.5
100
AcDbArc
 50
93.0
 51
187.0000000001
  0
ARC
  5
2D6
100
AcDbEntity
  8
DTM_AXIS
100
AcDbCircle
 62
7
  6
CONTINUOUS
 10
74.0633173945
 20
103.0613077456
 40
0.5
100
AcDbArc
 50
196.9267895043
 51
267.0
  0
ARC
  5
2D7
100
AcDbEntity
  8
DTM_AXIS
100
AcDbCircle
 62
7
  6
CONTINUOUS
 10
76.8118227127
 20
133.3860676621
 40
0.5
100
AcDbArc
 50
93.0
 51
173.1292219609
  0
ARC
  5
2D8
100
AcDbEntity
  8
DTM_AXIS
100
AcDbCircle
 62
7
  6
CONTINUOUS
 10
76.8172852584
 20
138.230721445
 40
0.5
100
AcDbArc
 50
185.8909598674
 51
267.0
  0
ARC
  5
2D9
100
AcDbEntity
  8
DTM_AXIS
100
AcDbCircle
 62
7
  6
CONTINUOUS
 10
82.4977676639
 20
155.5997735563
 40
0.5
100
AcDbArc
 50
244.9999999996
 51
360.0
  0
ARC
  5
2DA
100
AcDbEntity
  8
DTM_AXIS
100
AcDbCircle
 62
7
  6
CONTINUOUS
 10
82.4977676639
 20
158.74369925
 40
0.5
100
AcDbArc
 50
0.0
 51
64.2285382593
  0
ARC
  5
2DB
100
AcDbEntity
  8
DTM_AXIS
100
AcDbCircle
 62
7
  6
CONTINUOUS
 10
82.4977676639
 20
162.8861622854
 40
0.5
100
AcDbArc
 50
295.7714617407
 51
360.0
  0
ARC
  5
2DC
100
AcDbEntity
  8
DTM_AXIS
100
AcDbCircle
 62
7
  6
CONTINUOUS
 10
66.9581780653
 20
89.0189243852
 40
0.4444216095
100
AcDbArc
 50
335.2899155197
 51
70.0
  0
ARC
  5
2DD
100
AcDbEntity
  8
DTM_AXIS
100
AcDbCircle
 62
7
  6
CONTINUOUS
 10
53.03172538
 20
156.6465365732
 40
0.4
100
AcDbArc
 50
175.8767086682
 51
225.0327984738
  0
ARC
  5
2DE
100
AcDbEntity
  8
DTM_AXIS
100
AcDbCircle
 62
7
  6
CONTINUOUS
 10
54.4750487226
 20
155.2048647213
 40
0.4
100
AcDbArc
 50
225.0327984737
 51
256.0291061978
  0
ARC
  5
2DF
100
AcDbEntity
  8
DTM_AXIS
100
AcDbCircle
 62
7
  6
CONTINUOUS
 10
81.7477676639
 20
99.0820357958
 40
0.25
100
AcDbArc
 50
273.0
 51
360.0
  0
ARC
  5
2E0
100
AcDbEntity
  8
DTM_AXIS
100
AcDbCircle
 62
7
  6
CONTINUOUS
 10
81.7477676639
 20
101.9075535124
 40
0.25
100
AcDbArc
 50
0.0
 51
87.0
  0
ARC
  5
2E1
100
AcDbEntity
  8
DTM_AXIS
100
AcDbCircle
 62
7
  6
CONTINUOUS
 10
81.7477676639
 20
134.3957788352
 40
0.25
100
AcDbArc
 50
273.0
 51
360.0
  0
ARC
  5
2E2
100
AcDbEntity
  8
DTM_AXIS
100
AcDbCircle
 62
7
  6
CONTINUOUS
 10
81.7477676639
 20
137.2212965518
 40
0.25
100
AcDbArc
 50
0.0
 51
87.0
  0
ARC
  5
2E3
100
AcDbEntity
  8
DTM_AXIS
100
AcDbCircle
 62
7
  6
CONTINUOUS
 10
65.5321011566
 20
158.5649307677
 40
0.25
100
AcDbArc
 50
90.0
 51
225.7984068855
  0
SPLINE
  5
2E4
100
AcDbEntity
  8
DTM_AXIS
100
AcDbSpline
 62
7
  6
CONTINUOUS
 70
0
 71
3
 72
9
 73
5
 74
0
 42
0.0000001
 43
0.0000001
 44
0.0000000001
 40
0.0
 40
0.0
 40
0.0
 40
0.0
 40
0.4826284906
 40
1.0
 40
1.0
 40
1.0
 40
1.0
 10
230.8160758803
 20
77.4515979584
 30
0.0
 10
230.8380807237
 20
77.4350974919
 30
0.0
 10
230.891204005
 20
77.4100237524
 30
0.0
 10
230.9485618229
 20
77.4053527125
 30
0.0
 10
230.9780081333
 20
77.4038604371
 30
0.0
  0
SPLINE
  5
2E5
100
AcDbEntity
  8
DTM_AXIS
100
AcDbSpline
 62
7
  6
CONTINUOUS
 70
0
 71
3
 72
9
 73
5
 74
0
 42
0.0000001
 43
0.0000001
 44
0.0000000001
 40
0.0
 40
0.0
 40
0.0
 40
0.0
 40
0.4782380323
 40
1.0
 40
1.0
 40
1.0
 40
1.0
 10
225.4371837439
 20
99.7151047353
 30
0.0
 10
225.6465857572
 20
99.5580834755
 30
0.0
 10
226.1201061641
 20
99.2776159435
 30
0.0
 10
226.6203729126
 20
99.0552148369
 30
0.0
 10
226.8833984396
 20
98.9440439578
 30
0.0
  0
SPLINE
  5
2E6
100
AcDbEntity
  8
DTM_AXIS
100
AcDbSpline
 62
7
  6
CONTINUOUS
 70
0
 71
3
 72
9
 73
5
 74
0
 42
0.0000001
 43
0.0000001
 44
0.0000000001
 40
0.0
 40
0.0
 40
0.0
 40
0.0
 40
0.2421508304
 40
1.0
 40
1.0
 40
1.0
 40
1.0
 10
226.4408128416
 20
128.1298448499
 30
0.0
 10
226.4445941832
 20
128.1270093897
 30
0.0
 10
226.4606758898
 20
128.1159123094
 30
0.0
 10
226.4780752008
 20
128.1069164981
 30
0.0
 10
226.4913278152
 20
128.1003463243
 30
0.0
  0
SPLINE
  5
2E7
100
AcDbEntity
  8
0
100
AcDbSpline
 62
7
  6
CONTINUOUS
 70
0
 71
3
 72
8
 73
4
 74
0
 42
0.0000001
 43
0.0000001
 44
0.0000000001
 40
0.0
 40
0.0
 40
0.0
 40
0.0
 40
1.0
 40
1.0
 40
1.0
 40
1.0
 10
193.1878709582
 20
112.1626618575
 30
0.0
 10
193.2535674039
 20
112.0514022
 30
0.0
 10
193.2980510837
 20
111.9248775227
 30
0.0
 10
193.316458456
 20
111.7969873236
 30
0.0
  0
SPLINE
  5
2E8
100
AcDbEntity
  8
0
100
AcDbSpline
 62
7
  6
CONTINUOUS
 70
0
 71
3
 72
9
 73
5
 74
0
 42
0.0000001
 43
0.0000001
 44
0.0000000001
 40
0.0
 40
0.0
 40
0.0
 40
0.0
 40
0.4788805924
 40
1.0
 40
1.0
 40
1.0
 40
1.0
 10
189.1028880551
 20
156.1887302676
 30
0.0
 10
189.1098265048
 20
156.1670478958
 30
0.0
 10
189.1263536005
 20
156.1218939228
 30
0.0
 10
189.159427596
 20
156.085503074
 30
0.0
 10
189.179247749
 20
156.0706408199
 30
0.0
  0
SPLINE
  5
2E9
100
AcDbEntity
  8
0
100
AcDbSpline
 62
7
  6
CONTINUOUS
 70
0
 71
3
 72
28
 73
24
 74
0
 42
0.0000001
 43
0.0000001
 44
0.0000000001
 40
0.0
 40
0.0
 40
0.0
 40
0.0
 40
0.1242222117
 40
0.1859459121
 40
0.2467574658
 40
0.3061919938
 40
0.3646961372
 40
0.4238941399
 40
0.4856541095
 40
0.5520703065
 40
0.5876645853
 40
0.6237544597
 40
0.6582426656
 40
0.6897524825
 40
0.7186358544
 40
0.7480985341
 40
0.7803059819
 40
0.8139650616
 40
0.8462584188
 40
0.8756825215
 40
0.9328236198
 40
0.964270229
 40
1.0
 40
1.0
 40
1.0
 40
1.0
 10
190.8134919103
 20
154.84558201
 30
0.0
 10
190.8891013462
 20
154.4745589636
 30
0.0
 10
190.996936948
 20
153.9180845065
 30
0.0
 10
191.1322496475
 20
153.1781986753
 30
0.0
 10
191.2283665858
 20
152.6319127333
 30
0.0
 10
191.32097465
 20
152.0949871866
 30
0.0
 10
191.4053656465
 20
151.5616158913
 30
0.0
 10
191.4672310717
 20
151.017826132
 30
0.0
 10
191.495034519
 20
150.4468463913
 30
0.0
 10
191.4794597784
 20
149.94731907
 30
0.0
 10
191.4424376254
 20
149.527907801
 30
0.0
 10
191.3952473746
 20
149.2073893209
 30
0.0
 10
191.315772274
 20
148.9054750832
 30
0.0
 10
191.1915083536
 20
148.6415806237
 30
0.0
 10
190.9963961195
 20
148.4376081085
 30
0.0
 10
190.7282176991
 20
148.3446625633
 30
0.0
 10
190.4363548737
 20
148.3307513559
 30
0.0
 10
190.1382040061
 20
148.3645544519
 30
0.0
 10
189.8537504795
 20
148.4259191026
 30
0.0
 10
189.5057673773
 20
148.5280887175
 30
0.0
 10
189.1732279365
 20
148.6670379254
 30
0.0
 10
188.8276098056
 20
148.8221457112
 30
0.0
 10
188.6399288977
 20
148.9041111929
 30
0.0
 10
188.5396114764
 20
148.9465115486
 30
0.0
  0
SPLINE
  5
2EA
100
AcDbEntity
  8
0
100
AcDbSpline
 62
7
  6
CONTINUOUS
 70
0
 71
3
 72
31
 73
27
 74
0
 42
0.0000001
 43
0.0000001
 44
0.0000000001
 40
0.0
 40
0.0
 40
0.0
 40
0.0
 40
0.0306232962
 40
0.0616360608
 40
0.0925613122
 40
0.1081543128
 40
0.1239464933
 40
0.155905325
 40
0.187907567
 40
0.2037368737
 40
0.2193489397
 40
0.2347164927
 40
0.2499354874
 40
0.2804864029
 40
0.3117974462
 40
0.3439575293
 40
0.3765958617
 40
0.4090676505
 40
0.4410607747
 40
0.5040802868
 40
0.5665188411
 40
0.6287896454
 40
0.6910305677
 40
0.7532709714
 40
0.8773595026
 40
1.0
 40
1.0
 40
1.0
 40
1.0
 10
188.5396114764
 20
148.9465115486
 30
0.0
 10
188.3123200284
 20
149.0425789927
 30
0.0
 10
187.8613327811
 20
149.2507964564
 30
0.0
 10
187.1745284118
 20
149.5422583817
 30
0.0
 10
186.569611348
 20
149.7133309634
 30
0.0
 10
186.0689910912
 20
149.7656132651
 30
0.0
 10
185.5576559932
 20
149.7582491486
 30
0.0
 10
184.9201383498
 20
149.6448860987
 30
0.0
 10
184.3178719657
 20
149.4066802595
 30
0.0
 10
183.8769572686
 20
149.1462798676
 30
0.0
 10
183.5746194763
 20
148.9193192791
 30
0.0
 10
183.3053699338
 20
148.6608409184
 30
0.0
 10
182.9939897156
 20
148.2777044625
 30
0.0
 10
182.6872139161
 20
147.7320343593
 30
0.0
 10
182.4415400995
 20
147.0121248973
 30
0.0
 10
182.2958019923
 20
146.249520899
 30
0.0
 10
182.2320964147
 20
145.4672175601
 30
0.0
 10
182.2319363357
 20
144.6840474016
 30
0.0
 10
182.3042712149
 20
143.6586193646
 30
0.0
 10
182.5240400085
 20
142.4050157026
 30
0.0
 10
182.9643449558
 20
140.9547577824
 30
0.0
 10
183.5449389233
 20
139.5623231991
 30
0.0
 10
184.2475674042
 20
138.2293823899
 30
0.0
 10
185.3296545824
 20
136.5415046644
 30
0.0
 10
186.9180359903
 20
134.6114097854
 30
0.0
 10
188.3942980691
 20
133.2686670863
 30
0.0
 10
189.1701194635
 20
132.6565465413
 30
0.0
  0
SPLINE
  5
2EB
100
AcDbEntity
  8
0
100
AcDbSpline
 62
7
  6
CONTINUOUS
 70
0
 71
3
 72
15
 73
11
 74
0
 42
0.0000001
 43
0.0000001
 44
0.0000000001
 40
0.0
 40
0.0
 40
0.0
 40
0.0
 40
0.1345274334
 40
0.2622397426
 40
0.3798745387
 40
0.4898422927
 40
0.6026297612
 40
0.7260432342
 40
0.8584593627
 40
1.0
 40
1.0
 40
1.0
 40
1.0
 10
189.1701194635
 20
132.6565465413
 30
0.0
 10
189.1913583978
 20
132.6397890915
 30
0.0
 10
189.2327334289
 20
132.6070383127
 30
0.0
 10
189.2870147983
 20
132.5528719764
 30
0.0
 10
189.3233961746
 20
132.4893106596
 30
0.0
 10
189.3267748692
 20
132.4180389778
 30
0.0
 10
189.2967324816
 20
132.3530595713
 30
0.0
 10
189.2452503194
 20
132.2986447962
 30
0.0
 10
189.1779945674
 20
132.2541686827
 30
0.0
 10
189.1262160859
 20
132.2346197112
 30
0.0
 10
189.0994220487
 20
132.2250132205
 30
0.0
  0
SPLINE
  5
2EC
100
AcDbEntity
  8
0
100
AcDbSpline
 62
7
  6
CONTINUOUS
 70
0
 71
3
 72
21
 73
17
 74
0
 42
0.0000001
 43
0.0000001
 44
0.0000000001
 40
0.0
 40
0.0
 40
0.0
 40
0.0
 40
0.1244139411
 40
0.1870950275
 40
0.2499007822
 40
0.3130560633
 40
0.3770715104
 40
0.4419171534
 40
0.5069432165
 40
0.571711445
 40
0.636183471
 40
0.7002353827
 40
0.7631654376
 40
0.823954638
 40
0.8827971795
 40
1.0
 40
1.0
 40
1.0
 40
1.0
 10
189.0994220487
 20
132.2250132205
 30
0.0
 10
188.8713269338
 20
132.1432340703
 30
0.0
 10
188.5378702161
 20
131.9889402501
 30
0.0
 10
188.1330697847
 20
131.7172766807
 30
0.0
 10
187.8533965681
 20
131.4775119035
 30
0.0
 10
187.6054024266
 20
131.2013470523
 30
0.0
 10
187.3973809958
 20
130.888946591
 30
0.0
 10
187.2356032409
 20
130.5462262508
 30
0.0
 10
187.125985621
 20
130.1818131904
 30
0.0
 10
187.0760129134
 20
129.8048443703
 30
0.0
 10
187.094162194
 20
129.4269184646
 30
0.0
 10
187.1713212284
 20
129.0606926573
 30
0.0
 10
187.2974382785
 20
128.7161707195
 30
0.0
 10
187.4649393325
 20
128.4011843432
 30
0.0
 10
187.7369839612
 20
128.0271227192
 30
0.0
 10
187.9929916458
 20
127.7928446028
 30
0.0
 10
188.1756183993
 20
127.6559008941
 30
0.0
  0
SPLINE
  5
2ED
100
AcDbEntity
  8
0
100
AcDbSpline
 62
7
  6
CONTINUOUS
 70
0
 71
3
 72
21
 73
17
 74
0
 42
0.0000001
 43
0.0000001
 44
0.0000000001
 40
0.0
 40
0.0
 40
0.0
 40
0.0
 40
0.1257536706
 40
0.1871173781
 40
0.2487135878
 40
0.3104489976
 40
0.3720987996
 40
0.4349276156
 40
0.4993753856
 40
0.6309276896
 40
0.6957519119
 40
0.7587118006
 40
0.8200057034
 40
0.8801956257
 40
0.9395538461
 40
1.0
 40
1.0
 40
1.0
 40
1.0
 10
189.6988962674
 20
126.5135946003
 30
0.0
 10
189.431848562
 20
125.9955092561
 30
0.0
 10
189.0936466219
 20
125.1878522982
 30
0.0
 10
188.853999919
 20
124.0569772119
 30
0.0
 10
188.8034092335
 20
123.1986355442
 30
0.0
 10
188.8960767717
 20
122.3422162383
 30
0.0
 10
189.1274910323
 20
121.5072201801
 30
0.0
 10
189.4765364631
 20
120.7019128794
 30
0.0
 10
190.0587266701
 20
119.6516477502
 30
0.0
 10
190.7330835923
 20
118.6473712617
 30
0.0
 10
191.3383173522
 20
117.6079872557
 30
0.0
 10
191.7071205191
 20
116.8106257942
 30
0.0
 10
191.9471589716
 20
115.9856932739
 30
0.0
 10
192.0260381552
 20
115.1455739736
 30
0.0
 10
191.9387782071
 20
114.3110621304
 30
0.0
 10
191.7854443037
 20
113.7745927404
 30
0.0
 10
191.6897784059
 20
113.5112675904
 30
0.0
  0
SPLINE
  5
2EE
100
AcDbEntity
  8
0
100
AcDbSpline
 62
7
  6
CONTINUOUS
 70
0
 71
3
 72
9
 73
5
 74
0
 42
0.0000001
 43
0.0000001
 44
0.0000000001
 40
0.0
 40
0.0
 40
0.0
 40
0.0
 40
0.5009373718
 40
1.0
 40
1.0
 40
1.0
 40
1.0
 10
193.316458456
 20
111.7969873236
 30
0.0
 10
193.4638734983
 20
110.7727814414
 30
0.0
 10
193.6220506233
 20
108.7068391016
 30
0.0
 10
193.5504148979
 20
106.6396224779
 30
0.0
 10
193.4799980321
 20
105.6111425308
 30
0.0
  0
SPLINE
  5
2EF
100
AcDbEntity
  8
0
100
AcDbSpline
 62
7
  6
CONTINUOUS
 70
0
 71
3
 72
10
 73
6
 74
0
 42
0.0000001
 43
0.0000001
 44
0.0000000001
 40
0.0
 40
0.0
 40
0.0
 40
0.0
 40
0.4747929571
 40
0.7240114448
 40
1.0
 40
1.0
 40
1.0
 40
1.0
 10
193.4799980321
 20
105.6111425308
 30
0.0
 10
193.4773828844
 20
105.5729467529
 30
0.0
 10
193.4747101956
 20
105.512893884
 30
0.0
 10
193.506578981
 20
105.4370472127
 30
0.0
 10
193.5367060144
 20
105.4057449386
 30
0.0
 10
193.5545108425
 20
105.3923938872
 30
0.0
  0
SPLINE
  5
2F0
100
AcDbEntity
  8
DTM_AXIS
100
AcDbSpline
 62
7
  6
CONTINUOUS
 70
0
 71
3
 72
8
 73
4
 74
0
 42
0.0000001
 43
0.0000001
 44
0.0000000001
 40
0.0
 40
0.0
 40
0.0
 40
0.0
 40
1.0
 40
1.0
 40
1.0
 40
1.0
 10
234.1521200483
 20
85.7037619441
 30
0.0
 10
234.1544051816
 20
85.7481850605
 30
0.0
 10
234.1440500053
 20
85.7947605512
 30
0.0
 10
234.123144601
 20
85.834023755
 30
0.0
  0
SPLINE
  5
2F1
100
AcDbEntity
  8
DTM_AXIS
100
AcDbSpline
 62
7
  6
CONTINUOUS
 70
0
 71
3
 72
21
 73
17
 74
0
 42
0.0000001
 43
0.0000001
 44
0.0000000001
 40
0.0
 40
0.0
 40
0.0
 40
0.0
 40
0.1445565267
 40
0.2746351415
 40
0.3905953277
 40
0.4914499263
 40
0.5773500771
 40
0.6470997273
 40
0.7021812428
 40
0.7429116417
 40
0.7927970505
 40
0.812452519
 40
0.8351396127
 40
0.8641302277
 40
0.9013940864
 40
1.0
 40
1.0
 40
1.0
 40
1.0
 10
232.8775886907
 20
89.7240662309
 30
0.0
 10
232.7669457539
 20
90.0847313347
 30
0.0
 10
232.5137078799
 20
90.7573328481
 30
0.0
 10
232.0604150705
 20
91.6714960386
 30
0.0
 10
231.6046261775
 20
92.4541598169
 30
0.0
 10
231.1826109707
 20
93.1220298261
 30
0.0
 10
230.8220628636
 20
93.6860646221
 30
0.0
 10
230.5366191063
 20
94.1562044536
 30
0.0
 10
230.3321782724
 20
94.5374142428
 30
0.0
 10
230.17758135
 20
94.8846459431
 30
0.0
 10
230.0952256476
 20
95.1639033789
 30
0.0
 10
230.0815721252
 20
95.4049804974
 30
0.0
 10
230.0960485072
 20
95.5910553107
 30
0.0
 10
230.1409911783
 20
95.8192416594
 30
0.0
 10
230.2659258222
 20
96.2315278886
 30
0.0
 10
230.4153052875
 20
96.555201952
 30
0.0
 10
230.5346888974
 20
96.7831695152
 30
0.0
  0
SPLINE
  5
2F2
100
AcDbEntity
  8
DTM_AXIS
100
AcDbSpline
 62
7
  6
CONTINUOUS
 70
0
 71
3
 72
14
 73
10
 74
0
 42
0.0000001
 43
0.0000001
 44
0.0000000001
 40
0.0
 40
0.0
 40
0.0
 40
0.0
 40
0.1580065333
 40
0.2960425833
 40
0.4142384803
 40
0.5274547842
 40
0.6434526387
 40
0.7613834125
 40
1.0
 40
1.0
 40
1.0
 40
1.0
 10
232.7314687555
 20
123.044135258
 30
0.0
 10
232.7177216624
 20
123.3113622715
 30
0.0
 10
232.674922874
 20
123.8112915302
 30
0.0
 10
232.5775546941
 20
124.5061737824
 30
0.0
 10
232.473005396
 20
125.1230489233
 30
0.0
 10
232.3723342225
 20
125.7027003475
 30
0.0
 10
232.268192514
 20
126.2812909252
 30
0.0
 10
232.1211588771
 20
127.0679131371
 30
0.0
 10
232.0032500314
 20
127.6601390005
 30
0.0
 10
231.9202050495
 20
128.0556052732
 30
0.0
  0
SPLINE
  5
2F3
100
AcDbEntity
  8
DTM_AXIS
100
AcDbSpline
 62
7
  6
CONTINUOUS
 70
0
 71
3
 72
23
 73
19
 74
0
 42
0.0000001
 43
0.0000001
 44
0.0000000001
 40
0.0
 40
0.0
 40
0.0
 40
0.0
 40
0.0384468962
 40
0.0919384009
 40
0.1661259634
 40
0.2079391757
 40
0.2565985006
 40
0.3177832199
 40
0.3971255438
 40
0.5042890856
 40
0.5717185621
 40
0.6446344434
 40
0.7118813315
 40
0.7715371565
 40
0.8235242176
 40
0.8686701308
 40
0.9423810875
 40
1.0
 40
1.0
 40
1.0
 40
1.0
 10
224.2425736174
 20
117.3220715323
 30
0.0
 10
224.3692854711
 20
117.2685152546
 30
0.0
 10
224.6694429972
 20
117.133864462
 30
0.0
 10
225.2143836495
 20
116.8962056815
 30
0.0
 10
225.7888506838
 20
116.6980425372
 30
0.0
 10
226.3601025391
 20
116.5527456955
 30
0.0
 10
226.893739706
 20
116.4518618033
 30
0.0
 10
227.568588532
 20
116.3848582498
 30
0.0
 10
228.457701118
 20
116.4114209417
 30
0.0
 10
229.3525417983
 20
116.6162861737
 30
0.0
 10
230.1626834245
 20
116.9818696221
 30
0.0
 10
230.7838803508
 20
117.3959620729
 30
0.0
 10
231.3083768075
 20
117.8860615535
 30
0.0
 10
231.7090497453
 20
118.3876606488
 30
0.0
 10
232.0036474161
 20
118.8665050758
 30
0.0
 10
232.2683954784
 20
119.4183851801
 30
0.0
 10
232.4729595936
 20
120.0181452726
 30
0.0
 10
232.5725257701
 20
120.4780710099
 30
0.0
 10
232.6076620331
 20
120.6812185177
 30
0.0
  0
SPLINE
  5
2F4
100
AcDbEntity
  8
DTM_AXIS
100
AcDbSpline
 62
7
  6
CONTINUOUS
 70
0
 71
3
 72
13
 73
9
 74
0
 42
0.0000001
 43
0.0000001
 44
0.0000000001
 40
0.0
 40
0.0
 40
0.0
 40
0.0
 40
0.2499353769
 40
0.4998294233
 40
0.6248694963
 40
0.7499569604
 40
0.8750511905
 40
1.0
 40
1.0
 40
1.0
 40
1.0
 10
228.9092111066
 20
107.8561082508
 30
0.0
 10
228.2068649189
 20
108.4102570979
 30
0.0
 10
226.8869092466
 20
109.6302673044
 30
0.0
 10
225.5028521221
 20
111.4023405695
 30
0.0
 10
224.6062184502
 20
112.9543673743
 30
0.0
 10
224.0564285962
 20
114.1826637929
 30
0.0
 10
223.6522115057
 20
115.466985764
 30
0.0
 10
223.5221551402
 20
116.3584343569
 30
0.0
 10
223.5014344124
 20
116.8052038475
 30
0.0
  0
SPLINE
  5
2F5
100
AcDbEntity
  8
DTM_AXIS
100
AcDbSpline
 62
7
  6
CONTINUOUS
 70
0
 71
3
 72
11
 73
7
 74
0
 42
0.0000001
 43
0.0000001
 44
0.0000000001
 40
0.0
 40
0.0
 40
0.0
 40
0.0
 40
0.4467840596
 40
0.7520596364
 40
0.9272166419
 40
1.0
 40
1.0
 40
1.0
 40
1.0
 10
230.4609631908
 20
105.5092566052
 30
0.0
 10
230.3580566963
 20
105.9225809182
 30
0.0
 10
230.0740984154
 20
106.5964819488
 30
0.0
 10
229.5312926637
 20
107.3009997812
 30
0.0
 10
229.1473099981
 20
107.6642192583
 30
0.0
 10
228.9636852724
 20
107.813128312
 30
0.0
 10
228.9092111066
 20
107.8561082508
 30
0.0
  0
SPLINE
  5
2F6
100
AcDbEntity
  8
DTM_AXIS
100
AcDbSpline
 62
7
  6
CONTINUOUS
 70
0
 71
3
 72
9
 73
5
 74
0
 42
0.0000001
 43
0.0000001
 44
0.0000000001
 40
0.0
 40
0.0
 40
0.0
 40
0.0
 40
0.5198971205
 40
1.0
 40
1.0
 40
1.0
 40
1.0
 10
225.724568827
 20
130.0010364693
 30
0.0
 10
225.7389136059
 20
129.9875198472
 30
0.0
 10
225.7658314079
 20
129.9598662976
 30
0.0
 10
225.7805916809
 20
129.9243277987
 30
0.0
 10
225.787004618
 20
129.9072939285
 30
0.0
  0
SPLINE
  5
2F7
100
AcDbEntity
  8
DTM_AXIS
100
AcDbSpline
 62
7
  6
CONTINUOUS
 70
0
 71
3
 72
9
 73
5
 74
0
 42
0.0000001
 43
0.0000001
 44
0.0000000001
 40
0.0
 40
0.0
 40
0.0
 40
0.0
 40
0.4788805903
 40
1.0
 40
1.0
 40
1.0
 40
1.0
 10
226.3644531401
 20
128.2479343034
 30
0.0
 10
226.3713915902
 20
128.2262519302
 30
0.0
 10
226.3879186872
 20
128.1810979542
 30
0.0
 10
226.4209926866
 20
128.1447071041
 30
0.0
 10
226.4408128416
 20
128.1298448499
 30
0.0
  0
SPLINE
  5
2F8
100
AcDbEntity
  8
DTM_AXIS
100
AcDbSpline
 62
7
  6
CONTINUOUS
 70
0
 71
3
 72
32
 73
28
 74
0
 42
0.0000001
 43
0.0000001
 44
0.0000000001
 40
0.0
 40
0.0
 40
0.0
 40
0.0
 40
0.1240028687
 40
0.1860044811
 40
0.2473041562
 40
0.3073737721
 40
0.3660829656
 40
0.4248493072
 40
0.4856055802
 40
0.5505264955
 40
0.5853036178
 40
0.6214351426
 40
0.6568264958
 40
0.6895708186
 40
0.7047449468
 40
0.719279271
 40
0.7335994623
 40
0.748300427
 40
0.7637092131
 40
0.7798403737
 40
0.8133675681
 40
0.8461809562
 40
0.8760055219
 40
0.9042854199
 40
0.9330839212
 40
0.964354862
 40
1.0
 40
1.0
 40
1.0
 40
1.0
 10
228.0076512418
 20
127.2306732411
 30
0.0
 10
228.0881831918
 20
126.8471742096
 30
0.0
 10
228.2027226182
 20
126.2705997195
 30
0.0
 10
228.3458723652
 20
125.5023108711
 30
0.0
 10
228.4480775146
 20
124.9319155411
 30
0.0
 10
228.5451643937
 20
124.371192952
 30
0.0
 10
228.638008841
 20
123.8178415232
 30
0.0
 10
228.7119336569
 20
123.259264301
 30
0.0
 10
228.7532188336
 20
122.6773951931
 30
0.0
 10
228.7491948699
 20
122.1697068777
 30
0.0
 10
228.7192171203
 20
121.7414601453
 30
0.0
 10
228.6813031069
 20
121.4074178744
 30
0.0
 10
228.6149924583
 20
121.0841595216
 30
0.0
 10
228.5221488021
 20
120.8352894622
 30
0.0
 10
228.415929705
 20
120.6680219587
 30
0.0
 10
228.3211757247
 20
120.5648744776
 30
0.0
 10
228.2070081858
 20
120.4857229659
 30
0.0
 10
228.0753499122
 20
120.4340979819
 30
0.0
 10
227.9316123559
 20
120.404989729
 30
0.0
 10
227.7260028253
 20
120.3912349482
 30
0.0
 10
227.4650509468
 20
120.4128362358
 30
0.0
 10
227.1667185516
 20
120.4721684311
 30
0.0
 10
226.8897637276
 20
120.5497308222
 30
0.0
 10
226.6315997616
 20
120.6439729149
 30
0.0
 10
226.3746548597
 20
120.7533213021
 30
0.0
 10
226.0986856302
 20
120.8771133362
 30
0.0
 10
225.9049322884
 20
120.9618619877
 30
0.0
 10
225.8011765614
 20
121.0057155844
 30
0.0
  0
SPLINE
  5
2F9
100
AcDbEntity
  8
DTM_AXIS
100
AcDbSpline
 62
7
  6
CONTINUOUS
 70
0
 71
3
 72
31
 73
27
 74
0
 42
0.0000001
 43
0.0000001
 44
0.0000000001
 40
0.0
 40
0.0
 40
0.0
 40
0.0
 40
0.0306232962
 40
0.0616360608
 40
0.0925613122
 40
0.1081543128
 40
0.1239464933
 40
0.155905325
 40
0.187907567
 40
0.2037368737
 40
0.2193489397
 40
0.2347164927
 40
0.2499354874
 40
0.2804864029
 40
0.3117974462
 40
0.3439575293
 40
0.3765958617
 40
0.4090676505
 40
0.4410607747
 40
0.5040802868
 40
0.5665188411
 40
0.6287896454
 40
0.6910305677
 40
0.7532709714
 40
0.8773595026
 40
1.0
 40
1.0
 40
1.0
 40
1.0
 10
225.8011765614
 20
121.0057155844
 30
0.0
 10
225.5738851134
 20
121.1017830285
 30
0.0
 10
225.1228978661
 20
121.3100004922
 30
0.0
 10
224.4360934968
 20
121.6014624174
 30
0.0
 10
223.831176433
 20
121.7725349992
 30
0.0
 10
223.3305561762
 20
121.8248173009
 30
0.0
 10
222.8192210782
 20
121.8174531844
 30
0.0
 10
222.1817034348
 20
121.7040901345
 30
0.0
 10
221.5794370507
 20
121.4658842953
 30
0.0
 10
221.1385223536
 20
121.2054839034
 30
0.0
 10
220.8361845613
 20
120.9785233149
 30
0.0
 10
220.5669350188
 20
120.7200449542
 30
0.0
 10
220.2555548006
 20
120.3369084983
 30
0.0
 10
219.9487790011
 20
119.7912383951
 30
0.0
 10
219.7031051844
 20
119.0713289331
 30
0.0
 10
219.5573670772
 20
118.3087249348
 30
0.0
 10
219.4936614997
 20
117.5264215959
 30
0.0
 10
219.4935014206
 20
116.7432514374
 30
0.0
 10
219.5658362999
 20
115.7178234004
 30
0.0
 10
219.7856050934
 20
114.4642197384
 30
0.0
 10
220.2259100407
 20
113.0139618182
 30
0.0
 10
220.8065040082
 20
111.6215272349
 30
0.0
 10
221.5091324891
 20
110.2885864257
 30
0.0
 10
222.5912196674
 20
108.6007087002
 30
0.0
 10
224.1796010752
 20
106.6706138212
 30
0.0
 10
225.6558631541
 20
105.3278711221
 30
0.0
 10
226.4316845485
 20
104.7157505771
 30
0.0
  0
SPLINE
  5
2FA
100
AcDbEntity
  8
DTM_AXIS
100
AcDbSpline
 62
7
  6
CONTINUOUS
 70
0
 71
3
 72
15
 73
11
 74
0
 42
0.0000001
 43
0.0000001
 44
0.0000000001
 40
0.0
 40
0.0
 40
0.0
 40
0.0
 40
0.1345274334
 40
0.2622397426
 40
0.3798745387
 40
0.4898422927
 40
0.6026297612
 40
0.7260432342
 40
0.8584593627
 40
1.0
 40
1.0
 40
1.0
 40
1.0
 10
226.4316845485
 20
104.7157505771
 30
0.0
 10
226.4529234828
 20
104.6989931273
 30
0.0
 10
226.4942985139
 20
104.6662423485
 30
0.0
 10
226.5485798833
 20
104.6120760122
 30
0.0
 10
226.5849612596
 20
104.5485146954
 30
0.0
 10
226.5883399542
 20
104.4772430136
 30
0.0
 10
226.5582975666
 20
104.4122636071
 30
0.0
 10
226.5068154044
 20
104.357848832
 30
0.0
 10
226.4395596524
 20
104.3133727185
 30
0.0
 10
226.3877811709
 20
104.293823747
 30
0.0
 10
226.3609871337
 20
104.2842172564
 30
0.0
  0
SPLINE
  5
2FB
100
AcDbEntity
  8
DTM_AXIS
100
AcDbSpline
 62
7
  6
CONTINUOUS
 70
0
 71
3
 72
21
 73
17
 74
0
 42
0.0000001
 43
0.0000001
 44
0.0000000001
 40
0.0
 40
0.0
 40
0.0
 40
0.0
 40
0.1244139415
 40
0.187095028
 40
0.2499007829
 40
0.3130560644
 40
0.377071512
 40
0.4419171553
 40
0.5069432185
 40
0.571711447
 40
0.636183473
 40
0.7002353845
 40
0.7631654384
 40
0.8239546372
 40
0.8827971779
 40
1.0
 40
1.0
 40
1.0
 40
1.0
 10
226.3609871337
 20
104.2842172564
 30
0.0
 10
226.1328920055
 20
104.2024381014
 30
0.0
 10
225.7994352688
 20
104.0481442703
 30
0.0
 10
225.394634818
 20
103.7764806785
 30
0.0
 10
225.1149615909
 20
103.5367158801
 30
0.0
 10
224.8669674439
 20
103.2605510031
 30
0.0
 10
224.6589460151
 20
102.9481505126
 30
0.0
 10
224.4971682692
 20
102.6054301426
 30
0.0
 10
224.387550667
 20
102.2410170536
 30
0.0
 10
224.3375779885
 20
101.8640482078
 30
0.0
 10
224.3557273067
 20
101.4861222833
 30
0.0
 10
224.4328863781
 20
101.1198964651
 30
0.0
 10
224.5590034652
 20
100.7753745249
 30
0.0
 10
224.7265045574
 20
100.4603881537
 30
0.0
 10
224.998549241
 20
100.0863265397
 30
0.0
 10
225.2545569653
 20
99.8520484368
 30
0.0
 10
225.4371837439
 20
99.7151047353
 30
0.0
  0
SPLINE
  5
2FC
100
AcDbEntity
  8
DTM_AXIS
100
AcDbSpline
 62
7
  6
CONTINUOUS
 70
0
 71
3
 72
22
 73
18
 74
0
 42
0.0000001
 43
0.0000001
 44
0.0000000001
 40
0.0
 40
0.0
 40
0.0
 40
0.0
 40
0.1259556492
 40
0.1873390754
 40
0.2488702544
 40
0.3106347505
 40
0.3722418199
 40
0.4349870258
 40
0.4993572218
 40
0.5650040194
 40
0.6308713586
 40
0.6957274846
 40
0.7587214654
 40
0.8200245973
 40
0.8802214879
 40
0.9395684716
 40
1.0
 40
1.0
 40
1.0
 40
1.0
 10
226.9935345266
 20
98.6364526939
 30
0.0
 10
226.7213026598
 20
98.1166155459
 30
0.0
 10
226.374815372
 20
97.3066200216
 30
0.0
 10
226.1232991102
 20
96.1715163289
 30
0.0
 10
226.0638098941
 20
95.3094056779
 30
0.0
 10
226.148562575
 20
94.448017212
 30
0.0
 10
226.3743382728
 20
93.6072297642
 30
0.0
 10
226.7202717443
 20
92.7965915192
 30
0.0
 10
227.1534969234
 20
92.0089343212
 30
0.0
 10
227.6395771004
 20
91.2364068949
 30
0.0
 10
228.1335717345
 20
90.4664209305
 30
0.0
 10
228.5895275966
 20
89.6868954032
 30
0.0
 10
228.9626161759
 20
88.8861834965
 30
0.0
 10
229.2065227108
 20
88.0575164613
 30
0.0
 10
229.2879382167
 20
87.2131928533
 30
0.0
 10
229.2013944062
 20
86.374288298
 30
0.0
 10
229.0474791221
 20
85.835089741
 30
0.0
 10
228.9513434909
 20
85.5704716262
 30
0.0
  0
SPLINE
  5
2FD
100
AcDbEntity
  8
DTM_AXIS
100
AcDbSpline
 62
7
  6
CONTINUOUS
 70
0
 71
3
 72
9
 73
5
 74
0
 42
0.0000001
 43
0.0000001
 44
0.0000000001
 40
0.0
 40
0.0
 40
0.0
 40
0.0
 40
0.5009373718
 40
1.0
 40
1.0
 40
1.0
 40
1.0
 10
230.5780235409
 20
83.8561913594
 30
0.0
 10
230.7254385833
 20
82.8319854772
 30
0.0
 10
230.8836157083
 20
80.7660431374
 30
0.0
 10
230.8119799828
 20
78.6988265137
 30
0.0
 10
230.741563117
 20
77.6703465666
 30
0.0
  0
SPLINE
  5
2FE
100
AcDbEntity
  8
DTM_AXIS
100
AcDbSpline
 62
7
  6
CONTINUOUS
 70
0
 71
3
 72
10
 73
6
 74
0
 42
0.0000001
 43
0.0000001
 44
0.0000000001
 40
0.0
 40
0.0
 40
0.0
 40
0.0
 40
0.4747929726
 40
0.7240114603
 40
1.0
 40
1.0
 40
1.0
 40
1.0
 10
230.741563117
 20
77.6703465666
 30
0.0
 10
230.7389479699
 20
77.6321507966
 30
0.0
 10
230.7362752807
 20
77.5720979421
 30
0.0
 10
230.7681440448
 20
77.4962512845
 30
0.0
 10
230.7982710613
 20
77.4649490109
 30
0.0
 10
230.8160758803
 20
77.4515979584
 30
0.0
  0
SPLINE
  5
2FF
100
AcDbEntity
  8
DTM_AXIS
100
AcDbSpline
 62
7
  6
CONTINUOUS
 70
0
 71
3
 72
8
 73
4
 74
0
 42
0.0000001
 43
0.0000001
 44
0.0000000001
 40
0.0
 40
0.0
 40
0.0
 40
0.0
 40
1.0
 40
1.0
 40
1.0
 40
1.0
 10
235.4908134283
 20
122.5285282838
 30
0.0
 10
235.4730336014
 20
122.5418721222
 30
0.0
 10
235.4508307166
 20
122.5505698861
 30
0.0
 10
235.4287183955
 20
122.5528558259
 30
0.0
  0
SPLINE
  5
300
100
AcDbEntity
  8
DTM_AXIS
100
AcDbSpline
 62
7
  6
CONTINUOUS
 70
0
 71
3
 72
8
 73
4
 74
0
 42
0.0000001
 43
0.0000001
 44
0.0000000001
 40
0.0
 40
0.0
 40
0.0
 40
0.0
 40
1.0
 40
1.0
 40
1.0
 40
1.0
 10
234.5839719103
 20
104.8994801837
 30
0.0
 10
234.5661920834
 20
104.9128240221
 30
0.0
 10
234.5439891986
 20
104.921521786
 30
0.0
 10
234.5218768775
 20
104.9238077258
 30
0.0
  0
SPLINE
  5
301
100
AcDbEntity
  8
DTM_AXIS
100
AcDbSpline
 62
7
  6
CONTINUOUS
 70
0
 71
3
 72
8
 73
4
 74
0
 42
0.0000001
 43
0.0000001
 44
0.0000000001
 40
0.0
 40
0.0
 40
0.0
 40
0.0
 40
1.0
 40
1.0
 40
1.0
 40
1.0
 10
232.9551253618
 20
122.8085722948
 30
0.0
 10
232.9109521515
 20
122.8131388573
 30
0.0
 10
232.8665967705
 20
122.8304947061
 30
0.0
 10
232.8310651598
 20
122.8571335997
 30
0.0
  0
SPLINE
  5
302
100
AcDbEntity
  8
DTM_AXIS
100
AcDbSpline
 62
7
  6
CONTINUOUS
 70
0
 71
3
 72
8
 73
4
 74
0
 42
0.0000001
 43
0.0000001
 44
0.0000000001
 40
0.0
 40
0.0
 40
0.0
 40
0.0
 40
1.0
 40
1.0
 40
1.0
 40
1.0
 10
230.6775474599
 20
105.3212289388
 30
0.0
 10
230.6333778413
 20
105.3257951301
 30
0.0
 10
230.5890238437
 20
105.343145394
 30
0.0
 10
230.5534963553
 20
105.3697837664
 30
0.0
  0
SPLINE
  5
303
100
AcDbEntity
  8
0
100
AcDbSpline
 62
40
  6
CONTINUOUS
 70
0
 71
3
 72
11
 73
7
 74
0
 42
0.0000001
 43
0.0000001
 44
0.0000000001
 40
0.0
 40
0.0
 40
0.0
 40
0.0
 40
0.3450447592
 40
0.5732140083
 40
0.790723498
 40
1.0
 40
1.0
 40
1.0
 40
1.0
 10
189.0994220487
 20
132.2250132205
 30
0.0
 10
188.481670901
 20
132.0035303364
 30
0.0
 10
187.5051413208
 20
131.3711353287
 30
0.0
 10
186.946014812
 20
129.7995081634
 30
0.0
 10
187.3121982238
 20
128.4923902869
 30
0.0
 10
187.823714254
 20
127.9288721811
 30
0.0
 10
188.1266080342
 20
127.6933238157
 30
0.0
  0
LINE
  5
304
100
AcDbEntity
  8
0
100
AcDbLine
 62
40
  6
CONTINUOUS
 10
189.1701194635
 20
132.6565465413
 11
189.2035652404
 21
132.6298212491
  0
SPLINE
  5
305
100
AcDbEntity
  8
0
100
AcDbSpline
 62
40
  6
CONTINUOUS
 70
0
 71
3
 72
13
 73
9
 74
0
 42
0.0000001
 43
0.0000001
 44
0.0000000001
 40
0.0
 40
0.0
 40
0.0
 40
0.0
 40
0.2114348187
 40
0.3547436948
 40
0.4980525709
 40
0.7846703231
 40
0.9279791991
 40
1.0
 40
1.0
 40
1.0
 40
1.0
 10
189.2035652404
 20
132.6298212491
 30
0.0
 10
189.2345382936
 20
132.6044911553
 30
0.0
 10
189.283544861
 20
132.560501079
 30
0.0
 10
189.3239175355
 20
132.4867605479
 30
0.0
 10
189.3275195654
 20
132.3964846956
 30
0.0
 10
189.2696524321
 20
132.3152358909
 30
0.0
 10
189.1915577719
 20
132.262939481
 30
0.0
 10
189.1531079126
 20
132.2456394464
 30
0.0
 10
189.1397999808
 20
132.2402412259
 30
0.0
  0
SPLINE
  5
306
100
AcDbEntity
  8
0
100
AcDbSpline
 62
40
  6
CONTINUOUS
 70
0
 71
3
 72
8
 73
4
 74
0
 42
0.0000001
 43
0.0000001
 44
0.0000000001
 40
0.0
 40
0.0
 40
0.0
 40
0.0
 40
1.0
 40
1.0
 40
1.0
 40
1.0
 10
189.1397999808
 20
132.2402412259
 30
0.0
 10
189.1266274412
 20
132.2348979258
 30
0.0
 10
189.1130753913
 20
132.2299083659
 30
0.0
 10
189.0994220487
 20
132.2250132205
 30
0.0
  0
SPLINE
  5
307
100
AcDbEntity
  8
0
100
AcDbSpline
 62
40
  6
CONTINUOUS
 70
0
 71
3
 72
13
 73
9
 74
0
 42
0.0000001
 43
0.0000001
 44
0.0000000001
 40
0.0
 40
0.0
 40
0.0
 40
0.0
 40
0.1005674679
 40
0.2265218096
 40
0.3904025101
 40
0.5822802225
 40
0.7712045881
 40
1.0
 40
1.0
 40
1.0
 40
1.0
 10
188.5396114764
 20
148.9465115486
 30
0.0
 10
187.8191508342
 20
149.2510228404
 30
0.0
 10
186.1680092414
 20
150.1531615912
 30
0.0
 10
182.7079743711
 20
148.9924577062
 30
0.0
 10
181.9254162007
 20
144.7673724479
 30
0.0
 10
182.943557182
 20
140.4530708341
 30
0.0
 10
185.3934006314
 20
136.1692521077
 30
0.0
 10
187.7637789157
 20
133.766144638
 30
0.0
 10
189.1701194635
 20
132.6565465413
 30
0.0
  0
SPLINE
  5
308
100
AcDbEntity
  8
0
100
AcDbSpline
 62
40
  6
CONTINUOUS
 70
0
 71
3
 72
12
 73
8
 74
0
 42
0.0000001
 43
0.0000001
 44
0.0000000001
 40
0.0
 40
0.0
 40
0.0
 40
0.0
 40
0.2859239389
 40
0.5763938172
 40
0.7206792736
 40
0.8346662005
 40
1.0
 40
1.0
 40
1.0
 40
1.0
 10
190.8135757954
 20
154.8451703703
 30
0.0
 10
190.9858731373
 20
153.999659183
 30
0.0
 10
191.3027285949
 20
152.2526121691
 30
0.0
 10
191.6067720655
 20
150.329872038
 30
0.0
 10
191.2427231637
 20
148.2192844413
 30
0.0
 10
189.6473666758
 20
148.4046502616
 30
0.0
 10
189.1109322799
 20
148.7050359902
 30
0.0
 10
188.5396114764
 20
148.9465115486
 30
0.0
  0
SPLINE
  5
309
100
AcDbEntity
  8
0
100
AcDbSpline
 62
40
  6
CONTINUOUS
 70
0
 71
3
 72
8
 73
4
 74
0
 42
0.0000001
 43
0.0000001
 44
0.0000000001
 40
0.0
 40
0.0
 40
0.0
 40
0.0
 40
1.0
 40
1.0
 40
1.0
 40
1.0
 10
189.1028880551
 20
156.1887302676
 30
0.0
 10
189.1052072203
 20
156.1814829712
 30
0.0
 10
189.1076334649
 20
156.1742394734
 30
0.0
 10
189.1102921423
 20
156.1670449643
 30
0.0
  0
SPLINE
  5
30A
100
AcDbEntity
  8
0
100
AcDbSpline
 62
40
  6
CONTINUOUS
 70
0
 71
3
 72
9
 73
5
 74
0
 42
0.0000001
 43
0.0000001
 44
0.0000000001
 40
0.0
 40
0.0
 40
0.0
 40
0.0
 40
0.6182954129
 40
1.0
 40
1.0
 40
1.0
 40
1.0
 10
189.1102921423
 20
156.1670449643
 30
0.0
 10
189.1182681747
 20
156.1454614369
 30
0.0
 10
189.1346732771
 20
156.1112258308
 30
0.0
 10
189.1650099678
 20
156.0814664285
 30
0.0
 10
189.1781406532
 20
156.0714770072
 30
0.0
  0
SPLINE
  5
30B
100
AcDbEntity
  8
0
100
AcDbSpline
 62
40
  6
CONTINUOUS
 70
0
 71
3
 72
9
 73
5
 74
0
 42
0.0000001
 43
0.0000001
 44
0.0000000001
 40
0.0
 40
0.0
 40
0.0
 40
0.0
 40
0.0688798106
 40
1.0
 40
1.0
 40
1.0
 40
1.0
 10
189.1781406532
 20
156.0714770072
 30
0.0
 10
189.179189594
 20
156.0706790053
 30
0.0
 10
189.1945484225
 20
156.0592179397
 30
0.0
 10
189.2125347284
 20
156.0496833176
 30
0.0
 10
189.2297627303
 20
156.0411422885
 30
0.0
  0
SPLINE
  5
30C
100
AcDbEntity
  8
0
100
AcDbSpline
 62
40
  6
CONTINUOUS
 70
0
 71
3
 72
15
 73
11
 74
0
 42
0.0000001
 43
0.0000001
 44
0.0000000001
 40
0.0
 40
0.0
 40
0.0
 40
0.0
 40
0.25
 40
0.375
 40
0.4375
 40
0.5
 40
0.5625
 40
0.625
 40
0.75
 40
1.0
 40
1.0
 40
1.0
 40
1.0
 10
189.0388270687
 20
156.3868792451
 30
0.0
 10
189.0450971939
 20
156.3675666705
 30
0.0
 10
189.054457299
 20
156.3387333002
 30
0.0
 10
189.0655352112
 20
156.3046201475
 30
0.0
 10
189.0716400331
 20
156.2858043754
 30
0.0
 10
189.0768498077
 20
156.2697956638
 30
0.0
 10
189.0796476563
 20
156.2610357536
 30
0.0
 10
189.0842196654
 20
156.2468266964
 30
0.0
 10
189.0918262073
 20
156.2231463981
 30
0.0
 10
189.0984813486
 20
156.2024425247
 30
0.0
 10
189.1028880543
 20
156.1887302701
 30
0.0
  0
LINE
  5
30D
100
AcDbEntity
  8
0
100
AcDbLine
 62
40
  6
CONTINUOUS
 10
184.8564820427
 20
159.9026219058
 11
184.8625475222
 21
159.89620074
  0
LINE
  5
30E
100
AcDbEntity
  8
0
100
AcDbLine
 62
40
  6
CONTINUOUS
 10
184.8625475223
 20
159.8962007398
 11
184.8688669784
 21
159.8900764036
  0
LINE
  5
30F
100
AcDbEntity
  8
0
100
AcDbLine
 62
40
  6
CONTINUOUS
 10
184.8688669783
 20
159.8900764037
 11
184.8755751641
 21
159.8841304698
  0
LINE
  5
310
100
AcDbEntity
  8
0
100
AcDbLine
 62
40
  6
CONTINUOUS
 10
184.8755751642
 20
159.8841304697
 11
184.883177741
 21
159.8780035035
  0
LINE
  5
311
100
AcDbEntity
  8
0
100
AcDbLine
 62
40
  6
CONTINUOUS
 10
184.1231450675
 20
160.8174050149
 11
184.1223704241
 21
160.8100424549
  0
SPLINE
  5
312
100
AcDbEntity
  8
0
100
AcDbSpline
 62
40
  6
CONTINUOUS
 70
0
 71
3
 72
9
 73
5
 74
0
 42
0.0000001
 43
0.0000001
 44
0.0000000001
 40
0.0
 40
0.0
 40
0.0
 40
0.0
 40
0.5
 40
1.0
 40
1.0
 40
1.0
 40
1.0
 10
184.1223704241
 20
160.8100424547
 30
0.0
 10
184.1218088042
 20
160.7842428318
 30
0.0
 10
184.1243301187
 20
160.7307919732
 30
0.0
 10
184.152842239
 20
160.6855347321
 30
0.0
 10
184.1683156829
 20
160.6644074515
 30
0.0
  0
LINE
  5
313
100
AcDbEntity
  8
0
100
AcDbLine
 62
40
  6
CONTINUOUS
 10
184.1683156826
 20
160.6644074519
 11
184.1731737073
 21
160.6588267119
  0
SPLINE
  5
314
100
AcDbEntity
  8
0
100
AcDbSpline
 62
40
  6
CONTINUOUS
 70
0
 71
3
 72
25
 73
21
 74
0
 42
0.0000001
 43
0.0000001
 44
0.0000000001
 40
0.0
 40
0.0
 40
0.0
 40
0.0
 40
0.125
 40
0.25
 40
0.375
 40
0.5
 40
0.5625
 40
0.625
 40
0.6875
 40
0.75
 40
0.78125
 40
0.7890625
 40
0.796875
 40
0.8125
 40
0.828125
 40
0.84375
 40
0.875
 40
0.90625
 40
0.9375
 40
1.0
 40
1.0
 40
1.0
 40
1.0
 10
184.5077163848
 20
164.8789605012
 30
0.0
 10
184.5042731542
 20
164.8278130563
 30
0.0
 10
184.4974354534
 20
164.7255148691
 30
0.0
 10
184.4868863393
 20
164.5720873728
 30
0.0
 10
184.4760762371
 20
164.4186784189
 30
0.0
 10
184.4665753834
 20
164.2908690646
 30
0.0
 10
184.4590023981
 20
164.1886291267
 30
0.0
 10
184.453213867
 20
164.1119307411
 30
0.0
 10
184.4472045017
 20
164.0353506913
 30
0.0
 10
184.4422207796
 20
163.971215365
 30
0.0
 10
184.4390241136
 20
163.9301006343
 30
0.0
 10
184.437494883
 20
163.9105229248
 30
0.0
 10
184.4366102162
 20
163.8989580123
 30
0.0
 10
184.4345201538
 20
163.8736510082
 30
0.0
 10
184.4321394434
 20
163.8446868206
 30
0.0
 10
184.4289206727
 20
163.8055773916
 30
0.0
 10
184.4249124742
 20
163.7568589029
 30
0.0
 10
184.4200961001
 20
163.6983246567
 30
0.0
 10
184.4136765612
 20
163.6203042793
 30
0.0
 10
184.4088613911
 20
163.5617833072
 30
0.0
 10
184.4056513923
 20
163.5227705901
 30
0.0
  0
SPLINE
  5
315
100
AcDbEntity
  8
0
100
AcDbSpline
 62
40
  6
CONTINUOUS
 70
0
 71
3
 72
15
 73
11
 74
0
 42
0.0000001
 43
0.0000001
 44
0.0000000001
 40
0.0
 40
0.0
 40
0.0
 40
0.0
 40
0.25
 40
0.5
 40
0.625
 40
0.6875
 40
0.75
 40
0.8125
 40
0.875
 40
1.0
 40
1.0
 40
1.0
 40
1.0
 10
184.4056513922
 20
163.5227705885
 30
0.0
 10
184.3967932656
 20
163.4206260686
 30
0.0
 10
184.3791742135
 20
163.2163273699
 30
0.0
 10
184.3555952213
 20
162.9610960993
 30
0.0
 10
184.3388606836
 20
162.782447884
 30
0.0
 10
184.3288751347
 20
162.6804152849
 30
0.0
 10
184.3214381564
 20
162.6038521683
 30
0.0
 10
184.3140039222
 20
162.5274176732
 30
0.0
 10
184.3024256467
 20
162.4136739912
 30
0.0
 10
184.2941167818
 20
162.3310282095
 30
0.0
 10
184.2884942404
 20
162.2753394707
 30
0.0
  0
SPLINE
  5
316
100
AcDbEntity
  8
0
100
AcDbSpline
 62
40
  6
CONTINUOUS
 70
0
 71
3
 72
17
 73
13
 74
0
 42
0.0000001
 43
0.0000001
 44
0.0000000001
 40
0.0
 40
0.0
 40
0.0
 40
0.0
 40
0.25
 40
0.375
 40
0.4375
 40
0.46875
 40
0.5
 40
0.53125
 40
0.5625
 40
0.625
 40
0.75
 40
1.0
 40
1.0
 40
1.0
 40
1.0
 10
184.2774443876
 20
162.1687386124
 30
0.0
 10
184.2731137645
 20
162.1279561635
 30
0.0
 10
184.266609262
 20
162.0666942139
 30
0.0
 10
184.2590506635
 20
161.9955309064
 30
0.0
 10
184.2552338794
 20
161.9595630438
 30
0.0
 10
184.2531128358
 20
161.9396279136
 30
0.0
 10
184.2513528356
 20
161.922933109
 30
0.0
 10
184.2502397172
 20
161.912903165
 30
0.0
 10
184.2485299361
 20
161.8972052971
 30
0.0
 10
184.2456427769
 20
161.8708154128
 30
0.0
 10
184.2397934886
 20
161.8172632268
 30
0.0
 10
184.2348055169
 20
161.7716261819
 30
0.0
 10
184.2314744905
 20
161.7411426345
 30
0.0
  0
SPLINE
  5
317
100
AcDbEntity
  8
0
100
AcDbSpline
 62
40
  6
CONTINUOUS
 70
0
 71
3
 72
21
 73
17
 74
0
 42
0.0000001
 43
0.0000001
 44
0.0000000001
 40
0.0
 40
0.0
 40
0.0
 40
0.0
 40
0.125
 40
0.25
 40
0.4375
 40
0.53125
 40
0.625
 40
0.671875
 40
0.71875
 40
0.7421875
 40
0.75390625
 40
0.765625
 40
0.7890625
 40
0.8125
 40
0.90625
 40
1.0
 40
1.0
 40
1.0
 40
1.0
 10
184.2289119599
 20
161.7180067989
 30
0.0
 10
184.2243192439
 20
161.6772528426
 30
0.0
 10
184.2151063119
 20
161.5957485294
 30
0.0
 10
184.1991761819
 20
161.4530907851
 30
0.0
 10
184.1836018828
 20
161.3207252388
 30
0.0
 10
184.1693480011
 20
161.1984927141
 30
0.0
 10
184.1601417726
 20
161.1222113852
 30
0.0
 10
184.1528207461
 20
161.0609999657
 30
0.0
 10
184.1482839898
 20
161.0231517197
 30
0.0
 10
184.1450169859
 20
160.9958400416
 30
0.0
 10
184.1432949315
 20
160.9815128255
 30
0.0
 10
184.1421188201
 20
160.9720046206
 30
0.0
 10
184.1404620712
 20
160.9584721704
 30
0.0
 10
184.1366394976
 20
160.9273503203
 30
0.0
 10
184.1308405948
 20
160.8800934193
 30
0.0
 10
184.1257124444
 20
160.8383205807
 30
0.0
 10
184.1231450655
 20
160.8174049995
 30
0.0
  0
LINE
  5
318
100
AcDbEntity
  8
0
100
AcDbLine
 62
40
  6
CONTINUOUS
 10
185.0107807244
 20
165.3464769576
 11
185.0320620666
 21
165.3458527138
  0
SPLINE
  5
319
100
AcDbEntity
  8
0
100
AcDbSpline
 62
40
  6
CONTINUOUS
 70
0
 71
3
 72
29
 73
25
 74
0
 42
0.0000001
 43
0.0000001
 44
0.0000000001
 40
0.0
 40
0.0
 40
0.0
 40
0.0
 40
0.0625
 40
0.125
 40
0.140625
 40
0.15625
 40
0.1875
 40
0.25
 40
0.28125
 40
0.3125
 40
0.375
 40
0.4375
 40
0.5
 40
0.5625
 40
0.625
 40
0.6875
 40
0.71875
 40
0.75
 40
0.8125
 40
0.84375
 40
0.859375
 40
0.875
 40
0.9375
 40
1.0
 40
1.0
 40
1.0
 40
1.0
 10
184.5095620314
 20
164.9001776694
 30
0.0
 10
184.5127800669
 20
164.9150756278
 30
0.0
 10
184.5189527627
 20
164.9449581007
 30
0.0
 10
184.5270822334
 20
164.97818638
 30
0.0
 10
184.5307734815
 20
165.0009065911
 30
0.0
 10
184.5373166274
 20
165.014711778
 30
0.0
 10
184.5479623606
 20
165.039163703
 30
0.0
 10
184.5611812934
 20
165.0665737978
 30
0.0
 10
184.572162824
 20
165.0952540962
 30
0.0
 10
184.5906907895
 20
165.1195668635
 30
0.0
 10
184.613142994
 20
165.150267878
 30
0.0
 10
184.6392423662
 20
165.1880576365
 30
0.0
 10
184.6759152919
 20
165.2160597087
 30
0.0
 10
184.7075456192
 20
165.2492793875
 30
0.0
 10
184.7487727867
 20
165.2714163265
 30
0.0
 10
184.7822949522
 20
165.2905753503
 30
0.0
 10
184.8090107519
 20
165.3065478715
 30
0.0
 10
184.8386337576
 20
165.3141123273
 30
0.0
 10
184.8674073266
 20
165.3241615024
 30
0.0
 10
184.892906117
 20
165.3319499354
 30
0.0
 10
184.9073497142
 20
165.3368802722
 30
0.0
 10
184.9305988024
 20
165.3379580228
 30
0.0
 10
184.9648019197
 20
165.3422495046
 30
0.0
 10
184.9954771539
 20
165.3449772295
 30
0.0
 10
185.0107807131
 20
165.3464769577
 30
0.0
  0
LINE
  5
31A
100
AcDbEntity
  8
0
100
AcDbLine
 62
40
  6
CONTINUOUS
 10
184.5077163848
 20
164.8789605012
 11
184.5095620314
 21
164.9001776694
  0
SPLINE
  5
31B
100
AcDbEntity
  8
0
100
AcDbSpline
 62
40
  6
CONTINUOUS
 70
0
 71
3
 72
14
 73
10
 74
0
 42
0.0000001
 43
0.0000001
 44
0.0000000001
 40
0.0
 40
0.0
 40
0.0
 40
0.0
 40
0.25
 40
0.375
 40
0.5
 40
0.625
 40
0.75
 40
0.875
 40
1.0
 40
1.0
 40
1.0
 40
1.0
 10
193.1879356302
 20
112.1625523458
 30
0.0
 10
193.2022415171
 20
112.1365864462
 30
0.0
 10
193.223567137
 20
112.0976707175
 30
0.0
 10
193.247837822
 20
112.0432381928
 30
0.0
 10
193.2663852821
 20
111.9981181721
 30
0.0
 10
193.2795971641
 20
111.9573746275
 30
0.0
 10
193.2926452329
 20
111.9123339953
 30
0.0
 10
193.3039748595
 20
111.8668665518
 30
0.0
 10
193.3094624112
 20
111.8372912929
 30
0.0
 10
193.3124643786
 20
111.8224116172
 30
0.0
  0
LINE
  5
31C
100
AcDbEntity
  8
0
100
AcDbLine
 62
40
  6
CONTINUOUS
 10
193.3124643789
 20
111.8224116154
 11
193.3164584559
 21
111.7969873241
  0
SPLINE
  5
31D
100
AcDbEntity
  8
0
100
AcDbSpline
 62
40
  6
CONTINUOUS
 70
0
 71
3
 72
15
 73
11
 74
0
 42
0.0000001
 43
0.0000001
 44
0.0000000001
 40
0.0
 40
0.0
 40
0.0
 40
0.0
 40
0.375
 40
0.5625
 40
0.65625
 40
0.703125
 40
0.75
 40
0.8125
 40
0.875
 40
1.0
 40
1.0
 40
1.0
 40
1.0
 10
191.7691197614
 20
113.2303149646
 30
0.0
 10
191.7800418905
 20
113.2216695434
 30
0.0
 10
191.7963851933
 20
113.2087422155
 30
0.0
 10
191.8156711013
 20
113.193617822
 30
0.0
 10
191.8251393581
 20
113.1862342799
 30
0.0
 10
191.8308630274
 20
113.181772394
 30
0.0
 10
191.8346440884
 20
113.1788065033
 30
0.0
 10
191.8436550684
 20
113.1718550226
 30
0.0
 10
191.8546394874
 20
113.1633575581
 30
0.0
 10
191.8633553554
 20
113.1566213593
 30
0.0
 10
191.8690598111
 20
113.152211249
 30
0.0
  0
LINE
  5
31E
100
AcDbEntity
  8
0
100
AcDbLine
 62
40
  6
CONTINUOUS
 10
191.6897784059
 20
113.5112675904
 11
191.6869456488
 21
113.5030256792
  0
SPLINE
  5
31F
100
AcDbEntity
  8
0
100
AcDbSpline
 62
40
  6
CONTINUOUS
 70
0
 71
3
 72
21
 73
17
 74
0
 42
0.0000001
 43
0.0000001
 44
0.0000000001
 40
0.0
 40
0.0
 40
0.0
 40
0.0
 40
0.125
 40
0.1875
 40
0.25
 40
0.3125
 40
0.375
 40
0.4375
 40
0.5
 40
0.5625
 40
0.625
 40
0.6875
 40
0.75
 40
0.8125
 40
0.875
 40
1.0
 40
1.0
 40
1.0
 40
1.0
 10
191.6869456487
 20
113.503025679
 30
0.0
 10
191.6843322988
 20
113.4911128181
 30
0.0
 10
191.680088925
 20
113.4732863029
 30
0.0
 10
191.6757244889
 20
113.4493465115
 30
0.0
 10
191.6763058518
 20
113.4309823764
 30
0.0
 10
191.6749981154
 20
113.4126668542
 30
0.0
 10
191.6773920866
 20
113.3945661721
 30
0.0
 10
191.6811019618
 20
113.3766697205
 30
0.0
 10
191.6829633313
 20
113.3582976085
 30
0.0
 10
191.6909028194
 20
113.3416239077
 30
0.0
 10
191.6970014756
 20
113.3244164465
 30
0.0
 10
191.7043853406
 20
113.3076456155
 30
0.0
 10
191.7152431343
 20
113.2923742106
 30
0.0
 10
191.7244678687
 20
113.2760928439
 30
0.0
 10
191.7408452597
 20
113.2577715826
 30
0.0
 10
191.7538755626
 20
113.2447091165
 30
0.0
 10
191.7623963736
 20
113.2358500325
 30
0.0
  0
LINE
  5
320
100
AcDbEntity
  8
0
100
AcDbLine
 62
40
  6
CONTINUOUS
 10
191.7623963674
 20
113.2358500378
 11
191.7691197612
 21
113.2303149648
  0
SPLINE
  5
321
100
AcDbEntity
  8
0
100
AcDbSpline
 62
40
  6
CONTINUOUS
 70
0
 71
3
 72
19
 73
15
 74
0
 42
0.0000001
 43
0.0000001
 44
0.0000000001
 40
0.0
 40
0.0
 40
0.0
 40
0.0
 40
0.1224583511
 40
0.2499990224
 40
0.2818841903
 40
0.3137693581
 40
0.3775396937
 40
0.5050803651
 40
0.6326210364
 40
0.7601617077
 40
0.8239320434
 40
0.8558172112
 40
0.887702379
 40
1.0
 40
1.0
 40
1.0
 40
1.0
 10
189.6987803477
 20
126.5133697041
 30
0.0
 10
189.4341818251
 20
126.0000067468
 30
0.0
 10
188.9910976372
 20
124.9375899497
 30
0.0
 10
188.7958218654
 20
123.687690691
 30
0.0
 10
188.8446601046
 20
122.8169727539
 30
0.0
 10
188.9247465001
 20
122.2495422458
 30
0.0
 10
189.18422016
 20
121.2784257091
 30
0.0
 10
189.8583363434
 20
119.9520075608
 30
0.0
 10
190.896379433
 20
118.4051629994
 30
0.0
 10
191.6254025062
 20
117.0894877573
 30
0.0
 10
191.9058085434
 20
116.1297142792
 30
0.0
 10
191.9868015609
 20
115.5670537313
 30
0.0
 10
192.0208436737
 20
114.7988965068
 30
0.0
 10
191.9104317101
 20
114.1805761987
 30
0.0
 10
191.7562744156
 20
113.7047334449
 30
0.0
  0
SPLINE
  5
322
100
AcDbEntity
  8
0
100
AcDbSpline
 62
40
  6
CONTINUOUS
 70
0
 71
3
 72
9
 73
5
 74
0
 42
0.0000001
 43
0.0000001
 44
0.0000000001
 40
0.0
 40
0.0
 40
0.0
 40
0.0
 40
0.5131134475
 40
1.0
 40
1.0
 40
1.0
 40
1.0
 10
193.4876218864
 20
105.486851895
 30
0.0
 10
193.4930062469
 20
105.4692957503
 30
0.0
 10
193.5082974197
 20
105.4358324899
 30
0.0
 10
193.5366508297
 20
105.4059880177
 30
0.0
 10
193.5532848793
 20
105.3933203288
 30
0.0
  0
SPLINE
  5
323
100
AcDbEntity
  8
0
100
AcDbSpline
 62
40
  6
CONTINUOUS
 70
0
 71
3
 72
9
 73
5
 74
0
 42
0.0000001
 43
0.0000001
 44
0.0000000001
 40
0.0
 40
0.0
 40
0.0
 40
0.0
 40
0.4753742638
 40
1.0
 40
1.0
 40
1.0
 40
1.0
 10
193.3563848641
 20
111.5068054
 30
0.0
 10
193.4789801806
 20
110.573027676
 30
0.0
 10
193.6184217274
 20
108.6051323911
 30
0.0
 10
193.5504309688
 20
106.6398572034
 30
0.0
 10
193.4799980321
 20
105.6111425308
 30
0.0
  0
SPLINE
  5
324
100
AcDbEntity
  8
DTM_AXIS
100
AcDbSpline
 62
7
  6
CONTINUOUS
 70
0
 71
3
 72
9
 73
5
 74
0
 42
0.0000001
 43
0.0000001
 44
0.0000000001
 40
0.0
 40
0.0
 40
0.0
 40
0.0
 40
0.5
 40
1.0
 40
1.0
 40
1.0
 40
1.0
 10
61.6015326427
 20
151.3694709268
 30
0.0
 10
61.632654779
 20
151.3430126836
 30
0.0
 10
61.6911320242
 20
151.2872461057
 30
0.0
 10
61.7216153711
 20
151.2213428421
 30
0.0
 10
61.7359468001
 20
151.1884999221
 30
0.0
  0
SPLINE
  5
325
100
AcDbEntity
  8
DTM_AXIS
100
AcDbSpline
 62
7
  6
CONTINUOUS
 70
0
 71
3
 72
10
 73
6
 74
0
 42
0.0000001
 43
0.0000001
 44
0.0000000001
 40
0.0
 40
0.0
 40
0.0
 40
0.0
 40
0.5
 40
0.75
 40
1.0
 40
1.0
 40
1.0
 40
1.0
 10
63.0605572338
 20
147.9316530966
 30
0.0
 10
63.0820766926
 20
147.8746734847
 30
0.0
 10
63.1201317571
 20
147.7895682176
 30
0.0
 10
63.2257350323
 20
147.6970641224
 30
0.0
 10
63.2939791848
 20
147.6649464141
 30
0.0
 10
63.3292871802
 20
147.6496262453
 30
0.0
  0
SPLINE
  5
326
100
AcDbEntity
  8
DTM_AXIS
100
AcDbSpline
 62
7
  6
CONTINUOUS
 70
0
 71
3
 72
12
 73
8
 74
0
 42
0.0000001
 43
0.0000001
 44
0.0000000001
 40
0.0
 40
0.0
 40
0.0
 40
0.0
 40
0.3113475184
 40
0.5914756636
 40
0.7306240583
 40
0.8405526561
 40
1.0
 40
1.0
 40
1.0
 40
1.0
 10
66.4490460406
 20
146.0655948546
 30
0.0
 10
66.9439067789
 20
144.1933651659
 30
0.0
 10
67.8203031978
 20
140.4854422038
 30
0.0
 10
68.6668452809
 20
136.4794807298
 30
0.0
 10
68.1562717947
 20
132.2257756046
 30
0.0
 10
64.9489148709
 20
132.4345943429
 30
0.0
 10
63.845976722
 20
132.9804345549
 30
0.0
 10
62.6793746236
 20
133.405042994
 30
0.0
  0
SPLINE
  5
327
100
AcDbEntity
  8
DTM_AXIS
100
AcDbSpline
 62
7
  6
CONTINUOUS
 70
0
 71
3
 72
13
 73
9
 74
0
 42
0.0000001
 43
0.0000001
 44
0.0000000001
 40
0.0
 40
0.0
 40
0.0
 40
0.0
 40
0.1005674679
 40
0.2265218096
 40
0.3904025101
 40
0.5822802225
 40
0.7712045881
 40
1.0
 40
1.0
 40
1.0
 40
1.0
 10
62.6793746236
 20
133.405042994
 30
0.0
 10
61.2082381064
 20
133.9404928967
 30
0.0
 10
57.8157092003
 20
135.5757384389
 30
0.0
 10
51.0201943197
 20
132.9063778618
 30
0.0
 10
49.8906109216
 20
124.3856412995
 30
0.0
 10
52.3688748869
 20
115.8689789368
 30
0.0
 10
57.7052453699
 20
107.5581821114
 30
0.0
 10
62.6894636721
 20
102.9969028528
 30
0.0
 10
65.6140879807
 20
100.9223777751
 30
0.0
  0
SPLINE
  5
328
100
AcDbEntity
  8
DTM_AXIS
100
AcDbSpline
 62
7
  6
CONTINUOUS
 70
0
 71
3
 72
13
 73
9
 74
0
 42
0.0000001
 43
0.0000001
 44
0.0000000001
 40
0.0
 40
0.0
 40
0.0
 40
0.0
 40
0.25
 40
0.375
 40
0.5
 40
0.75
 40
0.875
 40
1.0
 40
1.0
 40
1.0
 40
1.0
 10
65.6140879807
 20
100.9223777751
 30
0.0
 10
65.7028857899
 20
100.8593907852
 30
0.0
 10
65.8373384615
 20
100.7635451539
 30
0.0
 10
65.9388986876
 20
100.5987363293
 30
0.0
 10
65.9554078656
 20
100.418711844
 30
0.0
 10
65.8479619713
 20
100.2505854466
 30
0.0
 10
65.6762140764
 20
100.1220939738
 30
0.0
 10
65.5710036892
 20
100.0754784235
 30
0.0
 10
65.5171627896
 20
100.0530383479
 30
0.0
  0
SPLINE
  5
329
100
AcDbEntity
  8
DTM_AXIS
100
AcDbSpline
 62
7
  6
CONTINUOUS
 70
0
 71
3
 72
11
 73
7
 74
0
 42
0.0000001
 43
0.0000001
 44
0.0000000001
 40
0.0
 40
0.0
 40
0.0
 40
0.0
 40
0.2684385564
 40
0.4459500884
 40
0.6151685212
 40
1.0
 40
1.0
 40
1.0
 40
1.0
 10
65.5171627896
 20
100.0530383479
 30
0.0
 10
64.3053635342
 20
99.5479786782
 30
0.0
 10
62.418792711
 20
98.185610971
 30
0.0
 10
61.4629524318
 20
94.9889688956
 30
0.0
 10
62.7065561964
 20
91.292740925
 30
0.0
 10
65.0845043966
 20
90.1738294278
 30
0.0
 10
67.1101792079
 20
89.4365440921
 30
0.0
  0
SPLINE
  5
32A
100
AcDbEntity
  8
DTM_AXIS
100
AcDbSpline
 62
7
  6
CONTINUOUS
 70
0
 71
3
 72
19
 73
15
 74
0
 42
0.0000001
 43
0.0000001
 44
0.0000000001
 40
0.0
 40
0.0
 40
0.0
 40
0.0
 40
0.125
 40
0.25
 40
0.28125
 40
0.3125
 40
0.375
 40
0.5
 40
0.625
 40
0.75
 40
0.8125
 40
0.84375
 40
0.875
 40
1.0
 40
1.0
 40
1.0
 40
1.0
 10
67.3619060394
 20
88.8331441658
 30
0.0
 10
66.8579029537
 20
87.7378707008
 30
0.0
 10
66.0545669536
 20
85.5275209464
 30
0.0
 10
65.7880801694
 20
82.9651728132
 30
0.0
 10
65.9751951052
 20
81.2304661054
 30
0.0
 10
66.1935800981
 20
80.1048786517
 30
0.0
 10
66.8119684304
 20
78.190910077
 30
0.0
 10
68.295540724
 20
75.6090510145
 30
0.0
 10
70.5290772229
 20
72.6236391458
 30
0.0
 10
72.1212753964
 20
70.0688038393
 30
0.0
 10
72.7803316684
 20
68.1796164478
 30
0.0
 10
73.0000366724
 20
67.063652693
 30
0.0
 10
73.1597740362
 20
65.3997766944
 30
0.0
 10
72.9535528059
 20
64.0224283683
 30
0.0
 10
72.6177805855
 20
62.9262231309
 30
0.0
  0
SPLINE
  5
32B
100
AcDbEntity
  8
DTM_AXIS
100
AcDbSpline
 62
7
  6
CONTINUOUS
 70
0
 71
3
 72
9
 73
5
 74
0
 42
0.0000001
 43
0.0000001
 44
0.0000000001
 40
0.0
 40
0.0
 40
0.0
 40
0.0
 40
0.5
 40
1.0
 40
1.0
 40
1.0
 40
1.0
 10
76.0449136477
 20
59.6658841878
 30
0.0
 10
76.447130855
 20
57.6227200982
 30
0.0
 10
76.9732677189
 20
53.5130597296
 30
0.0
 10
77.0426712782
 20
49.385895791
 30
0.0
 10
77.0076664367
 20
47.3234457735
 30
0.0
  0
SPLINE
  5
32C
100
AcDbEntity
  8
DTM_AXIS
100
AcDbSpline
 62
7
  6
CONTINUOUS
 70
0
 71
3
 72
12
 73
8
 74
0
 42
0.0000001
 43
0.0000001
 44
0.0000000001
 40
0.0
 40
0.0
 40
0.0
 40
0.0
 40
0.25
 40
0.5
 40
0.75
 40
0.875
 40
1.0
 40
1.0
 40
1.0
 40
1.0
 10
77.0076664367
 20
47.3234457735
 30
0.0
 10
77.0066574167
 20
47.2639953305
 30
0.0
 10
77.0057593709
 20
47.1451889245
 30
0.0
 10
77.0711870085
 20
46.9704407322
 30
0.0
 10
77.2193324671
 20
46.855562102
 30
0.0
 10
77.3814957028
 20
46.8159903581
 30
0.0
 10
77.4655113399
 20
46.8149607677
 30
0.0
 10
77.5075944362
 20
46.8149607677
 30
0.0
  0
SPLINE
  5
32D
100
AcDbEntity
  8
DTM_AXIS
100
AcDbSpline
 62
7
  6
CONTINUOUS
 70
0
 71
3
 72
35
 73
31
 74
0
 42
0.0000001
 43
0.0000001
 44
0.0000000001
 40
0.0
 40
0.0
 40
0.0
 40
0.0
 40
0.0319153939
 40
0.0520838231
 40
0.0722522524
 40
0.112589111
 40
0.1529259696
 40
0.1730943989
 40
0.1932628282
 40
0.2134312575
 40
0.2335996868
 40
0.2739365454
 40
0.314273404
 40
0.3546102626
 40
0.3747786919
 40
0.3949471212
 40
0.4352839797
 40
0.4756208383
 40
0.4957892676
 40
0.5159576969
 40
0.5562945555
 40
0.5966314141
 40
0.6369682727
 40
0.6773051313
 40
0.7579788485
 40
0.7983157071
 40
0.8386525656
 40
0.8789894242
 40
0.9193262828
 40
1.0
 40
1.0
 40
1.0
 40
1.0
 10
80.0373342903
 20
71.6224287317
 30
0.0
 10
79.9002126114
 20
71.9991674481
 30
0.0
 10
79.6607351211
 20
72.5944367808
 30
0.0
 10
79.2995676802
 20
73.3812125221
 30
0.0
 10
78.8837548149
 20
74.2108023071
 30
0.0
 10
78.3467680067
 20
75.1691678633
 30
0.0
 10
77.8070525047
 20
76.0350903193
 30
0.0
 10
77.3833305162
 20
76.6788645304
 30
0.0
 10
77.0692406945
 20
77.1417534188
 30
0.0
 10
76.7696890976
 20
77.5734167626
 30
0.0
 10
76.382372262
 20
78.1235309515
 30
0.0
 10
75.9293305609
 20
78.7590276254
 30
0.0
 10
75.4462355175
 20
79.4435753798
 30
0.0
 10
75.1024503246
 20
79.9489759571
 30
0.0
 10
74.868622985
 20
80.3093157502
 30
0.0
 10
74.6546648813
 20
80.651965401
 30
0.0
 10
74.4292037456
 20
81.039668992
 30
0.0
 10
74.2596158086
 20
81.3685160001
 30
0.0
 10
74.1553451417
 20
81.5943475861
 30
0.0
 10
74.0726860709
 20
81.7897629264
 30
0.0
 10
73.9922578185
 20
82.0135399729
 30
0.0
 10
73.9324005392
 20
82.2311527
 30
0.0
 10
73.8949522272
 20
82.4258425785
 30
0.0
 10
73.867084821
 20
82.6833367713
 30
0.0
 10
73.8690806713
 20
82.9785780712
 30
0.0
 10
73.9170848664
 20
83.3582883164
 30
0.0
 10
73.9832888964
 20
83.6940687426
 30
0.0
 10
74.0844549765
 20
84.0794460975
 30
0.0
 10
74.2684187367
 20
84.6474517057
 30
0.0
 10
74.4675990038
 20
85.1373478474
 30
0.0
 10
74.6293829655
 20
85.488928394
 30
0.0
  0
SPLINE
  5
32E
100
AcDbEntity
  8
DTM_AXIS
100
AcDbSpline
 62
7
  6
CONTINUOUS
 70
0
 71
3
 72
21
 73
17
 74
0
 42
0.0000001
 43
0.0000001
 44
0.0000000001
 40
0.0
 40
0.0
 40
0.0
 40
0.0
 40
0.0247206023
 40
0.0653572438
 40
0.1059938854
 40
0.1872671685
 40
0.2685404517
 40
0.3091770933
 40
0.3294954141
 40
0.3498137348
 40
0.3904503764
 40
0.431087018
 40
0.5123603011
 40
0.6749068674
 40
0.8374534337
 40
1.0
 40
1.0
 40
1.0
 40
1.0
 10
73.5849786159
 20
102.9157329784
 30
0.0
 10
73.5561537764
 20
103.010447459
 30
0.0
 10
73.4757721683
 20
103.2586792333
 30
0.0
 10
73.3311978947
 20
103.6416951717
 30
0.0
 10
73.094425873
 20
104.1780903181
 30
0.0
 10
72.7772547238
 20
104.7666040323
 30
0.0
 10
72.4498653472
 20
105.2623772813
 30
0.0
 10
72.2191679244
 20
105.5710618672
 30
0.0
 10
72.0877318322
 20
105.7370332975
 30
0.0
 10
71.9545390818
 20
105.8988493711
 30
0.0
 10
71.8007898561
 20
106.075611185
 30
0.0
 10
71.5608949351
 20
106.334634753
 30
0.0
 10
71.1758087927
 20
106.7136248013
 30
0.0
 10
70.7321252262
 20
107.0874333111
 30
0.0
 10
70.3827587758
 20
107.3485967029
 30
0.0
 10
70.2691661924
 20
107.4286294648
 30
0.0
 10
70.2425582161
 20
107.4475033126
 30
0.0
  0
SPLINE
  5
32F
100
AcDbEntity
  8
DTM_AXIS
100
AcDbSpline
 62
7
  6
CONTINUOUS
 70
0
 71
3
 72
14
 73
10
 74
0
 42
0.0000001
 43
0.0000001
 44
0.0000000001
 40
0.0
 40
0.0
 40
0.0
 40
0.0
 40
0.2044062866
 40
0.4090100282
 40
0.574744751
 40
0.735622136
 40
0.8884755497
 40
0.9601294792
 40
1.0
 40
1.0
 40
1.0
 40
1.0
 10
70.2425582161
 20
107.4475033126
 30
0.0
 10
69.0479783903
 20
108.2948551583
 30
0.0
 10
66.7637160175
 20
110.1457464513
 30
0.0
 10
63.9207949113
 20
113.1422266955
 30
0.0
 10
61.6732053633
 20
116.2261338101
 30
0.0
 10
60.0198096075
 20
119.2479098991
 30
0.0
 10
59.0452798348
 20
121.8471659906
 30
0.0
 10
58.6458339551
 20
123.7019335333
 30
0.0
 10
58.5430900499
 20
124.4953223559
 30
0.0
 10
58.5151909909
 20
124.7797855956
 30
0.0
  0
SPLINE
  5
330
100
AcDbEntity
  8
DTM_AXIS
100
AcDbSpline
 62
7
  6
CONTINUOUS
 70
0
 71
3
 72
36
 73
32
 74
0
 42
0.0000001
 43
0.0000001
 44
0.0000000001
 40
0.0
 40
0.0
 40
0.0
 40
0.0
 40
0.1075022127
 40
0.161253319
 40
0.2150044254
 40
0.2687555317
 40
0.3225066381
 40
0.3762577444
 40
0.4031332976
 40
0.4300088507
 40
0.4485378008
 40
0.4670667509
 40
0.504124651
 40
0.5411825511
 40
0.5782404513
 40
0.6152983514
 40
0.6523562515
 40
0.6708852016
 40
0.6894141517
 40
0.7079431017
 40
0.7172075768
 40
0.7264720518
 40
0.7381990897
 40
0.7499261276
 40
0.7733802033
 40
0.796834279
 40
0.8202883548
 40
0.8671965063
 40
0.9141046577
 40
0.9610128092
 40
1.0
 40
1.0
 40
1.0
 40
1.0
 10
59.9432134769
 20
125.8875020277
 30
0.0
 10
60.1538034036
 20
125.8108535628
 30
0.0
 10
60.460191203
 20
125.6934239181
 30
0.0
 10
60.9710145621
 20
125.4963430339
 30
0.0
 10
61.4309773004
 20
125.3243679722
 30
0.0
 10
61.9822916961
 20
125.1328446116
 30
0.0
 10
62.6236207671
 20
124.9356788987
 30
0.0
 10
63.2173961172
 20
124.7823649522
 30
0.0
 10
63.7164592196
 20
124.6736717168
 30
0.0
 10
64.0559344787
 20
124.6085600629
 30
0.0
 10
64.3692565183
 20
124.5552307816
 30
0.0
 10
64.7622948298
 20
124.4959695046
 30
0.0
 10
65.3044776441
 20
124.4311081212
 30
0.0
 10
66.0523462124
 20
124.3807511343
 30
0.0
 10
66.9178843793
 20
124.3784952695
 30
0.0
 10
67.9298537571
 20
124.4583353918
 30
0.0
 10
68.9231651349
 20
124.6409221152
 30
0.0
 10
69.817746074
 20
124.9042559406
 30
0.0
 10
70.5362615805
 20
125.1764244306
 30
0.0
 10
71.1695457833
 20
125.4801523006
 30
0.0
 10
71.6880079063
 20
125.7766447262
 30
0.0
 10
72.1185852521
 20
126.0522932699
 30
0.0
 10
72.5694932867
 20
126.3802167339
 30
0.0
 10
73.1634133675
 20
126.8736610778
 30
0.0
 10
73.8129803731
 20
127.5261927527
 30
0.0
 10
74.4407404772
 20
128.3190786169
 30
0.0
 10
75.0980805921
 20
129.3473939896
 30
0.0
 10
75.6393294739
 20
130.5257208855
 30
0.0
 10
76.012330783
 20
131.7263164582
 30
0.0
 10
76.2118686422
 20
132.6841677308
 30
0.0
 10
76.2880230622
 20
133.2185687739
 30
0.0
 10
76.3154134702
 20
133.445882911
 30
0.0
  0
SPLINE
  5
331
100
AcDbEntity
  8
DTM_AXIS
100
AcDbSpline
 62
7
  6
CONTINUOUS
 70
0
 71
3
 72
20
 73
16
 74
0
 42
0.0000001
 43
0.0000001
 44
0.0000000001
 40
0.0
 40
0.0
 40
0.0
 40
0.0
 40
0.0683656202
 40
0.1406325425
 40
0.2128994647
 40
0.285166387
 40
0.3212998481
 40
0.3574333092
 40
0.3975937274
 40
0.4377541456
 40
0.5180749819
 40
0.5983958183
 40
0.6787166546
 40
0.8393583273
 40
1.0
 40
1.0
 40
1.0
 40
1.0
 10
76.3199257467
 20
138.1794036494
 30
0.0
 10
76.2881144862
 20
138.4877105988
 30
0.0
 10
76.212150619
 20
139.1026025323
 30
0.0
 10
76.0743505044
 20
139.9672569992
 30
0.0
 10
75.9215508628
 20
140.7750567501
 30
0.0
 10
75.7926337108
 20
141.3874039438
 30
0.0
 10
75.6923725537
 20
141.8441834102
 30
0.0
 10
75.6173183026
 20
142.1802947824
 30
0.0
 10
75.5404474423
 20
142.522188572
 30
0.0
 10
75.4317431996
 20
143.0019587304
 30
0.0
 10
75.2927413244
 20
143.608114875
 30
0.0
 10
75.120528638
 20
144.3460868876
 30
0.0
 10
74.8840826162
 20
145.3403017557
 30
0.0
 10
74.5759334582
 20
146.5972538368
 30
0.0
 10
74.3164304801
 20
147.6067427396
 30
0.0
 10
74.1834328168
 20
148.1099189961
 30
0.0
  0
ENDSEC
  0
SECTION
  2
OBJECTS
  0
DICTIONARY
  5
C
100
AcDbDictionary
280
0
281
1
  3
ACAD_GROUP
350
D
  3
ACAD_MLINESTYLE
350
17
  3
ACAD_LAYOUT
350
1A
  3
ACAD_PLOTSETTINGS
350
19
  3
ACAD_PLOTSTYLENAME
350
E
  3
ACAD_TABLESTYLE
350
       332
  0
DICTIONARY
  5
D
102
{ACAD_REACTORS
330
C
102
}
100
AcDbDictionary
280
0
281
1
  0
ACDBDICTIONARYWDFLT
  5
E
102
{ACAD_REACTORS
330
C
102
}
100
AcDbDictionary
281
1
  3
Normal
350
F
100
AcDbDictionaryWithDefault
340
F
  0
DICTIONARY
  5
17
102
{ACAD_REACTORS
330
C
102
}
100
AcDbDictionary
280
0
281
1
  3
Standard
350
18
  0
DICTIONARY
  5
332
330
C
100
AcDbDictionary
281
1
  3
Standard
350
       335
  3
Standard1
350
       336
  0
DICTIONARY
  5
19
102
{ACAD_REACTORS
330
C
102
}
100
AcDbDictionary
281
1
  0
DICTIONARY
  5
1A
102
{ACAD_REACTORS
330
C
102
}
100
AcDbDictionary
281
1
  3
Model
350
333
  3
Layout1
350
334
  0
ACDBPLACEHOLDER
  5
F
102
{ACAD_REACTORS
330
E
102
}
  0
MLINESTYLE
  5
18
102
{ACAD_REACTORS
330
17
102
}
100
AcDbMlineStyle
  2
STANDARD
 70
0
  3

 62
256
 51
90.0
 52
90.0
 71
2
 49
0.5
 62
256
  6
BYLAYER
 49
-0.5
 62
256
  6
BYLAYER
  0
LAYOUT
  5
333
102
{ACAD_REACTORS
330
1A
102
}
100
AcDbPlotSettings
  1

  2
none_device
  4
ISO_A4_(297.00_x_210.00_MM)
  6

 40
0.0
 41
0.0
 42
0.0
 43
0.0
 44
297.0
 45
210.0
 46
0.0
 47
0.0
 48
0.0
 49
0.0
140
0.0
141
0.0
142
1.0
143
1.0
 70
1024
 72
1
 73
0
 74
0
  7

 75
0
147
1.0
148
0.0
149
0.0
100
AcDbLayout
  1
Model
 70
0
 71
0
 10
0.0
 20
0.0
 11
297.0
 21
210.0
 12
0.0
 22
0.0
 32
0.0
 14
0.0
 24
0.0
 34
0.0
 15
0.0
 25
0.0
 35
0.0
146
0.0
 13
0.0
 23
0.0
 33
0.0
 16
1.0
 26
0.0
 36
0.0
 17
0.0
 27
1.0
 37
0.0
 76
0
330
20C
345
0
346
0
  0
LAYOUT
  5
334
102
{ACAD_REACTORS
330
1A
102
}
100
AcDbPlotSettings
  1

  2
none_device
  4
ISO_A4_(297.00_x_210.00_MM)
  6

 40
0.0
 41
0.0
 42
0.0
 43
0.0
 44
297.0
 45
210.0
 46
0.0
 47
0.0
 48
0.0
 49
0.0
140
0.0
141
0.0
142
1.0
143
1.0
 70
0
 72
1
 73
0
 74
0
  7

 75
0
147
1.0
148
0.0
149
0.0
100
AcDbLayout
  1
Layout1
 70
0
 71
1
 10
0.0
 20
0.0
 11
297.0
 21
210.0
 12
0.0
 22
0.0
 32
0.0
 14
0.0
 24
0.0
 34
0.0
 15
0.0
 25
0.0
 35
0.0
146
0.0
 13
0.0
 23
0.0
 33
0.0
 16
1.0
 26
0.0
 36
0.0
 17
0.0
 27
1.0
 37
0.0
 76
0
330
20D
345
0
346
0
  0
TABLESTYLE
  5
335
102
{ACAD_REACTORS
330
332
330
24F
102
}
330
332
100
AcDbTableStyle
  3
Standard
 70
0
 71
0
 40
0.06
 41
0.06
280
1
281
1
  7
Standard
140
0.18
170
1
 62
0
 63
7
283
0
  7
Standard
140
0.18
170
1
 62
0
 63
7
283
0
  7
Standard
140
0.18
170
1
 62
0
 63
7
283
0
  0
TABLESTYLE
  5
336
102
{ACAD_REACTORS
330
332
102
}
330
332
100
AcDbTableStyle
  3
Standard1
 70
1
 71
0
 40
0.06
 41
0.06
280
1
281
1
  7
Standard
140
0.18
170
1
 62
0
 63
7
283
0
  7
Standard
140
0.18
170
1
 62
0
 63
7
283
0
  7
Standard
140
0.18
170
1
 62
0
 63
7
283
0
  0
ENDSEC
  0
EOF
