999
DXF file: O:\ORAC_PRODUCTEN\ORAC_XPS\CX\CX176\cx176-prod-mm.dxf
999
Pro/ENGINEER 2015200 by Parametric Technology Corporation
  0
SECTION
  2
HEADER
  9
$ACADVER
  1
AC1024
  9
$DWGCODEPAGE
  3
ANSI_1252
  9
$EXTMAX
 10
297.0
 20
210.0
 30
0.0
  9
$EXTMIN
 10
0.0
 20
0.0
 30
0.0
  9
$LIMMIN
 10
0.0
 20
0.0
  9
$LIMMAX
 10
297.0
 20
210.0
  9
$VIEWCTR
 10
148.5
 20
105.0
  9
$VIEWSIZE
 40
210.0
  9
$CLAYER
  8
0
  9
$LTSCALE
 40
16.335
  9
$CELTYPE
  6
BYLAYER
  9
$DIMSCALE
 40
1.0
  9
$DIMASZ
 40
3.5
  9
$DIMEXO
 40
1.0
  9
$DIMDLI
 40
11.286
  9
$DIMEXE
 40
1.5
  9
$DIMCEN
 40
2.673
  9
$DIMLFAC
 40
1.0
  9
$DIMBLK
  1
_FILLED
  9
$DIMALT
 70
0
  9
$DIMALTF
 40
0.0393700787
  9
$DIMTXT
 40
2.5
  9
$DIMTOL
 70
1
  9
$DIMLIM
 70
0
  9
$DIMTFAC
 40
1.0
  9
$DIMTP
 40
0.001
  9
$DIMTM
 40
0.001
  9
$DIMGAP
 40
0.625
  9
$DIMDSEP
 70
44
  9
$AUNITS
 70
0
  9
$PDMODE
 70
3
  9
$PDSIZE
 40
8.0
  9
$HANDSEED
  5
304
  9
$TILEMODE
 70
1
  9
$MEASUREMENT
 70
1
  9
$INSUNITS
 70
4
  0
ENDSEC
  0
SECTION
  2
CLASSES
  0
CLASS
  1
ACDBDICTIONARYWDFLT
  2
AcDbDictionaryWithDefault
  3
AutoCAD 2000
 90
0
 91
1
280
0
281
0
  0
CLASS
  1
ACDBPLACEHOLDER
  2
AcDbPlaceHolder
  3
AutoCAD 2000
 90
0
 91
1
280
0
281
0
  0
CLASS
  1
LAYOUT
  2
AcDbLayout
  3
AutoCAD 2000
 90
0
 91
0
280
0
281
0
  0
CLASS
  1
TABLESTYLE
  2
AcDbTableStyle
  3
ObjectDBX Classes
 90
2047
 91
1
280
0
281
0
  0
CLASS
  1
ACAD_TABLE
  2
AcDbTable
  3
ObjectDBX Classes
 90
1025
 91
1
280
0
281
1
  0
ENDSEC
  0
SECTION
  2
TABLES
  0
TABLE
  2
VPORT
  5
8
100
AcDbSymbolTable
 70
2
  0
VPORT
  5
1F4
100
AcDbSymbolTableRecord
100
AcDbViewportTableRecord
  2
*ACTIVE
 70
0
 10
0.0
 20
0.0
 11
1.0
 21
1.0
 12
148.5
 22
105.0
 13
0.0
 23
0.0
 14
1.0
 24
1.0
 15
0.0
 25
0.0
 16
0.0
 26
0.0
 36
1.0
 17
0.0
 27
0.0
 37
0.0
 40
210.0
 41
1.4142857143
 42
50.0
 43
0.0
 44
0.0
 50
0.0
 51
0.0
 71
0
 72
100
 73
1
 74
1
 75
0
 76
0
 77
0
 78
0
  0
ENDTAB
  0
TABLE
  2
LTYPE
  5
5
100
AcDbSymbolTable
 70
6
  0
LTYPE
  5
14
100
AcDbSymbolTableRecord
100
AcDbLinetypeTableRecord
  2
BYBLOCK
 70
0
  3

 72
65
 73
0
 40
0.0
  0
LTYPE
  5
15
100
AcDbSymbolTableRecord
100
AcDbLinetypeTableRecord
  2
BYLAYER
 70
0
  3

 72
65
 73
0
 40
0.0
  0
LTYPE
  5
16
100
AcDbSymbolTableRecord
100
AcDbLinetypeTableRecord
  2
CONTINUOUS
 70
64
  3
Solid line
 72
65
 73
0
 40
0.0
  0
LTYPE
  5
1F5
100
AcDbSymbolTableRecord
100
AcDbLinetypeTableRecord
  2
CENTER
 70
64
  3
____ _ ____ _ ____ _ ____ _ ____ _ ____ _ ____
 72
65
 73
4
 40
0.6
 49
0.375
 74
0
 49
-0.075
 74
0
 49
0.075
 74
0
 49
-0.075
 74
0
  0
LTYPE
  5
1F6
100
AcDbSymbolTableRecord
100
AcDbLinetypeTableRecord
  2
HIDDEN
 70
64
  3
- - - - - - - - - - - - - - - - - - - -
 72
65
 73
2
 40
0.2
 49
0.1
 74
0
 49
-0.1
 74
0
  0
LTYPE
  5
1F7
100
AcDbSymbolTableRecord
100
AcDbLinetypeTableRecord
  2
PHANTOM
 70
64
  3
_____ _ _ _____ _ _ _____ _ _ _____
 72
65
 73
6
 40
0.8
 49
0.45
 74
0
 49
-0.05
 74
0
 49
0.1
 74
0
 49
-0.05
 74
0
 49
0.1
 74
0
 49
-0.05
 74
0
  0
LTYPE
  5
1F8
100
AcDbSymbolTableRecord
100
AcDbLinetypeTableRecord
  2
DOT
 70
64
  3
. . . . . . . . . . . . . . . . . . . .
 72
65
 73
2
 40
0.2
 49
0.1
 74
0
 49
-0.1
 74
0
  0
LTYPE
  5
1F9
100
AcDbSymbolTableRecord
100
AcDbLinetypeTableRecord
  2
DASHED
 70
64
  3
- - - - - - - - - - - - - - - - - - - -
 72
65
 73
2
 40
0.2
 49
0.1
 74
0
 49
-0.1
 74
0
  0
ENDTAB
  0
TABLE
  2
LAYER
  5
2
100
AcDbSymbolTable
 70
36
  0
LAYER
  5
10
100
AcDbSymbolTableRecord
100
AcDbLayerTableRecord
  2
0
 70
0
 62
7
  6
CONTINUOUS
370
-3
390
F
  0
LAYER
  5
1FA
100
AcDbSymbolTableRecord
100
AcDbLayerTableRecord
  2
DEFAULT_1
 70
0
 62
7
  6
CENTER
370
-3
390
F
  0
LAYER
  5
1FB
100
AcDbSymbolTableRecord
100
AcDbLayerTableRecord
  2
DEFAULT_2
 70
0
 62
8
  6
HIDDEN
370
-3
390
F
  0
LAYER
  5
1FC
100
AcDbSymbolTableRecord
100
AcDbLayerTableRecord
  2
DEFAULT_3
 70
0
 62
7
  6
PHANTOM
370
-3
390
F
  0
LAYER
  5
1FD
100
AcDbSymbolTableRecord
100
AcDbLayerTableRecord
  2
DTM_ALL
 70
0
 62
7
  6
CONTINUOUS
370
-3
390
F
  0
LAYER
  5
1FE
100
AcDbSymbolTableRecord
100
AcDbLayerTableRecord
  2
DTM_AXIS
 70
0
 62
7
  6
CONTINUOUS
370
-3
390
F
  0
LAYER
  5
1FF
100
AcDbSymbolTableRecord
100
AcDbLayerTableRecord
  2
DTM_CSYS
 70
0
 62
7
  6
CONTINUOUS
370
-3
390
F
  0
LAYER
  5
200
100
AcDbSymbolTableRecord
100
AcDbLayerTableRecord
  2
DTM_CURVE
 70
0
 62
7
  6
CONTINUOUS
370
-3
390
F
  0
LAYER
  5
201
100
AcDbSymbolTableRecord
100
AcDbLayerTableRecord
  2
DTM_MASTER
 70
0
 62
7
  6
CONTINUOUS
370
-3
390
F
  0
LAYER
  5
202
100
AcDbSymbolTableRecord
100
AcDbLayerTableRecord
  2
DTM_POINT
 70
0
 62
7
  6
CONTINUOUS
370
-3
390
F
  0
LAYER
  5
203
100
AcDbSymbolTableRecord
100
AcDbLayerTableRecord
  2
DTM_QUILT
 70
0
 62
7
  6
CONTINUOUS
370
-3
390
F
  0
LAYER
  5
204
100
AcDbSymbolTableRecord
100
AcDbLayerTableRecord
  2
GTOL
 70
0
 62
7
  6
CONTINUOUS
370
-3
390
F
  0
LAYER
  5
205
100
AcDbSymbolTableRecord
100
AcDbLayerTableRecord
  2
NOTES
 70
0
 62
7
  6
CONTINUOUS
370
-3
390
F
  0
ENDTAB
  0
TABLE
  2
STYLE
  5
3
100
AcDbSymbolTable
 70
1
  0
STYLE
  5
11
100
AcDbSymbolTableRecord
100
AcDbTextStyleTableRecord
  2
STANDARD
 70
0
 40
0.0
 41
1.0
 50
0.0
 71
0
 42
0.2
  3
cgtime.ttf
  4

  0
STYLE
  5
206
100
AcDbSymbolTableRecord
100
AcDbTextStyleTableRecord
  2
TEXTSTYLE_1
 70
0
 40
0.0
 41
0.8
 50
0.0
 71
0
 42
0.2
  3
gdt
  4

  0
STYLE
  5
207
100
AcDbSymbolTableRecord
100
AcDbTextStyleTableRecord
  2
TEXTSTYLE_2
 70
0
 40
0.0
 41
1.0
 50
0.0
 71
0
 42
0.2
  3
trium.ttf
  4

  0
STYLE
  5
208
100
AcDbSymbolTableRecord
100
AcDbTextStyleTableRecord
  2
TEXTSTYLE_3
 70
0
 40
0.0
 41
1.0
 50
0.0
 71
0
 42
0.2
  3
calibri.ttf
  4

  0
ENDTAB
  0
TABLE
  2
VIEW
  5
6
100
AcDbSymbolTable
 70
0
  0
ENDTAB
  0
TABLE
  2
UCS
  5
7
100
AcDbSymbolTable
 70
0
  0
ENDTAB
  0
TABLE
  2
APPID
  5
9
100
AcDbSymbolTable
 70
1
  0
APPID
  5
209
100
AcDbSymbolTableRecord
100
AcDbRegAppTableRecord
  2
ACAD
 70
0
  0
ENDTAB
  0
TABLE
  2
BLOCK_RECORD
  5
1
100
AcDbSymbolTable
 70
0
  0
BLOCK_RECORD
  5
20A
100
AcDbSymbolTableRecord
100
AcDbBlockTableRecord
  2
*Model_Space
  0
BLOCK_RECORD
  5
20B
100
AcDbSymbolTableRecord
100
AcDbBlockTableRecord
  2
*Paper_Space
  0
BLOCK_RECORD
  5
20C
100
AcDbSymbolTableRecord
100
AcDbBlockTableRecord
  2
_FILLED
  0
BLOCK_RECORD
  5
20D
100
AcDbSymbolTableRecord
100
AcDbBlockTableRecord
  2
*D0
  0
BLOCK_RECORD
  5
20E
100
AcDbSymbolTableRecord
100
AcDbBlockTableRecord
  2
*D1
  0
BLOCK_RECORD
  5
20F
100
AcDbSymbolTableRecord
100
AcDbBlockTableRecord
  2
*D2
  0
BLOCK_RECORD
  5
210
100
AcDbSymbolTableRecord
100
AcDbBlockTableRecord
  2
*T1
  0
ENDTAB
  0
TABLE
  2
DIMSTYLE
  5
A
100
AcDbSymbolTable
 70
1
100
AcDbDimStyleTable
 71
0
  0
DIMSTYLE
105
211
100
AcDbSymbolTableRecord
100
AcDbDimStyleTableRecord
  2
STANDARD
 70
0
  3

  4

 40
1.0
 41
3.5
 42
1.0
 43
0.38
 44
1.5
 45
0.0
 46
0.0
 47
0.001
 48
0.001
140
2.5
141
0.09
142
0.0
143
25.4
144
1.0
145
0.0
146
1.0
147
0.625
 71
1.0
 72
0.0
 73
1
 74
1
 75
0
 76
0
 77
0
 78
8
170
0
171
2
172
0
173
0
174
0
175
0
176
0
177
0
178
0
270
2
271
3
272
3
273
2
274
2
275
0
280
0
281
0
282
0
283
1
284
8
285
0
286
0
287
3
288
0
340
11
278
44
341
20C
342
20C
343
20C
344
20C
  0
DIMSTYLE
105
212
100
AcDbSymbolTableRecord
100
AcDbDimStyleTableRecord
  2
DIMSTYLE_1
 70
0
  3

  4

 40
1.0
 41
3.5
 42
1.0
 43
0.38
 44
1.5
 45
0.0
 46
0.0
 47
0.0
 48
0.0
140
2.5
141
0.09
142
0.0
143
25.4
144
1.0
145
0.0
146
1.0
147
1.25
 71
0.0
 72
0.0
 73
1
 74
1
 75
0
 76
0
 77
0
 78
8
170
0
171
2
172
0
173
0
174
0
175
0
176
0
177
0
178
0
270
2
271
3
272
3
273
2
274
2
275
0
280
0
281
0
282
0
283
1
284
8
285
0
286
0
287
3
288
0
340
11
278
44
341
20C
342
20C
343
20C
344
20C
  0
DIMSTYLE
105
213
100
AcDbSymbolTableRecord
100
AcDbDimStyleTableRecord
  2
DIMSTYLE_2
 70
0
  3

  4

 40
1.0
 41
3.5
 42
1.0
 43
0.38
 44
1.5
 45
0.0
 46
0.0
 47
0.0
 48
0.0
140
2.5
141
0.09
142
0.0
143
25.4
144
1.0
145
0.0
146
1.0
147
1.25
 71
0.0
 72
0.0
 73
1
 74
1
 75
0
 76
0
 77
0
 78
8
170
0
171
2
172
0
173
0
174
0
175
0
176
0
177
0
178
0
270
2
271
1
272
1
273
2
274
2
275
0
280
0
281
0
282
0
283
1
284
8
285
0
286
0
287
3
288
0
340
11
278
44
341
20C
342
20C
343
20C
344
20C
  0
ENDTAB
  0
ENDSEC
  0
SECTION
  2
BLOCKS
  0
BLOCK
  5
20
100
AcDbEntity
  8
0
100
AcDbBlockBegin
  2
*Model_Space
 70
0
 10
0.0
 20
0.0
 30
0.0
  3
*Model_Space
  1

  0
ENDBLK
  5
21
100
AcDbEntity
  8
0
100
AcDbBlockEnd
  0
BLOCK
  5
1C
100
AcDbEntity
  8
0
100
AcDbBlockBegin
  2
*Paper_Space
 70
0
 10
0.0
 20
0.0
 30
0.0
  3
*Paper_Space
  1

  0
ENDBLK
  5
1D
100
AcDbEntity
  8
0
100
AcDbBlockEnd
  0
BLOCK
  5
214
100
AcDbEntity
  8
0
100
AcDbBlockBegin
  2
_FILLED
 70
64
 10
0.0
 20
0.0
  3
_FILLED
  1

  0
SOLID
  5
215
100
AcDbEntity
  8
0
  6
BYBLOCK
 62
0
100
AcDbTrace
 10
0.0
 20
0.0
 11
-1.0
 21
0.2142857143
 12
-1.0
 22
-0.2142857143
 13
-1.0
 23
-0.2142857143
  0
ENDBLK
  5
216
100
AcDbEntity
  8
0
  6
BYBLOCK
 62
0
100
AcDbBlockEnd
  0
BLOCK
  5
217
100
AcDbEntity
  8
0
100
AcDbBlockBegin
 62
2
  6
CONTINUOUS
  2
*D0
 70
65
 10
0.0
 20
0.0
  3
*D0
  1

  0
TEXT
  5
218
100
AcDbEntity
  8
0
100
AcDbText
 62
2
  6
CONTINUOUS
 10
49.4485015759
 20
118.7015786534
  7
STANDARD
 40
2.5
  1
80
 72
5
 11
53.0866338717
 21
118.7015786534
100
AcDbText
  0
LINE
  5
219
100
AcDbEntity
  8
0
100
AcDbLine
 62
2
  6
CONTINUOUS
 10
84.7331858713
 20
159.9515786534
 11
49.7675677238
 21
159.9515786534
  0
LINE
  5
21A
100
AcDbEntity
  8
0
100
AcDbLine
 62
2
  6
CONTINUOUS
 10
61.1698356021
 20
79.9515786534
 11
49.7675677238
 21
79.9515786534
  0
LINE
  5
21B
100
AcDbEntity
  8
0
100
AcDbLine
 62
2
  6
CONTINUOUS
 10
51.2675677238
 20
159.9515786534
 11
51.2675677238
 21
122.4515786534
  0
LINE
  5
21C
100
AcDbEntity
  8
0
100
AcDbLine
 62
2
  6
CONTINUOUS
 10
51.2675677238
 20
79.9515786534
 11
51.2675677238
 21
117.4515786534
  0
INSERT
  5
21D
100
AcDbEntity
  8
0
100
AcDbBlockReference
 62
2
  6
CONTINUOUS
  2
_FILLED
 10
51.2675677238
 20
159.9515786534
 41
3.5
 42
3.5
 43
3.5
 50
90.0
  0
INSERT
  5
21E
100
AcDbEntity
  8
0
100
AcDbBlockReference
 62
2
  6
CONTINUOUS
  2
_FILLED
 10
51.2675677238
 20
79.9515786534
 41
3.5
 42
3.5
 43
3.5
 50
270.0
  0
ENDBLK
  5
21F
100
AcDbEntity
  8
0
  6
BYBLOCK
 62
0
100
AcDbBlockEnd
  0
BLOCK
  5
220
100
AcDbEntity
  8
0
100
AcDbBlockBegin
 62
2
  6
CONTINUOUS
  2
*D1
 70
65
 10
0.0
 20
0.0
  3
*D1
  1

  0
TEXT
  5
221
100
AcDbEntity
  8
0
100
AcDbText
 62
2
  6
CONTINUOUS
 10
80.3437694542
 20
166.3107274989
  7
STANDARD
 40
2.5
  1
40
 72
5
 11
83.9819017499
 21
166.3107274989
100
AcDbText
  0
LINE
  5
222
100
AcDbEntity
  8
0
100
AcDbLine
 62
2
  6
CONTINUOUS
 10
62.1698356021
 20
137.1125425317
 11
62.1698356021
 21
169.0607274989
  0
LINE
  5
223
100
AcDbEntity
  8
0
100
AcDbLine
 62
2
  6
CONTINUOUS
 10
102.1558356021
 20
160.9515786534
 11
102.1558356021
 21
169.0607274989
  0
LINE
  5
224
100
AcDbEntity
  8
0
100
AcDbLine
 62
2
  6
CONTINUOUS
 10
62.1698356021
 20
167.5607274989
 11
79.0937694542
 21
167.5607274989
  0
LINE
  5
225
100
AcDbEntity
  8
0
100
AcDbLine
 62
2
  6
CONTINUOUS
 10
102.1558356021
 20
167.5607274989
 11
85.2319017499
 21
167.5607274989
  0
INSERT
  5
226
100
AcDbEntity
  8
0
100
AcDbBlockReference
 62
2
  6
CONTINUOUS
  2
_FILLED
 10
62.1698356021
 20
167.5607274989
 41
3.5
 42
3.5
 43
3.5
 50
180.0
  0
INSERT
  5
227
100
AcDbEntity
  8
0
100
AcDbBlockReference
 62
2
  6
CONTINUOUS
  2
_FILLED
 10
102.1558356021
 20
167.5607274989
 41
3.5
 42
3.5
 43
3.5
  0
ENDBLK
  5
228
100
AcDbEntity
  8
0
  6
BYBLOCK
 62
0
100
AcDbBlockEnd
  0
BLOCK
  5
229
100
AcDbEntity
  8
0
100
AcDbBlockBegin
 62
2
  6
CONTINUOUS
  2
*D2
 70
65
 10
0.0
 20
0.0
  3
*D2
  1

  0
TEXT
  5
22A
100
AcDbEntity
  8
0
100
AcDbText
 62
2
  6
CONTINUOUS
 10
91.6105901373
 20
112.3116507059
  7
STANDARD
 40
2.5
  1
89,4
 72
5
 11
98.2837418882
 21
112.3116507059
100
AcDbText
  0
LINE
  5
22B
100
AcDbEntity
  8
0
100
AcDbLine
 62
2
  6
CONTINUOUS
 10
103.0503253986
 20
159.5044902909
 11
116.2819007075
 21
152.8910181621
  0
LINE
  5
22C
100
AcDbEntity
  8
0
100
AcDbLine
 62
2
  6
CONTINUOUS
 10
63.0643253986
 20
79.5044902909
 11
76.2959007075
 21
72.8910181621
  0
LINE
  5
22D
100
AcDbEntity
  8
0
100
AcDbLine
 62
2
  6
CONTINUOUS
 10
114.9401660127
 20
153.5616507059
 11
96.1967285127
 21
116.0616507059
  0
LINE
  5
22E
100
AcDbEntity
  8
0
100
AcDbLine
 62
2
  6
CONTINUOUS
 10
74.9541660127
 20
73.5616507059
 11
93.6976035127
 21
111.0616507059
  0
INSERT
  5
22F
100
AcDbEntity
  8
0
100
AcDbBlockReference
 62
2
  6
CONTINUOUS
  2
_FILLED
 10
114.9401660127
 20
153.5616507059
 41
3.5
 42
3.5
 43
3.5
 50
63.4429707935
  0
INSERT
  5
230
100
AcDbEntity
  8
0
100
AcDbBlockReference
 62
2
  6
CONTINUOUS
  2
_FILLED
 10
74.9541660127
 20
73.5616507059
 41
3.5
 42
3.5
 43
3.5
 50
243.4429707935
  0
ENDBLK
  5
231
100
AcDbEntity
  8
0
  6
BYBLOCK
 62
0
100
AcDbBlockEnd
  0
BLOCK
  5
232
100
AcDbEntity
  8
0
100
AcDbBlockBegin
  2
*T1
 70
1
 10
0.0
 20
0.0
  3
*T1
  1

  0
LINE
  5
233
100
AcDbEntity
  8
0
100
AcDbLine
 62
7
  6
CONTINUOUS
 10
0.0
 20
0.0
 11
148.0
 21
0.0
  0
LINE
  5
234
100
AcDbEntity
  8
0
100
AcDbLine
 62
7
  6
CONTINUOUS
 10
0.0
 20
0.0
 11
0.0
 21
-43.0
  0
LINE
  5
235
100
AcDbEntity
  8
0
100
AcDbLine
 62
7
  6
CONTINUOUS
 10
45.0
 20
-23.0
 11
148.0
 21
-23.0
  0
LINE
  5
236
100
AcDbEntity
  8
0
100
AcDbLine
 62
7
  6
CONTINUOUS
 10
45.0
 20
-28.0
 11
148.0
 21
-28.0
  0
LINE
  5
237
100
AcDbEntity
  8
0
100
AcDbLine
 62
7
  6
CONTINUOUS
 10
0.0
 20
-43.0
 11
148.0
 21
-43.0
  0
LINE
  5
238
100
AcDbEntity
  8
0
100
AcDbLine
 62
7
  6
CONTINUOUS
 10
45.0
 20
0.0
 11
45.0
 21
-43.0
  0
LINE
  5
239
100
AcDbEntity
  8
0
100
AcDbLine
 62
7
  6
CONTINUOUS
 10
143.0
 20
0.0
 11
143.0
 21
-23.0
  0
LINE
  5
23A
100
AcDbEntity
  8
0
100
AcDbLine
 62
7
  6
CONTINUOUS
 10
148.0
 20
0.0
 11
148.0
 21
-43.0
  0
TEXT
  5
23B
100
AcDbEntity
  8
0
100
AcDbText
 62
7
  6
CONTINUOUS
 10
8.9659749243
 20
-10.675
  7
STANDARD
 40
8.0
  1
O
 72
5
 11
17.370644185
 21
-10.675
100
AcDbText
  0
TEXT
  5
23C
100
AcDbEntity
  8
0
100
AcDbText
 62
7
  6
CONTINUOUS
 10
17.370644185
 20
-10.675
  7
STANDARD
 40
5.5
  1
RAC
 72
5
 11
33.9562472979
 21
-10.675
100
AcDbText
  0
TEXT
  5
23D
100
AcDbEntity
  8
0
100
AcDbText
 62
7
  6
CONTINUOUS
 10
33.9562472979
 20
-5.925
  7
TEXTSTYLE_2
 40
3.0
  1
®
 72
5
 11
36.0340250757
 21
-5.925
100
AcDbText
  0
TEXT
  5
23E
100
AcDbEntity
  8
0
100
AcDbText
 62
7
  6
CONTINUOUS
 10
9.5323389537
 20
-15.325
  7
TEXTSTYLE_2
 40
3.0
  1
D  E  C  O  R
 72
5
 11
34.3878945093
 21
-15.325
100
AcDbText
  0
TEXT
  5
23F
100
AcDbEntity
  8
0
100
AcDbText
 62
7
  6
CONTINUOUS
 10
34.3878945093
 20
-15.325
  7
STANDARD
 40
2.5
  1
 
 72
5
 11
35.4676610463
 21
-15.325
100
AcDbText
  0
TEXT
  5
240
100
AcDbEntity
  8
0
100
AcDbText
 62
7
  6
CONTINUOUS
 10
52.5257352941
 20
-6.0
  7
TEXTSTYLE_3
 40
2.75
  1
Part name:
 72
5
 11
71.9375
 21
-6.0
100
AcDbText
  0
TEXT
  5
241
100
AcDbEntity
  8
0
100
AcDbText
 62
7
  6
CONTINUOUS
 10
49.2788865546
 20
-12.875
  7
TEXTSTYLE_3
 40
2.75
  1
Designed by:
 72
5
 11
71.9375
 21
-12.875
100
AcDbText
  0
TEXT
  5
242
100
AcDbEntity
  8
0
100
AcDbText
 62
7
  6
CONTINUOUS
 10
48.9553571429
 20
-19.75
  7
TEXTSTYLE_3
 40
2.75
  1
Designed on:
 72
5
 11
71.9375
 21
-19.75
100
AcDbText
  0
TEXT
  5
243
100
AcDbEntity
  8
0
100
AcDbText
 62
2
  6
CONTINUOUS
 10
74.0625
 20
-6.0
  7
TEXTSTYLE_3
 40
2.75
  1
CX176
 72
5
 11
85.212710084
 21
-6.0
100
AcDbText
  0
TEXT
  5
244
100
AcDbEntity
  8
0
100
AcDbText
 62
2
  6
CONTINUOUS
 10
74.0625
 20
-12.875
  7
TEXTSTYLE_3
 40
2.75
  1
ORAC
 72
5
 11
84.1034663866
 21
-12.875
100
AcDbText
  0
TEXT
  5
245
100
AcDbEntity
  8
0
100
AcDbText
 62
2
  6
CONTINUOUS
 10
74.0625
 20
-19.75
  7
TEXTSTYLE_3
 40
2.75
  1
25-Apr-2016
 72
5
 11
96.1896008403
 21
-19.75
100
AcDbText
  0
TEXT
  5
246
100
AcDbEntity
  8
0
100
AcDbText
 62
2
  6
CONTINUOUS
 10
96.1896008403
 20
-19.75
  7
TEXTSTYLE_3
 40
2.75
  1
 
 72
5
 11
97.1717436975
 21
-19.75
100
AcDbText
  0
TEXT
  5
247
100
AcDbEntity
  8
0
100
AcDbText
 62
2
  6
CONTINUOUS
 10
146.5625
 20
-17.5
  7
TEXTSTYLE_3
 40
1.5
  1
Version: 
 50
90.0
 72
5
 11
146.5625
 21
-9.0294117647
100
AcDbText
  0
TEXT
  5
248
100
AcDbEntity
  8
0
100
AcDbText
 62
2
  6
CONTINUOUS
 10
146.5625
 20
-9.0294117647
  7
TEXTSTYLE_3
 40
1.5
  1
1.0
 50
90.0
 72
5
 11
146.5625
 21
-6.0357142857
100
AcDbText
  0
TEXT
  5
249
100
AcDbEntity
  8
0
100
AcDbText
 62
2
  6
CONTINUOUS
 10
146.5625
 20
-6.0357142857
  7
TEXTSTYLE_3
 40
1.5
  1
 
 50
90.0
 72
5
 11
146.5625
 21
-5.5
100
AcDbText
  0
TEXT
  5
24A
100
AcDbEntity
  8
0
100
AcDbText
 62
7
  6
CONTINUOUS
 10
9.6586134454
 20
-24.25
  7
TEXTSTYLE_3
 40
2.5
  1
Biekorfstraat 32
 72
5
 11
35.3413865546
 21
-24.25
100
AcDbText
  0
TEXT
  5
24B
100
AcDbEntity
  8
0
100
AcDbText
 62
7
  6
CONTINUOUS
 10
2.2584033613
 20
-28.0
  7
TEXTSTYLE_3
 40
2.5
  1
8400 Oostende - Belgium
 72
5
 11
42.7415966387
 21
-28.0
100
AcDbText
  0
TEXT
  5
24C
100
AcDbEntity
  8
0
100
AcDbText
 62
7
  6
CONTINUOUS
 10
4.2699579832
 20
-31.75
  7
TEXTSTYLE_3
 40
2.5
  1
Tel  +32 (0)59 80 32 52
 72
5
 11
40.7300420168
 21
-31.75
100
AcDbText
  0
TEXT
  5
24D
100
AcDbEntity
  8
0
100
AcDbText
 62
7
  6
CONTINUOUS
 10
5.7405462185
 20
-35.5
  7
TEXTSTYLE_3
 40
2.5
  1
www.oracdecor.com
 72
5
 11
39.2594537815
 21
-35.5
100
AcDbText
  0
TEXT
  5
24E
100
AcDbEntity
  8
0
100
AcDbText
 62
7
  6
CONTINUOUS
 10
5.5777310924
 20
-39.25
  7
TEXTSTYLE_3
 40
2.5
  1
info@oracdecor.com
 72
5
 11
39.4222689076
 21
-39.25
100
AcDbText
  0
TEXT
  5
24F
100
AcDbEntity
  8
0
100
AcDbText
 62
7
  6
CONTINUOUS
 10
46.0625
 20
-26.75
  7
TEXTSTYLE_3
 40
2.5
  1
All dimensions are in mm unless otherwise specified   
 72
5
 11
132.3019957983
 21
-26.75
100
AcDbText
  0
TEXT
  5
250
100
AcDbEntity
  8
0
100
AcDbText
 62
7
  6
CONTINUOUS
 10
46.0625
 20
-31.7075
  7
TEXTSTYLE_3
 40
1.85
  1
All information in this document is Orac's exclusive property.  It may in no case 
 72
5
 11
140.0471638655
 21
-31.7075
100
AcDbText
  0
TEXT
  5
251
100
AcDbEntity
  8
0
100
AcDbText
 62
7
  6
CONTINUOUS
 10
46.0625
 20
-34.8525
  7
TEXTSTYLE_3
 40
1.85
  1
be reproduced, even partly, be communicated to a third party or used for any 
 72
5
 11
138.8345588235
 21
-34.8525
100
AcDbText
  0
TEXT
  5
252
100
AcDbEntity
  8
0
100
AcDbText
 62
7
  6
CONTINUOUS
 10
46.0625
 20
-37.9975
  7
TEXTSTYLE_3
 40
1.85
  1
possible purpose without ORAC's express written permission. 
 72
5
 11
119.4484243697
 21
-37.9975
100
AcDbText
  0
TEXT
  5
253
100
AcDbEntity
  8
0
100
AcDbText
 62
7
  6
CONTINUOUS
 10
46.0625
 20
-41.1425
  7
TEXTSTYLE_3
 40
1.85
  1
Further legal information can be found at http://www.oracdecor.be/nl/disclaimer 
 72
5
 11
143.7316176471
 21
-41.1425
100
AcDbText
  0
ENDBLK
  5
254
100
AcDbEntity
  8
0
  6
BYBLOCK
 62
0
100
AcDbBlockEnd
  0
ENDSEC
  0
SECTION
  2
ENTITIES
  0
DIMENSION
  5
255
100
AcDbEntity
  8
0
100
AcDbDimension
 62
2
  6
CONTINUOUS
  2
*D0
 10
51.2675677238
 20
79.9515786534
 11
51.3102100754
 21
119.9321263733
 70
160
 71
2
 42
80.0
  3
DIMSTYLE_1
100
AcDbAlignedDimension
 13
85.7331858713
 23
159.9515786534
 14
62.1698356021
 24
79.9515786534
 50
270.0
100
AcDbRotatedDimension
  0
DIMENSION
  5
256
100
AcDbEntity
  8
0
100
AcDbDimension
 62
2
  6
CONTINUOUS
  2
*D1
 10
102.1558356021
 20
167.5607274989
 11
82.147111084
 21
167.5412771301
 70
160
 71
2
 42
39.986
  3
DIMSTYLE_2
100
AcDbAlignedDimension
 13
62.1698356021
 23
136.1125425317
 14
102.1558356021
 24
159.9515786534
100
AcDbRotatedDimension
  0
DIMENSION
  5
257
100
AcDbEntity
  8
0
100
AcDbDimension
 62
2
  6
CONTINUOUS
  2
*D2
 10
74.9541660127
 20
73.5616507059
 11
94.9814393005
 21
113.2892756195
 70
160
 71
2
 42
89.4364589863
  3
DIMSTYLE_2
100
AcDbAlignedDimension
 13
102.1558356021
 23
159.9515786534
 14
62.1698356021
 24
79.9515786534
 50
243.4429707935
100
AcDbRotatedDimension
  0
ACAD_TABLE
  5
258
100
AcDbEntity
  8
0
 62
2
  6
CONTINUOUS
100
AcDbBlockReference
  2
*T1
 10
143.9999958937
 20
47.9999925619
 30
0.0
100
AcDbTable
342
       302
343
210
 11
1.0
 21
0.0
 31
0.0
 90
22
 91
4
 92
4
 93
0
 94
0
 95
0
 96
0
141
18.0
141
5.0
141
5.0
141
15.0
142
45.0
142
28.0
142
70.0
142
5.0
171
1
172
0
173
0
174
0
175
1
176
1
 91
41
178
0
145
0.0
301
CELL_VALUE
 90
4
  1
\A1;O\H5.5;RAC\Ftrium.ttf;\H3.0;\S®^ ;\PD  E  C  O  R\Fcgtime.ttf;\H2.5; 
304
ACVALUE_END
170
5
140
8.0
 64
7
171
1
172
0
173
0
174
0
175
1
176
2
 91
57
178
0
145
0.0
  7
TEXTSTYLE_3
301
CELL_VALUE
 90
4
  1
Part name:\PDesigned by:\PDesigned on:
304
ACVALUE_END
170
6
140
2.75
 64
7
171
1
172
0
173
0
174
0
175
1
176
2
 91
49
178
0
145
0.0
  7
TEXTSTYLE_3
301
CELL_VALUE
 90
4
  1
CX176\PORAC\P25-Apr-2016 
304
ACVALUE_END
170
4
140
2.75
171
1
172
0
173
0
174
0
175
1
176
2
 91
49
178
0
145
0.0
  7
TEXTSTYLE_3
301
CELL_VALUE
 90
4
  1
Version: 1.0 
304
ACVALUE_END
170
6
140
1.5
171
1
172
0
173
0
174
0
175
1
176
3
 91
57
178
0
145
0.0
  7
TEXTSTYLE_3
301
CELL_VALUE
 90
4
  1
Biekorfstraat 32\P8400 Oostende - Belgium\PTel  +32 (0)59 80 32 52\Pwww.oracdecor.com\Pinfo@oracdecor.com
304
ACVALUE_END
170
5
140
2.5
 64
7
171
1
172
0
173
1
174
0
175
1
176
1
 91
1
178
0
145
0.0
170
1
171
1
172
0
173
1
174
0
175
1
176
1
 91
1
178
0
145
0.0
170
1
171
1
172
0
173
1
174
0
175
1
176
1
 91
1
178
0
145
0.0
170
1
171
1
172
0
173
1
174
0
175
1
176
1
 91
1
178
0
145
0.0
170
1
171
1
172
0
173
0
174
0
175
3
176
1
 91
57
178
0
145
0.0
  7
TEXTSTYLE_3
301
CELL_VALUE
 90
4
  1
All dimensions are in mm unless otherwise specified   
304
ACVALUE_END
170
1
140
2.5
 64
7
171
1
172
0
173
1
174
0
175
1
176
1
 91
1
178
0
145
0.0
170
1
171
1
172
0
173
1
174
0
175
1
176
1
 91
1
178
0
145
0.0
170
1
171
1
172
0
173
1
174
0
175
1
176
1
 91
1
178
0
145
0.0
170
1
171
1
172
0
173
0
174
0
175
3
176
1
 91
57
178
0
145
0.0
  7
TEXTSTYLE_3
301
CELL_VALUE
 90
4
  2
All information in this document is Orac's exclusive property.  It may in no case \Pbe reproduced, even partly, be communicated to a third party or used for any \Ppossible purpose without ORAC's express written permission. \PFurther legal information
  1
 can be found at http://www.oracdecor.be/nl/disclaimer 
304
ACVALUE_END
170
4
140
1.85
 64
7
171
1
172
0
173
1
174
0
175
1
176
1
 91
1
178
0
145
0.0
170
1
171
1
172
0
173
1
174
0
175
1
176
1
 91
1
178
0
145
0.0
170
1
  0
LINE
  5
259
100
AcDbEntity
  8
0
100
AcDbLine
 62
5
  6
CONTINUOUS
 10
0.0
 20
0.0
 11
0.0
 21
210.0
  0
LINE
  5
25A
100
AcDbEntity
  8
0
100
AcDbLine
 62
7
  6
CONTINUOUS
 10
5.0
 20
5.0
 11
5.0
 21
195.0
  0
LINE
  5
25B
100
AcDbEntity
  8
0
100
AcDbLine
 62
5
  6
CONTINUOUS
 10
0.0
 20
0.0
 11
297.0
 21
0.0
  0
LINE
  5
25C
100
AcDbEntity
  8
0
100
AcDbLine
 62
7
  6
CONTINUOUS
 10
5.0
 20
5.0
 11
292.0
 21
5.0
  0
LINE
  5
25D
100
AcDbEntity
  8
0
100
AcDbLine
 62
4
  6
CONTINUOUS
 10
148.5
 20
195.0
 11
148.5
 21
205.0
  0
LINE
  5
25E
100
AcDbEntity
  8
0
100
AcDbLine
 62
7
  6
CONTINUOUS
 10
5.0
 20
195.0
 11
292.0
 21
195.0
  0
LINE
  5
25F
100
AcDbEntity
  8
0
100
AcDbLine
 62
5
  6
CONTINUOUS
 10
0.0
 20
210.0
 11
297.0
 21
210.0
  0
LINE
  5
260
100
AcDbEntity
  8
0
100
AcDbLine
 62
7
  6
CONTINUOUS
 10
292.0
 20
5.0
 11
292.0
 21
195.0
  0
LINE
  5
261
100
AcDbEntity
  8
0
100
AcDbLine
 62
5
  6
CONTINUOUS
 10
297.0
 20
0.0
 11
297.0
 21
210.0
  0
LINE
  5
262
100
AcDbEntity
  8
0
100
AcDbLine
 62
7
  6
CONTINUOUS
 10
223.0298565192
 20
66.7623787919
 11
227.0659212266
 21
67.3916160055
  0
LINE
  5
263
100
AcDbEntity
  8
0
100
AcDbLine
 62
7
  6
CONTINUOUS
 10
222.668239349
 20
172.8102143144
 11
224.4660917199
 21
173.8508432902
  0
LINE
  5
264
100
AcDbEntity
  8
0
100
AcDbLine
 62
7
  6
CONTINUOUS
 10
191.529904646
 20
143.8340016681
 11
192.5667849289
 21
145.634056733
  0
LINE
  5
265
100
AcDbEntity
  8
0
100
AcDbLine
 62
7
  6
CONTINUOUS
 10
191.5091661767
 20
93.8875901821
 11
223.0298565192
 21
66.7623787919
  0
LINE
  5
266
100
AcDbEntity
  8
0
100
AcDbLine
 62
7
  6
CONTINUOUS
 10
227.0659212266
 20
67.3916160055
 11
195.5452308841
 21
94.5168273957
  0
LINE
  5
267
100
AcDbEntity
  8
0
100
AcDbLine
 62
7
  6
CONTINUOUS
 10
195.7129342861
 20
94.7389875268
 11
227.2336246286
 21
67.6137761366
  0
LINE
  5
268
100
AcDbEntity
  8
0
100
AcDbLine
 62
7
  6
CONTINUOUS
 10
192.6070536407
 20
102.1380859503
 11
191.5668425556
 21
103.9357738225
  0
LINE
  5
269
100
AcDbEntity
  8
0
100
AcDbLine
 62
7
  6
CONTINUOUS
 10
191.4571769889
 20
150.0433521126
 11
191.4589006062
 21
148.1815988022
  0
LINE
  5
26A
100
AcDbEntity
  8
0
100
AcDbLine
 62
7
  6
CONTINUOUS
 10
191.4631571259
 20
143.5839484908
 11
191.4651230492
 21
141.4604700631
  0
LINE
  5
26B
100
AcDbEntity
  8
0
100
AcDbLine
 62
7
  6
CONTINUOUS
 10
191.4967405948
 20
107.3089966308
 11
191.4996321768
 21
104.1856743323
  0
LINE
  5
26C
100
AcDbEntity
  8
0
100
AcDbLine
 62
7
  6
CONTINUOUS
 10
191.5038886965
 20
99.5880240209
 11
191.5091661767
 21
93.8875901821
  0
LINE
  5
26D
100
AcDbEntity
  8
0
100
AcDbLine
 62
7
  6
CONTINUOUS
 10
193.2139079535
 20
139.2993297349
 11
193.2415202315
 21
109.4741184598
  0
LINE
  5
26E
100
AcDbEntity
  8
0
100
AcDbLine
 62
7
  6
CONTINUOUS
 10
210.1818307392
 20
166.5518335738
 11
214.1300677213
 21
173.4060906123
  0
LINE
  5
26F
100
AcDbEntity
  8
0
100
AcDbLine
 62
7
  6
CONTINUOUS
 10
232.4134075753
 20
87.1051371532
 11
235.9848781334
 21
87.7882538532
  0
LINE
  5
270
100
AcDbEntity
  8
0
100
AcDbLine
 62
7
  6
CONTINUOUS
 10
200.9430541212
 20
112.5850336877
 11
200.8118545295
 21
114.1236210401
  0
LINE
  5
271
100
AcDbEntity
  8
0
100
AcDbLine
 62
7
  6
CONTINUOUS
 10
201.2246628521
 20
126.6146665138
 11
201.2114269431
 21
140.9113421518
  0
LINE
  5
272
100
AcDbEntity
  8
0
100
AcDbLine
 62
7
  6
CONTINUOUS
 10
207.6630417822
 20
152.3216363122
 11
207.8126220428
 21
155.7382146771
  0
LINE
  5
273
100
AcDbEntity
  8
0
100
AcDbLine
 62
7
  6
CONTINUOUS
 10
204.6263551099
 20
115.0993267883
 11
204.7858286234
 21
118.1033169516
  0
LINE
  5
274
100
AcDbEntity
  8
0
100
AcDbLine
 62
7
  6
CONTINUOUS
 10
200.9430541212
 20
112.5850336877
 11
201.0661524274
 21
112.4791011227
  0
LINE
  5
275
100
AcDbEntity
  8
0
100
AcDbLine
 62
7
  6
CONTINUOUS
 10
234.9369319647
 20
84.1228143889
 11
203.4162416222
 21
111.2480257791
  0
LINE
  5
276
100
AcDbEntity
  8
0
100
AcDbLine
 62
7
  6
CONTINUOUS
 10
232.332544872
 20
86.9984096499
 11
200.8118545295
 21
114.1236210401
  0
LINE
  5
277
100
AcDbEntity
  8
0
100
AcDbLine
 62
7
  6
CONTINUOUS
 10
200.8927172328
 20
114.2303485434
 11
232.4134075753
 21
87.1051371532
  0
LINE
  5
278
100
AcDbEntity
  8
0
100
AcDbLine
 62
7
  6
CONTINUOUS
 10
191.5706362165
 20
99.8380771982
 11
192.6075164995
 21
101.6381322632
  0
LINE
  5
279
100
AcDbEntity
  8
0
100
AcDbLine
 62
7
  6
CONTINUOUS
 10
191.5091661767
 20
93.8875901821
 11
195.5452308841
 21
94.5168273957
  0
LINE
  5
27A
100
AcDbEntity
  8
0
100
AcDbLine
 62
7
  6
CONTINUOUS
 10
235.9848781334
 20
87.7882538532
 11
204.4641877909
 21
114.9134652434
  0
LINE
  5
27B
100
AcDbEntity
  8
0
100
AcDbLine
 62
7
  6
CONTINUOUS
 10
204.6263551099
 20
115.0993267883
 11
236.1470454524
 21
87.9741153981
  0
LINE
  5
27C
100
AcDbEntity
  8
0
100
AcDbLine
 62
7
  6
CONTINUOUS
 10
192.5663220701
 20
146.1340104202
 11
191.526110985
 21
147.9316982923
  0
LINE
  5
27D
100
AcDbEntity
  8
0
100
AcDbLine
 62
7
  6
CONTINUOUS
 10
236.3065189659
 20
90.9781055614
 11
204.7858286234
 21
118.1033169516
  0
LINE
  5
27E
100
AcDbEntity
  8
0
100
AcDbLine
 62
7
  6
CONTINUOUS
 10
204.7165906855
 20
118.2654718764
 11
236.2372810281
 21
91.1402604862
  0
LINE
  5
27F
100
AcDbEntity
  8
0
100
AcDbLine
 62
7
  6
CONTINUOUS
 10
201.2246628521
 20
126.6146665138
 11
232.7453531946
 21
99.4894551236
  0
LINE
  5
280
100
AcDbEntity
  8
0
100
AcDbLine
 62
7
  6
CONTINUOUS
 10
230.6198093767
 20
169.1678219541
 11
231.4161253012
 21
173.9257451793
  0
LINE
  5
281
100
AcDbEntity
  8
0
100
AcDbLine
 62
7
  6
CONTINUOUS
 10
191.9958765847
 20
108.175511581
 11
192.7423842417
 21
108.6076035097
  0
LINE
  5
282
100
AcDbEntity
  8
0
100
AcDbLine
 62
7
  6
CONTINUOUS
 10
193.1880511265
 20
139.5200853774
 11
191.9543665015
 21
140.5817358641
  0
LINE
  5
283
100
AcDbEntity
  8
0
100
AcDbLine
 62
7
  6
CONTINUOUS
 10
191.9658624288
 20
140.595094638
 11
193.1816547547
 21
139.5488414155
  0
LINE
  5
284
100
AcDbEntity
  8
0
100
AcDbLine
 62
7
  6
CONTINUOUS
 10
192.9930748046
 20
139.923831131
 11
192.7131685739
 21
140.1647051599
  0
LINE
  5
285
100
AcDbEntity
  8
0
100
AcDbLine
 62
7
  6
CONTINUOUS
 10
200.8927172328
 20
114.2303485434
 11
204.4641877909
 21
114.9134652434
  0
LINE
  5
286
100
AcDbEntity
  8
0
100
AcDbLine
 62
7
  6
CONTINUOUS
 10
192.7131685739
 20
140.1647051599
 11
191.9658624288
 21
140.595094638
  0
LINE
  5
287
100
AcDbEntity
  8
0
100
AcDbLine
 62
7
  6
CONTINUOUS
 10
232.7321172856
 20
113.7861307616
 11
201.2114269431
 21
140.9113421518
  0
LINE
  5
288
100
AcDbEntity
  8
0
100
AcDbLine
 62
7
  6
CONTINUOUS
 10
232.3909244758
 20
86.3137877016
 11
232.332544872
 21
86.9984096499
  0
LINE
  5
289
100
AcDbEntity
  8
0
100
AcDbLine
 62
7
  6
CONTINUOUS
 10
232.7453531946
 20
99.4894551236
 11
232.7321172856
 21
113.7861307616
  0
LINE
  5
28A
100
AcDbEntity
  8
0
100
AcDbLine
 62
7
  6
CONTINUOUS
 10
239.1837321247
 20
125.196424922
 11
239.3333123853
 21
128.6130032869
  0
LINE
  5
28B
100
AcDbEntity
  8
0
100
AcDbLine
 62
7
  6
CONTINUOUS
 10
236.1470454524
 20
87.9741153981
 11
236.3065189659
 21
90.9781055614
  0
LINE
  5
28C
100
AcDbEntity
  8
0
100
AcDbLine
 62
7
  6
CONTINUOUS
 10
238.998869902
 20
125.0057086153
 11
207.4781795595
 21
152.1309200056
  0
LINE
  5
28D
100
AcDbEntity
  8
0
100
AcDbLine
 62
7
  6
CONTINUOUS
 10
207.6630417822
 20
152.3216363122
 11
239.1837321247
 21
125.196424922
  0
LINE
  5
28E
100
AcDbEntity
  8
0
100
AcDbLine
 62
7
  6
CONTINUOUS
 10
239.3333123853
 20
128.6130032869
 11
207.8126220428
 21
155.7382146771
  0
LINE
  5
28F
100
AcDbEntity
  8
0
100
AcDbLine
 62
7
  6
CONTINUOUS
 10
207.9119097785
 20
155.8338512188
 11
239.4326001211
 21
128.7086398286
  0
LINE
  5
290
100
AcDbEntity
  8
0
100
AcDbLine
 62
7
  6
CONTINUOUS
 10
262.1404997192
 20
142.0426105639
 11
262.9368156437
 21
146.8005337891
  0
LINE
  5
291
100
AcDbEntity
  8
0
100
AcDbLine
 62
7
  6
CONTINUOUS
 10
192.2825141688
 20
151.0290102958
 11
193.5165721086
 21
151.248057146
  0
LINE
  5
292
100
AcDbEntity
  8
0
100
AcDbLine
 62
7
  6
CONTINUOUS
 10
261.9360046702
 20
141.8757304139
 11
230.4153143277
 21
169.0009418041
  0
LINE
  5
293
100
AcDbEntity
  8
0
100
AcDbLine
 62
7
  6
CONTINUOUS
 10
220.3685262538
 20
173.8461734293
 11
222.1683016643
 21
172.8096445519
  0
LINE
  5
294
100
AcDbEntity
  8
0
100
AcDbLine
 62
7
  6
CONTINUOUS
 10
230.6198093767
 20
169.1678219541
 11
262.1404997192
 21
142.0426105639
  0
LINE
  5
295
100
AcDbEntity
  8
0
100
AcDbLine
 62
7
  6
CONTINUOUS
 10
262.9368156437
 20
146.8005337891
 11
231.4161253012
 21
173.9257451793
  0
LINE
  5
296
100
AcDbEntity
  8
0
100
AcDbLine
 62
7
  6
CONTINUOUS
 10
231.4161253012
 20
173.9257451793
 11
224.715998551
 21
173.9181092648
  0
LINE
  5
297
100
AcDbEntity
  8
0
100
AcDbLine
 62
7
  6
CONTINUOUS
 10
220.1184954001
 20
173.9128696414
 11
214.9955223332
 21
173.9070311572
  0
LINE
  5
298
100
AcDbEntity
  8
0
100
AcDbLine
 62
7
  6
CONTINUOUS
 10
62.1698356021
 20
79.9515786534
 11
66.2069817517
 21
80.5762733002
  0
LINE
  5
299
100
AcDbEntity
  8
0
100
AcDbLine
 62
7
  6
CONTINUOUS
 10
63.2754980348
 20
88.2015786534
 11
62.2368229002
 21
90.0006167591
  0
LINE
  5
29A
100
AcDbEntity
  8
0
100
AcDbLine
 62
7
  6
CONTINUOUS
 10
93.4058356021
 20
158.8459162207
 11
95.2048737077
 21
159.8845913553
  0
LINE
  5
29B
100
AcDbEntity
  8
0
100
AcDbLine
 62
7
  6
CONTINUOUS
 10
62.2368229002
 20
129.9025405477
 11
63.2754980348
 21
131.7015786534
  0
LINE
  5
29C
100
AcDbEntity
  8
0
100
AcDbLine
 62
7
  6
CONTINUOUS
 10
62.1698356021
 20
136.1125425317
 11
62.1698356021
 21
134.2506167591
  0
LINE
  5
29D
100
AcDbEntity
  8
0
100
AcDbLine
 62
7
  6
CONTINUOUS
 10
62.1698356021
 20
129.6525405477
 11
62.1698356021
 21
127.5288654131
  0
LINE
  5
29E
100
AcDbEntity
  8
0
100
AcDbLine
 62
7
  6
CONTINUOUS
 10
62.1698356021
 20
93.3742283842
 11
62.1698356021
 21
90.2506167591
  0
LINE
  5
29F
100
AcDbEntity
  8
0
100
AcDbLine
 62
7
  6
CONTINUOUS
 10
62.1698356021
 20
85.6525405477
 11
62.1698356021
 21
79.9515786534
  0
LINE
  5
2A0
100
AcDbEntity
  8
0
100
AcDbLine
 62
7
  6
CONTINUOUS
 10
63.9168356021
 20
125.3655339545
 11
63.9168356021
 21
95.5375598429
  0
LINE
  5
2A1
100
AcDbEntity
  8
0
100
AcDbLine
 62
7
  6
CONTINUOUS
 10
80.9120890418
 20
152.6011939966
 11
84.8671604675
 21
159.4515786534
  0
LINE
  5
2A2
100
AcDbEntity
  8
0
100
AcDbLine
 62
7
  6
CONTINUOUS
 10
71.5733820983
 20
100.2855048809
 11
75.1459265671
 21
100.9646134796
  0
LINE
  5
2A3
100
AcDbEntity
  8
0
100
AcDbLine
 62
7
  6
CONTINUOUS
 10
71.6222017817
 20
98.6399819763
 11
71.4924105802
 21
100.1788597687
  0
LINE
  5
2A4
100
AcDbEntity
  8
0
100
AcDbLine
 62
7
  6
CONTINUOUS
 10
71.9168356021
 20
112.6705786534
 11
71.9168356021
 21
126.9685786534
  0
LINE
  5
2A5
100
AcDbEntity
  8
0
100
AcDbLine
 62
7
  6
CONTINUOUS
 10
63.2754980348
 20
132.2015786534
 11
62.2368229002
 21
134.0006167591
  0
LINE
  5
2A6
100
AcDbEntity
  8
0
100
AcDbLine
 62
7
  6
CONTINUOUS
 10
75.3082860209
 20
101.1503072118
 11
75.4705606915
 21
104.1543907144
  0
LINE
  5
2A7
100
AcDbEntity
  8
0
100
AcDbLine
 62
7
  6
CONTINUOUS
 10
78.3798127944
 20
138.3725643909
 11
78.5325750121
 21
141.7892851555
  0
LINE
  5
2A8
100
AcDbEntity
  8
0
100
AcDbLine
 62
7
  6
CONTINUOUS
 10
63.4168356021
 20
126.2315593583
 11
62.6698356021
 21
126.6628400093
  0
LINE
  5
2A9
100
AcDbEntity
  8
0
100
AcDbLine
 62
7
  6
CONTINUOUS
 10
62.2368229002
 20
85.9025405477
 11
63.2754980348
 21
87.7015786534
  0
LINE
  5
2AA
100
AcDbEntity
  8
0
100
AcDbLine
 62
7
  6
CONTINUOUS
 10
101.3550158149
 20
155.1941273203
 11
102.1558356021
 21
159.9515786534
  0
LINE
  5
2AB
100
AcDbEntity
  8
0
100
AcDbLine
 62
7
  6
CONTINUOUS
 10
62.6698356021
 20
94.240253788
 11
63.4168356021
 21
94.6715344391
  0
LINE
  5
2AC
100
AcDbEntity
  8
0
100
AcDbLine
 62
7
  6
CONTINUOUS
 10
62.9961874244
 20
137.0973502847
 11
64.2306007017
 21
137.3150106508
  0
LINE
  5
2AD
100
AcDbEntity
  8
0
100
AcDbLine
 62
7
  6
CONTINUOUS
 10
91.1067974964
 20
159.8845913553
 11
92.9058356021
 21
158.8459162207
  0
LINE
  5
2AE
100
AcDbEntity
  8
0
100
AcDbLine
 62
7
  6
CONTINUOUS
 10
102.1558356021
 20
159.9515786534
 11
95.4548737077
 21
159.9515786534
  0
LINE
  5
2AF
100
AcDbEntity
  8
0
100
AcDbLine
 62
7
  6
CONTINUOUS
 10
90.8567974964
 20
159.9515786534
 11
85.7331858713
 21
159.9515786534
  0
ARC
  5
2B0
100
AcDbEntity
  8
0
100
AcDbCircle
 62
7
  6
CONTINUOUS
 10
229.6882199351
 20
132.4604257993
 40
40.0075894306
100
AcDbArc
 50
133.0828403749
 51
150.3879133393
  0
ARC
  5
2B1
100
AcDbEntity
  8
0
100
AcDbCircle
 62
7
  6
CONTINUOUS
 10
207.8260063637
 20
155.8370766696
 40
8.0009621777
100
AcDbArc
 50
101.719671472
 51
133.0835786546
  0
ARC
  5
2B2
100
AcDbEntity
  8
0
100
AcDbCircle
 62
7
  6
CONTINUOUS
 10
204.9818184433
 20
169.5471157575
 40
6.0009868552
100
AcDbArc
 50
281.7202885134
 51
330.0574361267
  0
ARC
  5
2B3
100
AcDbEntity
  8
0
100
AcDbCircle
 62
7
  6
CONTINUOUS
 10
193.1669259643
 20
153.217581567
 40
2.0003196923
100
AcDbArc
 50
280.0667362697
 51
330.3883738223
  0
ARC
  5
2B4
100
AcDbEntity
  8
0
100
AcDbCircle
 62
7
  6
CONTINUOUS
 10
192.4668622122
 20
141.4641247283
 40
1.0031022284
100
AcDbArc
 50
229.2552070054
 51
240.0363562883
  0
ARC
  5
2B5
100
AcDbEntity
  8
0
100
AcDbCircle
 62
7
  6
CONTINUOUS
 10
192.2121687905
 20
139.2956750697
 40
1.0031022284
100
AcDbArc
 50
49.2552070054
 51
60.0363562883
  0
ARC
  5
2B6
100
AcDbEntity
  8
0
100
AcDbCircle
 62
7
  6
CONTINUOUS
 10
192.4574273041
 20
150.0441718522
 40
1.0002613694
100
AcDbArc
 50
100.0710525039
 51
180.0469558527
  0
ARC
  5
2B7
100
AcDbEntity
  8
0
100
AcDbCircle
 62
7
  6
CONTINUOUS
 10
192.4969068274
 20
107.3098892698
 40
1.000166631
100
AcDbArc
 50
120.0626575596
 51
180.051135934
  0
ARC
  5
2B8
100
AcDbEntity
  8
0
100
AcDbCircle
 62
7
  6
CONTINUOUS
 10
192.2413539989
 20
109.4732258208
 40
1.000166631
100
AcDbArc
 50
300.0626575596
 51
0.051135934
  0
ARC
  5
2B9
100
AcDbEntity
  8
0
100
AcDbCircle
 62
7
  6
CONTINUOUS
 10
214.9967070931
 20
172.9069086508
 40
1.0001232082
100
AcDbArc
 50
90.0678733977
 51
150.0581724724
  0
ARC
  5
2BA
100
AcDbEntity
  8
0
100
AcDbCircle
 62
7
  6
CONTINUOUS
 10
192.4647633376
 20
141.4613639319
 40
0.9996406881
100
AcDbArc
 50
180.0512333274
 51
229.2430680723
  0
ARC
  5
2BB
100
AcDbEntity
  8
0
100
AcDbCircle
 62
7
  6
CONTINUOUS
 10
192.2142676651
 20
139.298435866
 40
0.9996406881
100
AcDbArc
 50
0.0512333274
 51
49.2430680724
  0
ARC
  5
2BC
100
AcDbEntity
  8
0
100
AcDbCircle
 62
7
  6
CONTINUOUS
 10
192.0040300185
 20
99.5884548034
 40
0.5001415075
100
AcDbArc
 50
150.0592918907
 51
180.049350074
  0
ARC
  5
2BD
100
AcDbEntity
  8
0
100
AcDbCircle
 62
7
  6
CONTINUOUS
 10
191.9632984479
 20
143.5843792733
 40
0.5001415075
100
AcDbArc
 50
150.0592918907
 51
180.0493500741
  0
ARC
  5
2BE
100
AcDbEntity
  8
0
100
AcDbCircle
 62
7
  6
CONTINUOUS
 10
224.7165953486
 20
173.4180315994
 40
0.5000780216
100
AcDbArc
 50
90.0683773092
 51
120.0614872064
  0
ARC
  5
2BF
100
AcDbEntity
  8
0
100
AcDbCircle
 62
7
  6
CONTINUOUS
 10
191.9996195696
 20
104.186156893
 40
0.4999876257
100
AcDbArc
 50
180.0552987538
 51
210.0515208169
  0
ARC
  5
2C0
100
AcDbEntity
  8
0
100
AcDbCircle
 62
7
  6
CONTINUOUS
 10
191.958887999
 20
148.1820813628
 40
0.4999876257
100
AcDbArc
 50
180.0552987538
 51
210.0515208169
  0
ARC
  5
2C1
100
AcDbEntity
  8
0
100
AcDbCircle
 62
7
  6
CONTINUOUS
 10
220.1190508512
 20
173.412945803
 40
0.499924147
100
AcDbArc
 50
60.0643846689
 51
90.063659672
  0
ARC
  5
2C2
100
AcDbEntity
  8
0
100
AcDbCircle
 62
7
  6
CONTINUOUS
 10
192.1744184228
 20
101.8877083574
 40
0.4998621518
100
AcDbArc
 50
330.046972642
 51
30.0591165673
  0
ARC
  5
2C3
100
AcDbEntity
  8
0
100
AcDbCircle
 62
7
  6
CONTINUOUS
 10
192.1336868522
 20
145.8836328273
 40
0.4998621518
100
AcDbArc
 50
330.046972642
 51
30.0591165673
  0
ARC
  5
2C4
100
AcDbEntity
  8
0
100
AcDbCircle
 62
7
  6
CONTINUOUS
 10
222.4177772347
 20
173.2427504486
 40
0.4998187452
100
AcDbArc
 50
240.0574044592
 51
300.0731917223
  0
ARC
  5
2C5
100
AcDbEntity
  8
0
100
AcDbCircle
 62
7
  6
CONTINUOUS
 10
227.0351026916
 20
67.5892582325
 40
0.2000306289
100
AcDbArc
 50
278.8628122595
 51
7.0405057909
  0
ARC
  5
2C6
100
AcDbEntity
  8
0
100
AcDbCircle
 62
7
  6
CONTINUOUS
 10
195.5144123491
 20
94.7144696227
 40
0.2000306289
100
AcDbArc
 50
278.8628122595
 51
7.0405057909
  0
ARC
  5
2C7
100
AcDbEntity
  8
0
100
AcDbCircle
 62
7
  6
CONTINUOUS
 10
235.947346382
 20
87.9846785635
 40
0.1999782468
100
AcDbArc
 50
280.8173741111
 51
356.9721377053
  0
ARC
  5
2C8
100
AcDbEntity
  8
0
100
AcDbCircle
 62
7
  6
CONTINUOUS
 10
204.4266560395
 20
115.1098899537
 40
0.1999782468
100
AcDbArc
 50
280.8173741111
 51
356.9721377053
  0
ARC
  5
2C9
100
AcDbEntity
  8
0
100
AcDbCircle
 62
7
  6
CONTINUOUS
 10
238.9839492022
 20
125.2051233896
 40
0.1999721968
100
AcDbArc
 50
274.2790366194
 51
357.5069395137
  0
ARC
  5
2CA
100
AcDbEntity
  8
0
100
AcDbCircle
 62
7
  6
CONTINUOUS
 10
207.4632588597
 20
152.3303347798
 40
0.1999721968
100
AcDbArc
 50
274.2790366194
 51
357.5069395138
  0
ARC
  5
2CB
100
AcDbEntity
  8
0
100
AcDbCircle
 62
7
  6
CONTINUOUS
 10
261.9432646427
 20
142.0755682995
 40
0.199969717
100
AcDbArc
 50
267.9193988884
 51
350.5135917973
  0
ARC
  5
2CC
100
AcDbEntity
  8
0
100
AcDbCircle
 62
7
  6
CONTINUOUS
 10
230.4225743002
 20
169.2007796897
 40
0.199969717
100
AcDbArc
 50
267.9193988884
 51
350.5135917973
  0
ARC
  5
2CD
100
AcDbEntity
  8
0
100
AcDbCircle
 62
7
  6
CONTINUOUS
 10
236.1069640196
 20
90.9887417129
 40
0.1998381953
100
AcDbArc
 50
356.9490583221
 51
49.2241305745
  0
ARC
  5
2CE
100
AcDbEntity
  8
0
100
AcDbCircle
 62
7
  6
CONTINUOUS
 10
204.5862736771
 20
118.1139531031
 40
0.1998381953
100
AcDbArc
 50
356.9490583221
 51
49.2241305745
  0
ARC
  5
2CF
100
AcDbEntity
  8
0
100
AcDbCircle
 62
7
  6
CONTINUOUS
 10
232.4321672226
 20
87.0069270026
 40
0.0999857892
100
AcDbArc
 50
100.814105538
 51
184.8866995479
  0
ARC
  5
2D0
100
AcDbEntity
  8
0
100
AcDbCircle
 62
7
  6
CONTINUOUS
 10
200.9114768801
 20
114.1321383928
 40
0.0999857892
100
AcDbArc
 50
100.814105538
 51
184.8866995479
  0
ARC
  5
2D1
100
AcDbEntity
  8
0
100
AcDbCircle
 62
7
  6
CONTINUOUS
 10
239.4332024477
 20
128.6086570735
 40
0.0999845694
100
AcDbArc
 50
90.3451630757
 51
177.5086338202
  0
ARC
  5
2D2
100
AcDbEntity
  8
0
100
AcDbCircle
 62
7
  6
CONTINUOUS
 10
207.9125121052
 20
155.7338684637
 40
0.0999845694
100
AcDbArc
 50
90.3451630757
 51
177.5086338202
  0
ARC
  5
2D3
100
AcDbEntity
  8
0
100
AcDbCircle
 62
7
  6
CONTINUOUS
 10
100.3770556611
 20
118.4950587016
 40
40.0
100
AcDbArc
 50
133.0225403271
 51
150.3309287671
  0
ARC
  5
2D4
100
AcDbEntity
  8
0
100
AcDbCircle
 62
7
  6
CONTINUOUS
 10
78.5439028943
 20
141.8897897379
 40
8.0
100
AcDbArc
 50
101.653797084
 51
133.0225403271
  0
ARC
  5
2D5
100
AcDbEntity
  8
0
100
AcDbCircle
 62
7
  6
CONTINUOUS
 10
75.7159366191
 20
155.6011939966
 40
6.0
100
AcDbArc
 50
281.653797084
 51
330.0
  0
ARC
  5
2D6
100
AcDbEntity
  8
0
100
AcDbCircle
 62
7
  6
CONTINUOUS
 10
63.8833043463
 20
139.2846261569
 40
2.0
100
AcDbArc
 50
280.0
 51
330.3309287672
  0
ARC
  5
2D7
100
AcDbEntity
  8
0
100
AcDbCircle
 62
7
  6
CONTINUOUS
 10
63.1698356021
 20
93.3742283842
 40
1.0
100
AcDbArc
 50
120.0
 51
180.0
  0
ARC
  5
2D8
100
AcDbEntity
  8
0
100
AcDbCircle
 62
7
  6
CONTINUOUS
 10
63.1698356021
 20
127.5288654131
 40
1.0
100
AcDbArc
 50
180.0
 51
240.0
  0
ARC
  5
2D9
100
AcDbEntity
  8
0
100
AcDbCircle
 62
7
  6
CONTINUOUS
 10
63.1698356021
 20
136.1125425317
 40
1.0
100
AcDbArc
 50
100.0
 51
180.0
  0
ARC
  5
2DA
100
AcDbEntity
  8
0
100
AcDbCircle
 62
7
  6
CONTINUOUS
 10
85.7331858713
 20
158.9515786534
 40
1.0
100
AcDbArc
 50
90.0
 51
150.0
  0
ARC
  5
2DB
100
AcDbEntity
  8
0
100
AcDbCircle
 62
7
  6
CONTINUOUS
 10
62.9168356021
 20
95.5375598429
 40
1.0
100
AcDbArc
 50
300.0
 51
360.0
  0
ARC
  5
2DC
100
AcDbEntity
  8
0
100
AcDbCircle
 62
7
  6
CONTINUOUS
 10
62.9168356021
 20
125.3655339545
 40
1.0
100
AcDbArc
 50
0.0
 51
60.0
  0
ARC
  5
2DD
100
AcDbEntity
  8
0
100
AcDbCircle
 62
7
  6
CONTINUOUS
 10
62.6698356021
 20
85.6525405477
 40
0.5
100
AcDbArc
 50
150.0
 51
180.0
  0
ARC
  5
2DE
100
AcDbEntity
  8
0
100
AcDbCircle
 62
7
  6
CONTINUOUS
 10
62.6698356021
 20
90.2506167591
 40
0.5
100
AcDbArc
 50
180.0
 51
210.0
  0
ARC
  5
2DF
100
AcDbEntity
  8
0
100
AcDbCircle
 62
7
  6
CONTINUOUS
 10
62.6698356021
 20
129.6525405477
 40
0.5
100
AcDbArc
 50
150.0
 51
180.0
  0
ARC
  5
2E0
100
AcDbEntity
  8
0
100
AcDbCircle
 62
7
  6
CONTINUOUS
 10
62.6698356021
 20
134.2506167591
 40
0.5
100
AcDbArc
 50
180.0
 51
210.0
  0
ARC
  5
2E1
100
AcDbEntity
  8
0
100
AcDbCircle
 62
7
  6
CONTINUOUS
 10
90.8567974964
 20
159.4515786534
 40
0.5
100
AcDbArc
 50
60.0
 51
90.0
  0
ARC
  5
2E2
100
AcDbEntity
  8
0
100
AcDbCircle
 62
7
  6
CONTINUOUS
 10
95.4548737077
 20
159.4515786534
 40
0.5
100
AcDbArc
 50
90.0
 51
120.0
  0
ARC
  5
2E3
100
AcDbEntity
  8
0
100
AcDbCircle
 62
7
  6
CONTINUOUS
 10
93.1558356021
 20
159.2789289226
 40
0.5
100
AcDbArc
 50
240.0
 51
300.0
  0
ARC
  5
2E4
100
AcDbEntity
  8
0
100
AcDbCircle
 62
7
  6
CONTINUOUS
 10
62.8424853329
 20
131.9515786534
 40
0.5
100
AcDbArc
 50
330.0
 51
30.0
  0
ARC
  5
2E5
100
AcDbEntity
  8
0
100
AcDbCircle
 62
7
  6
CONTINUOUS
 10
62.8424853329
 20
87.9515786534
 40
0.5
100
AcDbArc
 50
330.0
 51
30.0
  0
ARC
  5
2E6
100
AcDbEntity
  8
0
100
AcDbCircle
 62
7
  6
CONTINUOUS
 10
75.1085771786
 20
101.1610950899
 40
0.2
100
AcDbArc
 50
280.763
 51
356.908
  0
ARC
  5
2E7
100
AcDbEntity
  8
0
100
AcDbCircle
 62
7
  6
CONTINUOUS
 10
66.1763983828
 20
80.7739211121
 40
0.2
100
AcDbArc
 50
278.796
 51
6.9906635427
  0
ARC
  5
2E8
100
AcDbEntity
  8
0
100
AcDbCircle
 62
7
  6
CONTINUOUS
 10
101.1577904724
 20
155.2273261795
 40
0.2
100
AcDbArc
 50
267.8653824309
 51
350.445
  0
ARC
  5
2E9
100
AcDbEntity
  8
0
100
AcDbCircle
 62
7
  6
CONTINUOUS
 10
78.1800123953
 20
138.3814975037
 40
0.2
100
AcDbArc
 50
274.2261695583
 51
357.44
  0
ARC
  5
2EA
100
AcDbEntity
  8
0
100
AcDbCircle
 62
7
  6
CONTINUOUS
 10
75.2708518492
 20
104.1651785925
 40
0.2
100
AcDbArc
 50
356.908
 51
71.5952120535
  0
ARC
  5
2EB
100
AcDbEntity
  8
0
100
AcDbCircle
 62
7
  6
CONTINUOUS
 10
71.721847994
 20
98.6483862834
 40
0.1
100
AcDbArc
 50
184.821
 51
252.3167731914
  0
ARC
  5
2EC
100
AcDbEntity
  8
0
100
AcDbCircle
 62
7
  6
CONTINUOUS
 10
71.5920567925
 20
100.1872640758
 40
0.1
100
AcDbArc
 50
100.763
 51
184.821
  0
ARC
  5
2ED
100
AcDbEntity
  8
0
100
AcDbCircle
 62
7
  6
CONTINUOUS
 10
78.6324752117
 20
141.7848185991
 40
0.1
100
AcDbArc
 50
90.2931501104
 51
177.44
  0
SPLINE
  5
2EE
100
AcDbEntity
  8
0
100
AcDbSpline
 62
7
  6
CONTINUOUS
 70
0
 71
3
 72
9
 73
5
 74
0
 42
0.0000001
 43
0.0000001
 44
0.0000000001
 40
0.0
 40
0.0
 40
0.0
 40
0.0
 40
0.5048491192
 40
1.0
 40
1.0
 40
1.0
 40
1.0
 10
204.649096807
 20
118.3037005619
 30
0.0
 10
204.3282437009
 20
118.4100689472
 30
0.0
 10
203.6993129255
 20
118.6431803941
 30
0.0
 10
203.1205546621
 20
118.9978332864
 30
0.0
 10
202.8692608985
 20
119.2140845621
 30
0.0
  0
SPLINE
  5
2EF
100
AcDbEntity
  8
0
100
AcDbSpline
 62
7
  6
CONTINUOUS
 70
0
 71
3
 72
8
 73
4
 74
0
 42
0.0000001
 43
0.0000001
 44
0.0000000001
 40
0.0
 40
0.0
 40
0.0
 40
0.0
 40
1.0
 40
1.0
 40
1.0
 40
1.0
 10
204.7167883485
 20
118.2652846096
 30
0.0
 10
204.6971180786
 20
118.2822015785
 30
0.0
 10
204.6737230529
 20
118.2955365331
 30
0.0
 10
204.649096807
 20
118.3037005619
 30
0.0
  0
SPLINE
  5
2F0
100
AcDbEntity
  8
0
100
AcDbSpline
 62
7
  6
CONTINUOUS
 70
0
 71
3
 72
14
 73
10
 74
0
 42
0.0000001
 43
0.0000001
 44
0.0000000001
 40
0.0
 40
0.0
 40
0.0
 40
0.0
 40
0.1319236999
 40
0.269334606
 40
0.409068328
 40
0.5473493419
 40
0.8027090015
 40
0.910912001
 40
1.0
 40
1.0
 40
1.0
 40
1.0
 10
233.3991942871
 20
93.5801020166
 30
0.0
 10
233.3037663071
 20
93.8250765843
 30
0.0
 10
233.1423234873
 20
94.3384232397
 30
0.0
 10
232.9723829795
 20
95.1365050312
 30
0.0
 10
232.857445528
 20
95.9569246866
 30
0.0
 10
232.7661286569
 20
97.0162870542
 30
0.0
 10
232.7383800222
 20
98.0167236399
 30
0.0
 10
232.7406019137
 20
98.918756476
 30
0.0
 10
232.7446938539
 20
99.3119167531
 30
0.0
 10
232.7453531946
 20
99.4894551236
 30
0.0
  0
SPLINE
  5
2F1
100
AcDbEntity
  8
0
100
AcDbSpline
 62
7
  6
CONTINUOUS
 70
0
 71
3
 72
9
 73
5
 74
0
 42
0.0000001
 43
0.0000001
 44
0.0000000001
 40
0.0
 40
0.0
 40
0.0
 40
0.0
 40
0.446772986
 40
1.0
 40
1.0
 40
1.0
 40
1.0
 10
203.4162356395
 20
111.2480309275
 30
0.0
 10
203.1088444697
 20
111.5125562536
 30
0.0
 10
202.3401688987
 20
112.0120071752
 30
0.0
 10
201.4910082895
 20
112.3462453007
 30
0.0
 10
201.0123967021
 20
112.4982499326
 30
0.0
  0
SPLINE
  5
2F2
100
AcDbEntity
  8
0
100
AcDbSpline
 62
7
  6
CONTINUOUS
 70
0
 71
3
 72
28
 73
24
 74
0
 42
0.0000001
 43
0.0000001
 44
0.0000000001
 40
0.0
 40
0.0
 40
0.0
 40
0.0
 40
0.0856079706
 40
0.1570841007
 40
0.2190707323
 40
0.2758696915
 40
0.3307278324
 40
0.3854436819
 40
0.4405191484
 40
0.4956033189
 40
0.5500368709
 40
0.6034030606
 40
0.6560246537
 40
0.6825558975
 40
0.7096821126
 40
0.737890123
 40
0.7677576184
 40
0.7999221666
 40
0.8347741098
 40
0.8716738579
 40
0.910494742
 40
0.9524122044
 40
1.0
 40
1.0
 40
1.0
 40
1.0
 10
227.2336246286
 20
67.6137761366
 30
0.0
 10
227.1606338221
 20
68.2045159438
 30
0.0
 10
227.0957592838
 20
69.3003044779
 30
0.0
 10
227.2848679425
 20
70.8219375046
 30
0.0
 10
227.7341206787
 20
72.078630403
 30
0.0
 10
228.3953910927
 20
73.1005517498
 30
0.0
 10
229.2117438752
 20
73.9288323924
 30
0.0
 10
230.1320062241
 20
74.6145328827
 30
0.0
 10
231.1134246634
 20
75.2086038111
 30
0.0
 10
232.1172992908
 20
75.7579795691
 30
0.0
 10
233.1059464724
 20
76.3108912908
 30
0.0
 10
234.0400986692
 20
76.9233840131
 30
0.0
 10
234.7377998288
 20
77.5330111363
 30
0.0
 10
235.2154934612
 20
78.0985872151
 30
0.0
 10
235.5322426819
 20
78.5731145433
 30
0.0
 10
235.8000851026
 20
79.1031542273
 30
0.0
 10
236.0132343499
 20
79.6949453661
 30
0.0
 10
236.1653172546
 20
80.3525374176
 30
0.0
 10
236.2518884836
 20
81.0716786428
 30
0.0
 10
236.2278335347
 20
81.8440911839
 30
0.0
 10
236.0363047657
 20
82.6466603889
 30
0.0
 10
235.6171164783
 20
83.4454548957
 30
0.0
 10
235.1877245163
 20
83.9069949771
 30
0.0
 10
234.936925982
 20
84.1228195373
 30
0.0
  0
SPLINE
  5
2F3
100
AcDbEntity
  8
0
100
AcDbSpline
 62
7
  6
CONTINUOUS
 70
0
 71
3
 72
29
 73
25
 74
0
 42
0.0000001
 43
0.0000001
 44
0.0000000001
 40
0.0
 40
0.0
 40
0.0
 40
0.0
 40
0.0739072686
 40
0.1369528108
 40
0.1921513041
 40
0.2178020354
 40
0.2426129977
 40
0.2669047632
 40
0.2909514358
 40
0.3391375368
 40
0.3882397561
 40
0.4383251289
 40
0.4891071206
 40
0.5405296537
 40
0.59330734
 40
0.6207817393
 40
0.6494222704
 40
0.6797052968
 40
0.7123109093
 40
0.7874998459
 40
0.831737412
 40
0.8814085038
 40
0.9372567076
 40
1.0
 40
1.0
 40
1.0
 40
1.0
 10
239.4326001211
 20
128.7086398286
 30
0.0
 10
240.1293765285
 20
128.7129990986
 30
0.0
 10
241.4229070202
 20
128.7944258161
 30
0.0
 10
243.1993983447
 20
129.1905175963
 30
0.0
 10
244.4530902138
 20
129.7349627572
 30
0.0
 10
245.2929136235
 20
130.2737392041
 30
0.0
 10
245.8443385392
 20
130.71468734
 30
0.0
 10
246.3373224385
 20
131.1985622311
 30
0.0
 10
246.9233423973
 20
131.896449445
 30
0.0
 10
247.5422674853
 20
132.8635071239
 30
0.0
 10
248.1678802183
 20
134.1048522386
 30
0.0
 10
248.7586116941
 20
135.3893329426
 30
0.0
 10
249.3921406449
 20
136.6784710376
 30
0.0
 10
250.1476207675
 20
137.9325933579
 30
0.0
 10
250.9385409473
 20
138.897925229
 30
0.0
 10
251.6948531649
 20
139.5943730768
 30
0.0
 10
252.3474538194
 20
140.0842263321
 30
0.0
 10
253.0889655586
 20
140.52872055
 30
0.0
 10
254.2716389885
 20
141.0779169729
 30
0.0
 10
255.6595777781
 20
141.4724917598
 30
0.0
 10
257.2333240347
 20
141.7303819239
 30
0.0
 10
258.6403243124
 20
141.861601433
 30
0.0
 10
260.2264550016
 20
141.9152363531
 30
0.0
 10
261.3448532229
 20
141.897090862
 30
0.0
 10
261.9360046702
 20
141.8757304139
 30
0.0
  0
SPLINE
  5
2F4
100
AcDbEntity
  8
0
100
AcDbSpline
 62
7
  6
CONTINUOUS
 70
0
 71
3
 72
21
 73
17
 74
0
 42
0.0000001
 43
0.0000001
 44
0.0000000001
 40
0.0
 40
0.0
 40
0.0
 40
0.0
 40
0.1310778534
 40
0.2583047754
 40
0.3197834938
 40
0.3795360127
 40
0.4374070778
 40
0.493320396
 40
0.5473036683
 40
0.5995648625
 40
0.6510126087
 40
0.7037033
 40
0.7608754437
 40
0.8265591549
 40
0.9049505263
 40
1.0
 40
1.0
 40
1.0
 40
1.0
 10
232.7321172856
 20
113.7861307616
 30
0.0
 10
232.7407532113
 20
114.4281802684
 30
0.0
 10
232.7633455227
 20
115.6933569719
 30
0.0
 10
232.8429615796
 20
117.2585507679
 30
0.0
 10
232.9617702181
 20
118.4701031007
 30
0.0
 10
233.0821186793
 20
119.3394674065
 30
0.0
 10
233.2403453486
 20
120.175131345
 30
0.0
 10
233.4420138324
 20
120.9725125554
 30
0.0
 10
233.6936277466
 20
121.7267543834
 30
0.0
 10
234.0002914509
 20
122.4373108587
 30
0.0
 10
234.3993388729
 20
123.0954267149
 30
0.0
 10
234.9339310192
 20
123.6851105773
 30
0.0
 10
235.6405159944
 20
124.186764719
 30
0.0
 10
236.5487152662
 20
124.5848108317
 30
0.0
 10
237.6888468959
 20
124.8707556503
 30
0.0
 10
238.5345590761
 20
124.9708658955
 30
0.0
 10
238.998869902
 20
125.0057086153
 30
0.0
  0
SPLINE
  5
2F5
100
AcDbEntity
  8
0
100
AcDbSpline
 62
7
  6
CONTINUOUS
 70
0
 71
3
 72
8
 73
4
 74
0
 42
0.0000001
 43
0.0000001
 44
0.0000000001
 40
0.0
 40
0.0
 40
0.0
 40
0.0
 40
1.0
 40
1.0
 40
1.0
 40
1.0
 10
201.0123967021
 20
112.4982499326
 30
0.0
 10
200.9996904688
 20
112.5022853683
 30
0.0
 10
200.9875842399
 20
112.5090510794
 30
0.0
 10
200.9774700009
 20
112.5177364277
 30
0.0
  0
SPLINE
  5
2F6
100
AcDbEntity
  8
0
100
AcDbSpline
 62
7
  6
CONTINUOUS
 70
0
 71
3
 72
28
 73
24
 74
0
 42
0.0000001
 43
0.0000001
 44
0.0000000001
 40
0.0
 40
0.0
 40
0.0
 40
0.0
 40
0.0856079706
 40
0.1570841007
 40
0.2190707323
 40
0.2758696915
 40
0.3307278324
 40
0.3854436819
 40
0.4405191484
 40
0.4956033189
 40
0.5500368709
 40
0.6034030606
 40
0.6560246537
 40
0.6825558975
 40
0.7096821126
 40
0.737890123
 40
0.7677576184
 40
0.7999221666
 40
0.8347741098
 40
0.8716738579
 40
0.910494742
 40
0.9524122044
 40
1.0
 40
1.0
 40
1.0
 40
1.0
 10
195.7129342861
 20
94.7389875268
 30
0.0
 10
195.6399434796
 20
95.329727334
 30
0.0
 10
195.5750689413
 20
96.4255158681
 30
0.0
 10
195.7641776
 20
97.9471488948
 30
0.0
 10
196.2134303361
 20
99.2038417932
 30
0.0
 10
196.8747007501
 20
100.22576314
 30
0.0
 10
197.6910535327
 20
101.0540437826
 30
0.0
 10
198.6113158816
 20
101.7397442729
 30
0.0
 10
199.5927343209
 20
102.3338152013
 30
0.0
 10
200.5966089483
 20
102.8831909593
 30
0.0
 10
201.5852561299
 20
103.436102681
 30
0.0
 10
202.5194083267
 20
104.0485954034
 30
0.0
 10
203.2171094862
 20
104.6582225266
 30
0.0
 10
203.6948031186
 20
105.2237986053
 30
0.0
 10
204.0115523394
 20
105.6983259335
 30
0.0
 10
204.2793947601
 20
106.2283656175
 30
0.0
 10
204.4925440073
 20
106.8201567563
 30
0.0
 10
204.644626912
 20
107.4777488078
 30
0.0
 10
204.7311981411
 20
108.196890033
 30
0.0
 10
204.7071431921
 20
108.9693025741
 30
0.0
 10
204.5156144232
 20
109.7718717791
 30
0.0
 10
204.0964261358
 20
110.5706662859
 30
0.0
 10
203.6670341737
 20
111.0322063673
 30
0.0
 10
203.4162356395
 20
111.2480309275
 30
0.0
  0
SPLINE
  5
2F7
100
AcDbEntity
  8
0
100
AcDbSpline
 62
7
  6
CONTINUOUS
 70
0
 71
3
 72
8
 73
4
 74
0
 42
0.0000001
 43
0.0000001
 44
0.0000000001
 40
0.0
 40
0.0
 40
0.0
 40
0.0
 40
1.0
 40
1.0
 40
1.0
 40
1.0
 10
200.9774700009
 20
112.5177364277
 30
0.0
 10
200.9583550092
 20
112.5341509463
 30
0.0
 10
200.9451948524
 20
112.5599291741
 30
0.0
 10
200.9430541212
 20
112.5850336877
 30
0.0
  0
SPLINE
  5
2F8
100
AcDbEntity
  8
0
100
AcDbSpline
 62
7
  6
CONTINUOUS
 70
0
 71
3
 72
29
 73
25
 74
0
 42
0.0000001
 43
0.0000001
 44
0.0000000001
 40
0.0
 40
0.0
 40
0.0
 40
0.0
 40
0.0739072686
 40
0.1369528108
 40
0.1921513041
 40
0.2178020354
 40
0.2426129977
 40
0.2669047632
 40
0.2909514358
 40
0.3391375368
 40
0.3882397561
 40
0.4383251289
 40
0.4891071206
 40
0.5405296537
 40
0.59330734
 40
0.6207817393
 40
0.6494222704
 40
0.6797052968
 40
0.7123109093
 40
0.7874998459
 40
0.831737412
 40
0.8814085038
 40
0.9372567076
 40
1.0
 40
1.0
 40
1.0
 40
1.0
 10
207.9119097785
 20
155.8338512188
 30
0.0
 10
208.608686186
 20
155.8382104888
 30
0.0
 10
209.9022166777
 20
155.9196372063
 30
0.0
 10
211.6787080021
 20
156.3157289865
 30
0.0
 10
212.9323998713
 20
156.8601741474
 30
0.0
 10
213.772223281
 20
157.3989505943
 30
0.0
 10
214.3236481967
 20
157.8398987302
 30
0.0
 10
214.816632096
 20
158.3237736213
 30
0.0
 10
215.4026520548
 20
159.0216608352
 30
0.0
 10
216.0215771428
 20
159.9887185141
 30
0.0
 10
216.6471898758
 20
161.2300636288
 30
0.0
 10
217.2379213515
 20
162.5145443328
 30
0.0
 10
217.8714503023
 20
163.8036824278
 30
0.0
 10
218.6269304249
 20
165.0578047481
 30
0.0
 10
219.4178506048
 20
166.0231366192
 30
0.0
 10
220.1741628224
 20
166.719584467
 30
0.0
 10
220.8267634769
 20
167.2094377224
 30
0.0
 10
221.5682752161
 20
167.6539319402
 30
0.0
 10
222.750948646
 20
168.2031283631
 30
0.0
 10
224.1388874356
 20
168.59770315
 30
0.0
 10
225.7126336921
 20
168.8555933141
 30
0.0
 10
227.1196339699
 20
168.9868128232
 30
0.0
 10
228.7057646591
 20
169.0404477433
 30
0.0
 10
229.8241628804
 20
169.0223022522
 30
0.0
 10
230.4153143277
 20
169.0009418041
 30
0.0
  0
SPLINE
  5
2F9
100
AcDbEntity
  8
0
100
AcDbSpline
 62
7
  6
CONTINUOUS
 70
0
 71
3
 72
21
 73
17
 74
0
 42
0.0000001
 43
0.0000001
 44
0.0000000001
 40
0.0
 40
0.0
 40
0.0
 40
0.0
 40
0.1310778534
 40
0.2583047754
 40
0.3197834938
 40
0.3795360127
 40
0.4374070778
 40
0.493320396
 40
0.5473036683
 40
0.5995648625
 40
0.6510126087
 40
0.7037033
 40
0.7608754437
 40
0.8265591549
 40
0.9049505263
 40
1.0
 40
1.0
 40
1.0
 40
1.0
 10
201.2114269431
 20
140.9113421518
 30
0.0
 10
201.2200628688
 20
141.5533916586
 30
0.0
 10
201.2426551802
 20
142.8185683621
 30
0.0
 10
201.3222712371
 20
144.3837621582
 30
0.0
 10
201.4410798756
 20
145.5953144909
 30
0.0
 10
201.5614283368
 20
146.4646787967
 30
0.0
 10
201.7196550061
 20
147.3003427352
 30
0.0
 10
201.9213234899
 20
148.0977239456
 30
0.0
 10
202.1729374041
 20
148.8519657736
 30
0.0
 10
202.4796011084
 20
149.5625222489
 30
0.0
 10
202.8786485304
 20
150.2206381051
 30
0.0
 10
203.4132406767
 20
150.8103219675
 30
0.0
 10
204.1198256519
 20
151.3119761092
 30
0.0
 10
205.0280249237
 20
151.710022222
 30
0.0
 10
206.1681565533
 20
151.9959670405
 30
0.0
 10
207.0138687336
 20
152.0960772857
 30
0.0
 10
207.4781795595
 20
152.1309200056
 30
0.0
  0
SPLINE
  5
2FA
100
AcDbEntity
  8
0
100
AcDbSpline
 62
7
  6
CONTINUOUS
 70
0
 71
3
 72
17
 73
13
 74
0
 42
0.0000001
 43
0.0000001
 44
0.0000000001
 40
0.0
 40
0.0
 40
0.0
 40
0.0
 40
0.0568173282
 40
0.115539621
 40
0.1768517643
 40
0.2408877207
 40
0.3759709932
 40
0.5167470677
 40
0.6570050252
 40
0.7895228208
 40
0.9065388293
 40
1.0
 40
1.0
 40
1.0
 40
1.0
 10
202.8692608985
 20
119.2140845621
 30
0.0
 10
202.7574907728
 20
119.3102685338
 30
0.0
 10
202.5437459583
 20
119.5225305983
 30
0.0
 10
202.271576087
 20
119.8940398934
 30
0.0
 10
202.0400230877
 20
120.3130767959
 30
0.0
 10
201.7758590608
 20
120.9362403781
 30
0.0
 10
201.535854347
 20
121.7884350397
 30
0.0
 10
201.3578441578
 20
122.8548210513
 30
0.0
 10
201.2609300465
 20
123.9244798339
 30
0.0
 10
201.2219232875
 20
124.9356349424
 30
0.0
 10
201.2173908519
 20
125.8258899493
 30
0.0
 10
201.2237620405
 20
126.3721081193
 30
0.0
 10
201.2246628521
 20
126.6146665138
 30
0.0
  0
SPLINE
  5
2FB
100
AcDbEntity
  8
0
100
AcDbSpline
 62
7
  6
CONTINUOUS
 70
0
 71
3
 72
10
 73
6
 74
0
 42
0.0000001
 43
0.0000001
 44
0.0000000001
 40
0.0
 40
0.0
 40
0.0
 40
0.0
 40
0.4534967645
 40
0.7947342803
 40
1.0
 40
1.0
 40
1.0
 40
1.0
 10
66.3749115823
 20
80.798262633
 30
0.0
 10
65.7589591456
 20
85.821559634
 30
0.0
 10
70.3908093512
 20
88.5198551126
 30
0.0
 10
76.0025199051
 20
91.473386983
 30
0.0
 10
75.3385701713
 20
97.3903502383
 30
0.0
 10
71.6914725781
 20
98.5531112389
 30
0.0
  0
SPLINE
  5
2FC
100
AcDbEntity
  8
0
100
AcDbSpline
 62
7
  6
CONTINUOUS
 70
0
 71
3
 72
10
 73
6
 74
0
 42
0.0000001
 43
0.0000001
 44
0.0000000001
 40
0.0
 40
0.0
 40
0.0
 40
0.0
 40
0.3020018411
 40
0.7488349538
 40
1.0
 40
1.0
 40
1.0
 40
1.0
 10
78.6319635705
 20
141.8848172902
 30
0.0
 10
82.2924296135
 20
141.9035459888
 30
0.0
 10
87.6269773917
 20
144.6790209851
 30
0.0
 10
88.469699705
 20
153.1062032463
 30
0.0
 10
96.1195234841
 20
155.2149803953
 30
0.0
 10
101.150340975
 20
155.0274649651
 30
0.0
  0
SPLINE
  5
2FD
100
AcDbEntity
  8
0
100
AcDbSpline
 62
7
  6
CONTINUOUS
 70
0
 71
3
 72
9
 73
5
 74
0
 42
0.0000001
 43
0.0000001
 44
0.0000000001
 40
0.0
 40
0.0
 40
0.0
 40
0.0
 40
0.5720659972
 40
1.0
 40
1.0
 40
1.0
 40
1.0
 10
71.9168356021
 20
126.9685786534
 30
0.0
 10
71.959439064
 20
129.9318763277
 30
0.0
 10
72.140087323
 20
134.9900275824
 30
0.0
 10
74.6939223123
 20
137.9233488578
 30
0.0
 10
78.1947511369
 20
138.1820413193
 30
0.0
  0
SPLINE
  5
2FE
100
AcDbEntity
  8
0
100
AcDbSpline
 62
7
  6
CONTINUOUS
 70
0
 71
3
 72
9
 73
5
 74
0
 42
0.0000001
 43
0.0000001
 44
0.0000000001
 40
0.0
 40
0.0
 40
0.0
 40
0.0
 40
0.2690094876
 40
1.0
 40
1.0
 40
1.0
 40
1.0
 10
75.333997515
 20
104.3549485187
 30
0.0
 10
74.5493092408
 20
104.616052396
 30
0.0
 10
71.7286708162
 20
105.8473507062
 30
0.0
 10
71.9096920226
 20
111.1309359166
 30
0.0
 10
71.9168356021
 20
112.6705786534
 30
0.0
  0
ENDSEC
  0
SECTION
  2
OBJECTS
  0
DICTIONARY
  5
C
100
AcDbDictionary
280
0
281
1
  3
ACAD_GROUP
350
D
  3
ACAD_MLINESTYLE
350
17
  3
ACAD_LAYOUT
350
1A
  3
ACAD_PLOTSETTINGS
350
19
  3
ACAD_PLOTSTYLENAME
350
E
  3
ACAD_TABLESTYLE
350
       2FF
  0
DICTIONARY
  5
D
102
{ACAD_REACTORS
330
C
102
}
100
AcDbDictionary
280
0
281
1
  0
ACDBDICTIONARYWDFLT
  5
E
102
{ACAD_REACTORS
330
C
102
}
100
AcDbDictionary
281
1
  3
Normal
350
F
100
AcDbDictionaryWithDefault
340
F
  0
DICTIONARY
  5
17
102
{ACAD_REACTORS
330
C
102
}
100
AcDbDictionary
280
0
281
1
  3
Standard
350
18
  0
DICTIONARY
  5
2FF
330
C
100
AcDbDictionary
281
1
  3
Standard
350
       302
  3
Standard1
350
       303
  0
DICTIONARY
  5
19
102
{ACAD_REACTORS
330
C
102
}
100
AcDbDictionary
281
1
  0
DICTIONARY
  5
1A
102
{ACAD_REACTORS
330
C
102
}
100
AcDbDictionary
281
1
  3
Model
350
300
  3
Layout1
350
301
  0
ACDBPLACEHOLDER
  5
F
102
{ACAD_REACTORS
330
E
102
}
  0
MLINESTYLE
  5
18
102
{ACAD_REACTORS
330
17
102
}
100
AcDbMlineStyle
  2
STANDARD
 70
0
  3

 62
256
 51
90.0
 52
90.0
 71
2
 49
0.5
 62
256
  6
BYLAYER
 49
-0.5
 62
256
  6
BYLAYER
  0
LAYOUT
  5
300
102
{ACAD_REACTORS
330
1A
102
}
100
AcDbPlotSettings
  1

  2
none_device
  4
ISO_A4_(297.00_x_210.00_MM)
  6

 40
0.0
 41
0.0
 42
0.0
 43
0.0
 44
297.0
 45
210.0
 46
0.0
 47
0.0
 48
0.0
 49
0.0
140
0.0
141
0.0
142
1.0
143
1.0
 70
1024
 72
1
 73
0
 74
0
  7

 75
0
147
1.0
148
0.0
149
0.0
100
AcDbLayout
  1
Model
 70
0
 71
0
 10
0.0
 20
0.0
 11
297.0
 21
210.0
 12
0.0
 22
0.0
 32
0.0
 14
0.0
 24
0.0
 34
0.0
 15
0.0
 25
0.0
 35
0.0
146
0.0
 13
0.0
 23
0.0
 33
0.0
 16
1.0
 26
0.0
 36
0.0
 17
0.0
 27
1.0
 37
0.0
 76
0
330
20A
345
0
346
0
  0
LAYOUT
  5
301
102
{ACAD_REACTORS
330
1A
102
}
100
AcDbPlotSettings
  1

  2
none_device
  4
ISO_A4_(297.00_x_210.00_MM)
  6

 40
0.0
 41
0.0
 42
0.0
 43
0.0
 44
297.0
 45
210.0
 46
0.0
 47
0.0
 48
0.0
 49
0.0
140
0.0
141
0.0
142
1.0
143
1.0
 70
0
 72
1
 73
0
 74
0
  7

 75
0
147
1.0
148
0.0
149
0.0
100
AcDbLayout
  1
Layout1
 70
0
 71
1
 10
0.0
 20
0.0
 11
297.0
 21
210.0
 12
0.0
 22
0.0
 32
0.0
 14
0.0
 24
0.0
 34
0.0
 15
0.0
 25
0.0
 35
0.0
146
0.0
 13
0.0
 23
0.0
 33
0.0
 16
1.0
 26
0.0
 36
0.0
 17
0.0
 27
1.0
 37
0.0
 76
0
330
20B
345
0
346
0
  0
TABLESTYLE
  5
302
102
{ACAD_REACTORS
330
2FF
330
258
102
}
330
2FF
100
AcDbTableStyle
  3
Standard
 70
0
 71
0
 40
0.06
 41
0.06
280
1
281
1
  7
Standard
140
0.18
170
1
 62
0
 63
7
283
0
  7
Standard
140
0.18
170
1
 62
0
 63
7
283
0
  7
Standard
140
0.18
170
1
 62
0
 63
7
283
0
  0
TABLESTYLE
  5
303
102
{ACAD_REACTORS
330
2FF
102
}
330
2FF
100
AcDbTableStyle
  3
Standard1
 70
1
 71
0
 40
0.06
 41
0.06
280
1
281
1
  7
Standard
140
0.18
170
1
 62
0
 63
7
283
0
  7
Standard
140
0.18
170
1
 62
0
 63
7
283
0
  7
Standard
140
0.18
170
1
 62
0
 63
7
283
0
  0
ENDSEC
  0
EOF
