999
DXF file: O:\ORAC_PRODUCTEN\ORAC_EXTRUSIE\CX\141\cx141-prod-mm.dxf
999
Pro/ENGINEER 2013050 by Parametric Technology Corporation
  0
SECTION
  2
HEADER
  9
$ACADVER
  1
AC1024
  9
$DWGCODEPAGE
  3
ANSI_1252
  9
$EXTMAX
 10
297.0
 20
210.0
 30
0.0
  9
$EXTMIN
 10
0.0
 20
0.0
 30
0.0
  9
$LIMMIN
 10
0.0
 20
0.0
  9
$LIMMAX
 10
297.0
 20
210.0
  9
$VIEWCTR
 10
148.5
 20
105.0
  9
$VIEWSIZE
 40
210.0
  9
$CLAYER
  8
0
  9
$LTSCALE
 40
16.335
  9
$CELTYPE
  6
BYLAYER
  9
$DIMSCALE
 40
1.0
  9
$DIMASZ
 40
3.5
  9
$DIMEXO
 40
1.0
  9
$DIMDLI
 40
11.286
  9
$DIMEXE
 40
1.5
  9
$DIMCEN
 40
2.673
  9
$DIMLFAC
 40
1.0
  9
$DIMBLK
  1
_FILLED
  9
$DIMTXT
 40
2.5
  9
$DIMTOL
 70
1
  9
$DIMLIM
 70
0
  9
$DIMTFAC
 40
1.0
  9
$DIMTP
 40
0.001
  9
$DIMTM
 40
0.001
  9
$DIMGAP
 40
0.625
  9
$DIMDSEP
 70
44
  9
$PDMODE
 70
3
  9
$PDSIZE
 40
8.0
  9
$HANDSEED
  5
2F6
  9
$TILEMODE
 70
1
  9
$MEASUREMENT
 70
1
  9
$INSUNITS
 70
4
  0
ENDSEC
  0
SECTION
  2
CLASSES
  0
CLASS
  1
ACDBDICTIONARYWDFLT
  2
AcDbDictionaryWithDefault
  3
AutoCAD 2000
 90
0
 91
1
280
0
281
0
  0
CLASS
  1
ACDBPLACEHOLDER
  2
AcDbPlaceHolder
  3
AutoCAD 2000
 90
0
 91
1
280
0
281
0
  0
CLASS
  1
LAYOUT
  2
AcDbLayout
  3
AutoCAD 2000
 90
0
 91
0
280
0
281
0
  0
CLASS
  1
TABLESTYLE
  2
AcDbTableStyle
  3
ObjectDBX Classes
 90
2047
 91
1
280
0
281
0
  0
CLASS
  1
ACAD_TABLE
  2
AcDbTable
  3
ObjectDBX Classes
 90
1025
 91
1
280
0
281
1
  0
ENDSEC
  0
SECTION
  2
TABLES
  0
TABLE
  2
VPORT
  5
8
100
AcDbSymbolTable
 70
2
  0
VPORT
  5
1F4
100
AcDbSymbolTableRecord
100
AcDbViewportTableRecord
  2
*ACTIVE
 70
0
 10
0.0
 20
0.0
 11
1.0
 21
1.0
 12
148.5
 22
105.0
 13
0.0
 23
0.0
 14
1.0
 24
1.0
 15
0.0
 25
0.0
 16
0.0
 26
0.0
 36
1.0
 17
0.0
 27
0.0
 37
0.0
 40
210.0
 41
1.4142857143
 42
50.0
 43
0.0
 44
0.0
 50
0.0
 51
0.0
 71
0
 72
100
 73
1
 74
1
 75
0
 76
0
 77
0
 78
0
  0
ENDTAB
  0
TABLE
  2
LTYPE
  5
5
100
AcDbSymbolTable
 70
6
  0
LTYPE
  5
14
100
AcDbSymbolTableRecord
100
AcDbLinetypeTableRecord
  2
BYBLOCK
 70
0
  3

 72
65
 73
0
 40
0.0
  0
LTYPE
  5
15
100
AcDbSymbolTableRecord
100
AcDbLinetypeTableRecord
  2
BYLAYER
 70
0
  3

 72
65
 73
0
 40
0.0
  0
LTYPE
  5
16
100
AcDbSymbolTableRecord
100
AcDbLinetypeTableRecord
  2
CONTINUOUS
 70
64
  3
Solid line
 72
65
 73
0
 40
0.0
  0
LTYPE
  5
1F5
100
AcDbSymbolTableRecord
100
AcDbLinetypeTableRecord
  2
CENTER
 70
64
  3
____ _ ____ _ ____ _ ____ _ ____ _ ____ _ ____
 72
65
 73
4
 40
0.6
 49
0.375
 74
0
 49
-0.075
 74
0
 49
0.075
 74
0
 49
-0.075
 74
0
  0
LTYPE
  5
1F6
100
AcDbSymbolTableRecord
100
AcDbLinetypeTableRecord
  2
HIDDEN
 70
64
  3
- - - - - - - - - - - - - - - - - - - -
 72
65
 73
2
 40
0.2
 49
0.1
 74
0
 49
-0.1
 74
0
  0
LTYPE
  5
1F7
100
AcDbSymbolTableRecord
100
AcDbLinetypeTableRecord
  2
PHANTOM
 70
64
  3
_____ _ _ _____ _ _ _____ _ _ _____
 72
65
 73
6
 40
0.8
 49
0.45
 74
0
 49
-0.05
 74
0
 49
0.1
 74
0
 49
-0.05
 74
0
 49
0.1
 74
0
 49
-0.05
 74
0
  0
LTYPE
  5
1F8
100
AcDbSymbolTableRecord
100
AcDbLinetypeTableRecord
  2
DOT
 70
64
  3
. . . . . . . . . . . . . . . . . . . .
 72
65
 73
2
 40
0.2
 49
0.1
 74
0
 49
-0.1
 74
0
  0
LTYPE
  5
1F9
100
AcDbSymbolTableRecord
100
AcDbLinetypeTableRecord
  2
DASHED
 70
64
  3
- - - - - - - - - - - - - - - - - - - -
 72
65
 73
2
 40
0.2
 49
0.1
 74
0
 49
-0.1
 74
0
  0
ENDTAB
  0
TABLE
  2
LAYER
  5
2
100
AcDbSymbolTable
 70
36
  0
LAYER
  5
10
100
AcDbSymbolTableRecord
100
AcDbLayerTableRecord
  2
0
 70
0
 62
7
  6
CONTINUOUS
370
-3
390
F
  0
LAYER
  5
1FA
100
AcDbSymbolTableRecord
100
AcDbLayerTableRecord
  2
DEFAULT_1
 70
0
 62
7
  6
CENTER
370
-3
390
F
  0
LAYER
  5
1FB
100
AcDbSymbolTableRecord
100
AcDbLayerTableRecord
  2
DEFAULT_2
 70
0
 62
8
  6
HIDDEN
370
-3
390
F
  0
LAYER
  5
1FC
100
AcDbSymbolTableRecord
100
AcDbLayerTableRecord
  2
DEFAULT_3
 70
0
 62
7
  6
PHANTOM
370
-3
390
F
  0
LAYER
  5
1FD
100
AcDbSymbolTableRecord
100
AcDbLayerTableRecord
  2
01___PRT_ALL_DTM_PLN
 70
0
 62
7
  6
CONTINUOUS
370
-3
390
F
  0
LAYER
  5
1FE
100
AcDbSymbolTableRecord
100
AcDbLayerTableRecord
  2
01___PRT_DEF_DTM_PLN
 70
0
 62
7
  6
CONTINUOUS
370
-3
390
F
  0
LAYER
  5
1FF
100
AcDbSymbolTableRecord
100
AcDbLayerTableRecord
  2
02___PRT_ALL_AXES
 70
0
 62
7
  6
CONTINUOUS
370
-3
390
F
  0
LAYER
  5
200
100
AcDbSymbolTableRecord
100
AcDbLayerTableRecord
  2
03___PRT_ALL_CURVES
 70
0
 62
7
  6
CONTINUOUS
370
-3
390
F
  0
LAYER
  5
201
100
AcDbSymbolTableRecord
100
AcDbLayerTableRecord
  2
04___PRT_ALL_DTM_PNT
 70
0
 62
7
  6
CONTINUOUS
370
-3
390
F
  0
LAYER
  5
202
100
AcDbSymbolTableRecord
100
AcDbLayerTableRecord
  2
05___PRT_ALL_DTM_CSYS
 70
0
 62
7
  6
CONTINUOUS
370
-3
390
F
  0
LAYER
  5
203
100
AcDbSymbolTableRecord
100
AcDbLayerTableRecord
  2
05___PRT_DEF_DTM_CSYS
 70
0
 62
7
  6
CONTINUOUS
370
-3
390
F
  0
LAYER
  5
204
100
AcDbSymbolTableRecord
100
AcDbLayerTableRecord
  2
06___PRT_ALL_SURFS
 70
0
 62
7
  6
CONTINUOUS
370
-3
390
F
  0
LAYER
  5
205
100
AcDbSymbolTableRecord
100
AcDbLayerTableRecord
  2
AXES
 70
0
 62
7
  6
CONTINUOUS
370
-3
390
F
  0
LAYER
  5
206
100
AcDbSymbolTableRecord
100
AcDbLayerTableRecord
  2
DTM_ALL
 70
0
 62
7
  6
CONTINUOUS
370
-3
390
F
  0
LAYER
  5
207
100
AcDbSymbolTableRecord
100
AcDbLayerTableRecord
  2
DTM_AXIS
 70
0
 62
7
  6
CONTINUOUS
370
-3
390
F
  0
LAYER
  5
208
100
AcDbSymbolTableRecord
100
AcDbLayerTableRecord
  2
DTM_CSYS
 70
0
 62
7
  6
CONTINUOUS
370
-3
390
F
  0
LAYER
  5
209
100
AcDbSymbolTableRecord
100
AcDbLayerTableRecord
  2
DTM_CURVE
 70
0
 62
7
  6
CONTINUOUS
370
-3
390
F
  0
LAYER
  5
20A
100
AcDbSymbolTableRecord
100
AcDbLayerTableRecord
  2
DTM_MASTER
 70
0
 62
7
  6
CONTINUOUS
370
-3
390
F
  0
LAYER
  5
20B
100
AcDbSymbolTableRecord
100
AcDbLayerTableRecord
  2
DTM_POINT
 70
0
 62
7
  6
CONTINUOUS
370
-3
390
F
  0
LAYER
  5
20C
100
AcDbSymbolTableRecord
100
AcDbLayerTableRecord
  2
DTM_QUILT
 70
0
 62
7
  6
CONTINUOUS
370
-3
390
F
  0
LAYER
  5
20D
100
AcDbSymbolTableRecord
100
AcDbLayerTableRecord
  2
GTOL
 70
0
 62
7
  6
CONTINUOUS
370
-3
390
F
  0
LAYER
  5
20E
100
AcDbSymbolTableRecord
100
AcDbLayerTableRecord
  2
NOTES
 70
0
 62
7
  6
CONTINUOUS
370
-3
390
F
  0
LAYER
  5
20F
100
AcDbSymbolTableRecord
100
AcDbLayerTableRecord
  2
REF_PLANS
 70
0
 62
7
  6
CONTINUOUS
370
-3
390
F
  0
LAYER
  5
210
100
AcDbSymbolTableRecord
100
AcDbLayerTableRecord
  2
XSEC_DATUMS
 70
0
 62
7
  6
CONTINUOUS
370
-3
390
F
  0
ENDTAB
  0
TABLE
  2
STYLE
  5
3
100
AcDbSymbolTable
 70
1
  0
STYLE
  5
11
100
AcDbSymbolTableRecord
100
AcDbTextStyleTableRecord
  2
STANDARD
 70
0
 40
0.0
 41
1.0
 50
0.0
 71
0
 42
0.2
  3
cgtime.ttf
  4

  0
STYLE
  5
211
100
AcDbSymbolTableRecord
100
AcDbTextStyleTableRecord
  2
TEXTSTYLE_1
 70
0
 40
0.0
 41
0.8
 50
0.0
 71
0
 42
0.2
  3
gdt
  4

  0
STYLE
  5
212
100
AcDbSymbolTableRecord
100
AcDbTextStyleTableRecord
  2
TEXTSTYLE_2
 70
0
 40
0.0
 41
1.0
 50
0.0
 71
0
 42
0.2
  3
cgtime.ttf
  4

  0
STYLE
  5
213
100
AcDbSymbolTableRecord
100
AcDbTextStyleTableRecord
  2
TEXTSTYLE_3
 70
0
 40
0.0
 41
1.0
 50
0.0
 71
0
 42
0.2
  3
cgtime.ttf
  4

  0
STYLE
  5
214
100
AcDbSymbolTableRecord
100
AcDbTextStyleTableRecord
  2
TEXTSTYLE_4
 70
0
 40
0.0
 41
0.85
 50
0.0
 71
0
 42
0.2
  3
gdt
  4

  0
ENDTAB
  0
TABLE
  2
VIEW
  5
6
100
AcDbSymbolTable
 70
0
  0
ENDTAB
  0
TABLE
  2
UCS
  5
7
100
AcDbSymbolTable
 70
0
  0
ENDTAB
  0
TABLE
  2
APPID
  5
9
100
AcDbSymbolTable
 70
1
  0
APPID
  5
215
100
AcDbSymbolTableRecord
100
AcDbRegAppTableRecord
  2
ACAD
 70
0
  0
ENDTAB
  0
TABLE
  2
BLOCK_RECORD
  5
1
100
AcDbSymbolTable
 70
0
  0
BLOCK_RECORD
  5
216
100
AcDbSymbolTableRecord
100
AcDbBlockTableRecord
  2
*Model_Space
  0
BLOCK_RECORD
  5
217
100
AcDbSymbolTableRecord
100
AcDbBlockTableRecord
  2
*Paper_Space
  0
BLOCK_RECORD
  5
218
100
AcDbSymbolTableRecord
100
AcDbBlockTableRecord
  2
_FILLED
  0
BLOCK_RECORD
  5
219
100
AcDbSymbolTableRecord
100
AcDbBlockTableRecord
  2
*D0
  0
BLOCK_RECORD
  5
21A
100
AcDbSymbolTableRecord
100
AcDbBlockTableRecord
  2
*D1
  0
BLOCK_RECORD
  5
21B
100
AcDbSymbolTableRecord
100
AcDbBlockTableRecord
  2
*D2
  0
BLOCK_RECORD
  5
21C
100
AcDbSymbolTableRecord
100
AcDbBlockTableRecord
  2
SYMBOL_2_BL0
  0
BLOCK_RECORD
  5
21D
100
AcDbSymbolTableRecord
100
AcDbBlockTableRecord
  2
*T1
  0
ENDTAB
  0
TABLE
  2
DIMSTYLE
  5
A
100
AcDbSymbolTable
 70
1
100
AcDbDimStyleTable
 71
0
  0
DIMSTYLE
105
21E
100
AcDbSymbolTableRecord
100
AcDbDimStyleTableRecord
  2
STANDARD
 70
0
  3

  4

 40
1.0
 41
3.5
 42
1.0
 43
0.38
 44
1.5
 45
0.0
 46
0.0
 47
0.001
 48
0.001
140
2.5
141
0.09
142
0.0
143
25.4
144
1.0
145
0.0
146
1.0
147
0.625
 71
1.0
 72
0.0
 73
1
 74
1
 75
0
 76
0
 77
0
 78
8
170
0
171
2
172
0
173
0
174
0
175
0
176
0
177
0
178
0
270
2
271
3
272
3
273
2
274
2
275
0
280
0
281
0
282
0
283
1
284
8
285
0
286
0
287
3
288
0
340
11
278
44
341
218
342
218
343
218
344
218
  0
DIMSTYLE
105
21F
100
AcDbSymbolTableRecord
100
AcDbDimStyleTableRecord
  2
DIMSTYLE_1
 70
0
  3

  4

 40
1.0
 41
3.5
 42
1.0
 43
0.38
 44
1.5
 45
0.0
 46
0.0
 47
0.0
 48
0.0
140
2.5
141
0.09
142
0.0
143
25.4
144
1.0
145
0.0
146
1.0
147
1.25
 71
0.0
 72
0.0
 73
1
 74
1
 75
0
 76
0
 77
0
 78
8
170
0
171
2
172
0
173
0
174
0
175
0
176
0
177
0
178
0
270
2
271
3
272
3
273
2
274
2
275
0
280
0
281
0
282
0
283
1
284
8
285
0
286
0
287
3
288
0
340
11
278
44
341
218
342
218
343
218
344
218
  0
ENDTAB
  0
ENDSEC
  0
SECTION
  2
BLOCKS
  0
BLOCK
  5
20
100
AcDbEntity
  8
0
100
AcDbBlockBegin
  2
*Model_Space
 70
0
 10
0.0
 20
0.0
 30
0.0
  3
*Model_Space
  1

  0
ENDBLK
  5
21
100
AcDbEntity
  8
0
100
AcDbBlockEnd
  0
BLOCK
  5
1C
100
AcDbEntity
  8
0
100
AcDbBlockBegin
  2
*Paper_Space
 70
0
 10
0.0
 20
0.0
 30
0.0
  3
*Paper_Space
  1

  0
ENDBLK
  5
1D
100
AcDbEntity
  8
0
100
AcDbBlockEnd
  0
BLOCK
  5
220
100
AcDbEntity
  8
0
100
AcDbBlockBegin
 62
7
  6
CONTINUOUS
  2
SYMBOL_2_BL0
 70
64
 10
200.6298462176
 20
16.2178244018
  3
SYMBOL_2_BL0
  1

  0
TEXT
  5
221
100
AcDbEntity
  8
0
100
AcDbText
 62
7
  6
CONTINUOUS
 10
194.3577811993
 20
12.7178244018
  7
TEXTSTYLE_2
 40
0.7334566062
  1
EUROPEAN PROJECTION
 72
5
 11
206.9549697578
 21
12.7178244018
100
AcDbText
  0
LINE
  5
222
100
AcDbEntity
  8
DEFAULT_1
100
AcDbLine
 62
7
  6
CENTER
 10
202.0967594299
 20
16.7839979772
 11
207.9644122791
 21
16.7839979772
  0
LINE
  5
223
100
AcDbEntity
  8
DEFAULT_1
100
AcDbLine
 62
7
  6
CENTER
 10
193.2952801561
 20
16.7839979772
 11
200.6298462176
 21
16.7839979772
  0
LINE
  5
224
100
AcDbEntity
  8
DEFAULT_1
100
AcDbLine
 62
7
  6
CENTER
 10
205.0305858545
 20
19.7178244018
 11
205.0305858545
 21
13.8501715526
  0
LINE
  5
225
100
AcDbEntity
  8
0
100
AcDbLine
 62
7
  6
CONTINUOUS
 10
194.0427054433
 20
15.3153384047
 11
194.0427054433
 21
18.2526568162
  0
CIRCLE
  5
226
100
AcDbEntity
  8
0
100
AcDbCircle
 62
7
  6
CONTINUOUS
 10
205.0305858545
 20
16.7839979772
 40
2.2003698185
  0
CIRCLE
  5
227
100
AcDbEntity
  8
0
100
AcDbCircle
 62
7
  6
CONTINUOUS
 10
205.0305858545
 20
16.7839979772
 40
1.4669132123
  0
LINE
  5
228
100
AcDbEntity
  8
0
100
AcDbLine
 62
7
  6
CONTINUOUS
 10
194.0287367622
 20
18.2509111895
 11
199.8963896115
 21
18.9843677957
  0
LINE
  5
229
100
AcDbEntity
  8
0
100
AcDbLine
 62
7
  6
CONTINUOUS
 10
199.8963896115
 20
18.9843677957
 11
199.8963896115
 21
14.5836281587
  0
LINE
  5
22A
100
AcDbEntity
  8
0
100
AcDbLine
 62
7
  6
CONTINUOUS
 10
199.8963896115
 20
14.5836281587
 11
194.0287367622
 21
15.3170847649
  0
ENDBLK
  5
22B
100
AcDbEntity
  8
0
  6
BYBLOCK
 62
0
100
AcDbBlockEnd
  0
BLOCK
  5
22C
100
AcDbEntity
  8
0
100
AcDbBlockBegin
  2
_FILLED
 70
64
 10
0.0
 20
0.0
  3
_FILLED
  1

  0
SOLID
  5
22D
100
AcDbEntity
  8
0
  6
BYBLOCK
 62
0
100
AcDbTrace
 10
0.0
 20
0.0
 11
-1.0
 21
0.2142857143
 12
-1.0
 22
-0.2142857143
 13
-1.0
 23
-0.2142857143
  0
ENDBLK
  5
22E
100
AcDbEntity
  8
0
  6
BYBLOCK
 62
0
100
AcDbBlockEnd
  0
BLOCK
  5
22F
100
AcDbEntity
  8
0
100
AcDbBlockBegin
 62
2
  6
CONTINUOUS
  2
*D0
 70
65
 10
0.0
 20
0.0
  3
*D0
  1

  0
TEXT
  5
230
100
AcDbEntity
  8
0
100
AcDbText
 62
2
  6
CONTINUOUS
 10
61.5682854884
 20
115.3581351978
  7
STANDARD
 40
2.5
  1
59
 72
5
 11
65.2064177841
 21
115.3581351978
100
AcDbText
  0
LINE
  5
231
100
AcDbEntity
  8
0
100
AcDbLine
 62
2
  6
CONTINUOUS
 10
98.2528993582
 20
146.6081351978
 11
61.8873516362
 21
146.6081351978
  0
LINE
  5
232
100
AcDbEntity
  8
0
100
AcDbLine
 62
2
  6
CONTINUOUS
 10
75.2528993582
 20
86.6081351978
 11
61.8873516362
 21
86.6081351978
  0
LINE
  5
233
100
AcDbEntity
  8
0
100
AcDbLine
 62
2
  6
CONTINUOUS
 10
63.3873516362
 20
146.6081351978
 11
63.3873516362
 21
119.1081351978
  0
LINE
  5
234
100
AcDbEntity
  8
0
100
AcDbLine
 62
2
  6
CONTINUOUS
 10
63.3873516362
 20
86.6081351978
 11
63.3873516362
 21
114.1081351978
  0
INSERT
  5
235
100
AcDbEntity
  8
0
100
AcDbBlockReference
 62
2
  6
CONTINUOUS
  2
_FILLED
 10
63.3873516362
 20
146.6081351978
 41
3.5
 42
3.5
 43
3.5
 50
90.0
  0
INSERT
  5
236
100
AcDbEntity
  8
0
100
AcDbBlockReference
 62
2
  6
CONTINUOUS
  2
_FILLED
 10
63.3873516362
 20
86.6081351978
 41
3.5
 42
3.5
 43
3.5
 50
270.0
  0
ENDBLK
  5
237
100
AcDbEntity
  8
0
  6
BYBLOCK
 62
0
100
AcDbBlockEnd
  0
BLOCK
  5
238
100
AcDbEntity
  8
0
100
AcDbBlockBegin
 62
2
  6
CONTINUOUS
  2
*D1
 70
65
 10
0.0
 20
0.0
  3
*D1
  1

  0
TEXT
  5
239
100
AcDbEntity
  8
0
100
AcDbText
 62
2
  6
CONTINUOUS
 10
90.9338332104
 20
151.0604192123
  7
STANDARD
 40
2.5
  1
31
 72
5
 11
94.5719655061
 21
151.0604192123
100
AcDbText
  0
LINE
  5
23A
100
AcDbEntity
  8
0
100
AcDbLine
 62
2
  6
CONTINUOUS
 10
76.2528993582
 20
127.9004065193
 11
76.2528993582
 21
153.8104192123
  0
LINE
  5
23B
100
AcDbEntity
  8
0
100
AcDbLine
 62
2
  6
CONTINUOUS
 10
109.2528993582
 20
147.6081351978
 11
109.2528993582
 21
153.8104192123
  0
LINE
  5
23C
100
AcDbEntity
  8
0
100
AcDbLine
 62
2
  6
CONTINUOUS
 10
76.2528993582
 20
152.3104192123
 11
89.6838332104
 21
152.3104192123
  0
LINE
  5
23D
100
AcDbEntity
  8
0
100
AcDbLine
 62
2
  6
CONTINUOUS
 10
109.2528993582
 20
152.3104192123
 11
95.8219655061
 21
152.3104192123
  0
INSERT
  5
23E
100
AcDbEntity
  8
0
100
AcDbBlockReference
 62
2
  6
CONTINUOUS
  2
_FILLED
 10
76.2528993582
 20
152.3104192123
 41
3.5
 42
3.5
 43
3.5
 50
180.0
  0
INSERT
  5
23F
100
AcDbEntity
  8
0
100
AcDbBlockReference
 62
2
  6
CONTINUOUS
  2
_FILLED
 10
109.2528993582
 20
152.3104192123
 41
3.5
 42
3.5
 43
3.5
  0
ENDBLK
  5
240
100
AcDbEntity
  8
0
  6
BYBLOCK
 62
0
100
AcDbBlockEnd
  0
BLOCK
  5
241
100
AcDbEntity
  8
0
100
AcDbBlockBegin
 62
2
  6
CONTINUOUS
  2
*D2
 70
65
 10
0.0
 20
0.0
  3
*D2
  1

  0
TEXT
  5
242
100
AcDbEntity
  8
0
100
AcDbText
 62
2
  6
CONTINUOUS
 10
103.3295030706
 20
108.5405167746
  7
STANDARD
 40
2.5
  1
67
 72
5
 11
106.9676353664
 21
108.5405167746
100
AcDbText
  0
LINE
  5
243
100
AcDbEntity
  8
0
100
AcDbLine
 62
2
  6
CONTINUOUS
 10
110.1291152669
 20
146.126216448
 11
122.9628930815
 21
139.06763865
  0
LINE
  5
244
100
AcDbEntity
  8
0
100
AcDbLine
 62
2
  6
CONTINUOUS
 10
77.1291152669
 20
86.126216448
 11
89.9628930815
 21
79.06763865
  0
LINE
  5
245
100
AcDbEntity
  8
0
100
AcDbLine
 62
2
  6
CONTINUOUS
 10
121.6485692185
 20
139.7905167746
 11
106.5235692185
 21
112.2905167746
  0
LINE
  5
246
100
AcDbEntity
  8
0
100
AcDbLine
 62
2
  6
CONTINUOUS
 10
88.6485692185
 20
79.7905167746
 11
103.7735692185
 21
107.2905167746
  0
INSERT
  5
247
100
AcDbEntity
  8
0
100
AcDbBlockReference
 62
2
  6
CONTINUOUS
  2
_FILLED
 10
121.6485692185
 20
139.7905167746
 41
3.5
 42
3.5
 43
3.5
 50
61.189206257
  0
INSERT
  5
248
100
AcDbEntity
  8
0
100
AcDbBlockReference
 62
2
  6
CONTINUOUS
  2
_FILLED
 10
88.6485692185
 20
79.7905167746
 41
3.5
 42
3.5
 43
3.5
 50
241.189206257
  0
ENDBLK
  5
249
100
AcDbEntity
  8
0
  6
BYBLOCK
 62
0
100
AcDbBlockEnd
  0
BLOCK
  5
24A
100
AcDbEntity
  8
0
100
AcDbBlockBegin
  2
*T1
 70
1
 10
0.0
 20
0.0
  3
*T1
  1

  0
LINE
  5
24B
100
AcDbEntity
  8
0
100
AcDbLine
 62
7
  6
CONTINUOUS
 10
174.0
 20
0.0
 11
0.0
 21
0.0
  0
LINE
  5
24C
100
AcDbEntity
  8
0
100
AcDbLine
 62
7
  6
CONTINUOUS
 10
174.0
 20
0.0
 11
174.0
 21
42.5
  0
LINE
  5
24D
100
AcDbEntity
  8
0
100
AcDbLine
 62
7
  6
CONTINUOUS
 10
140.0
 20
6.5
 11
0.0
 21
6.5
  0
LINE
  5
24E
100
AcDbEntity
  8
0
100
AcDbLine
 62
7
  6
CONTINUOUS
 10
174.0
 20
18.5
 11
91.0
 21
18.5
  0
LINE
  5
24F
100
AcDbEntity
  8
0
100
AcDbLine
 62
7
  6
CONTINUOUS
 10
174.0
 20
27.5
 11
91.0
 21
27.5
  0
LINE
  5
250
100
AcDbEntity
  8
0
100
AcDbLine
 62
7
  6
CONTINUOUS
 10
91.0
 20
31.5
 11
59.0
 21
31.5
  0
LINE
  5
251
100
AcDbEntity
  8
0
100
AcDbLine
 62
7
  6
CONTINUOUS
 10
174.0
 20
42.5
 11
0.0
 21
42.5
  0
LINE
  5
252
100
AcDbEntity
  8
0
100
AcDbLine
 62
7
  6
CONTINUOUS
 10
140.0
 20
0.0
 11
140.0
 21
18.5
  0
LINE
  5
253
100
AcDbEntity
  8
0
100
AcDbLine
 62
7
  6
CONTINUOUS
 10
122.0
 20
0.0
 11
122.0
 21
6.5
  0
LINE
  5
254
100
AcDbEntity
  8
0
100
AcDbLine
 62
7
  6
CONTINUOUS
 10
91.0
 20
6.5
 11
91.0
 21
42.5
  0
LINE
  5
255
100
AcDbEntity
  8
0
100
AcDbLine
 62
7
  6
CONTINUOUS
 10
59.0
 20
6.5
 11
59.0
 21
42.5
  0
LINE
  5
256
100
AcDbEntity
  8
0
100
AcDbLine
 62
7
  6
CONTINUOUS
 10
10.0
 20
6.5
 11
10.0
 21
42.5
  0
LINE
  5
257
100
AcDbEntity
  8
0
100
AcDbLine
 62
7
  6
CONTINUOUS
 10
0.0
 20
0.0
 11
0.0
 21
42.5
  0
TEXT
  5
258
100
AcDbEntity
  8
0
100
AcDbText
 62
7
  6
CONTINUOUS
 10
166.0625
 20
15.45
  7
TEXTSTYLE_3
 40
1.8
  1
 
 72
5
 11
166.8399319066
 21
15.45
100
AcDbText
  0
TEXT
  5
259
100
AcDbEntity
  8
0
100
AcDbText
 62
7
  6
CONTINUOUS
 10
166.8399319066
 20
15.45
  7
TEXTSTYLE_3
 40
1.8
  1
 
 72
5
 11
167.6173638132
 21
15.45
100
AcDbText
  0
TEXT
  5
25A
100
AcDbEntity
  8
0
100
AcDbText
 62
7
  6
CONTINUOUS
 10
166.0625
 20
11.976
  7
TEXTSTYLE_3
 40
1.8
  1
 
 72
5
 11
166.8399319066
 21
11.976
100
AcDbText
  0
TEXT
  5
25B
100
AcDbEntity
  8
0
100
AcDbText
 62
7
  6
CONTINUOUS
 10
166.0625
 20
8.502
  7
TEXTSTYLE_3
 40
1.8
  1
 
 72
5
 11
166.8399319066
 21
8.502
100
AcDbText
  0
TEXT
  5
25C
100
AcDbEntity
  8
0
100
AcDbText
 62
7
  6
CONTINUOUS
 10
166.0625
 20
5.028
  7
TEXTSTYLE_3
 40
1.8
  1
 
 72
5
 11
166.8399319066
 21
5.028
100
AcDbText
  0
TEXT
  5
25D
100
AcDbEntity
  8
0
100
AcDbText
 62
7
  6
CONTINUOUS
 10
166.0625
 20
1.554
  7
TEXTSTYLE_3
 40
1.8
  1
dm²/m
 72
5
 11
173.2484922179
 21
1.554
100
AcDbText
  0
TEXT
  5
25E
100
AcDbEntity
  8
0
100
AcDbText
 62
7
  6
CONTINUOUS
 10
162.9657101167
 20
15.0
  7
STANDARD
 40
2.25
  1
 
 72
5
 11
163.9375
 21
15.0
100
AcDbText
  0
TEXT
  5
25F
100
AcDbEntity
  8
0
100
AcDbText
 62
7
  6
CONTINUOUS
 10
162.9657101167
 20
11.625
  7
STANDARD
 40
2.25
  1
 
 72
5
 11
163.9375
 21
11.625
100
AcDbText
  0
TEXT
  5
260
100
AcDbEntity
  8
0
100
AcDbText
 62
7
  6
CONTINUOUS
 10
162.9657101167
 20
8.25
  7
STANDARD
 40
2.25
  1
 
 72
5
 11
163.9375
 21
8.25
100
AcDbText
  0
TEXT
  5
261
100
AcDbEntity
  8
0
100
AcDbText
 62
7
  6
CONTINUOUS
 10
162.9657101167
 20
4.875
  7
STANDARD
 40
2.25
  1
 
 72
5
 11
163.9375
 21
4.875
100
AcDbText
  0
TEXT
  5
262
100
AcDbEntity
  8
0
100
AcDbText
 62
7
  6
CONTINUOUS
 10
159.5688229572
 20
1.5
  7
STANDARD
 40
2.25
  1
8,6
 72
5
 11
163.9375
 21
1.5
100
AcDbText
  0
TEXT
  5
263
100
AcDbEntity
  8
0
100
AcDbText
 62
7
  6
CONTINUOUS
 10
141.0625
 20
15.0
  7
STANDARD
 40
2.25
  1
 
 72
5
 11
142.0342898833
 21
15.0
100
AcDbText
  0
TEXT
  5
264
100
AcDbEntity
  8
0
100
AcDbText
 62
7
  6
CONTINUOUS
 10
141.0625
 20
11.625
  7
STANDARD
 40
2.25
  1
 
 72
5
 11
142.0342898833
 21
11.625
100
AcDbText
  0
TEXT
  5
265
100
AcDbEntity
  8
0
100
AcDbText
 62
7
  6
CONTINUOUS
 10
141.0625
 20
8.25
  7
STANDARD
 40
2.25
  1
 
 72
5
 11
142.0342898833
 21
8.25
100
AcDbText
  0
TEXT
  5
266
100
AcDbEntity
  8
0
100
AcDbText
 62
7
  6
CONTINUOUS
 10
141.0625
 20
4.875
  7
STANDARD
 40
2.25
  1
Painted Surface :
 72
5
 11
164.0352626459
 21
4.875
100
AcDbText
  0
TEXT
  5
267
100
AcDbEntity
  8
0
100
AcDbText
 62
2
  6
CONTINUOUS
 10
123.0625
 20
2.0
  7
STANDARD
 40
2.5
  1
Rev:   
 72
5
 11
133.3737840467
 21
2.0
100
AcDbText
  0
TEXT
  5
268
100
AcDbEntity
  8
0
100
AcDbText
 62
7
  6
CONTINUOUS
 10
2.3984435798
 20
3.7
  7
STANDARD
 40
1.8
  1
All information in this document is Orac's exclusive property.  It may in no case be reproduced, even partly,
 72
5
 11
119.6015564202
 21
3.7
100
AcDbText
  0
TEXT
  5
269
100
AcDbEntity
  8
0
100
AcDbText
 62
7
  6
CONTINUOUS
 10
0.5424124514
 20
1.0
  7
STANDARD
 40
1.8
  1
be communicated to a third party or used for any possible purpose without ORAC's express written permission. 
 72
5
 11
121.4575875486
 21
1.0
100
AcDbText
  0
TEXT
  5
26A
100
AcDbEntity
  8
0
100
AcDbText
 62
2
  6
CONTINUOUS
 10
108.0625
 20
13.85
  7
STANDARD
 40
2.25
  1
Anton Smolko
 72
5
 11
127.3407101167
 21
13.85
100
AcDbText
  0
TEXT
  5
26B
100
AcDbEntity
  8
0
100
AcDbText
 62
2
  6
CONTINUOUS
 10
108.0625
 20
8.9
  7
STANDARD
 40
2.25
  1
29-Jul-2014
 72
5
 11
123.8912937743
 21
8.9
100
AcDbText
  0
TEXT
  5
26C
100
AcDbEntity
  8
0
100
AcDbText
 62
7
  6
CONTINUOUS
 10
92.0625
 20
13.85
  7
STANDARD
 40
2.25
  1
Drawn by:
 72
5
 11
106.4905155642
 21
13.85
100
AcDbText
  0
TEXT
  5
26D
100
AcDbEntity
  8
0
100
AcDbText
 62
7
  6
CONTINUOUS
 10
92.0625
 20
8.9
  7
STANDARD
 40
2.25
  1
Drawn on:
 72
5
 11
106.4905155642
 21
8.9
100
AcDbText
  0
TEXT
  5
26E
100
AcDbEntity
  8
0
100
AcDbText
 62
7
  6
CONTINUOUS
 10
77.0625
 20
24.25
  7
STANDARD
 40
2.0
  1
Creo 2.0
 72
5
 11
87.622811284
 21
24.25
100
AcDbText
  0
TEXT
  5
26F
100
AcDbEntity
  8
0
100
AcDbText
 62
7
  6
CONTINUOUS
 10
77.0625
 20
21.25
  7
STANDARD
 40
2.0
  1
A4
 72
5
 11
80.6189202335
 21
21.25
100
AcDbText
  0
TEXT
  5
270
100
AcDbEntity
  8
0
100
AcDbText
 62
7
  6
CONTINUOUS
 10
77.0625
 20
18.25
  7
STANDARD
 40
2.0
  1
1:1
 72
5
 11
80.9457684825
 21
18.25
100
AcDbText
  0
TEXT
  5
271
100
AcDbEntity
  8
0
100
AcDbText
 62
7
  6
CONTINUOUS
 10
77.0625
 20
15.25
  7
STANDARD
 40
2.0
  1
1
 72
5
 11
78.5177529183
 21
15.25
100
AcDbText
  0
TEXT
  5
272
100
AcDbEntity
  8
0
100
AcDbText
 62
7
  6
CONTINUOUS
 10
78.5177529183
 20
15.25
  7
STANDARD
 40
2.0
  1
 / 
 72
5
 11
81.2181420233
 21
15.25
100
AcDbText
  0
TEXT
  5
273
100
AcDbEntity
  8
0
100
AcDbText
 62
7
  6
CONTINUOUS
 10
81.2181420233
 20
15.25
  7
STANDARD
 40
2.0
  1
1
 72
5
 11
82.6733949416
 21
15.25
100
AcDbText
  0
TEXT
  5
274
100
AcDbEntity
  8
0
100
AcDbText
 62
7
  6
CONTINUOUS
 10
59.8480058366
 20
24.25
  7
STANDARD
 40
2.0
  1
Drawn with:
 72
5
 11
74.9375
 21
24.25
100
AcDbText
  0
TEXT
  5
275
100
AcDbEntity
  8
0
100
AcDbText
 62
7
  6
CONTINUOUS
 10
62.8752431907
 20
21.25
  7
STANDARD
 40
2.0
  1
Page size:
 72
5
 11
74.9375
 21
21.25
100
AcDbText
  0
TEXT
  5
276
100
AcDbEntity
  8
0
100
AcDbText
 62
7
  6
CONTINUOUS
 10
61.5834143969
 20
18.25
  7
STANDARD
 40
2.0
  1
Page scale:
 72
5
 11
74.9375
 21
18.25
100
AcDbText
  0
TEXT
  5
277
100
AcDbEntity
  8
0
100
AcDbText
 62
7
  6
CONTINUOUS
 10
64.1592898833
 20
15.25
  7
STANDARD
 40
2.0
  1
Sheet nr:
 72
5
 11
74.9375
 21
15.25
100
AcDbText
  0
TEXT
  5
278
100
AcDbEntity
  8
0
100
AcDbText
 62
7
  6
CONTINUOUS
 10
61.8480058366
 20
12.25
  7
STANDARD
 40
2.0
  1
Projection:
 72
5
 11
74.9375
 21
12.25
100
AcDbText
  0
TEXT
  5
279
100
AcDbEntity
  8
0
100
AcDbText
 62
7
  6
CONTINUOUS
 10
27.3015564202
 20
34.4375
  7
STANDARD
 40
5.0
  1
Orac
 72
5
 11
41.6984435798
 21
34.4375
100
AcDbText
  0
TEXT
  5
27A
100
AcDbEntity
  8
0
100
AcDbText
 62
7
  6
CONTINUOUS
 10
33.91692607
 20
29.8125
  7
STANDARD
 40
2.7
  1
 
 72
5
 11
35.08307393
 21
29.8125
100
AcDbText
  0
TEXT
  5
27B
100
AcDbEntity
  8
0
100
AcDbText
 62
7
  6
CONTINUOUS
 10
21.6303501946
 20
25.7625
  7
STANDARD
 40
2.7
  1
Biekorfstraat 32
 72
5
 11
47.3696498054
 21
25.7625
100
AcDbText
  0
TEXT
  5
27C
100
AcDbEntity
  8
0
100
AcDbText
 62
7
  6
CONTINUOUS
 10
14.0451361868
 20
21.7125
  7
STANDARD
 40
2.7
  1
8400 Oostende - Belgium
 72
5
 11
54.9548638132
 21
21.7125
100
AcDbText
  0
TEXT
  5
27D
100
AcDbEntity
  8
0
100
AcDbText
 62
7
  6
CONTINUOUS
 10
14.486381323
 20
17.6625
  7
STANDARD
 40
2.7
  1
Tel  +32 (0)59 80 32 52
 72
5
 11
54.513618677
 21
17.6625
100
AcDbText
  0
TEXT
  5
27E
100
AcDbEntity
  8
0
100
AcDbText
 62
7
  6
CONTINUOUS
 10
14.1239299611
 20
13.6125
  7
STANDARD
 40
2.7
  1
Fax  +32 (0)59 80 28 10
 72
5
 11
54.8760700389
 21
13.6125
100
AcDbText
  0
TEXT
  5
27F
100
AcDbEntity
  8
0
100
AcDbText
 62
7
  6
CONTINUOUS
 10
17.6538910506
 20
9.5625
  7
STANDARD
 40
2.7
  1
www.oracdecor.com
 72
5
 11
51.3461089494
 21
9.5625
100
AcDbText
  0
TEXT
  5
280
100
AcDbEntity
  8
0
100
AcDbText
 62
7
  6
CONTINUOUS
 10
2.36
 20
19.7080090791
  7
TEXTSTYLE_4
 40
1.1
  1
u
 50
90.0
 72
5
 11
2.36
 21
22.3663424125
100
AcDbText
  0
TEXT
  5
281
100
AcDbEntity
  8
0
100
AcDbText
 62
7
  6
CONTINUOUS
 10
2.36
 20
22.3663424125
  7
STANDARD
 40
1.1
  1
ROHS
 50
90.0
 72
5
 11
2.36
 21
26.6336575875
100
AcDbText
  0
TEXT
  5
282
100
AcDbEntity
  8
0
100
AcDbText
 62
7
  6
CONTINUOUS
 10
2.36
 20
26.6336575875
  7
TEXTSTYLE_4
 40
1.1
  1
u
 50
90.0
 72
5
 11
2.36
 21
29.2919909209
100
AcDbText
  0
TEXT
  5
283
100
AcDbEntity
  8
0
100
AcDbText
 62
7
  6
CONTINUOUS
 10
4.23
 20
9.219844358
  7
STANDARD
 40
1.1
  1
Parts must be compliant to rohs regulations. If
 50
90.0
 72
5
 11
4.23
 21
39.780155642
100
AcDbText
  0
TEXT
  5
284
100
AcDbEntity
  8
0
100
AcDbText
 62
7
  6
CONTINUOUS
 10
6.1
 20
8.1048638132
  7
STANDARD
 40
1.1
  1
any notification on drawing is in contradictin with
 50
90.0
 72
5
 11
6.1
 21
40.8951361868
100
AcDbText
  0
TEXT
  5
285
100
AcDbEntity
  8
0
100
AcDbText
 62
7
  6
CONTINUOUS
 10
7.97
 20
8.2011673152
  7
STANDARD
 40
1.1
  1
ROHS regulations, contact Orac before delivery! 
 50
90.0
 72
5
 11
7.97
 21
40.7988326848
100
AcDbText
  0
TEXT
  5
286
100
AcDbEntity
  8
0
100
AcDbText
 62
2
  6
CONTINUOUS
 10
108.0625
 20
23.7875
  7
STANDARD
 40
2.25
  1
DUROPOLYMER
 72
5
 11
133.3202821012
 21
23.7875
100
AcDbText
  0
TEXT
  5
287
100
AcDbEntity
  8
0
100
AcDbText
 62
2
  6
CONTINUOUS
 10
133.3202821012
 20
23.7875
  7
STANDARD
 40
2.25
  1
 
 72
5
 11
134.2920719844
 21
23.7875
100
AcDbText
  0
TEXT
  5
288
100
AcDbEntity
  8
0
100
AcDbText
 62
2
  6
CONTINUOUS
 10
108.0625
 20
19.9625
  7
STANDARD
 40
2.25
  1
 
 72
5
 11
109.0342898833
 21
19.9625
100
AcDbText
  0
TEXT
  5
289
100
AcDbEntity
  8
0
100
AcDbText
 62
7
  6
CONTINUOUS
 10
92.0625
 20
23.625
  7
STANDARD
 40
2.5
  1
Material:
 72
5
 11
105.7979085603
 21
23.625
100
AcDbText
  0
TEXT
  5
28A
100
AcDbEntity
  8
0
100
AcDbText
 62
7
  6
CONTINUOUS
 10
92.0625
 20
19.875
  7
STANDARD
 40
2.5
  1
Remarks:
 72
5
 11
106.3232003891
 21
19.875
100
AcDbText
  0
TEXT
  5
28B
100
AcDbEntity
  8
0
100
AcDbText
 62
2
  6
CONTINUOUS
 10
108.0625
 20
37.525
  7
STANDARD
 40
1.8
  1
  
 72
5
 11
109.6173638132
 21
37.525
100
AcDbText
  0
TEXT
  5
28C
100
AcDbEntity
  8
0
100
AcDbText
 62
2
  6
CONTINUOUS
 10
109.6173638132
 20
37.525
  7
STANDARD
 40
2.5
  1
CX141-PROD-MM
 72
5
 11
139.0434338521
 21
37.525
100
AcDbText
  0
TEXT
  5
28D
100
AcDbEntity
  8
0
100
AcDbText
 62
2
  6
CONTINUOUS
 10
108.0625
 20
33.575
  7
STANDARD
 40
1.8
  1
  
 72
5
 11
109.6173638132
 21
33.575
100
AcDbText
  0
TEXT
  5
28E
100
AcDbEntity
  8
0
100
AcDbText
 62
2
  6
CONTINUOUS
 10
108.0625
 20
29.975
  7
STANDARD
 40
1.8
  1
  
 72
5
 11
109.6173638132
 21
29.975
100
AcDbText
  0
TEXT
  5
28F
100
AcDbEntity
  8
0
100
AcDbText
 62
7
  6
CONTINUOUS
 10
92.0625
 20
37.35
  7
STANDARD
 40
2.5
  1
Part name:
 72
5
 11
108.2784533074
 21
37.35
100
AcDbText
  0
TEXT
  5
290
100
AcDbEntity
  8
0
100
AcDbText
 62
7
  6
CONTINUOUS
 10
92.0625
 20
33.55
  7
STANDARD
 40
1.7
  1
Part description:
 72
5
 11
108.8177529183
 21
33.55
100
AcDbText
  0
TEXT
  5
291
100
AcDbEntity
  8
0
100
AcDbText
 62
7
  6
CONTINUOUS
 10
92.0625
 20
30.15
  7
STANDARD
 40
1.7
  1
 
 72
5
 11
92.7967412451
 21
30.15
100
AcDbText
  0
TEXT
  5
292
100
AcDbEntity
  8
0
100
AcDbText
 62
7
  6
CONTINUOUS
 10
60.593385214
 20
27.75
  7
STANDARD
 40
2.5
  1
Drawing properties
 72
5
 11
89.406614786
 21
27.75
100
AcDbText
  0
TEXT
  5
293
100
AcDbEntity
  8
0
100
AcDbText
 62
7
  6
CONTINUOUS
 10
61.8287937743
 20
39.0
  7
STANDARD
 40
2.0
  1
All dimensions are in 
 72
5
 11
88.1712062257
 21
39.0
100
AcDbText
  0
TEXT
  5
294
100
AcDbEntity
  8
0
100
AcDbText
 62
7
  6
CONTINUOUS
 10
62.1050583658
 20
36.0
  7
STANDARD
 40
2.0
  1
mm unless otherwise 
 72
5
 11
87.8949416342
 21
36.0
100
AcDbText
  0
TEXT
  5
295
100
AcDbEntity
  8
0
100
AcDbText
 62
7
  6
CONTINUOUS
 10
69.7470817121
 20
33.0
  7
STANDARD
 40
2.0
  1
specified
 72
5
 11
80.2529182879
 21
33.0
100
AcDbText
  0
ENDBLK
  5
296
100
AcDbEntity
  8
0
  6
BYBLOCK
 62
0
100
AcDbBlockEnd
  0
ENDSEC
  0
SECTION
  2
ENTITIES
  0
INSERT
  5
297
100
AcDbEntity
  8
0
100
AcDbBlockReference
 62
7
  6
CONTINUOUS
  2
SYMBOL_2_BL0
 10
200.6298462176
 20
16.2178244018
  0
DIMENSION
  5
298
100
AcDbEntity
  8
0
100
AcDbDimension
 62
2
  6
CONTINUOUS
  2
*D0
 10
63.3873516362
 20
86.6081351978
 11
63.3873516362
 21
116.6081351978
 70
160
 71
2
 42
60.0
  3
DIMSTYLE_1
100
AcDbAlignedDimension
 13
99.2528993582
 23
146.6081351978
 14
76.2528993582
 24
86.6081351978
 50
270.0
100
AcDbRotatedDimension
  0
DIMENSION
  5
299
100
AcDbEntity
  8
0
100
AcDbDimension
 62
2
  6
CONTINUOUS
  2
*D1
 10
109.2528993582
 20
152.3104192123
 11
92.7528993582
 21
152.3104192123
 70
160
 71
2
 42
33.0
  3
DIMSTYLE_1
100
AcDbAlignedDimension
 13
76.2528993582
 23
126.9004065193
 14
109.2528993582
 24
146.6081351978
100
AcDbRotatedDimension
  0
DIMENSION
  5
29A
100
AcDbEntity
  8
0
100
AcDbDimension
 62
2
  6
CONTINUOUS
  2
*D2
 10
88.6485692185
 20
79.7905167746
 11
105.1485692185
 21
109.7905167746
 70
160
 71
2
 42
68.4762732631
  3
DIMSTYLE_1
100
AcDbAlignedDimension
 13
109.2528993582
 23
146.6081351978
 14
76.2528993582
 24
86.6081351978
 50
241.189206257
100
AcDbRotatedDimension
  0
ACAD_TABLE
  5
29B
100
AcDbEntity
  8
0
 62
2
  6
CONTINUOUS
100
AcDbBlockReference
  2
*T1
 10
117.9999793246
 20
4.9999996476
 30
0.0
100
AcDbTable
342
       2F5
343
21D
 11
1.0
 21
0.0
 31
0.0
 90
6
 91
5
 92
10
 93
4
 94
0
 95
0
 96
0
 70
1
141
6.5
141
12.0
141
9.0
141
4.0
141
11.0
142
10.0
142
49.0
142
17.0
142
15.0
142
16.0
142
15.0
142
18.0
142
15.0
142
10.0
142
9.0
171
1
172
0
173
0
174
0
175
6
176
1
 91
33
178
0
145
0.0
301
CELL_VALUE
 90
4
  1
All information in this document is Orac's exclusive property.  It may in no case be reproduced, even partly,\Pbe communicated to a third party or used for any possible purpose without ORAC's express written permission. 
304
ACVALUE_END
170
5
140
1.8
171
1
172
0
173
1
174
0
175
1
176
1
 91
1
178
0
145
0.0
170
1
171
1
172
0
173
1
174
0
175
1
176
1
 91
1
178
0
145
0.0
170
1
171
1
172
0
173
1
174
0
175
1
176
1
 91
1
178
0
145
0.0
170
1
171
1
172
0
173
1
174
0
175
1
176
1
 91
1
178
0
145
0.0
170
1
171
1
172
0
173
1
174
0
175
1
176
1
 91
1
178
0
145
0.0
170
5
171
1
172
0
173
0
174
0
175
1
176
1
 91
33
178
0
145
0.0
301
CELL_VALUE
 90
4
  1
Rev:   
304
ACVALUE_END
170
4
140
2.5
171
1
172
0
173
0
174
0
175
1
176
2
 91
41
178
0
145
0.0
301
CELL_VALUE
 90
4
  1
 \P \P \PPainted Surface :
304
ACVALUE_END
170
1
140
2.25
 64
7
171
1
172
0
173
0
174
0
175
1
176
2
 91
41
178
0
145
0.0
301
CELL_VALUE
 90
4
  1
 \P \P \P \P8,6
304
ACVALUE_END
170
3
140
2.25
 64
7
171
1
172
0
173
0
174
0
175
1
176
2
 91
41
178
0
145
0.0
301
CELL_VALUE
 90
4
  1
  \P \P \P \Pdm²/m
304
ACVALUE_END
170
1
140
1.8
 64
7
171
1
172
0
173
0
174
0
175
1
176
4
 91
41
178
0
145
0.0
301
CELL_VALUE
 90
4
  1
{\Fgdt;u}\Fcgtime.ttf;ROHS\Fgdt;{\Fgdt;u}\P\Fcgtime.ttf;Parts must be compliant to rohs regulations. If\Pany notification on drawing is in contradictin with\PROHS regulations, contact Orac before delivery! 
304
ACVALUE_END
170
5
140
1.1
 64
7
171
1
172
0
173
0
174
0
175
1
176
4
 91
41
178
0
145
0.0
301
CELL_VALUE
 90
4
  1
Orac\P\H2.7; \PBiekorfstraat 32\P8400 Oostende - Belgium\PTel  +32 (0)59 80 32 52\PFax  +32 (0)59 80 28 10\Pwww.oracdecor.com
304
ACVALUE_END
170
5
140
5.0
 64
7
171
1
172
0
173
0
174
0
175
1
176
2
 91
41
178
0
145
0.0
301
CELL_VALUE
 90
4
  1
Drawn with:\PPage size:\PPage scale:\PSheet nr:\PProjection:
304
ACVALUE_END
170
3
140
2.0
 64
7
171
1
172
0
173
0
174
0
175
1
176
2
 91
41
178
0
145
0.0
301
CELL_VALUE
 90
4
  1
Creo 2.0\PA4\P1:1\P1 / 1
304
ACVALUE_END
170
1
140
2.0
 64
7
171
1
172
0
173
0
174
0
175
1
176
1
 91
41
178
0
145
0.0
301
CELL_VALUE
 90
4
  1
Drawn by:\PDrawn on:
304
ACVALUE_END
170
4
140
2.25
 64
7
171
1
172
0
173
0
174
0
175
2
176
1
 91
33
178
0
145
0.0
301
CELL_VALUE
 90
4
  1
Anton Smolko\P29-Jul-2014
304
ACVALUE_END
170
4
140
2.25
171
1
172
0
173
1
174
0
175
1
176
1
 91
1
178
0
145
0.0
170
4
171
1
172
0
173
1
174
0
175
1
176
1
 91
1
178
0
145
0.0
170
1
171
1
172
0
173
1
174
0
175
1
176
1
 91
1
178
0
145
0.0
170
1
171
1
172
0
173
1
174
0
175
1
176
1
 91
1
178
0
145
0.0
170
1
171
1
172
0
173
1
174
0
175
1
176
1
 91
1
178
0
145
0.0
170
1
171
1
172
0
173
1
174
0
175
1
176
1
 91
1
178
0
145
0.0
170
1
171
1
172
0
173
1
174
0
175
1
176
1
 91
1
178
0
145
0.0
170
1
171
1
172
0
173
1
174
0
175
1
176
1
 91
1
178
0
145
0.0
170
1
171
1
172
0
173
0
174
0
175
1
176
1
 91
41
178
0
145
0.0
301
CELL_VALUE
 90
4
  1
Material:\PRemarks:
304
ACVALUE_END
170
4
140
2.5
 64
7
171
1
172
0
173
0
174
0
175
5
176
1
 91
33
178
0
145
0.0
301
CELL_VALUE
 90
4
  1
DUROPOLYMER \P 
304
ACVALUE_END
170
4
140
2.25
171
1
172
0
173
1
174
0
175
1
176
1
 91
1
178
0
145
0.0
170
1
171
1
172
0
173
1
174
0
175
1
176
1
 91
1
178
0
145
0.0
170
1
171
1
172
0
173
1
174
0
175
1
176
1
 91
1
178
0
145
0.0
170
1
171
1
172
0
173
1
174
0
175
1
176
1
 91
1
178
0
145
0.0
170
4
171
1
172
0
173
1
174
0
175
1
176
1
 91
1
178
0
145
0.0
170
1
171
1
172
0
173
1
174
0
175
1
176
1
 91
1
178
0
145
0.0
170
1
171
1
172
0
173
0
174
0
175
2
176
1
 91
33
178
0
145
0.0
301
CELL_VALUE
 90
4
  1
Drawing properties
304
ACVALUE_END
170
2
140
2.5
171
1
172
0
173
1
174
0
175
1
176
1
 91
1
178
0
145
0.0
170
2
171
1
172
0
173
0
174
0
175
1
176
2
 91
41
178
0
145
0.0
301
CELL_VALUE
 90
4
  1
Part name:\P\H1.7;Part description:\P 
304
ACVALUE_END
170
4
140
2.5
 64
7
171
1
172
0
173
0
174
0
175
5
176
2
 91
33
178
0
145
0.0
301
CELL_VALUE
 90
4
  1
  \H2.5;CX141-PROD-MM\P\H1.8;  \P  
304
ACVALUE_END
170
4
140
1.8
171
1
172
0
173
1
174
0
175
1
176
1
 91
1
178
0
145
0.0
170
1
171
1
172
0
173
1
174
0
175
1
176
1
 91
1
178
0
145
0.0
170
1
171
1
172
0
173
1
174
0
175
1
176
1
 91
1
178
0
145
0.0
170
1
171
1
172
0
173
1
174
0
175
1
176
1
 91
1
178
0
145
0.0
170
4
171
1
172
0
173
1
174
0
175
1
176
1
 91
1
178
0
145
0.0
170
1
171
1
172
0
173
1
174
0
175
1
176
1
 91
1
178
0
145
0.0
170
1
171
1
172
0
173
0
174
0
175
2
176
1
 91
33
178
0
145
0.0
301
CELL_VALUE
 90
4
  1
All dimensions are in \Pmm unless otherwise \Pspecified
304
ACVALUE_END
170
5
140
2.0
171
1
172
0
173
1
174
0
175
1
176
1
 91
1
178
0
145
0.0
170
5
171
1
172
0
173
1
174
0
175
1
176
1
 91
1
178
0
145
0.0
170
1
171
1
172
0
173
1
174
0
175
1
176
1
 91
1
178
0
145
0.0
170
1
171
1
172
0
173
1
174
0
175
1
176
1
 91
1
178
0
145
0.0
170
1
171
1
172
0
173
1
174
0
175
1
176
1
 91
1
178
0
145
0.0
170
1
171
1
172
0
173
1
174
0
175
1
176
1
 91
1
178
0
145
0.0
170
1
171
1
172
0
173
1
174
0
175
1
176
1
 91
1
178
0
145
0.0
170
1
  0
LINE
  5
29C
100
AcDbEntity
  8
0
100
AcDbLine
 62
5
  6
CONTINUOUS
 10
0.0
 20
0.0
 11
0.0
 21
210.0
  0
LINE
  5
29D
100
AcDbEntity
  8
0
100
AcDbLine
 62
7
  6
CONTINUOUS
 10
5.0
 20
5.0
 11
5.0
 21
195.0
  0
LINE
  5
29E
100
AcDbEntity
  8
0
100
AcDbLine
 62
5
  6
CONTINUOUS
 10
0.0
 20
0.0
 11
297.0
 21
0.0
  0
LINE
  5
29F
100
AcDbEntity
  8
0
100
AcDbLine
 62
7
  6
CONTINUOUS
 10
5.0
 20
5.0
 11
292.0
 21
5.0
  0
LINE
  5
2A0
100
AcDbEntity
  8
0
100
AcDbLine
 62
4
  6
CONTINUOUS
 10
148.5
 20
195.0
 11
148.5
 21
205.0
  0
LINE
  5
2A1
100
AcDbEntity
  8
0
100
AcDbLine
 62
7
  6
CONTINUOUS
 10
5.0
 20
195.0
 11
292.0
 21
195.0
  0
LINE
  5
2A2
100
AcDbEntity
  8
0
100
AcDbLine
 62
5
  6
CONTINUOUS
 10
0.0
 20
210.0
 11
297.0
 21
210.0
  0
LINE
  5
2A3
100
AcDbEntity
  8
0
100
AcDbLine
 62
7
  6
CONTINUOUS
 10
292.0
 20
5.0
 11
292.0
 21
195.0
  0
LINE
  5
2A4
100
AcDbEntity
  8
0
100
AcDbLine
 62
5
  6
CONTINUOUS
 10
297.0
 20
0.0
 11
297.0
 21
210.0
  0
LINE
  5
2A5
100
AcDbEntity
  8
0
100
AcDbLine
 62
7
  6
CONTINUOUS
 10
217.0925039508
 20
80.4112431109
 11
220.5950833384
 21
80.5305163851
  0
LINE
  5
2A6
100
AcDbEntity
  8
0
100
AcDbLine
 62
7
  6
CONTINUOUS
 10
195.5662248291
 20
94.8898297065
 11
217.0925039508
 21
80.4112431109
  0
LINE
  5
2A7
100
AcDbEntity
  8
0
100
AcDbLine
 62
7
  6
CONTINUOUS
 10
219.6648113755
 20
154.4568389502
 11
213.8208106035
 21
149.6323472739
  0
LINE
  5
2A8
100
AcDbEntity
  8
0
100
AcDbLine
 62
7
  6
CONTINUOUS
 10
199.8618531361
 20
138.1085852589
 11
196.3074760162
 21
135.1742833143
  0
LINE
  5
2A9
100
AcDbEntity
  8
0
100
AcDbLine
 62
7
  6
CONTINUOUS
 10
220.5950833384
 20
80.5305163851
 11
199.0688042167
 21
95.0091029807
  0
LINE
  5
2AA
100
AcDbEntity
  8
0
100
AcDbLine
 62
7
  6
CONTINUOUS
 10
196.3074760162
 20
135.1742833143
 11
196.2641306154
 21
132.818609803
  0
LINE
  5
2AB
100
AcDbEntity
  8
0
100
AcDbLine
 62
7
  6
CONTINUOUS
 10
196.2112896643
 20
129.9468857745
 11
196.1733211375
 21
127.8834268768
  0
LINE
  5
2AC
100
AcDbEntity
  8
0
100
AcDbLine
 62
7
  6
CONTINUOUS
 10
195.8237808387
 20
108.8871133545
 11
195.7214233095
 21
103.3243335447
  0
LINE
  5
2AD
100
AcDbEntity
  8
0
100
AcDbLine
 62
7
  6
CONTINUOUS
 10
195.6685823583
 20
100.4526095162
 11
195.5662248291
 21
94.8898297065
  0
LINE
  5
2AE
100
AcDbEntity
  8
0
100
AcDbLine
 62
7
  6
CONTINUOUS
 10
198.1728667963
 20
127.8467878117
 11
197.8233264975
 21
108.8504742894
  0
LINE
  5
2AF
100
AcDbEntity
  8
0
100
AcDbLine
 62
7
  6
CONTINUOUS
 10
213.8208106035
 20
149.6323472739
 11
210.1124396276
 21
143.8024373369
  0
LINE
  5
2B0
100
AcDbEntity
  8
0
100
AcDbLine
 62
7
  6
CONTINUOUS
 10
204.6886380852
 20
139.6343811182
 11
199.8618531361
 21
138.1085852589
  0
LINE
  5
2B1
100
AcDbEntity
  8
0
100
AcDbLine
 62
7
  6
CONTINUOUS
 10
223.8085706029
 20
92.1148944708
 11
225.8113352948
 21
92.2531987829
  0
LINE
  5
2B2
100
AcDbEntity
  8
0
100
AcDbLine
 62
7
  6
CONTINUOUS
 10
195.5662248291
 20
94.8898297065
 11
199.0688042167
 21
95.0091029807
  0
LINE
  5
2B3
100
AcDbEntity
  8
0
100
AcDbLine
 62
7
  6
CONTINUOUS
 10
224.9553172541
 20
89.8016097348
 11
203.4290381324
 21
104.2801963304
  0
LINE
  5
2B4
100
AcDbEntity
  8
0
100
AcDbLine
 62
7
  6
CONTINUOUS
 10
202.2487167986
 20
104.7688124937
 11
202.2822914813
 21
106.5934810664
  0
LINE
  5
2B5
100
AcDbEntity
  8
0
100
AcDbLine
 62
7
  6
CONTINUOUS
 10
202.7302541352
 20
130.9387112171
 11
202.7638288178
 21
132.7633797897
  0
LINE
  5
2B6
100
AcDbEntity
  8
0
100
AcDbLine
 62
7
  6
CONTINUOUS
 10
204.2850561731
 20
106.7317853784
 11
204.726580761
 21
130.727128775
  0
LINE
  5
2B7
100
AcDbEntity
  8
0
100
AcDbLine
 62
7
  6
CONTINUOUS
 10
223.8085706029
 20
92.1148944708
 11
202.2822914813
 21
106.5934810664
  0
LINE
  5
2B8
100
AcDbEntity
  8
0
100
AcDbLine
 62
7
  6
CONTINUOUS
 10
204.2850561731
 20
106.7317853784
 11
225.8113352948
 21
92.2531987829
  0
LINE
  5
2B9
100
AcDbEntity
  8
0
100
AcDbLine
 62
7
  6
CONTINUOUS
 10
202.2822914813
 20
106.5934810664
 11
204.2850561731
 21
106.7317853784
  0
LINE
  5
2BA
100
AcDbEntity
  8
0
100
AcDbLine
 62
7
  6
CONTINUOUS
 10
197.8233264975
 20
108.8504742894
 11
195.8237808387
 21
108.8871133545
  0
LINE
  5
2BB
100
AcDbEntity
  8
0
100
AcDbLine
 62
7
  6
CONTINUOUS
 10
198.149088601
 20
126.5545246474
 11
196.1733211375
 21
127.8834268768
  0
LINE
  5
2BC
100
AcDbEntity
  8
0
100
AcDbLine
 62
7
  6
CONTINUOUS
 10
223.780544325
 20
90.5917626213
 11
223.8085706029
 21
92.1148944708
  0
LINE
  5
2BD
100
AcDbEntity
  8
0
100
AcDbLine
 62
7
  6
CONTINUOUS
 10
224.2770924191
 20
117.5774444088
 11
224.2901079395
 21
118.2847931942
  0
LINE
  5
2BE
100
AcDbEntity
  8
0
100
AcDbLine
 62
7
  6
CONTINUOUS
 10
225.8113352948
 20
92.2531987829
 11
226.2528598827
 21
116.2485421794
  0
LINE
  5
2BF
100
AcDbEntity
  8
0
100
AcDbLine
 62
7
  6
CONTINUOUS
 10
224.2901079395
 20
118.2847931942
 11
225.277886554
 21
118.4403664621
  0
LINE
  5
2C0
100
AcDbEntity
  8
0
100
AcDbLine
 62
7
  6
CONTINUOUS
 10
226.2528598827
 20
116.2485421794
 11
204.726580761
 21
130.727128775
  0
LINE
  5
2C1
100
AcDbEntity
  8
0
100
AcDbLine
 62
7
  6
CONTINUOUS
 10
224.2901079395
 20
118.2847931942
 11
202.7638288178
 21
132.7633797897
  0
LINE
  5
2C2
100
AcDbEntity
  8
0
100
AcDbLine
 62
7
  6
CONTINUOUS
 10
225.277886554
 20
118.4403664621
 11
203.7516074323
 21
132.9189530576
  0
LINE
  5
2C3
100
AcDbEntity
  8
0
100
AcDbLine
 62
7
  6
CONTINUOUS
 10
229.4501614749
 20
151.2771059585
 11
229.6625396697
 21
154.2736436251
  0
LINE
  5
2C4
100
AcDbEntity
  8
0
100
AcDbLine
 62
7
  6
CONTINUOUS
 10
196.1733211375
 20
127.8834268768
 11
198.1728667963
 21
127.8467878117
  0
LINE
  5
2C5
100
AcDbEntity
  8
0
100
AcDbLine
 62
7
  6
CONTINUOUS
 10
204.726580761
 20
130.727128775
 11
202.7302541352
 21
130.9387112171
  0
LINE
  5
2C6
100
AcDbEntity
  8
0
100
AcDbLine
 62
7
  6
CONTINUOUS
 10
202.7638288178
 20
132.7633797897
 11
203.7516074323
 21
132.9189530576
  0
LINE
  5
2C7
100
AcDbEntity
  8
0
100
AcDbLine
 62
7
  6
CONTINUOUS
 10
250.9764405966
 20
136.798519363
 11
251.1888187914
 21
139.7950570295
  0
LINE
  5
2C8
100
AcDbEntity
  8
0
100
AcDbLine
 62
7
  6
CONTINUOUS
 10
223.2278611099
 20
154.3915507132
 11
224.3279921394
 21
153.6516020074
  0
LINE
  5
2C9
100
AcDbEntity
  8
0
100
AcDbLine
 62
7
  6
CONTINUOUS
 10
229.4501614749
 20
151.2771059585
 11
250.9764405966
 21
136.798519363
  0
LINE
  5
2CA
100
AcDbEntity
  8
0
100
AcDbLine
 62
7
  6
CONTINUOUS
 10
251.1888187914
 20
139.7950570295
 11
229.6625396697
 21
154.2736436251
  0
LINE
  5
2CB
100
AcDbEntity
  8
0
100
AcDbLine
 62
7
  6
CONTINUOUS
 10
229.6625396697
 20
154.2736436251
 11
226.0994899354
 21
154.3389318621
  0
LINE
  5
2CC
100
AcDbEntity
  8
0
100
AcDbLine
 62
7
  6
CONTINUOUS
 10
223.2278611099
 20
154.3915507132
 11
219.6648113755
 21
154.4568389502
  0
LINE
  5
2CD
100
AcDbEntity
  8
0
100
AcDbLine
 62
7
  6
CONTINUOUS
 10
76.2528993582
 20
86.6081351978
 11
79.7528993582
 21
86.7915624253
  0
LINE
  5
2CE
100
AcDbEntity
  8
0
100
AcDbLine
 62
7
  6
CONTINUOUS
 10
99.2528993582
 20
146.6081351978
 11
93.4983038238
 21
141.6772653087
  0
LINE
  5
2CF
100
AcDbEntity
  8
0
100
AcDbLine
 62
7
  6
CONTINUOUS
 10
79.7528993582
 20
129.8994087095
 11
76.2528993582
 21
126.9004065193
  0
LINE
  5
2D0
100
AcDbEntity
  8
0
100
AcDbLine
 62
7
  6
CONTINUOUS
 10
76.2528993582
 20
126.9004065193
 11
76.2528993582
 21
124.5442758594
  0
LINE
  5
2D1
100
AcDbEntity
  8
0
100
AcDbLine
 62
7
  6
CONTINUOUS
 10
76.2528993582
 20
121.6719945361
 11
76.2528993582
 21
119.6081351978
  0
LINE
  5
2D2
100
AcDbEntity
  8
0
100
AcDbLine
 62
7
  6
CONTINUOUS
 10
76.2528993582
 20
100.6081351978
 11
76.2528993582
 21
95.0442758594
  0
LINE
  5
2D3
100
AcDbEntity
  8
0
100
AcDbLine
 62
7
  6
CONTINUOUS
 10
76.2528993582
 20
92.1719945361
 11
76.2528993582
 21
86.6081351978
  0
LINE
  5
2D4
100
AcDbEntity
  8
0
100
AcDbLine
 62
7
  6
CONTINUOUS
 10
84.5510816103
 20
131.513418183
 11
79.7528993582
 21
129.8994087095
  0
LINE
  5
2D5
100
AcDbEntity
  8
0
100
AcDbLine
 62
7
  6
CONTINUOUS
 10
82.7528993582
 20
98.4331578707
 11
84.7528993582
 21
98.6081351978
  0
LINE
  5
2D6
100
AcDbEntity
  8
0
100
AcDbLine
 62
7
  6
CONTINUOUS
 10
78.2528993582
 20
100.6081351978
 11
76.2528993582
 21
100.6081351978
  0
LINE
  5
2D7
100
AcDbEntity
  8
0
100
AcDbLine
 62
7
  6
CONTINUOUS
 10
78.2528993582
 20
119.6081351978
 11
78.2528993582
 21
100.6081351978
  0
LINE
  5
2D8
100
AcDbEntity
  8
0
100
AcDbLine
 62
7
  6
CONTINUOUS
 10
93.4983038238
 20
141.6772653087
 11
89.8976014629
 21
135.7802480182
  0
LINE
  5
2D9
100
AcDbEntity
  8
0
100
AcDbLine
 62
7
  6
CONTINUOUS
 10
82.7528993582
 20
96.6081351978
 11
82.7528993582
 21
98.4331578707
  0
LINE
  5
2DA
100
AcDbEntity
  8
0
100
AcDbLine
 62
7
  6
CONTINUOUS
 10
82.7528993582
 20
122.7831125248
 11
82.7528993582
 21
124.6081351978
  0
LINE
  5
2DB
100
AcDbEntity
  8
0
100
AcDbLine
 62
7
  6
CONTINUOUS
 10
84.7528993582
 20
98.6081351978
 11
84.7528993582
 21
122.6081351978
  0
LINE
  5
2DC
100
AcDbEntity
  8
0
100
AcDbLine
 62
7
  6
CONTINUOUS
 10
76.2528993582
 20
119.6081351978
 11
78.2528993582
 21
119.6081351978
  0
LINE
  5
2DD
100
AcDbEntity
  8
0
100
AcDbLine
 62
7
  6
CONTINUOUS
 10
84.7528993582
 20
122.6081351978
 11
82.7528993582
 21
122.7831125248
  0
LINE
  5
2DE
100
AcDbEntity
  8
0
100
AcDbLine
 62
7
  6
CONTINUOUS
 10
82.7528993582
 20
124.6081351978
 11
83.7377071113
 21
124.7817833754
  0
LINE
  5
2DF
100
AcDbEntity
  8
0
100
AcDbLine
 62
7
  6
CONTINUOUS
 10
109.0956760204
 20
143.6081351978
 11
109.2528993582
 21
146.6081351978
  0
LINE
  5
2E0
100
AcDbEntity
  8
0
100
AcDbLine
 62
7
  6
CONTINUOUS
 10
109.2528993582
 20
146.6081351978
 11
105.6890400199
 21
146.6081351978
  0
LINE
  5
2E1
100
AcDbEntity
  8
0
100
AcDbLine
 62
7
  6
CONTINUOUS
 10
102.8167586966
 20
146.6081351978
 11
99.2528993582
 21
146.6081351978
  0
ARC
  5
2E2
100
AcDbEntity
  8
0
100
AcDbCircle
 62
7
  6
CONTINUOUS
 10
201.674299133
 20
149.1698413135
 40
10.0005620069
100
AcDbArc
 50
287.5427286366
 51
327.5400302163
  0
ARC
  5
2E3
100
AcDbEntity
  8
0
100
AcDbCircle
 62
7
  6
CONTINUOUS
 10
194.6951381895
 20
101.9068858614
 40
1.74999119
100
AcDbArc
 50
303.7970347529
 51
54.094056105
  0
ARC
  5
2E4
100
AcDbEntity
  8
0
100
AcDbCircle
 62
7
  6
CONTINUOUS
 10
195.2378454954
 20
131.4011621197
 40
1.74999119
100
AcDbArc
 50
303.7970347526
 51
54.0940561032
  0
ARC
  5
2E5
100
AcDbEntity
  8
0
100
AcDbCircle
 62
7
  6
CONTINUOUS
 10
224.6819133396
 20
155.364812575
 40
1.7497161308
100
AcDbArc
 50
213.7961560276
 51
324.1007689315
  0
ARC
  5
2E6
100
AcDbEntity
  8
0
100
AcDbCircle
 62
7
  6
CONTINUOUS
 10
81.3628322242
 20
140.9915543844
 40
10.0
100
AcDbArc
 50
288.5918770354
 51
328.5918770354
  0
ARC
  5
2E7
100
AcDbEntity
  8
0
100
AcDbCircle
 62
7
  6
CONTINUOUS
 10
104.2528993582
 20
147.6081351978
 40
1.75
100
AcDbArc
 50
214.849904579
 51
325.150095421
  0
ARC
  5
2E8
100
AcDbEntity
  8
0
100
AcDbCircle
 62
7
  6
CONTINUOUS
 10
75.2528993582
 20
123.1081351978
 40
1.75
100
AcDbArc
 50
304.849904579
 51
55.150095421
  0
ARC
  5
2E9
100
AcDbEntity
  8
0
100
AcDbCircle
 62
7
  6
CONTINUOUS
 10
75.2528993582
 20
93.6081351978
 40
1.75
100
AcDbArc
 50
304.849904579
 51
55.150095421
  0
SPLINE
  5
2EA
100
AcDbEntity
  8
0
100
AcDbSpline
 62
7
  6
CONTINUOUS
 70
0
 71
3
 72
36
 73
32
 74
0
 42
0.0000001
 43
0.0000001
 44
0.0000000001
 40
0.0
 40
0.0
 40
0.0
 40
0.0
 40
0.041502098
 40
0.0743664353
 40
0.1018261979
 40
0.1271991411
 40
0.1401427681
 40
0.1536451765
 40
0.1821528634
 40
0.2122312022
 40
0.2433691199
 40
0.2750862284
 40
0.3069500524
 40
0.3386797817
 40
0.3703913924
 40
0.4341459758
 40
0.4982793654
 40
0.5622856859
 40
0.6254788556
 40
0.6566820671
 40
0.6876664316
 40
0.7185559991
 40
0.7495488838
 40
0.7807764618
 40
0.8122064951
 40
0.8437231806
 40
0.875147288
 40
0.9062545358
 40
0.9370740931
 40
0.9681187211
 40
1.0
 40
1.0
 40
1.0
 40
1.0
 10
225.277886554
 20
118.4403664621
 30
0.0
 10
225.7328320485
 20
118.512019519
 30
0.0
 10
226.5470770757
 20
118.6470587993
 30
0.0
 10
227.6537573993
 20
118.8780749764
 30
0.0
 10
228.5691055787
 20
119.1405673805
 30
0.0
 10
229.2485032818
 20
119.4106214154
 30
0.0
 10
229.7681635379
 20
119.6570646375
 30
0.0
 10
230.3099692242
 20
119.9371870835
 30
0.0
 10
231.0014925191
 20
120.3406046916
 30
0.0
 10
231.828482612
 20
120.8962597319
 30
0.0
 10
232.6460136243
 20
121.526196537
 30
0.0
 10
233.4328409941
 20
122.2244709986
 30
0.0
 10
234.1689200979
 20
122.9857692946
 30
0.0
 10
234.8346752333
 20
123.8091191815
 30
0.0
 10
235.6412405506
 20
124.9686190816
 30
0.0
 10
236.536116876
 20
126.4988770671
 30
0.0
 10
237.5561666528
 20
128.3678167123
 30
0.0
 10
238.658778744
 20
130.1839161139
 30
0.0
 10
239.6973164983
 20
131.6067223929
 30
0.0
 10
240.6202897058
 20
132.6492690258
 30
0.0
 10
241.360899822
 20
133.3707598812
 30
0.0
 10
242.1580060915
 20
134.0262188111
 30
0.0
 10
243.0171069344
 20
134.60324284
 30
0.0
 10
243.9310393604
 20
135.1006846568
 30
0.0
 10
244.8863887489
 20
135.5266098134
 30
0.0
 10
245.8706665628
 20
135.8863920305
 30
0.0
 10
246.8711327215
 20
136.1853883453
 30
0.0
 10
247.8778576796
 20
136.4312694694
 30
0.0
 10
248.8917017905
 20
136.6254630794
 30
0.0
 10
249.9246516309
 20
136.755330681
 30
0.0
 10
250.6226990516
 20
136.7926516492
 30
0.0
 10
250.9764405966
 20
136.798519363
 30
0.0
  0
SPLINE
  5
2EB
100
AcDbEntity
  8
0
100
AcDbSpline
 62
7
  6
CONTINUOUS
 70
0
 71
3
 72
11
 73
7
 74
0
 42
0.0000001
 43
0.0000001
 44
0.0000000001
 40
0.0
 40
0.0
 40
0.0
 40
0.0
 40
0.2248329069
 40
0.4556424268
 40
0.7092427877
 40
1.0
 40
1.0
 40
1.0
 40
1.0
 10
203.4290381424
 20
104.2801963236
 30
0.0
 10
203.3494152243
 20
104.3337507408
 30
0.0
 10
203.1783872732
 20
104.4282513053
 30
0.0
 10
202.8966733322
 20
104.5398375845
 30
0.0
 10
202.5834458037
 20
104.6462711258
 30
0.0
 10
202.364528912
 20
104.7242382958
 30
0.0
 10
202.2487167986
 20
104.7688124937
 30
0.0
  0
SPLINE
  5
2EC
100
AcDbEntity
  8
0
100
AcDbSpline
 62
7
  6
CONTINUOUS
 70
0
 71
3
 72
29
 73
25
 74
0
 42
0.0000001
 43
0.0000001
 44
0.0000000001
 40
0.0
 40
0.0
 40
0.0
 40
0.0
 40
0.0644665464
 40
0.126535033
 40
0.1564249005
 40
0.185549265
 40
0.214047075
 40
0.2422752498
 40
0.299974036
 40
0.3619315718
 40
0.4297988947
 40
0.503199002
 40
0.5776706283
 40
0.6482469038
 40
0.7114145288
 40
0.7675566842
 40
0.7940975352
 40
0.8205225992
 40
0.8477728736
 40
0.8768545075
 40
0.907893034
 40
0.9396705496
 40
0.9707980247
 40
1.0
 40
1.0
 40
1.0
 40
1.0
 10
220.5950833384
 20
80.5305163851
 30
0.0
 10
220.5997689585
 20
80.7851637306
 30
0.0
 10
220.6239443123
 20
81.2849410722
 30
0.0
 10
220.7149053049
 20
81.8980689829
 30
0.0
 10
220.8387389111
 20
82.3606794595
 30
0.0
 10
220.9583386965
 20
82.6856781429
 30
0.0
 10
221.1097373635
 20
82.9900755597
 30
0.0
 10
221.3592433453
 20
83.3682595437
 30
0.0
 10
221.7586318447
 20
83.7996914572
 30
0.0
 10
222.3362956471
 20
84.2654007545
 30
0.0
 10
222.9966199677
 20
84.7225049494
 30
0.0
 10
223.7059519949
 20
85.1950026154
 30
0.0
 10
224.4117990028
 20
85.6919195993
 30
0.0
 10
225.0502995088
 20
86.2130109262
 30
0.0
 10
225.5602620968
 20
86.7681511185
 30
0.0
 10
225.8474161261
 20
87.2776403236
 30
0.0
 10
225.9590994706
 20
87.6962445904
 30
0.0
 10
225.9833543323
 20
88.0141369665
 30
0.0
 10
225.9453967065
 20
88.3408843401
 30
0.0
 10
225.8424787613
 20
88.6721603903
 30
0.0
 10
225.6819821127
 20
88.999138191
 30
0.0
 10
225.4756583188
 20
89.3089274456
 30
0.0
 10
225.235033425
 20
89.5833077706
 30
0.0
 10
225.0510549971
 20
89.7372156978
 30
0.0
 10
224.9553252303
 20
89.80160437
 30
0.0
  0
SPLINE
  5
2ED
100
AcDbEntity
  8
0
100
AcDbSpline
 62
7
  6
CONTINUOUS
 70
0
 71
3
 72
29
 73
25
 74
0
 42
0.0000001
 43
0.0000001
 44
0.0000000001
 40
0.0
 40
0.0
 40
0.0
 40
0.0
 40
0.0644665518
 40
0.1265350404
 40
0.1564249076
 40
0.1855492714
 40
0.2140470813
 40
0.2422752589
 40
0.299974063
 40
0.3619316313
 40
0.4297989984
 40
0.5031991376
 40
0.5776707593
 40
0.6482469887
 40
0.7114145452
 40
0.7675566463
 40
0.7940974881
 40
0.8205225625
 40
0.8477728714
 40
0.8768545633
 40
0.9078931293
 40
0.939670649
 40
0.9707980905
 40
1.0
 40
1.0
 40
1.0
 40
1.0
 10
199.0688042167
 20
95.0091029807
 30
0.0
 10
199.073489841
 20
95.2637505527
 30
0.0
 10
199.0976652286
 20
95.7635283264
 30
0.0
 10
199.1886263918
 20
96.3766567508
 30
0.0
 10
199.3124602543
 20
96.8392675639
 30
0.0
 10
199.4320602923
 20
97.1642664491
 30
0.0
 10
199.5834593003
 20
97.4686640135
 30
0.0
 10
199.8329658275
 20
97.8468481731
 30
0.0
 10
200.2323551202
 20
98.2782802791
 30
0.0
 10
200.8100199297
 20
98.7439898635
 30
0.0
 10
201.4703452545
 20
99.2010944925
 30
0.0
 10
202.1796780756
 20
99.6735927153
 30
0.0
 10
202.885525425
 20
100.1705103001
 30
0.0
 10
203.5240256448
 20
100.6916023127
 30
0.0
 10
204.0339872704
 20
101.2467433621
 30
0.0
 10
204.3211398407
 20
101.7562334106
 30
0.0
 10
204.432821588
 20
102.1748382618
 30
0.0
 10
204.4570750824
 20
102.4927311487
 30
0.0
 10
204.4191158847
 20
102.8194790186
 30
0.0
 10
204.3161962542
 20
103.1507553747
 30
0.0
 10
204.1556981485
 20
103.4777332245
 30
0.0
 10
203.9493730901
 20
103.7875220468
 30
0.0
 10
203.7087472111
 20
104.0619014159
 30
0.0
 10
203.5247681319
 20
104.2158082816
 30
0.0
 10
203.4290381424
 20
104.2801963236
 30
0.0
  0
SPLINE
  5
2EE
100
AcDbEntity
  8
0
100
AcDbSpline
 62
7
  6
CONTINUOUS
 70
0
 71
3
 72
36
 73
32
 74
0
 42
0.0000001
 43
0.0000001
 44
0.0000000001
 40
0.0
 40
0.0
 40
0.0
 40
0.0
 40
0.041502098
 40
0.0743664353
 40
0.1018261979
 40
0.1271991411
 40
0.1401427681
 40
0.1536451765
 40
0.1821528634
 40
0.2122312022
 40
0.2433691199
 40
0.2750862284
 40
0.3069500524
 40
0.3386797817
 40
0.3703913924
 40
0.4341459758
 40
0.4982793654
 40
0.5622856859
 40
0.6254788556
 40
0.6566820671
 40
0.6876664316
 40
0.7185559991
 40
0.7495488838
 40
0.7807764618
 40
0.8122064951
 40
0.8437231806
 40
0.875147288
 40
0.9062545358
 40
0.9370740931
 40
0.9681187211
 40
1.0
 40
1.0
 40
1.0
 40
1.0
 10
203.7516074323
 20
132.9189530576
 30
0.0
 10
204.2065529268
 20
132.9906061146
 30
0.0
 10
205.020797954
 20
133.1256453948
 30
0.0
 10
206.1274782776
 20
133.3566615719
 30
0.0
 10
207.0428264571
 20
133.6191539761
 30
0.0
 10
207.7222241601
 20
133.8892080109
 30
0.0
 10
208.2418844163
 20
134.1356512331
 30
0.0
 10
208.7836901025
 20
134.4157736791
 30
0.0
 10
209.4752133974
 20
134.8191912871
 30
0.0
 10
210.3022034903
 20
135.3748463274
 30
0.0
 10
211.1197345026
 20
136.0047831325
 30
0.0
 10
211.9065618725
 20
136.7030575942
 30
0.0
 10
212.6426409762
 20
137.4643558902
 30
0.0
 10
213.3083961116
 20
138.287705777
 30
0.0
 10
214.1149614289
 20
139.4472056771
 30
0.0
 10
215.0098377543
 20
140.9774636626
 30
0.0
 10
216.0298875311
 20
142.8464033079
 30
0.0
 10
217.1324996224
 20
144.6625027095
 30
0.0
 10
218.1710373766
 20
146.0853089884
 30
0.0
 10
219.0940105841
 20
147.1278556213
 30
0.0
 10
219.8346207003
 20
147.8493464767
 30
0.0
 10
220.6317269698
 20
148.5048054067
 30
0.0
 10
221.4908278127
 20
149.0818294356
 30
0.0
 10
222.4047602388
 20
149.5792712523
 30
0.0
 10
223.3601096273
 20
150.005196409
 30
0.0
 10
224.3443874411
 20
150.364978626
 30
0.0
 10
225.3448535998
 20
150.6639749408
 30
0.0
 10
226.351578558
 20
150.909856065
 30
0.0
 10
227.3654226689
 20
151.104049675
 30
0.0
 10
228.3983725092
 20
151.2339172766
 30
0.0
 10
229.0964199299
 20
151.2712382447
 30
0.0
 10
229.4501614749
 20
151.2771059585
 30
0.0
  0
SPLINE
  5
2EF
100
AcDbEntity
  8
0
100
AcDbSpline
 62
7
  6
CONTINUOUS
 70
0
 71
3
 72
13
 73
9
 74
0
 42
0.0000001
 43
0.0000001
 44
0.0000000001
 40
0.0
 40
0.0
 40
0.0
 40
0.0
 40
0.136571533
 40
0.3143793658
 40
0.5062287939
 40
0.7323493644
 40
0.8961707299
 40
1.0
 40
1.0
 40
1.0
 40
1.0
 10
83.7377071113
 20
124.7817833754
 30
0.0
 10
85.9767340163
 20
125.1765842293
 30
0.0
 10
88.2558952572
 20
125.8198844168
 30
0.0
 10
93.1244520222
 20
129.3535365105
 30
0.0
 10
95.9632076651
 20
135.5585593309
 30
0.0
 10
99.7293944032
 20
141.0293406364
 30
0.0
 10
105.0571004733
 20
143.0839965638
 30
0.0
 10
107.8971487469
 20
143.5662817031
 30
0.0
 10
109.0956760204
 20
143.6081351978
 30
0.0
  0
SPLINE
  5
2F0
100
AcDbEntity
  8
0
100
AcDbSpline
 62
7
  6
CONTINUOUS
 70
0
 71
3
 72
13
 73
9
 74
0
 42
0.0000001
 43
0.0000001
 44
0.0000000001
 40
0.0
 40
0.0
 40
0.0
 40
0.0
 40
0.1908913645
 40
0.3902574906
 40
0.5646486828
 40
0.777260591
 40
0.8958881826
 40
1.0
 40
1.0
 40
1.0
 40
1.0
 10
79.7528993582
 20
86.7915624253
 30
0.0
 10
79.7528993582
 20
87.6653290074
 30
0.0
 10
79.9394868485
 20
89.4102897671
 30
0.0
 10
81.7750042725
 20
90.853690057
 30
0.0
 10
84.5565984693
 20
92.6968949546
 30
0.0
 10
85.3700414634
 20
94.4810817097
 30
0.0
 10
84.064906895
 20
96.2679721753
 30
0.0
 10
83.2806383118
 20
96.4160539272
 30
0.0
 10
82.7528993582
 20
96.6081351978
 30
0.0
  0
ENDSEC
  0
SECTION
  2
OBJECTS
  0
DICTIONARY
  5
C
100
AcDbDictionary
280
0
281
1
  3
ACAD_GROUP
350
D
  3
ACAD_MLINESTYLE
350
17
  3
ACAD_LAYOUT
350
1A
  3
ACAD_PLOTSETTINGS
350
19
  3
ACAD_PLOTSTYLENAME
350
E
  3
ACAD_TABLESTYLE
350
       2F1
  0
DICTIONARY
  5
D
102
{ACAD_REACTORS
330
C
102
}
100
AcDbDictionary
280
0
281
1
  0
ACDBDICTIONARYWDFLT
  5
E
102
{ACAD_REACTORS
330
C
102
}
100
AcDbDictionary
281
1
  3
Normal
350
F
100
AcDbDictionaryWithDefault
340
F
  0
DICTIONARY
  5
17
102
{ACAD_REACTORS
330
C
102
}
100
AcDbDictionary
280
0
281
1
  3
Standard
350
18
  0
DICTIONARY
  5
2F1
330
C
100
AcDbDictionary
281
1
  3
Standard
350
       2F4
  3
Standard1
350
       2F5
  0
DICTIONARY
  5
19
102
{ACAD_REACTORS
330
C
102
}
100
AcDbDictionary
281
1
  0
DICTIONARY
  5
1A
102
{ACAD_REACTORS
330
C
102
}
100
AcDbDictionary
281
1
  3
Model
350
2F2
  3
Layout1
350
2F3
  0
ACDBPLACEHOLDER
  5
F
102
{ACAD_REACTORS
330
E
102
}
  0
MLINESTYLE
  5
18
102
{ACAD_REACTORS
330
17
102
}
100
AcDbMlineStyle
  2
STANDARD
 70
0
  3

 62
256
 51
90.0
 52
90.0
 71
2
 49
0.5
 62
256
  6
BYLAYER
 49
-0.5
 62
256
  6
BYLAYER
  0
LAYOUT
  5
2F2
102
{ACAD_REACTORS
330
1A
102
}
100
AcDbPlotSettings
  1

  2
none_device
  4
ISO_A4_(297.00_x_210.00_MM)
  6

 40
0.0
 41
0.0
 42
0.0
 43
0.0
 44
297.0
 45
210.0
 46
0.0
 47
0.0
 48
0.0
 49
0.0
140
0.0
141
0.0
142
1.0
143
1.0
 70
1024
 72
1
 73
0
 74
0
  7

 75
0
147
1.0
148
0.0
149
0.0
100
AcDbLayout
  1
Model
 70
0
 71
0
 10
0.0
 20
0.0
 11
297.0
 21
210.0
 12
0.0
 22
0.0
 32
0.0
 14
0.0
 24
0.0
 34
0.0
 15
0.0
 25
0.0
 35
0.0
146
0.0
 13
0.0
 23
0.0
 33
0.0
 16
1.0
 26
0.0
 36
0.0
 17
0.0
 27
1.0
 37
0.0
 76
0
330
216
345
0
346
0
  0
LAYOUT
  5
2F3
102
{ACAD_REACTORS
330
1A
102
}
100
AcDbPlotSettings
  1

  2
none_device
  4
ISO_A4_(297.00_x_210.00_MM)
  6

 40
0.0
 41
0.0
 42
0.0
 43
0.0
 44
297.0
 45
210.0
 46
0.0
 47
0.0
 48
0.0
 49
0.0
140
0.0
141
0.0
142
1.0
143
1.0
 70
0
 72
1
 73
0
 74
0
  7

 75
0
147
1.0
148
0.0
149
0.0
100
AcDbLayout
  1
Layout1
 70
0
 71
1
 10
0.0
 20
0.0
 11
297.0
 21
210.0
 12
0.0
 22
0.0
 32
0.0
 14
0.0
 24
0.0
 34
0.0
 15
0.0
 25
0.0
 35
0.0
146
0.0
 13
0.0
 23
0.0
 33
0.0
 16
1.0
 26
0.0
 36
0.0
 17
0.0
 27
1.0
 37
0.0
 76
0
330
217
345
0
346
0
  0
TABLESTYLE
  5
2F4
102
{ACAD_REACTORS
330
2F1
102
}
330
2F1
100
AcDbTableStyle
  3
Standard
 70
0
 71
0
 40
0.06
 41
0.06
280
1
281
1
  7
Standard
140
0.18
170
1
 62
0
 63
7
283
0
  7
Standard
140
0.18
170
1
 62
0
 63
7
283
0
  7
Standard
140
0.18
170
1
 62
0
 63
7
283
0
  0
TABLESTYLE
  5
2F5
102
{ACAD_REACTORS
330
2F1
330
29B
102
}
330
2F1
100
AcDbTableStyle
  3
Standard1
 70
1
 71
0
 40
0.06
 41
0.06
280
1
281
1
  7
Standard
140
0.18
170
1
 62
0
 63
7
283
0
  7
Standard
140
0.18
170
1
 62
0
 63
7
283
0
  7
Standard
140
0.18
170
1
 62
0
 63
7
283
0
  0
ENDSEC
  0
EOF
