999
DXF file: O:\ORAC_PRODUCTEN\ORAC_EXTRUSIE\CX\129\cx129-prod-mm.dxf
999
Pro/ENGINEER 2013050 by Parametric Technology Corporation
  0
SECTION
  2
HEADER
  9
$ACADVER
  1
AC1024
  9
$DWGCODEPAGE
  3
ANSI_1252
  9
$EXTMAX
 10
297.0
 20
210.0
 30
0.0
  9
$EXTMIN
 10
0.0
 20
0.0
 30
0.0
  9
$LIMMIN
 10
0.0
 20
0.0
  9
$LIMMAX
 10
297.0
 20
210.0
  9
$VIEWCTR
 10
148.5
 20
105.0
  9
$VIEWSIZE
 40
210.0
  9
$CLAYER
  8
0
  9
$LTSCALE
 40
16.335
  9
$CELTYPE
  6
BYLAYER
  9
$DIMSCALE
 40
1.0
  9
$DIMASZ
 40
3.5
  9
$DIMEXO
 40
1.0
  9
$DIMDLI
 40
11.286
  9
$DIMEXE
 40
1.5
  9
$DIMCEN
 40
2.673
  9
$DIMLFAC
 40
1.0
  9
$DIMBLK
  1
_FILLED
  9
$DIMTXT
 40
2.5
  9
$DIMTOL
 70
1
  9
$DIMLIM
 70
0
  9
$DIMTFAC
 40
1.0
  9
$DIMTP
 40
0.001
  9
$DIMTM
 40
0.001
  9
$DIMGAP
 40
0.625
  9
$DIMDSEP
 70
44
  9
$PDMODE
 70
3
  9
$PDSIZE
 40
8.0
  9
$HANDSEED
  5
71F
  9
$TILEMODE
 70
1
  9
$MEASUREMENT
 70
1
  9
$INSUNITS
 70
4
  0
ENDSEC
  0
SECTION
  2
CLASSES
  0
CLASS
  1
ACDBDICTIONARYWDFLT
  2
AcDbDictionaryWithDefault
  3
AutoCAD 2000
 90
0
 91
1
280
0
281
0
  0
CLASS
  1
ACDBPLACEHOLDER
  2
AcDbPlaceHolder
  3
AutoCAD 2000
 90
0
 91
1
280
0
281
0
  0
CLASS
  1
LAYOUT
  2
AcDbLayout
  3
AutoCAD 2000
 90
0
 91
0
280
0
281
0
  0
CLASS
  1
TABLESTYLE
  2
AcDbTableStyle
  3
ObjectDBX Classes
 90
2047
 91
1
280
0
281
0
  0
CLASS
  1
ACAD_TABLE
  2
AcDbTable
  3
ObjectDBX Classes
 90
1025
 91
1
280
0
281
1
  0
ENDSEC
  0
SECTION
  2
TABLES
  0
TABLE
  2
VPORT
  5
8
100
AcDbSymbolTable
 70
2
  0
VPORT
  5
1F4
100
AcDbSymbolTableRecord
100
AcDbViewportTableRecord
  2
*ACTIVE
 70
0
 10
0.0
 20
0.0
 11
1.0
 21
1.0
 12
148.5
 22
105.0
 13
0.0
 23
0.0
 14
1.0
 24
1.0
 15
0.0
 25
0.0
 16
0.0
 26
0.0
 36
1.0
 17
0.0
 27
0.0
 37
0.0
 40
210.0
 41
1.4142857143
 42
50.0
 43
0.0
 44
0.0
 50
0.0
 51
0.0
 71
0
 72
100
 73
1
 74
1
 75
0
 76
0
 77
0
 78
0
  0
ENDTAB
  0
TABLE
  2
LTYPE
  5
5
100
AcDbSymbolTable
 70
6
  0
LTYPE
  5
14
100
AcDbSymbolTableRecord
100
AcDbLinetypeTableRecord
  2
BYBLOCK
 70
0
  3

 72
65
 73
0
 40
0.0
  0
LTYPE
  5
15
100
AcDbSymbolTableRecord
100
AcDbLinetypeTableRecord
  2
BYLAYER
 70
0
  3

 72
65
 73
0
 40
0.0
  0
LTYPE
  5
16
100
AcDbSymbolTableRecord
100
AcDbLinetypeTableRecord
  2
CONTINUOUS
 70
64
  3
Solid line
 72
65
 73
0
 40
0.0
  0
LTYPE
  5
1F5
100
AcDbSymbolTableRecord
100
AcDbLinetypeTableRecord
  2
CENTER
 70
64
  3
____ _ ____ _ ____ _ ____ _ ____ _ ____ _ ____
 72
65
 73
4
 40
0.6
 49
0.375
 74
0
 49
-0.075
 74
0
 49
0.075
 74
0
 49
-0.075
 74
0
  0
LTYPE
  5
1F6
100
AcDbSymbolTableRecord
100
AcDbLinetypeTableRecord
  2
HIDDEN
 70
64
  3
- - - - - - - - - - - - - - - - - - - -
 72
65
 73
2
 40
0.2
 49
0.1
 74
0
 49
-0.1
 74
0
  0
LTYPE
  5
1F7
100
AcDbSymbolTableRecord
100
AcDbLinetypeTableRecord
  2
PHANTOM
 70
64
  3
_____ _ _ _____ _ _ _____ _ _ _____
 72
65
 73
6
 40
0.8
 49
0.45
 74
0
 49
-0.05
 74
0
 49
0.1
 74
0
 49
-0.05
 74
0
 49
0.1
 74
0
 49
-0.05
 74
0
  0
LTYPE
  5
1F8
100
AcDbSymbolTableRecord
100
AcDbLinetypeTableRecord
  2
DOT
 70
64
  3
. . . . . . . . . . . . . . . . . . . .
 72
65
 73
2
 40
0.2
 49
0.1
 74
0
 49
-0.1
 74
0
  0
LTYPE
  5
1F9
100
AcDbSymbolTableRecord
100
AcDbLinetypeTableRecord
  2
DASHED
 70
64
  3
- - - - - - - - - - - - - - - - - - - -
 72
65
 73
2
 40
0.2
 49
0.1
 74
0
 49
-0.1
 74
0
  0
ENDTAB
  0
TABLE
  2
LAYER
  5
2
100
AcDbSymbolTable
 70
36
  0
LAYER
  5
10
100
AcDbSymbolTableRecord
100
AcDbLayerTableRecord
  2
0
 70
0
 62
7
  6
CONTINUOUS
370
-3
390
F
  0
LAYER
  5
1FA
100
AcDbSymbolTableRecord
100
AcDbLayerTableRecord
  2
DEFAULT_1
 70
0
 62
7
  6
CENTER
370
-3
390
F
  0
LAYER
  5
1FB
100
AcDbSymbolTableRecord
100
AcDbLayerTableRecord
  2
DEFAULT_2
 70
0
 62
8
  6
HIDDEN
370
-3
390
F
  0
LAYER
  5
1FC
100
AcDbSymbolTableRecord
100
AcDbLayerTableRecord
  2
DEFAULT_3
 70
0
 62
7
  6
PHANTOM
370
-3
390
F
  0
LAYER
  5
1FD
100
AcDbSymbolTableRecord
100
AcDbLayerTableRecord
  2
DTM_ALL
 70
0
 62
7
  6
CONTINUOUS
370
-3
390
F
  0
LAYER
  5
1FE
100
AcDbSymbolTableRecord
100
AcDbLayerTableRecord
  2
DTM_AXIS
 70
0
 62
7
  6
CONTINUOUS
370
-3
390
F
  0
LAYER
  5
1FF
100
AcDbSymbolTableRecord
100
AcDbLayerTableRecord
  2
DTM_CSYS
 70
0
 62
7
  6
CONTINUOUS
370
-3
390
F
  0
LAYER
  5
200
100
AcDbSymbolTableRecord
100
AcDbLayerTableRecord
  2
DTM_CURVE
 70
0
 62
7
  6
CONTINUOUS
370
-3
390
F
  0
LAYER
  5
201
100
AcDbSymbolTableRecord
100
AcDbLayerTableRecord
  2
DTM_MASTER
 70
0
 62
7
  6
CONTINUOUS
370
-3
390
F
  0
LAYER
  5
202
100
AcDbSymbolTableRecord
100
AcDbLayerTableRecord
  2
DTM_POINT
 70
0
 62
7
  6
CONTINUOUS
370
-3
390
F
  0
LAYER
  5
203
100
AcDbSymbolTableRecord
100
AcDbLayerTableRecord
  2
DTM_QUILT
 70
0
 62
7
  6
CONTINUOUS
370
-3
390
F
  0
LAYER
  5
204
100
AcDbSymbolTableRecord
100
AcDbLayerTableRecord
  2
GTOL
 70
0
 62
7
  6
CONTINUOUS
370
-3
390
F
  0
LAYER
  5
205
100
AcDbSymbolTableRecord
100
AcDbLayerTableRecord
  2
NOTES
 70
0
 62
7
  6
CONTINUOUS
370
-3
390
F
  0
ENDTAB
  0
TABLE
  2
STYLE
  5
3
100
AcDbSymbolTable
 70
1
  0
STYLE
  5
11
100
AcDbSymbolTableRecord
100
AcDbTextStyleTableRecord
  2
STANDARD
 70
0
 40
0.0
 41
1.0
 50
0.0
 71
0
 42
0.2
  3
cgtime.ttf
  4

  0
STYLE
  5
206
100
AcDbSymbolTableRecord
100
AcDbTextStyleTableRecord
  2
TEXTSTYLE_1
 70
0
 40
0.0
 41
0.8
 50
0.0
 71
0
 42
0.2
  3
gdt
  4

  0
STYLE
  5
207
100
AcDbSymbolTableRecord
100
AcDbTextStyleTableRecord
  2
TEXTSTYLE_2
 70
0
 40
0.0
 41
1.0
 50
0.0
 71
0
 42
0.2
  3
trium.ttf
  4

  0
STYLE
  5
208
100
AcDbSymbolTableRecord
100
AcDbTextStyleTableRecord
  2
TEXTSTYLE_3
 70
0
 40
0.0
 41
1.0
 50
0.0
 71
0
 42
0.2
  3
calibri.ttf
  4

  0
ENDTAB
  0
TABLE
  2
VIEW
  5
6
100
AcDbSymbolTable
 70
0
  0
ENDTAB
  0
TABLE
  2
UCS
  5
7
100
AcDbSymbolTable
 70
0
  0
ENDTAB
  0
TABLE
  2
APPID
  5
9
100
AcDbSymbolTable
 70
1
  0
APPID
  5
209
100
AcDbSymbolTableRecord
100
AcDbRegAppTableRecord
  2
ACAD
 70
0
  0
ENDTAB
  0
TABLE
  2
BLOCK_RECORD
  5
1
100
AcDbSymbolTable
 70
0
  0
BLOCK_RECORD
  5
20A
100
AcDbSymbolTableRecord
100
AcDbBlockTableRecord
  2
*Model_Space
  0
BLOCK_RECORD
  5
20B
100
AcDbSymbolTableRecord
100
AcDbBlockTableRecord
  2
*Paper_Space
  0
BLOCK_RECORD
  5
20C
100
AcDbSymbolTableRecord
100
AcDbBlockTableRecord
  2
_FILLED
  0
BLOCK_RECORD
  5
20D
100
AcDbSymbolTableRecord
100
AcDbBlockTableRecord
  2
*D0
  0
BLOCK_RECORD
  5
20E
100
AcDbSymbolTableRecord
100
AcDbBlockTableRecord
  2
*D1
  0
BLOCK_RECORD
  5
20F
100
AcDbSymbolTableRecord
100
AcDbBlockTableRecord
  2
*D2
  0
BLOCK_RECORD
  5
210
100
AcDbSymbolTableRecord
100
AcDbBlockTableRecord
  2
*T1
  0
ENDTAB
  0
TABLE
  2
DIMSTYLE
  5
A
100
AcDbSymbolTable
 70
1
100
AcDbDimStyleTable
 71
0
  0
DIMSTYLE
105
211
100
AcDbSymbolTableRecord
100
AcDbDimStyleTableRecord
  2
STANDARD
 70
0
  3

  4

 40
1.0
 41
3.5
 42
1.0
 43
0.38
 44
1.5
 45
0.0
 46
0.0
 47
0.001
 48
0.001
140
2.5
141
0.09
142
0.0
143
25.4
144
1.0
145
0.0
146
1.0
147
0.625
 71
1.0
 72
0.0
 73
1
 74
1
 75
0
 76
0
 77
0
 78
8
170
0
171
2
172
0
173
0
174
0
175
0
176
0
177
0
178
0
270
2
271
3
272
3
273
2
274
2
275
0
280
0
281
0
282
0
283
1
284
8
285
0
286
0
287
3
288
0
340
11
278
44
341
20C
342
20C
343
20C
344
20C
  0
DIMSTYLE
105
212
100
AcDbSymbolTableRecord
100
AcDbDimStyleTableRecord
  2
DIMSTYLE_1
 70
0
  3

  4

 40
1.0
 41
3.5
 42
1.0
 43
0.38
 44
1.5
 45
0.0
 46
0.0
 47
0.0
 48
0.0
140
2.5
141
0.09
142
0.0
143
25.4
144
1.0
145
0.0
146
1.0
147
1.25
 71
0.0
 72
0.0
 73
1
 74
1
 75
0
 76
0
 77
0
 78
8
170
0
171
2
172
0
173
0
174
0
175
0
176
0
177
0
178
0
270
2
271
3
272
3
273
2
274
2
275
0
280
0
281
0
282
0
283
1
284
8
285
0
286
0
287
3
288
0
340
11
278
44
341
20C
342
20C
343
20C
344
20C
  0
ENDTAB
  0
ENDSEC
  0
SECTION
  2
BLOCKS
  0
BLOCK
  5
20
100
AcDbEntity
  8
0
100
AcDbBlockBegin
  2
*Model_Space
 70
0
 10
0.0
 20
0.0
 30
0.0
  3
*Model_Space
  1

  0
ENDBLK
  5
21
100
AcDbEntity
  8
0
100
AcDbBlockEnd
  0
BLOCK
  5
1C
100
AcDbEntity
  8
0
100
AcDbBlockBegin
  2
*Paper_Space
 70
0
 10
0.0
 20
0.0
 30
0.0
  3
*Paper_Space
  1

  0
ENDBLK
  5
1D
100
AcDbEntity
  8
0
100
AcDbBlockEnd
  0
BLOCK
  5
213
100
AcDbEntity
  8
0
100
AcDbBlockBegin
  2
_FILLED
 70
64
 10
0.0
 20
0.0
  3
_FILLED
  1

  0
SOLID
  5
214
100
AcDbEntity
  8
0
  6
BYBLOCK
 62
0
100
AcDbTrace
 10
0.0
 20
0.0
 11
-1.0
 21
0.2142857143
 12
-1.0
 22
-0.2142857143
 13
-1.0
 23
-0.2142857143
  0
ENDBLK
  5
215
100
AcDbEntity
  8
0
  6
BYBLOCK
 62
0
100
AcDbBlockEnd
  0
BLOCK
  5
216
100
AcDbEntity
  8
0
100
AcDbBlockBegin
 62
2
  6
CONTINUOUS
  2
*D0
 70
65
 10
0.0
 20
0.0
  3
*D0
  1

  0
TEXT
  5
217
100
AcDbEntity
  8
0
100
AcDbText
 62
2
  6
CONTINUOUS
 10
25.1925084078
 20
110.2672933777
  7
STANDARD
 40
2.5
  1
94
 72
5
 11
28.8306407035
 21
110.2672933777
100
AcDbText
  0
LINE
  5
218
100
AcDbEntity
  8
0
100
AcDbLine
 62
2
  6
CONTINUOUS
 10
113.7151055944
 20
158.5172941277
 11
25.5115745557
 21
158.5172941277
  0
LINE
  5
219
100
AcDbEntity
  8
0
100
AcDbLine
 62
2
  6
CONTINUOUS
 10
38.7151055944
 20
64.5172926277
 11
25.5115745557
 21
64.5172926277
  0
LINE
  5
21A
100
AcDbEntity
  8
0
100
AcDbLine
 62
2
  6
CONTINUOUS
 10
27.0115745557
 20
158.5172941277
 11
27.0115745557
 21
114.0172933777
  0
LINE
  5
21B
100
AcDbEntity
  8
0
100
AcDbLine
 62
2
  6
CONTINUOUS
 10
27.0115745557
 20
64.5172926277
 11
27.0115745557
 21
109.0172933777
  0
INSERT
  5
21C
100
AcDbEntity
  8
0
100
AcDbBlockReference
 62
2
  6
CONTINUOUS
  2
_FILLED
 10
27.0115745557
 20
158.5172941277
 41
3.5
 42
3.5
 43
3.5
 50
90.0
  0
INSERT
  5
21D
100
AcDbEntity
  8
0
100
AcDbBlockReference
 62
2
  6
CONTINUOUS
  2
_FILLED
 10
27.0115745557
 20
64.5172926277
 41
3.5
 42
3.5
 43
3.5
 50
270.0
  0
ENDBLK
  5
21E
100
AcDbEntity
  8
0
  6
BYBLOCK
 62
0
100
AcDbBlockEnd
  0
BLOCK
  5
21F
100
AcDbEntity
  8
0
100
AcDbBlockBegin
 62
2
  6
CONTINUOUS
  2
*D1
 70
65
 10
0.0
 20
0.0
  3
*D1
  1

  0
TEXT
  5
220
100
AcDbEntity
  8
0
100
AcDbText
 62
2
  6
CONTINUOUS
 10
84.8960401966
 20
166.3704421928
  7
STANDARD
 40
2.5
  1
94
 72
5
 11
88.5341724923
 21
166.3704421928
100
AcDbText
  0
LINE
  5
221
100
AcDbEntity
  8
0
100
AcDbLine
 62
2
  6
CONTINUOUS
 10
39.7151055944
 20
84.5172941277
 11
39.7151055944
 21
169.1204421928
  0
LINE
  5
222
100
AcDbEntity
  8
0
100
AcDbLine
 62
2
  6
CONTINUOUS
 10
133.7151070944
 20
159.5172941277
 11
133.7151070944
 21
169.1204421928
  0
LINE
  5
223
100
AcDbEntity
  8
0
100
AcDbLine
 62
2
  6
CONTINUOUS
 10
39.7151055944
 20
167.6204421928
 11
83.6460401966
 21
167.6204421928
  0
LINE
  5
224
100
AcDbEntity
  8
0
100
AcDbLine
 62
2
  6
CONTINUOUS
 10
133.7151070944
 20
167.6204421928
 11
89.7841724923
 21
167.6204421928
  0
INSERT
  5
225
100
AcDbEntity
  8
0
100
AcDbBlockReference
 62
2
  6
CONTINUOUS
  2
_FILLED
 10
39.7151055944
 20
167.6204421928
 41
3.5
 42
3.5
 43
3.5
 50
180.0
  0
INSERT
  5
226
100
AcDbEntity
  8
0
100
AcDbBlockReference
 62
2
  6
CONTINUOUS
  2
_FILLED
 10
133.7151070944
 20
167.6204421928
 41
3.5
 42
3.5
 43
3.5
  0
ENDBLK
  5
227
100
AcDbEntity
  8
0
  6
BYBLOCK
 62
0
100
AcDbBlockEnd
  0
BLOCK
  5
228
100
AcDbEntity
  8
0
100
AcDbBlockBegin
 62
2
  6
CONTINUOUS
  2
*D2
 70
65
 10
0.0
 20
0.0
  3
*D2
  1

  0
TEXT
  5
229
100
AcDbEntity
  8
0
100
AcDbText
 62
2
  6
CONTINUOUS
 10
100.5363376719
 20
93.7174628285
  7
STANDARD
 40
2.5
  1
130
 72
5
 11
105.9935361155
 21
93.7174628285
100
AcDbText
  0
LINE
  5
22A
100
AcDbEntity
  8
0
100
AcDbLine
 62
2
  6
CONTINUOUS
 10
134.4222138756
 20
157.8101873466
 11
151.3255978154
 21
140.9068034067
  0
LINE
  5
22B
100
AcDbEntity
  8
0
100
AcDbLine
 62
2
  6
CONTINUOUS
 10
40.4222123756
 20
63.8101858466
 11
57.3255963154
 21
46.9068019067
  0
LINE
  5
22C
100
AcDbEntity
  8
0
100
AcDbLine
 62
2
  6
CONTINUOUS
 10
150.2649376437
 20
141.9674635785
 11
105.7649368937
 21
97.4674628285
  0
LINE
  5
22D
100
AcDbEntity
  8
0
100
AcDbLine
 62
2
  6
CONTINUOUS
 10
56.2649361437
 20
47.9674620785
 11
100.7649368937
 21
92.4674628285
  0
INSERT
  5
22E
100
AcDbEntity
  8
0
100
AcDbBlockReference
 62
2
  6
CONTINUOUS
  2
_FILLED
 10
150.2649376437
 20
141.9674635785
 41
3.5
 42
3.5
 43
3.5
 50
45.0
  0
INSERT
  5
22F
100
AcDbEntity
  8
0
100
AcDbBlockReference
 62
2
  6
CONTINUOUS
  2
_FILLED
 10
56.2649361437
 20
47.9674620785
 41
3.5
 42
3.5
 43
3.5
 50
225.0
  0
ENDBLK
  5
230
100
AcDbEntity
  8
0
  6
BYBLOCK
 62
0
100
AcDbBlockEnd
  0
BLOCK
  5
231
100
AcDbEntity
  8
0
100
AcDbBlockBegin
  2
*T1
 70
1
 10
0.0
 20
0.0
  3
*T1
  1

  0
LINE
  5
232
100
AcDbEntity
  8
0
100
AcDbLine
 62
7
  6
CONTINUOUS
 10
0.0
 20
0.0
 11
148.0
 21
0.0
  0
LINE
  5
233
100
AcDbEntity
  8
0
100
AcDbLine
 62
7
  6
CONTINUOUS
 10
0.0
 20
0.0
 11
0.0
 21
-43.0
  0
LINE
  5
234
100
AcDbEntity
  8
0
100
AcDbLine
 62
7
  6
CONTINUOUS
 10
45.0
 20
-23.0
 11
148.0
 21
-23.0
  0
LINE
  5
235
100
AcDbEntity
  8
0
100
AcDbLine
 62
7
  6
CONTINUOUS
 10
45.0
 20
-28.0
 11
148.0
 21
-28.0
  0
LINE
  5
236
100
AcDbEntity
  8
0
100
AcDbLine
 62
7
  6
CONTINUOUS
 10
0.0
 20
-43.0
 11
148.0
 21
-43.0
  0
LINE
  5
237
100
AcDbEntity
  8
0
100
AcDbLine
 62
7
  6
CONTINUOUS
 10
45.0
 20
0.0
 11
45.0
 21
-43.0
  0
LINE
  5
238
100
AcDbEntity
  8
0
100
AcDbLine
 62
7
  6
CONTINUOUS
 10
143.0
 20
0.0
 11
143.0
 21
-23.0
  0
LINE
  5
239
100
AcDbEntity
  8
0
100
AcDbLine
 62
7
  6
CONTINUOUS
 10
148.0
 20
0.0
 11
148.0
 21
-43.0
  0
TEXT
  5
23A
100
AcDbEntity
  8
0
100
AcDbText
 62
7
  6
CONTINUOUS
 10
8.9659749243
 20
-10.675
  7
STANDARD
 40
8.0
  1
O
 72
5
 11
17.370644185
 21
-10.675
100
AcDbText
  0
TEXT
  5
23B
100
AcDbEntity
  8
0
100
AcDbText
 62
7
  6
CONTINUOUS
 10
17.370644185
 20
-10.675
  7
STANDARD
 40
5.5
  1
RAC
 72
5
 11
33.9562472979
 21
-10.675
100
AcDbText
  0
TEXT
  5
23C
100
AcDbEntity
  8
0
100
AcDbText
 62
7
  6
CONTINUOUS
 10
33.9562472979
 20
-5.925
  7
TEXTSTYLE_2
 40
3.0
  1
®
 72
5
 11
36.0340250757
 21
-5.925
100
AcDbText
  0
TEXT
  5
23D
100
AcDbEntity
  8
0
100
AcDbText
 62
7
  6
CONTINUOUS
 10
9.5323389537
 20
-15.325
  7
TEXTSTYLE_2
 40
3.0
  1
D  E  C  O  R
 72
5
 11
34.3878945093
 21
-15.325
100
AcDbText
  0
TEXT
  5
23E
100
AcDbEntity
  8
0
100
AcDbText
 62
7
  6
CONTINUOUS
 10
34.3878945093
 20
-15.325
  7
STANDARD
 40
2.5
  1
 
 72
5
 11
35.4676610463
 21
-15.325
100
AcDbText
  0
TEXT
  5
23F
100
AcDbEntity
  8
0
100
AcDbText
 62
7
  6
CONTINUOUS
 10
52.5257352941
 20
-6.0
  7
TEXTSTYLE_3
 40
2.75
  1
Part name:
 72
5
 11
71.9375
 21
-6.0
100
AcDbText
  0
TEXT
  5
240
100
AcDbEntity
  8
0
100
AcDbText
 62
7
  6
CONTINUOUS
 10
49.2788865546
 20
-12.875
  7
TEXTSTYLE_3
 40
2.75
  1
Designed by:
 72
5
 11
71.9375
 21
-12.875
100
AcDbText
  0
TEXT
  5
241
100
AcDbEntity
  8
0
100
AcDbText
 62
7
  6
CONTINUOUS
 10
48.9553571429
 20
-19.75
  7
TEXTSTYLE_3
 40
2.75
  1
Designed on:
 72
5
 11
71.9375
 21
-19.75
100
AcDbText
  0
TEXT
  5
242
100
AcDbEntity
  8
0
100
AcDbText
 62
2
  6
CONTINUOUS
 10
74.0625
 20
-6.0
  7
TEXTSTYLE_3
 40
2.75
  1
CX129
 72
5
 11
85.212710084
 21
-6.0
100
AcDbText
  0
TEXT
  5
243
100
AcDbEntity
  8
0
100
AcDbText
 62
2
  6
CONTINUOUS
 10
74.0625
 20
-12.875
  7
TEXTSTYLE_3
 40
2.75
  1
ORAC
 72
5
 11
84.1034663866
 21
-12.875
100
AcDbText
  0
TEXT
  5
244
100
AcDbEntity
  8
0
100
AcDbText
 62
2
  6
CONTINUOUS
 10
74.0625
 20
-19.75
  7
TEXTSTYLE_3
 40
2.75
  1
29-Jul-2005
 72
5
 11
94.5488445378
 21
-19.75
100
AcDbText
  0
TEXT
  5
245
100
AcDbEntity
  8
0
100
AcDbText
 62
2
  6
CONTINUOUS
 10
94.5488445378
 20
-19.75
  7
TEXTSTYLE_3
 40
2.75
  1
 
 72
5
 11
95.530987395
 21
-19.75
100
AcDbText
  0
TEXT
  5
246
100
AcDbEntity
  8
0
100
AcDbText
 62
2
  6
CONTINUOUS
 10
146.5625
 20
-17.5
  7
TEXTSTYLE_3
 40
1.5
  1
Version: 
 50
90.0
 72
5
 11
146.5625
 21
-9.0294117647
100
AcDbText
  0
TEXT
  5
247
100
AcDbEntity
  8
0
100
AcDbText
 62
2
  6
CONTINUOUS
 10
146.5625
 20
-9.0294117647
  7
TEXTSTYLE_3
 40
1.5
  1
1.0
 50
90.0
 72
5
 11
146.5625
 21
-6.0357142857
100
AcDbText
  0
TEXT
  5
248
100
AcDbEntity
  8
0
100
AcDbText
 62
2
  6
CONTINUOUS
 10
146.5625
 20
-6.0357142857
  7
TEXTSTYLE_3
 40
1.5
  1
 
 50
90.0
 72
5
 11
146.5625
 21
-5.5
100
AcDbText
  0
TEXT
  5
249
100
AcDbEntity
  8
0
100
AcDbText
 62
7
  6
CONTINUOUS
 10
9.6586134454
 20
-24.25
  7
TEXTSTYLE_3
 40
2.5
  1
Biekorfstraat 32
 72
5
 11
35.3413865546
 21
-24.25
100
AcDbText
  0
TEXT
  5
24A
100
AcDbEntity
  8
0
100
AcDbText
 62
7
  6
CONTINUOUS
 10
2.2584033613
 20
-28.0
  7
TEXTSTYLE_3
 40
2.5
  1
8400 Oostende - Belgium
 72
5
 11
42.7415966387
 21
-28.0
100
AcDbText
  0
TEXT
  5
24B
100
AcDbEntity
  8
0
100
AcDbText
 62
7
  6
CONTINUOUS
 10
4.2699579832
 20
-31.75
  7
TEXTSTYLE_3
 40
2.5
  1
Tel  +32 (0)59 80 32 52
 72
5
 11
40.7300420168
 21
-31.75
100
AcDbText
  0
TEXT
  5
24C
100
AcDbEntity
  8
0
100
AcDbText
 62
7
  6
CONTINUOUS
 10
5.7405462185
 20
-35.5
  7
TEXTSTYLE_3
 40
2.5
  1
www.oracdecor.com
 72
5
 11
39.2594537815
 21
-35.5
100
AcDbText
  0
TEXT
  5
24D
100
AcDbEntity
  8
0
100
AcDbText
 62
7
  6
CONTINUOUS
 10
5.5777310924
 20
-39.25
  7
TEXTSTYLE_3
 40
2.5
  1
info@oracdecor.com
 72
5
 11
39.4222689076
 21
-39.25
100
AcDbText
  0
TEXT
  5
24E
100
AcDbEntity
  8
0
100
AcDbText
 62
7
  6
CONTINUOUS
 10
46.0625
 20
-26.75
  7
TEXTSTYLE_3
 40
2.5
  1
All dimensions are in mm unless otherwise specified   
 72
5
 11
132.3019957983
 21
-26.75
100
AcDbText
  0
TEXT
  5
24F
100
AcDbEntity
  8
0
100
AcDbText
 62
7
  6
CONTINUOUS
 10
46.0625
 20
-31.7075
  7
TEXTSTYLE_3
 40
1.85
  1
All information in this document is Orac's exclusive property.  It may in no case 
 72
5
 11
140.0471638655
 21
-31.7075
100
AcDbText
  0
TEXT
  5
250
100
AcDbEntity
  8
0
100
AcDbText
 62
7
  6
CONTINUOUS
 10
46.0625
 20
-34.8525
  7
TEXTSTYLE_3
 40
1.85
  1
be reproduced, even partly, be communicated to a third party or used for any 
 72
5
 11
138.8345588235
 21
-34.8525
100
AcDbText
  0
TEXT
  5
251
100
AcDbEntity
  8
0
100
AcDbText
 62
7
  6
CONTINUOUS
 10
46.0625
 20
-37.9975
  7
TEXTSTYLE_3
 40
1.85
  1
possible purpose without ORAC's express written permission. 
 72
5
 11
119.4484243697
 21
-37.9975
100
AcDbText
  0
TEXT
  5
252
100
AcDbEntity
  8
0
100
AcDbText
 62
7
  6
CONTINUOUS
 10
46.0625
 20
-41.1425
  7
TEXTSTYLE_3
 40
1.85
  1
Further legal information can be found at http://www.oracdecor.be/nl/disclaimer 
 72
5
 11
143.7316176471
 21
-41.1425
100
AcDbText
  0
ENDBLK
  5
253
100
AcDbEntity
  8
0
  6
BYBLOCK
 62
0
100
AcDbBlockEnd
  0
ENDSEC
  0
SECTION
  2
ENTITIES
  0
DIMENSION
  5
254
100
AcDbEntity
  8
0
100
AcDbDimension
 62
2
  6
CONTINUOUS
  2
*D0
 10
27.0115745557
 20
64.5172926277
 11
27.0115745557
 21
111.5172933777
 70
160
 71
2
 42
94.0000015
  3
DIMSTYLE_1
100
AcDbAlignedDimension
 13
114.7151055944
 23
158.5172941277
 14
39.7151055944
 24
64.5172926277
 50
270.0
100
AcDbRotatedDimension
  0
DIMENSION
  5
255
100
AcDbEntity
  8
0
100
AcDbDimension
 62
2
  6
CONTINUOUS
  2
*D1
 10
133.7151070944
 20
167.6204421928
 11
86.7151063444
 21
167.6204421928
 70
160
 71
2
 42
94.0000015
  3
DIMSTYLE_1
100
AcDbAlignedDimension
 13
39.7151055944
 23
83.5172941277
 14
133.7151070944
 24
158.5172941277
100
AcDbRotatedDimension
  0
DIMENSION
  5
256
100
AcDbEntity
  8
0
100
AcDbDimension
 62
2
  6
CONTINUOUS
  2
*D2
 10
56.2649361437
 20
47.9674620785
 11
103.2649368937
 21
94.9674628285
 70
160
 71
2
 42
132.9360769844
  3
DIMSTYLE_1
100
AcDbAlignedDimension
 13
133.7151070944
 23
158.5172941277
 14
39.7151055944
 24
64.5172926277
 50
225.0
100
AcDbRotatedDimension
  0
ACAD_TABLE
  5
257
100
AcDbEntity
  8
0
 62
2
  6
CONTINUOUS
100
AcDbBlockReference
  2
*T1
 10
143.9999958937
 20
47.9999925619
 30
0.0
100
AcDbTable
342
       71D
343
210
 11
1.0
 21
0.0
 31
0.0
 90
22
 91
4
 92
4
 93
0
 94
0
 95
0
 96
0
141
18.0
141
5.0
141
5.0
141
15.0
142
45.0
142
28.0
142
70.0
142
5.0
171
1
172
0
173
0
174
0
175
1
176
1
 91
41
178
0
145
0.0
301
CELL_VALUE
 90
4
  1
O\H5.5;RAC\P\Ftrium.ttf;\H3.0;®\PD  E  C  O  R\Fcgtime.ttf;\H2.5; 
304
ACVALUE_END
170
5
140
8.0
 64
7
171
1
172
0
173
0
174
0
175
1
176
2
 91
41
178
0
145
0.0
301
CELL_VALUE
 90
4
  1
Part name:\PDesigned by:\PDesigned on:
304
ACVALUE_END
170
6
140
2.75
 64
7
171
1
172
0
173
0
174
0
175
1
176
2
 91
33
178
0
145
0.0
301
CELL_VALUE
 90
4
  1
CX129\PORAC\P29-Jul-2005 
304
ACVALUE_END
170
4
140
2.75
171
1
172
0
173
0
174
0
175
1
176
2
 91
33
178
0
145
0.0
301
CELL_VALUE
 90
4
  1
Version: 1.0 
304
ACVALUE_END
170
6
140
1.5
171
1
172
0
173
0
174
0
175
1
176
3
 91
41
178
0
145
0.0
301
CELL_VALUE
 90
4
  1
Biekorfstraat 32\P8400 Oostende - Belgium\PTel  +32 (0)59 80 32 52\Pwww.oracdecor.com\Pinfo@oracdecor.com
304
ACVALUE_END
170
5
140
2.5
 64
7
171
1
172
0
173
1
174
0
175
1
176
1
 91
1
178
0
145
0.0
170
1
171
1
172
0
173
1
174
0
175
1
176
1
 91
1
178
0
145
0.0
170
1
171
1
172
0
173
1
174
0
175
1
176
1
 91
1
178
0
145
0.0
170
1
171
1
172
0
173
1
174
0
175
1
176
1
 91
1
178
0
145
0.0
170
1
171
1
172
0
173
0
174
0
175
3
176
1
 91
41
178
0
145
0.0
301
CELL_VALUE
 90
4
  1
All dimensions are in mm unless otherwise specified   
304
ACVALUE_END
170
1
140
2.5
 64
7
171
1
172
0
173
1
174
0
175
1
176
1
 91
1
178
0
145
0.0
170
1
171
1
172
0
173
1
174
0
175
1
176
1
 91
1
178
0
145
0.0
170
1
171
1
172
0
173
1
174
0
175
1
176
1
 91
1
178
0
145
0.0
170
1
171
1
172
0
173
0
174
0
175
3
176
1
 91
41
178
0
145
0.0
301
CELL_VALUE
 90
4
  2
All information in this document is Orac's exclusive property.  It may in no case \Pbe reproduced, even partly, be communicated to a third party or used for any \Ppossible purpose without ORAC's express written permission. \PFurther legal information
  1
 can be found at http://www.oracdecor.be/nl/disclaimer 
304
ACVALUE_END
170
4
140
1.85
 64
7
171
1
172
0
173
1
174
0
175
1
176
1
 91
1
178
0
145
0.0
170
1
171
1
172
0
173
1
174
0
175
1
176
1
 91
1
178
0
145
0.0
170
1
  0
LINE
  5
258
100
AcDbEntity
  8
0
100
AcDbLine
 62
5
  6
CONTINUOUS
 10
0.0
 20
0.0
 11
0.0
 21
210.0
  0
LINE
  5
259
100
AcDbEntity
  8
0
100
AcDbLine
 62
7
  6
CONTINUOUS
 10
5.0
 20
5.0
 11
5.0
 21
195.0
  0
LINE
  5
25A
100
AcDbEntity
  8
0
100
AcDbLine
 62
5
  6
CONTINUOUS
 10
0.0
 20
0.0
 11
297.0
 21
0.0
  0
LINE
  5
25B
100
AcDbEntity
  8
0
100
AcDbLine
 62
7
  6
CONTINUOUS
 10
5.0
 20
5.0
 11
292.0
 21
5.0
  0
LINE
  5
25C
100
AcDbEntity
  8
0
100
AcDbLine
 62
4
  6
CONTINUOUS
 10
148.5
 20
195.0
 11
148.5
 21
205.0
  0
LINE
  5
25D
100
AcDbEntity
  8
0
100
AcDbLine
 62
7
  6
CONTINUOUS
 10
5.0
 20
195.0
 11
292.0
 21
195.0
  0
LINE
  5
25E
100
AcDbEntity
  8
0
100
AcDbLine
 62
5
  6
CONTINUOUS
 10
0.0
 20
210.0
 11
297.0
 21
210.0
  0
LINE
  5
25F
100
AcDbEntity
  8
0
100
AcDbLine
 62
7
  6
CONTINUOUS
 10
292.0
 20
5.0
 11
292.0
 21
195.0
  0
LINE
  5
260
100
AcDbEntity
  8
0
100
AcDbLine
 62
5
  6
CONTINUOUS
 10
297.0
 20
0.0
 11
297.0
 21
210.0
  0
LINE
  5
261
100
AcDbEntity
  8
DTM_AXIS
100
AcDbLine
 62
7
  6
CONTINUOUS
 10
191.7702417173
 20
100.7425929291
 11
191.8156824536
 21
94.7574667121
  0
LINE
  5
262
100
AcDbEntity
  8
DTM_AXIS
100
AcDbLine
 62
7
  6
CONTINUOUS
 10
191.879897112
 20
86.2995748213
 11
191.835197465
 21
92.1870900863
  0
LINE
  5
263
100
AcDbEntity
  8
0
100
AcDbLine
 62
7
  6
CONTINUOUS
 10
196.7890494287
 20
90.792137747
 11
196.8040720916
 21
88.8134608979
  0
LINE
  5
264
100
AcDbEntity
  8
DTM_AXIS
100
AcDbLine
 62
7
  6
CONTINUOUS
 10
192.5668829555
 20
93.4783594015
 11
191.8156824536
 21
94.7574667121
  0
LINE
  5
265
100
AcDbEntity
  8
0
100
AcDbLine
 62
7
  6
CONTINUOUS
 10
197.0484597813
 20
90.7392655176
 11
197.0487398583
 21
90.7023757906
  0
LINE
  5
266
100
AcDbEntity
  8
0
100
AcDbLine
 62
7
  6
CONTINUOUS
 10
197.3808635311
 20
90.6243702134
 11
197.3811436081
 21
90.5874804864
  0
LINE
  5
267
100
AcDbEntity
  8
0
100
AcDbLine
 62
7
  6
CONTINUOUS
 10
197.7132672809
 20
90.5094749092
 11
197.7135473579
 21
90.4725851822
  0
LINE
  5
268
100
AcDbEntity
  8
0
100
AcDbLine
 62
7
  6
CONTINUOUS
 10
198.0456710307
 20
90.394579605
 11
198.0459511077
 21
90.357689878
  0
LINE
  5
269
100
AcDbEntity
  8
0
100
AcDbLine
 62
7
  6
CONTINUOUS
 10
198.2043334385
 20
99.7083455725
 11
198.2719354212
 21
90.8042997516
  0
LINE
  5
26A
100
AcDbEntity
  8
0
100
AcDbLine
 62
7
  6
CONTINUOUS
 10
198.3780747805
 20
90.2796843008
 11
198.3783548575
 21
90.2427945738
  0
LINE
  5
26B
100
AcDbEntity
  8
0
100
AcDbLine
 62
7
  6
CONTINUOUS
 10
198.3546949038
 20
99.6563731555
 11
198.4222968864
 21
90.7523273346
  0
LINE
  5
26C
100
AcDbEntity
  8
0
100
AcDbLine
 62
7
  6
CONTINUOUS
 10
198.4694766605
 20
99.6166988592
 11
198.5370786432
 21
90.7126530383
  0
LINE
  5
26D
100
AcDbEntity
  8
0
100
AcDbLine
 62
7
  6
CONTINUOUS
 10
198.7104785303
 20
90.1647889966
 11
198.7107586073
 21
90.1278992696
  0
LINE
  5
26E
100
AcDbEntity
  8
0
100
AcDbLine
 62
7
  6
CONTINUOUS
 10
198.6870986536
 20
99.5414778513
 11
198.7547006362
 21
90.6374320304
  0
LINE
  5
26F
100
AcDbEntity
  8
0
100
AcDbLine
 62
7
  6
CONTINUOUS
 10
198.8018804103
 20
99.501803555
 11
198.869482393
 21
90.5977577341
  0
LINE
  5
270
100
AcDbEntity
  8
0
100
AcDbLine
 62
7
  6
CONTINUOUS
 10
199.0330140438
 20
90.0533046468
 11
199.0332941208
 21
90.0164149198
  0
LINE
  5
271
100
AcDbEntity
  8
0
100
AcDbLine
 62
7
  6
CONTINUOUS
 10
199.0195024034
 20
99.4265825471
 11
199.087104386
 21
90.5225367262
  0
LINE
  5
272
100
AcDbEntity
  8
0
100
AcDbLine
 62
7
  6
CONTINUOUS
 10
199.1342841601
 20
99.3869082508
 11
199.2018861428
 21
90.4828624299
  0
LINE
  5
273
100
AcDbEntity
  8
0
100
AcDbLine
 62
7
  6
CONTINUOUS
 10
199.3654177936
 20
89.9384093426
 11
199.3656978706
 21
89.9015196156
  0
LINE
  5
274
100
AcDbEntity
  8
0
100
AcDbLine
 62
7
  6
CONTINUOUS
 10
199.3519061532
 20
99.3116872429
 11
199.4195081358
 21
90.407641422
  0
LINE
  5
275
100
AcDbEntity
  8
0
100
AcDbLine
 62
7
  6
CONTINUOUS
 10
199.46668791
 20
99.2720129466
 11
199.5342898926
 21
90.3679671257
  0
LINE
  5
276
100
AcDbEntity
  8
0
100
AcDbLine
 62
7
  6
CONTINUOUS
 10
199.6978215434
 20
89.8235140384
 11
199.6981016204
 21
89.7866243114
  0
LINE
  5
277
100
AcDbEntity
  8
0
100
AcDbLine
 62
7
  6
CONTINUOUS
 10
199.684309903
 20
99.1967919387
 11
199.7519118856
 21
90.2927461178
  0
LINE
  5
278
100
AcDbEntity
  8
0
100
AcDbLine
 62
7
  6
CONTINUOUS
 10
199.7990916598
 20
99.1571176424
 11
199.8666936424
 21
90.2530718215
  0
LINE
  5
279
100
AcDbEntity
  8
0
100
AcDbLine
 62
7
  6
CONTINUOUS
 10
200.0302252932
 20
89.7086187342
 11
200.0305053702
 21
89.6717290072
  0
LINE
  5
27A
100
AcDbEntity
  8
0
100
AcDbLine
 62
7
  6
CONTINUOUS
 10
200.0167136528
 20
99.0818966345
 11
200.0843156354
 21
90.1778508136
  0
LINE
  5
27B
100
AcDbEntity
  8
0
100
AcDbLine
 62
7
  6
CONTINUOUS
 10
200.1314954096
 20
99.0422223383
 11
200.1990973922
 21
90.1381765173
  0
LINE
  5
27C
100
AcDbEntity
  8
0
100
AcDbLine
 62
7
  6
CONTINUOUS
 10
200.362629043
 20
89.59372343
 11
200.36290912
 21
89.556833703
  0
LINE
  5
27D
100
AcDbEntity
  8
0
100
AcDbLine
 62
7
  6
CONTINUOUS
 10
200.3392491663
 20
98.9704122847
 11
200.4068511489
 21
90.0663664638
  0
LINE
  5
27E
100
AcDbEntity
  8
0
100
AcDbLine
 62
7
  6
CONTINUOUS
 10
200.454030923
 20
98.9307379884
 11
200.5216329057
 21
90.0266921675
  0
LINE
  5
27F
100
AcDbEntity
  8
0
100
AcDbLine
 62
7
  6
CONTINUOUS
 10
200.6950327928
 20
89.4788281259
 11
200.6953128698
 21
89.4419383989
  0
LINE
  5
280
100
AcDbEntity
  8
0
100
AcDbLine
 62
7
  6
CONTINUOUS
 10
200.6716529161
 20
98.8555169805
 11
200.7392548987
 21
89.9514711596
  0
LINE
  5
281
100
AcDbEntity
  8
0
100
AcDbLine
 62
7
  6
CONTINUOUS
 10
200.7864346728
 20
98.8158426842
 11
200.8540366555
 21
89.9117968633
  0
LINE
  5
282
100
AcDbEntity
  8
0
100
AcDbLine
 62
7
  6
CONTINUOUS
 10
201.0175683063
 20
89.367343776
 11
201.0178483833
 21
89.330454049
  0
LINE
  5
283
100
AcDbEntity
  8
0
100
AcDbLine
 62
7
  6
CONTINUOUS
 10
201.0040566659
 20
98.7406216763
 11
201.0716586485
 21
89.8365758554
  0
LINE
  5
284
100
AcDbEntity
  8
0
100
AcDbLine
 62
7
  6
CONTINUOUS
 10
201.1188384226
 20
98.70094738
 11
201.1864404053
 21
89.7969015591
  0
LINE
  5
285
100
AcDbEntity
  8
0
100
AcDbLine
 62
7
  6
CONTINUOUS
 10
201.3499720561
 20
89.2524484718
 11
201.3502521331
 21
89.2155587448
  0
LINE
  5
286
100
AcDbEntity
  8
0
100
AcDbLine
 62
7
  6
CONTINUOUS
 10
201.3364604157
 20
98.6257263721
 11
201.4040623983
 21
89.7216805512
  0
LINE
  5
287
100
AcDbEntity
  8
0
100
AcDbLine
 62
7
  6
CONTINUOUS
 10
201.4512421725
 20
98.5860520759
 11
201.5188441551
 21
89.6820062549
  0
LINE
  5
288
100
AcDbEntity
  8
0
100
AcDbLine
 62
7
  6
CONTINUOUS
 10
201.6823758059
 20
89.1375531676
 11
201.6826558829
 21
89.1006634406
  0
LINE
  5
289
100
AcDbEntity
  8
0
100
AcDbLine
 62
7
  6
CONTINUOUS
 10
201.6688641655
 20
98.5108310679
 11
201.7364661481
 21
89.606785247
  0
LINE
  5
28A
100
AcDbEntity
  8
0
100
AcDbLine
 62
7
  6
CONTINUOUS
 10
201.7836459223
 20
98.4711567717
 11
201.8512479049
 21
89.5671109507
  0
LINE
  5
28B
100
AcDbEntity
  8
0
100
AcDbLine
 62
7
  6
CONTINUOUS
 10
202.0147795557
 20
89.0226578634
 11
202.0150596327
 21
88.9857681364
  0
LINE
  5
28C
100
AcDbEntity
  8
0
100
AcDbLine
 62
7
  6
CONTINUOUS
 10
202.0012679153
 20
98.3959357638
 11
202.0688698979
 21
89.4918899428
  0
LINE
  5
28D
100
AcDbEntity
  8
0
100
AcDbLine
 62
7
  6
CONTINUOUS
 10
202.1160496721
 20
98.3562614675
 11
202.1836516547
 21
89.4522156466
  0
LINE
  5
28E
100
AcDbEntity
  8
0
100
AcDbLine
 62
7
  6
CONTINUOUS
 10
202.3471833055
 20
88.9077625593
 11
202.3474633825
 21
88.8708728323
  0
LINE
  5
28F
100
AcDbEntity
  8
0
100
AcDbLine
 62
7
  6
CONTINUOUS
 10
202.3238034288
 20
98.2844514139
 11
202.3914054114
 21
89.380405593
  0
LINE
  5
290
100
AcDbEntity
  8
0
100
AcDbLine
 62
7
  6
CONTINUOUS
 10
202.4385851855
 20
98.2447771176
 11
202.5061871682
 21
89.3407312967
  0
LINE
  5
291
100
AcDbEntity
  8
0
100
AcDbLine
 62
7
  6
CONTINUOUS
 10
202.6795870553
 20
88.7928672551
 11
202.6798671323
 21
88.7559775281
  0
LINE
  5
292
100
AcDbEntity
  8
0
100
AcDbLine
 62
7
  6
CONTINUOUS
 10
202.6562071786
 20
98.1695561097
 11
202.7238091612
 21
89.2655102888
  0
LINE
  5
293
100
AcDbEntity
  8
0
100
AcDbLine
 62
7
  6
CONTINUOUS
 10
202.7709889353
 20
98.1298818134
 11
202.838590918
 21
89.2258359925
  0
LINE
  5
294
100
AcDbEntity
  8
0
100
AcDbLine
 62
7
  6
CONTINUOUS
 10
203.0021225688
 20
88.6813829052
 11
203.0024026458
 21
88.6444931782
  0
LINE
  5
295
100
AcDbEntity
  8
0
100
AcDbLine
 62
7
  6
CONTINUOUS
 10
202.9886109284
 20
98.0546608055
 11
203.056212911
 21
89.1506149846
  0
LINE
  5
296
100
AcDbEntity
  8
0
100
AcDbLine
 62
7
  6
CONTINUOUS
 10
203.1033926852
 20
98.0149865093
 11
203.1709946678
 21
89.1109406883
  0
LINE
  5
297
100
AcDbEntity
  8
0
100
AcDbLine
 62
7
  6
CONTINUOUS
 10
203.3345263186
 20
88.566487601
 11
203.3348063956
 21
88.529597874
  0
LINE
  5
298
100
AcDbEntity
  8
0
100
AcDbLine
 62
7
  6
CONTINUOUS
 10
203.3210146782
 20
97.9397655014
 11
203.3886166608
 21
89.0357196804
  0
LINE
  5
299
100
AcDbEntity
  8
0
100
AcDbLine
 62
7
  6
CONTINUOUS
 10
203.435796435
 20
97.9000912051
 11
203.5033984176
 21
88.9960453842
  0
LINE
  5
29A
100
AcDbEntity
  8
0
100
AcDbLine
 62
7
  6
CONTINUOUS
 10
203.6669300684
 20
88.4515922969
 11
203.6672101454
 21
88.4147025698
  0
LINE
  5
29B
100
AcDbEntity
  8
0
100
AcDbLine
 62
7
  6
CONTINUOUS
 10
203.653418428
 20
97.8248701972
 11
203.7210204106
 21
88.9208243762
  0
LINE
  5
29C
100
AcDbEntity
  8
0
100
AcDbLine
 62
7
  6
CONTINUOUS
 10
203.7682001848
 20
97.7851959009
 11
203.8358021674
 21
88.88115008
  0
LINE
  5
29D
100
AcDbEntity
  8
0
100
AcDbLine
 62
7
  6
CONTINUOUS
 10
203.9993338182
 20
88.3366969927
 11
203.9996138952
 21
88.2998072657
  0
LINE
  5
29E
100
AcDbEntity
  8
0
100
AcDbLine
 62
7
  6
CONTINUOUS
 10
203.9858221778
 20
97.709974893
 11
204.0534241604
 21
88.8059290721
  0
LINE
  5
29F
100
AcDbEntity
  8
0
100
AcDbLine
 62
7
  6
CONTINUOUS
 10
204.1006039346
 20
97.6703005967
 11
204.1682059172
 21
88.7662547758
  0
LINE
  5
2A0
100
AcDbEntity
  8
DTM_AXIS
100
AcDbLine
 62
7
  6
CONTINUOUS
 10
191.835197465
 20
92.1870900863
 11
192.5668829555
 21
93.4783594015
  0
LINE
  5
2A1
100
AcDbEntity
  8
0
100
AcDbLine
 62
7
  6
CONTINUOUS
 10
204.331737568
 20
88.2218016885
 11
204.332017645
 21
88.1849119615
  0
LINE
  5
2A2
100
AcDbEntity
  8
0
100
AcDbLine
 62
7
  6
CONTINUOUS
 10
204.3083576913
 20
97.5984905431
 11
204.3759596739
 21
88.6944447222
  0
LINE
  5
2A3
100
AcDbEntity
  8
0
100
AcDbLine
 62
7
  6
CONTINUOUS
 10
204.423139448
 20
97.5588162468
 11
204.4907414307
 21
88.6547704259
  0
LINE
  5
2A4
100
AcDbEntity
  8
0
100
AcDbLine
 62
7
  6
CONTINUOUS
 10
204.6641413178
 20
88.1069063843
 11
204.6644213948
 21
88.0700166573
  0
LINE
  5
2A5
100
AcDbEntity
  8
0
100
AcDbLine
 62
7
  6
CONTINUOUS
 10
204.6407614411
 20
97.4835952389
 11
204.7083634237
 21
88.579549418
  0
LINE
  5
2A6
100
AcDbEntity
  8
0
100
AcDbLine
 62
7
  6
CONTINUOUS
 10
204.7555431979
 20
97.4439209427
 11
204.8231451805
 21
88.5398751217
  0
LINE
  5
2A7
100
AcDbEntity
  8
0
100
AcDbLine
 62
7
  6
CONTINUOUS
 10
204.9866768313
 20
87.9954220344
 11
204.9869569083
 21
87.9585323074
  0
LINE
  5
2A8
100
AcDbEntity
  8
0
100
AcDbLine
 62
7
  6
CONTINUOUS
 10
204.9731651909
 20
97.3686999348
 11
205.0407671735
 21
88.4646541138
  0
LINE
  5
2A9
100
AcDbEntity
  8
0
100
AcDbLine
 62
7
  6
CONTINUOUS
 10
205.0879469477
 20
97.3290256385
 11
205.1555489303
 21
88.4249798176
  0
LINE
  5
2AA
100
AcDbEntity
  8
0
100
AcDbLine
 62
7
  6
CONTINUOUS
 10
205.3190805811
 20
87.8805267303
 11
205.3193606581
 21
87.8436370032
  0
LINE
  5
2AB
100
AcDbEntity
  8
0
100
AcDbLine
 62
7
  6
CONTINUOUS
 10
205.3055689407
 20
97.2538046306
 11
205.3731709233
 21
88.3497588097
  0
LINE
  5
2AC
100
AcDbEntity
  8
0
100
AcDbLine
 62
7
  6
CONTINUOUS
 10
205.4203506975
 20
97.2141303343
 11
205.4879526801
 21
88.3100845134
  0
LINE
  5
2AD
100
AcDbEntity
  8
0
100
AcDbLine
 62
7
  6
CONTINUOUS
 10
205.6514843309
 20
87.7656314261
 11
205.6517644079
 21
87.7287416991
  0
LINE
  5
2AE
100
AcDbEntity
  8
0
100
AcDbLine
 62
7
  6
CONTINUOUS
 10
205.6379726905
 20
97.1389093264
 11
205.7055746731
 21
88.2348635055
  0
LINE
  5
2AF
100
AcDbEntity
  8
0
100
AcDbLine
 62
7
  6
CONTINUOUS
 10
205.7527544473
 20
97.0992350301
 11
205.8203564299
 21
88.1951892092
  0
LINE
  5
2B0
100
AcDbEntity
  8
0
100
AcDbLine
 62
7
  6
CONTINUOUS
 10
205.9838880807
 20
87.6507361219
 11
205.9841681577
 21
87.6138463949
  0
LINE
  5
2B1
100
AcDbEntity
  8
0
100
AcDbLine
 62
7
  6
CONTINUOUS
 10
205.9703764403
 20
97.0240140222
 11
206.037978423
 21
88.1199682013
  0
LINE
  5
2B2
100
AcDbEntity
  8
0
100
AcDbLine
 62
7
  6
CONTINUOUS
 10
206.0851581971
 20
96.9843397259
 11
206.1527601797
 21
88.080293905
  0
LINE
  5
2B3
100
AcDbEntity
  8
0
100
AcDbLine
 62
7
  6
CONTINUOUS
 10
206.3162918305
 20
87.5358408177
 11
206.3165719075
 21
87.4989510907
  0
LINE
  5
2B4
100
AcDbEntity
  8
0
100
AcDbLine
 62
7
  6
CONTINUOUS
 10
206.2929119538
 20
96.9125296723
 11
206.3605139364
 21
88.0084838514
  0
LINE
  5
2B5
100
AcDbEntity
  8
0
100
AcDbLine
 62
7
  6
CONTINUOUS
 10
206.4076937106
 20
96.8728553761
 11
206.4752956932
 21
87.9688095551
  0
LINE
  5
2B6
100
AcDbEntity
  8
0
100
AcDbLine
 62
7
  6
CONTINUOUS
 10
206.6486955803
 20
87.4209455135
 11
206.6489756573
 21
87.3840557865
  0
LINE
  5
2B7
100
AcDbEntity
  8
0
100
AcDbLine
 62
7
  6
CONTINUOUS
 10
206.6253157036
 20
96.7976343682
 11
206.6929176862
 21
87.8935885472
  0
LINE
  5
2B8
100
AcDbEntity
  8
0
100
AcDbLine
 62
7
  6
CONTINUOUS
 10
206.7400974604
 20
96.7579600719
 11
206.807699443
 21
87.853914251
  0
LINE
  5
2B9
100
AcDbEntity
  8
0
100
AcDbLine
 62
7
  6
CONTINUOUS
 10
206.9712310938
 20
87.3094611637
 11
206.9715111708
 21
87.2725714366
  0
LINE
  5
2BA
100
AcDbEntity
  8
0
100
AcDbLine
 62
7
  6
CONTINUOUS
 10
206.9577194534
 20
96.682739064
 11
207.025321436
 21
87.7786932431
  0
LINE
  5
2BB
100
AcDbEntity
  8
0
100
AcDbLine
 62
7
  6
CONTINUOUS
 10
207.0725012102
 20
96.6430647677
 11
207.1401031928
 21
87.7390189468
  0
LINE
  5
2BC
100
AcDbEntity
  8
0
100
AcDbLine
 62
7
  6
CONTINUOUS
 10
207.3036348436
 20
87.1945658595
 11
207.3039149206
 21
87.1576761325
  0
LINE
  5
2BD
100
AcDbEntity
  8
0
100
AcDbLine
 62
7
  6
CONTINUOUS
 10
207.2901232032
 20
96.5678437598
 11
207.3577251858
 21
87.6637979389
  0
LINE
  5
2BE
100
AcDbEntity
  8
0
100
AcDbLine
 62
7
  6
CONTINUOUS
 10
207.40490496
 20
96.5281694635
 11
207.4725069426
 21
87.6241236426
  0
LINE
  5
2BF
100
AcDbEntity
  8
0
100
AcDbLine
 62
7
  6
CONTINUOUS
 10
207.6360385934
 20
87.0796705553
 11
207.6363186704
 21
87.0427808283
  0
LINE
  5
2C0
100
AcDbEntity
  8
0
100
AcDbLine
 62
7
  6
CONTINUOUS
 10
207.622526953
 20
96.4529484556
 11
207.6901289357
 21
87.5489026347
  0
LINE
  5
2C1
100
AcDbEntity
  8
0
100
AcDbLine
 62
7
  6
CONTINUOUS
 10
235.9018424916
 20
71.9579318054
 11
233.4303658375
 21
71.9376617977
  0
LINE
  5
2C2
100
AcDbEntity
  8
0
100
AcDbLine
 62
7
  6
CONTINUOUS
 10
191.879897112
 20
86.2995748213
 11
233.4303658375
 21
71.9376617977
  0
LINE
  5
2C3
100
AcDbEntity
  8
0
100
AcDbLine
 62
7
  6
CONTINUOUS
 10
235.9018424916
 20
71.9579318054
 11
194.351373766
 21
86.3198448289
  0
LINE
  5
2C4
100
AcDbEntity
  8
0
100
AcDbLine
 62
7
  6
CONTINUOUS
 10
207.7373087098
 20
96.4132741593
 11
207.8049106924
 21
87.5092283384
  0
LINE
  5
2C5
100
AcDbEntity
  8
0
100
AcDbLine
 62
7
  6
CONTINUOUS
 10
207.9684423432
 20
86.9647752511
 11
207.9687224202
 21
86.9278855241
  0
LINE
  5
2C6
100
AcDbEntity
  8
0
100
AcDbLine
 62
7
  6
CONTINUOUS
 10
207.9549307028
 20
96.3380531514
 11
208.0225326855
 21
87.4340073305
  0
LINE
  5
2C7
100
AcDbEntity
  8
0
100
AcDbLine
 62
7
  6
CONTINUOUS
 10
208.0697124596
 20
96.2983788551
 11
208.1373144422
 21
87.3943330342
  0
LINE
  5
2C8
100
AcDbEntity
  8
0
100
AcDbLine
 62
7
  6
CONTINUOUS
 10
208.300846093
 20
86.8498799469
 11
208.30112617
 21
86.8129902199
  0
LINE
  5
2C9
100
AcDbEntity
  8
0
100
AcDbLine
 62
7
  6
CONTINUOUS
 10
208.2774662163
 20
96.2265688016
 11
208.3450681989
 21
87.3225229806
  0
LINE
  5
2CA
100
AcDbEntity
  8
0
100
AcDbLine
 62
7
  6
CONTINUOUS
 10
208.3922479731
 20
96.1868945053
 11
208.4598499557
 21
87.2828486844
  0
LINE
  5
2CB
100
AcDbEntity
  8
0
100
AcDbLine
 62
7
  6
CONTINUOUS
 10
208.6332498428
 20
86.7349846427
 11
208.6335299198
 21
86.6980949157
  0
LINE
  5
2CC
100
AcDbEntity
  8
0
100
AcDbLine
 62
7
  6
CONTINUOUS
 10
208.6098699661
 20
96.1116734974
 11
208.6774719487
 21
87.2076276765
  0
LINE
  5
2CD
100
AcDbEntity
  8
0
100
AcDbLine
 62
7
  6
CONTINUOUS
 10
208.7246517229
 20
96.0719992011
 11
208.7922537055
 21
87.1679533802
  0
LINE
  5
2CE
100
AcDbEntity
  8
0
100
AcDbLine
 62
7
  6
CONTINUOUS
 10
208.9557853563
 20
86.6235002929
 11
208.9560654333
 21
86.5866105659
  0
LINE
  5
2CF
100
AcDbEntity
  8
0
100
AcDbLine
 62
7
  6
CONTINUOUS
 10
208.9422737159
 20
95.9967781932
 11
209.0098756985
 21
87.0927323723
  0
LINE
  5
2D0
100
AcDbEntity
  8
0
100
AcDbLine
 62
7
  6
CONTINUOUS
 10
209.0570554727
 20
95.9571038969
 11
209.1246574553
 21
87.053058076
  0
LINE
  5
2D1
100
AcDbEntity
  8
0
100
AcDbLine
 62
7
  6
CONTINUOUS
 10
209.2881891061
 20
86.5086049887
 11
209.2884691831
 21
86.4717152617
  0
LINE
  5
2D2
100
AcDbEntity
  8
0
100
AcDbLine
 62
7
  6
CONTINUOUS
 10
209.2746774657
 20
95.881882889
 11
209.3422794483
 21
86.9778370681
  0
LINE
  5
2D3
100
AcDbEntity
  8
0
100
AcDbLine
 62
7
  6
CONTINUOUS
 10
209.3894592225
 20
95.8422085927
 11
209.4570612051
 21
86.9381627718
  0
LINE
  5
2D4
100
AcDbEntity
  8
0
100
AcDbLine
 62
7
  6
CONTINUOUS
 10
209.6205928559
 20
86.3937096845
 11
209.6208729329
 21
86.3568199575
  0
LINE
  5
2D5
100
AcDbEntity
  8
0
100
AcDbLine
 62
7
  6
CONTINUOUS
 10
209.6070812155
 20
95.7669875848
 11
209.6746831982
 21
86.8629417639
  0
LINE
  5
2D6
100
AcDbEntity
  8
0
100
AcDbLine
 62
7
  6
CONTINUOUS
 10
209.7218629723
 20
95.7273132885
 11
209.7894649549
 21
86.8232674676
  0
LINE
  5
2D7
100
AcDbEntity
  8
0
100
AcDbLine
 62
7
  6
CONTINUOUS
 10
209.9529966057
 20
86.2788143803
 11
209.9532766827
 21
86.2419246533
  0
LINE
  5
2D8
100
AcDbEntity
  8
0
100
AcDbLine
 62
7
  6
CONTINUOUS
 10
209.9394849653
 20
95.6520922806
 11
210.007086948
 21
86.7480464597
  0
LINE
  5
2D9
100
AcDbEntity
  8
0
100
AcDbLine
 62
7
  6
CONTINUOUS
 10
210.0542667221
 20
95.6124179843
 11
210.1218687047
 21
86.7083721634
  0
LINE
  5
2DA
100
AcDbEntity
  8
0
100
AcDbLine
 62
7
  6
CONTINUOUS
 10
210.2854003555
 20
86.1639190761
 11
210.2856804325
 21
86.1270293491
  0
LINE
  5
2DB
100
AcDbEntity
  8
0
100
AcDbLine
 62
7
  6
CONTINUOUS
 10
210.2620204788
 20
95.5406079308
 11
210.3296224614
 21
86.6365621099
  0
LINE
  5
2DC
100
AcDbEntity
  8
0
100
AcDbLine
 62
7
  6
CONTINUOUS
 10
210.3768022356
 20
95.5009336345
 11
210.4444042182
 21
86.5968878136
  0
LINE
  5
2DD
100
AcDbEntity
  8
0
100
AcDbLine
 62
7
  6
CONTINUOUS
 10
210.6178041053
 20
86.0490237719
 11
210.6180841823
 21
86.0121340449
  0
LINE
  5
2DE
100
AcDbEntity
  8
0
100
AcDbLine
 62
7
  6
CONTINUOUS
 10
210.5944242286
 20
95.4257126266
 11
210.6620262112
 21
86.5216668057
  0
LINE
  5
2DF
100
AcDbEntity
  8
0
100
AcDbLine
 62
7
  6
CONTINUOUS
 10
210.7092059854
 20
95.3860383303
 11
210.776807968
 21
86.4819925094
  0
LINE
  5
2E0
100
AcDbEntity
  8
0
100
AcDbLine
 62
7
  6
CONTINUOUS
 10
210.9403396188
 20
85.9375394221
 11
210.9406196958
 21
85.9006496951
  0
LINE
  5
2E1
100
AcDbEntity
  8
0
100
AcDbLine
 62
7
  6
CONTINUOUS
 10
210.9268279784
 20
95.3108173224
 11
210.994429961
 21
86.4067715015
  0
LINE
  5
2E2
100
AcDbEntity
  8
0
100
AcDbLine
 62
7
  6
CONTINUOUS
 10
211.0416097352
 20
95.2711430261
 11
211.1092117178
 21
86.3670972052
  0
LINE
  5
2E3
100
AcDbEntity
  8
0
100
AcDbLine
 62
7
  6
CONTINUOUS
 10
211.2727433686
 20
85.8226441179
 11
211.2730234456
 21
85.7857543909
  0
LINE
  5
2E4
100
AcDbEntity
  8
0
100
AcDbLine
 62
7
  6
CONTINUOUS
 10
211.2592317282
 20
95.1959220182
 11
211.3268337109
 21
86.2918761973
  0
LINE
  5
2E5
100
AcDbEntity
  8
DTM_AXIS
100
AcDbLine
 62
7
  6
CONTINUOUS
 10
233.5438454874
 20
132.8957362984
 11
234.8224289292
 21
133.6482727217
  0
LINE
  5
2E6
100
AcDbEntity
  8
DTM_AXIS
100
AcDbLine
 62
7
  6
CONTINUOUS
 10
216.6655518312
 20
126.208704175
 11
224.8426620946
 21
128.567405844
  0
LINE
  5
2E7
100
AcDbEntity
  8
0
100
AcDbLine
 62
7
  6
CONTINUOUS
 10
239.7754008855
 20
76.4586333979
 11
238.2979676856
 21
76.4445866365
  0
LINE
  5
2E8
100
AcDbEntity
  8
0
100
AcDbLine
 62
7
  6
CONTINUOUS
 10
239.4429971357
 20
76.5735287021
 11
237.9655639357
 21
76.5594819406
  0
LINE
  5
2E9
100
AcDbEntity
  8
0
100
AcDbLine
 62
7
  6
CONTINUOUS
 10
239.1105933859
 20
76.6884240063
 11
237.6331601859
 21
76.6743772448
  0
LINE
  5
2EA
100
AcDbEntity
  8
0
100
AcDbLine
 62
7
  6
CONTINUOUS
 10
238.7781896361
 20
76.8033193105
 11
237.3007564361
 21
76.789272549
  0
LINE
  5
2EB
100
AcDbEntity
  8
0
100
AcDbLine
 62
7
  6
CONTINUOUS
 10
238.4457858863
 20
76.9182146146
 11
236.9683526863
 21
76.9041678532
  0
LINE
  5
2EC
100
AcDbEntity
  8
0
100
AcDbLine
 62
7
  6
CONTINUOUS
 10
238.1133821365
 20
77.0331099188
 11
236.6359489365
 21
77.0190631574
  0
LINE
  5
2ED
100
AcDbEntity
  8
0
100
AcDbLine
 62
7
  6
CONTINUOUS
 10
237.790846623
 20
77.1445942687
 11
236.313413423
 21
77.1305475072
  0
LINE
  5
2EE
100
AcDbEntity
  8
0
100
AcDbLine
 62
7
  6
CONTINUOUS
 10
237.4584428732
 20
77.2594895729
 11
235.9810096732
 21
77.2454428114
  0
LINE
  5
2EF
100
AcDbEntity
  8
0
100
AcDbLine
 62
7
  6
CONTINUOUS
 10
237.1260391234
 20
77.3743848771
 11
235.6486059234
 21
77.3603381156
  0
LINE
  5
2F0
100
AcDbEntity
  8
0
100
AcDbLine
 62
7
  6
CONTINUOUS
 10
236.7936353736
 20
77.4892801812
 11
235.3162021736
 21
77.4752334198
  0
LINE
  5
2F1
100
AcDbEntity
  8
0
100
AcDbLine
 62
7
  6
CONTINUOUS
 10
236.4612316238
 20
77.6041754854
 11
234.9837984238
 21
77.590128724
  0
LINE
  5
2F2
100
AcDbEntity
  8
0
100
AcDbLine
 62
7
  6
CONTINUOUS
 10
236.128827874
 20
77.7190707896
 11
234.651394674
 21
77.7050240282
  0
LINE
  5
2F3
100
AcDbEntity
  8
0
100
AcDbLine
 62
7
  6
CONTINUOUS
 10
235.8062923605
 20
77.8305551395
 11
234.3288591605
 21
77.816508378
  0
LINE
  5
2F4
100
AcDbEntity
  8
0
100
AcDbLine
 62
7
  6
CONTINUOUS
 10
235.4738886107
 20
77.9454504437
 11
233.9964554107
 21
77.9314036822
  0
LINE
  5
2F5
100
AcDbEntity
  8
0
100
AcDbLine
 62
7
  6
CONTINUOUS
 10
235.1414848609
 20
78.0603457478
 11
233.6640516609
 21
78.0462989864
  0
LINE
  5
2F6
100
AcDbEntity
  8
0
100
AcDbLine
 62
7
  6
CONTINUOUS
 10
239.5577788924
 20
76.5338544058
 11
238.0694401076
 21
76.5235771581
  0
LINE
  5
2F7
100
AcDbEntity
  8
0
100
AcDbLine
 62
7
  6
CONTINUOUS
 10
239.2253751426
 20
76.64874971
 11
237.7370363578
 21
76.6384724623
  0
LINE
  5
2F8
100
AcDbEntity
  8
0
100
AcDbLine
 62
7
  6
CONTINUOUS
 10
238.8929713928
 20
76.7636450142
 11
237.404632608
 21
76.7533677665
  0
LINE
  5
2F9
100
AcDbEntity
  8
0
100
AcDbLine
 62
7
  6
CONTINUOUS
 10
238.560567643
 20
76.8785403184
 11
237.0722288581
 21
76.8682630707
  0
LINE
  5
2FA
100
AcDbEntity
  8
0
100
AcDbLine
 62
7
  6
CONTINUOUS
 10
238.2281638932
 20
76.9934356226
 11
236.7398251083
 21
76.9831583748
  0
LINE
  5
2FB
100
AcDbEntity
  8
0
100
AcDbLine
 62
7
  6
CONTINUOUS
 10
237.9056283797
 20
77.1049199724
 11
236.4172895949
 21
77.0946427247
  0
LINE
  5
2FC
100
AcDbEntity
  8
0
100
AcDbLine
 62
7
  6
CONTINUOUS
 10
237.5732246299
 20
77.2198152766
 11
236.0848858451
 21
77.2095380289
  0
LINE
  5
2FD
100
AcDbEntity
  8
0
100
AcDbLine
 62
7
  6
CONTINUOUS
 10
237.2408208801
 20
77.3347105808
 11
235.7524820953
 21
77.3244333331
  0
LINE
  5
2FE
100
AcDbEntity
  8
0
100
AcDbLine
 62
7
  6
CONTINUOUS
 10
236.9084171303
 20
77.449605885
 11
235.4200783454
 21
77.4393286373
  0
LINE
  5
2FF
100
AcDbEntity
  8
0
100
AcDbLine
 62
7
  6
CONTINUOUS
 10
236.5760133805
 20
77.5645011891
 11
235.0876745956
 21
77.5542239414
  0
LINE
  5
300
100
AcDbEntity
  8
0
100
AcDbLine
 62
7
  6
CONTINUOUS
 10
236.2436096307
 20
77.6793964933
 11
234.7552708458
 21
77.6691192456
  0
LINE
  5
301
100
AcDbEntity
  8
0
100
AcDbLine
 62
7
  6
CONTINUOUS
 10
235.9210741172
 20
77.7908808432
 11
234.4327353324
 21
77.7806035955
  0
LINE
  5
302
100
AcDbEntity
  8
0
100
AcDbLine
 62
7
  6
CONTINUOUS
 10
235.5886703674
 20
77.9057761474
 11
234.1003315826
 21
77.8954988997
  0
LINE
  5
303
100
AcDbEntity
  8
0
100
AcDbLine
 62
7
  6
CONTINUOUS
 10
235.2562666176
 20
78.0206714516
 11
233.7679278328
 21
78.0103942039
  0
LINE
  5
304
100
AcDbEntity
  8
0
100
AcDbLine
 62
7
  6
CONTINUOUS
 10
234.9238628678
 20
78.1355667557
 11
233.4355240829
 21
78.125289508
  0
LINE
  5
305
100
AcDbEntity
  8
0
100
AcDbLine
 62
7
  6
CONTINUOUS
 10
196.8040720916
 20
88.8134608979
 11
238.3545408171
 21
74.4515478743
  0
LINE
  5
306
100
AcDbEntity
  8
0
100
AcDbLine
 62
7
  6
CONTINUOUS
 10
211.374013485
 20
95.1562477219
 11
211.4416154676
 21
86.252201901
  0
LINE
  5
307
100
AcDbEntity
  8
0
100
AcDbLine
 62
7
  6
CONTINUOUS
 10
211.6051471184
 20
85.7077488137
 11
211.6054271954
 21
85.6708590867
  0
LINE
  5
308
100
AcDbEntity
  8
0
100
AcDbLine
 62
7
  6
CONTINUOUS
 10
211.591635478
 20
95.081026714
 11
211.6592374607
 21
86.1769808931
  0
LINE
  5
309
100
AcDbEntity
  8
0
100
AcDbLine
 62
7
  6
CONTINUOUS
 10
211.7064172348
 20
95.0413524177
 11
211.7740192174
 21
86.1373065968
  0
LINE
  5
30A
100
AcDbEntity
  8
0
100
AcDbLine
 62
7
  6
CONTINUOUS
 10
211.9375508682
 20
85.5928535095
 11
211.9378309452
 21
85.5559637825
  0
LINE
  5
30B
100
AcDbEntity
  8
0
100
AcDbLine
 62
7
  6
CONTINUOUS
 10
211.9240392278
 20
94.9661314098
 11
211.9916412105
 21
86.0620855889
  0
LINE
  5
30C
100
AcDbEntity
  8
0
100
AcDbLine
 62
7
  6
CONTINUOUS
 10
212.0388209846
 20
94.9264571135
 11
212.1064229672
 21
86.0224112926
  0
LINE
  5
30D
100
AcDbEntity
  8
0
100
AcDbLine
 62
7
  6
CONTINUOUS
 10
212.269954618
 20
85.4779582053
 11
212.270234695
 21
85.4410684783
  0
LINE
  5
30E
100
AcDbEntity
  8
0
100
AcDbLine
 62
7
  6
CONTINUOUS
 10
212.2465747413
 20
94.85464706
 11
212.3141767239
 21
85.9506012391
  0
LINE
  5
30F
100
AcDbEntity
  8
0
100
AcDbLine
 62
7
  6
CONTINUOUS
 10
212.3613564981
 20
94.8149727637
 11
212.4289584807
 21
85.9109269428
  0
LINE
  5
310
100
AcDbEntity
  8
0
100
AcDbLine
 62
7
  6
CONTINUOUS
 10
212.6023583678
 20
85.3630629011
 11
212.6026384448
 21
85.3261731741
  0
LINE
  5
311
100
AcDbEntity
  8
0
100
AcDbLine
 62
7
  6
CONTINUOUS
 10
212.5789784911
 20
94.7397517558
 11
212.6465804737
 21
85.8357059349
  0
LINE
  5
312
100
AcDbEntity
  8
0
100
AcDbLine
 62
7
  6
CONTINUOUS
 10
212.6937602479
 20
94.7000774595
 11
212.7613622305
 21
85.7960316386
  0
LINE
  5
313
100
AcDbEntity
  8
0
100
AcDbLine
 62
7
  6
CONTINUOUS
 10
212.9248938813
 20
85.2515785513
 11
212.9251739583
 21
85.2146888243
  0
LINE
  5
314
100
AcDbEntity
  8
0
100
AcDbLine
 62
7
  6
CONTINUOUS
 10
212.9113822409
 20
94.6248564516
 11
212.9789842236
 21
85.7208106307
  0
LINE
  5
315
100
AcDbEntity
  8
0
100
AcDbLine
 62
7
  6
CONTINUOUS
 10
213.0261639977
 20
94.5851821553
 11
213.0937659803
 21
85.6811363344
  0
LINE
  5
316
100
AcDbEntity
  8
0
100
AcDbLine
 62
7
  6
CONTINUOUS
 10
213.2572976311
 20
85.1366832471
 11
213.2575777081
 21
85.0997935201
  0
LINE
  5
317
100
AcDbEntity
  8
0
100
AcDbLine
 62
7
  6
CONTINUOUS
 10
213.2437859907
 20
94.5099611474
 11
213.3113879734
 21
85.6059153265
  0
LINE
  5
318
100
AcDbEntity
  8
0
100
AcDbLine
 62
7
  6
CONTINUOUS
 10
213.3585677475
 20
94.4702868511
 11
213.4261697301
 21
85.5662410302
  0
LINE
  5
319
100
AcDbEntity
  8
0
100
AcDbLine
 62
7
  6
CONTINUOUS
 10
213.5897013809
 20
85.0217879429
 11
213.5899814579
 21
84.9848982159
  0
LINE
  5
31A
100
AcDbEntity
  8
0
100
AcDbLine
 62
7
  6
CONTINUOUS
 10
213.5761897405
 20
94.3950658432
 11
213.6437917232
 21
85.4910200223
  0
LINE
  5
31B
100
AcDbEntity
  8
0
100
AcDbLine
 62
7
  6
CONTINUOUS
 10
213.6909714973
 20
94.3553915469
 11
213.7585734799
 21
85.451345726
  0
LINE
  5
31C
100
AcDbEntity
  8
0
100
AcDbLine
 62
7
  6
CONTINUOUS
 10
213.9221051307
 20
84.9068926387
 11
213.9223852077
 21
84.8700029117
  0
LINE
  5
31D
100
AcDbEntity
  8
0
100
AcDbLine
 62
7
  6
CONTINUOUS
 10
213.9085934903
 20
94.280170539
 11
213.976195473
 21
85.3761247181
  0
LINE
  5
31E
100
AcDbEntity
  8
0
100
AcDbLine
 62
7
  6
CONTINUOUS
 10
214.0233752471
 20
94.2404962428
 11
214.0909772297
 21
85.3364504218
  0
LINE
  5
31F
100
AcDbEntity
  8
0
100
AcDbLine
 62
7
  6
CONTINUOUS
 10
214.2545088805
 20
84.7919973345
 11
214.2547889575
 21
84.7551076075
  0
LINE
  5
320
100
AcDbEntity
  8
0
100
AcDbLine
 62
7
  6
CONTINUOUS
 10
214.2311290038
 20
94.1686861892
 11
214.2987309864
 21
85.2646403683
  0
LINE
  5
321
100
AcDbEntity
  8
0
100
AcDbLine
 62
7
  6
CONTINUOUS
 10
214.3459107606
 20
94.1290118929
 11
214.4135127432
 21
85.224966072
  0
LINE
  5
322
100
AcDbEntity
  8
0
100
AcDbLine
 62
7
  6
CONTINUOUS
 10
214.5869126303
 20
84.6771020304
 11
214.5871927073
 21
84.6402123033
  0
LINE
  5
323
100
AcDbEntity
  8
0
100
AcDbLine
 62
7
  6
CONTINUOUS
 10
214.5635327536
 20
94.053790885
 11
214.6311347362
 21
85.1497450641
  0
LINE
  5
324
100
AcDbEntity
  8
0
100
AcDbLine
 62
7
  6
CONTINUOUS
 10
214.6783145104
 20
94.0141165887
 11
214.745916493
 21
85.1100707678
  0
LINE
  5
325
100
AcDbEntity
  8
0
100
AcDbLine
 62
7
  6
CONTINUOUS
 10
214.9094481438
 20
84.5656176805
 11
214.9097282208
 21
84.5287279535
  0
LINE
  5
326
100
AcDbEntity
  8
0
100
AcDbLine
 62
7
  6
CONTINUOUS
 10
214.8959365034
 20
93.9388955808
 11
214.9635384861
 21
85.0348497599
  0
LINE
  5
327
100
AcDbEntity
  8
0
100
AcDbLine
 62
7
  6
CONTINUOUS
 10
234.8090811111
 20
78.175241052
 11
233.3316479111
 21
78.1611942906
  0
LINE
  5
328
100
AcDbEntity
  8
0
100
AcDbLine
 62
7
  6
CONTINUOUS
 10
234.4766773613
 20
78.2901363562
 11
232.9992441613
 21
78.2760895948
  0
LINE
  5
329
100
AcDbEntity
  8
0
100
AcDbLine
 62
7
  6
CONTINUOUS
 10
234.1442736115
 20
78.4050316604
 11
232.6668404115
 21
78.390984899
  0
LINE
  5
32A
100
AcDbEntity
  8
0
100
AcDbLine
 62
7
  6
CONTINUOUS
 10
233.821738098
 20
78.5165160103
 11
232.344304898
 21
78.5024692488
  0
LINE
  5
32B
100
AcDbEntity
  8
0
100
AcDbLine
 62
7
  6
CONTINUOUS
 10
233.4893343482
 20
78.6314113144
 11
232.0119011482
 21
78.617364553
  0
LINE
  5
32C
100
AcDbEntity
  8
0
100
AcDbLine
 62
7
  6
CONTINUOUS
 10
233.1569305984
 20
78.7463066186
 11
231.6794973984
 21
78.7322598572
  0
LINE
  5
32D
100
AcDbEntity
  8
0
100
AcDbLine
 62
7
  6
CONTINUOUS
 10
232.8245268486
 20
78.8612019228
 11
231.3470936486
 21
78.8471551614
  0
LINE
  5
32E
100
AcDbEntity
  8
0
100
AcDbLine
 62
7
  6
CONTINUOUS
 10
232.4921230988
 20
78.976097227
 11
231.0146898988
 21
78.9620504656
  0
LINE
  5
32F
100
AcDbEntity
  8
0
100
AcDbLine
 62
7
  6
CONTINUOUS
 10
232.159719349
 20
79.0909925312
 11
230.682286149
 21
79.0769457698
  0
LINE
  5
330
100
AcDbEntity
  8
0
100
AcDbLine
 62
7
  6
CONTINUOUS
 10
231.8371838355
 20
79.202476881
 11
230.3597506355
 21
79.1884301196
  0
LINE
  5
331
100
AcDbEntity
  8
0
100
AcDbLine
 62
7
  6
CONTINUOUS
 10
231.5047800857
 20
79.3173721852
 11
230.0273468857
 21
79.3033254238
  0
LINE
  5
332
100
AcDbEntity
  8
0
100
AcDbLine
 62
7
  6
CONTINUOUS
 10
231.1723763359
 20
79.4322674894
 11
229.6949431359
 21
79.418220728
  0
LINE
  5
333
100
AcDbEntity
  8
0
100
AcDbLine
 62
7
  6
CONTINUOUS
 10
230.8399725861
 20
79.5471627936
 11
229.3625393861
 21
79.5331160322
  0
LINE
  5
334
100
AcDbEntity
  8
0
100
AcDbLine
 62
7
  6
CONTINUOUS
 10
230.5075688363
 20
79.6620580978
 11
229.0301356363
 21
79.6480113364
  0
LINE
  5
335
100
AcDbEntity
  8
0
100
AcDbLine
 62
7
  6
CONTINUOUS
 10
230.1751650865
 20
79.776953402
 11
228.6977318865
 21
79.7629066405
  0
LINE
  5
336
100
AcDbEntity
  8
0
100
AcDbLine
 62
7
  6
CONTINUOUS
 10
229.852629573
 20
79.8884377518
 11
228.375196373
 21
79.8743909904
  0
LINE
  5
337
100
AcDbEntity
  8
0
100
AcDbLine
 62
7
  6
CONTINUOUS
 10
229.5202258232
 20
80.003333056
 11
228.0427926232
 21
79.9892862946
  0
LINE
  5
338
100
AcDbEntity
  8
0
100
AcDbLine
 62
7
  6
CONTINUOUS
 10
229.1878220734
 20
80.1182283602
 11
227.7103888734
 21
80.1041815988
  0
LINE
  5
339
100
AcDbEntity
  8
0
100
AcDbLine
 62
7
  6
CONTINUOUS
 10
228.8554183236
 20
80.2331236644
 11
227.3779851236
 21
80.219076903
  0
LINE
  5
33A
100
AcDbEntity
  8
0
100
AcDbLine
 62
7
  6
CONTINUOUS
 10
228.5230145738
 20
80.3480189686
 11
227.0455813738
 21
80.3339722071
  0
LINE
  5
33B
100
AcDbEntity
  8
0
100
AcDbLine
 62
7
  6
CONTINUOUS
 10
228.190610824
 20
80.4629142728
 11
226.713177624
 21
80.4488675113
  0
LINE
  5
33C
100
AcDbEntity
  8
0
100
AcDbLine
 62
7
  6
CONTINUOUS
 10
227.8680753105
 20
80.5743986226
 11
226.3906421105
 21
80.5603518612
  0
LINE
  5
33D
100
AcDbEntity
  8
0
100
AcDbLine
 62
7
  6
CONTINUOUS
 10
227.5356715607
 20
80.6892939268
 11
226.0582383607
 21
80.6752471654
  0
LINE
  5
33E
100
AcDbEntity
  8
0
100
AcDbLine
 62
7
  6
CONTINUOUS
 10
227.2032678109
 20
80.804189231
 11
225.7258346109
 21
80.7901424696
  0
LINE
  5
33F
100
AcDbEntity
  8
0
100
AcDbLine
 62
7
  6
CONTINUOUS
 10
226.8708640611
 20
80.9190845352
 11
225.3934308611
 21
80.9050377737
  0
LINE
  5
340
100
AcDbEntity
  8
0
100
AcDbLine
 62
7
  6
CONTINUOUS
 10
226.5384603113
 20
81.0339798394
 11
225.0610271113
 21
81.0199330779
  0
LINE
  5
341
100
AcDbEntity
  8
0
100
AcDbLine
 62
7
  6
CONTINUOUS
 10
226.2060565615
 20
81.1488751436
 11
224.7286233615
 21
81.1348283821
  0
LINE
  5
342
100
AcDbEntity
  8
0
100
AcDbLine
 62
7
  6
CONTINUOUS
 10
225.883521048
 20
81.2603594934
 11
224.406087848
 21
81.246312732
  0
LINE
  5
343
100
AcDbEntity
  8
0
100
AcDbLine
 62
7
  6
CONTINUOUS
 10
225.5511172982
 20
81.3752547976
 11
224.0736840982
 21
81.3612080362
  0
LINE
  5
344
100
AcDbEntity
  8
0
100
AcDbLine
 62
7
  6
CONTINUOUS
 10
225.2187135484
 20
81.4901501018
 11
223.7412803484
 21
81.4761033403
  0
LINE
  5
345
100
AcDbEntity
  8
0
100
AcDbLine
 62
7
  6
CONTINUOUS
 10
224.8863097986
 20
81.605045406
 11
223.4088765986
 21
81.5909986445
  0
LINE
  5
346
100
AcDbEntity
  8
0
100
AcDbLine
 62
7
  6
CONTINUOUS
 10
234.591459118
 20
78.2504620599
 11
233.1031203331
 21
78.2401848122
  0
LINE
  5
347
100
AcDbEntity
  8
0
100
AcDbLine
 62
7
  6
CONTINUOUS
 10
234.2590553682
 20
78.3653573641
 11
232.7707165833
 21
78.3550801164
  0
LINE
  5
348
100
AcDbEntity
  8
0
100
AcDbLine
 62
7
  6
CONTINUOUS
 10
233.9365198547
 20
78.476841714
 11
232.4481810699
 21
78.4665644663
  0
LINE
  5
349
100
AcDbEntity
  8
0
100
AcDbLine
 62
7
  6
CONTINUOUS
 10
233.6041161049
 20
78.5917370182
 11
232.1157773201
 21
78.5814597704
  0
LINE
  5
34A
100
AcDbEntity
  8
0
100
AcDbLine
 62
7
  6
CONTINUOUS
 10
233.2717123551
 20
78.7066323223
 11
231.7833735702
 21
78.6963550746
  0
LINE
  5
34B
100
AcDbEntity
  8
0
100
AcDbLine
 62
7
  6
CONTINUOUS
 10
232.9393086053
 20
78.8215276265
 11
231.4509698204
 21
78.8112503788
  0
LINE
  5
34C
100
AcDbEntity
  8
0
100
AcDbLine
 62
7
  6
CONTINUOUS
 10
232.6069048555
 20
78.9364229307
 11
231.1185660706
 21
78.926145683
  0
LINE
  5
34D
100
AcDbEntity
  8
0
100
AcDbLine
 62
7
  6
CONTINUOUS
 10
232.2745011057
 20
79.0513182349
 11
230.7861623208
 21
79.0410409872
  0
LINE
  5
34E
100
AcDbEntity
  8
0
100
AcDbLine
 62
7
  6
CONTINUOUS
 10
231.9519655922
 20
79.1628025848
 11
230.4636268074
 21
79.152525337
  0
LINE
  5
34F
100
AcDbEntity
  8
0
100
AcDbLine
 62
7
  6
CONTINUOUS
 10
231.6195618424
 20
79.2776978889
 11
230.1312230575
 21
79.2674206412
  0
LINE
  5
350
100
AcDbEntity
  8
0
100
AcDbLine
 62
7
  6
CONTINUOUS
 10
231.2871580926
 20
79.3925931931
 11
229.7988193077
 21
79.3823159454
  0
LINE
  5
351
100
AcDbEntity
  8
0
100
AcDbLine
 62
7
  6
CONTINUOUS
 10
230.9547543428
 20
79.5074884973
 11
229.4664155579
 21
79.4972112496
  0
LINE
  5
352
100
AcDbEntity
  8
0
100
AcDbLine
 62
7
  6
CONTINUOUS
 10
230.622350593
 20
79.6223838015
 11
229.1340118081
 21
79.6121065538
  0
LINE
  5
353
100
AcDbEntity
  8
0
100
AcDbLine
 62
7
  6
CONTINUOUS
 10
230.2899468432
 20
79.7372791057
 11
228.8016080583
 21
79.727001858
  0
LINE
  5
354
100
AcDbEntity
  8
0
100
AcDbLine
 62
7
  6
CONTINUOUS
 10
229.9674113297
 20
79.8487634555
 11
228.4790725449
 21
79.8384862078
  0
LINE
  5
355
100
AcDbEntity
  8
0
100
AcDbLine
 62
7
  6
CONTINUOUS
 10
229.6350075799
 20
79.9636587597
 11
228.146668795
 21
79.953381512
  0
LINE
  5
356
100
AcDbEntity
  8
0
100
AcDbLine
 62
7
  6
CONTINUOUS
 10
229.3026038301
 20
80.0785540639
 11
227.8142650452
 21
80.0682768162
  0
LINE
  5
357
100
AcDbEntity
  8
0
100
AcDbLine
 62
7
  6
CONTINUOUS
 10
228.9702000803
 20
80.1934493681
 11
227.4818612954
 21
80.1831721204
  0
LINE
  5
358
100
AcDbEntity
  8
0
100
AcDbLine
 62
7
  6
CONTINUOUS
 10
228.6377963305
 20
80.3083446723
 11
227.1494575456
 21
80.2980674246
  0
LINE
  5
359
100
AcDbEntity
  8
0
100
AcDbLine
 62
7
  6
CONTINUOUS
 10
228.3053925807
 20
80.4232399765
 11
226.8170537958
 21
80.4129627288
  0
LINE
  5
35A
100
AcDbEntity
  8
0
100
AcDbLine
 62
7
  6
CONTINUOUS
 10
227.9828570672
 20
80.5347243263
 11
226.4945182823
 21
80.5244470786
  0
LINE
  5
35B
100
AcDbEntity
  8
0
100
AcDbLine
 62
7
  6
CONTINUOUS
 10
227.6504533174
 20
80.6496196305
 11
226.1621145325
 21
80.6393423828
  0
LINE
  5
35C
100
AcDbEntity
  8
0
100
AcDbLine
 62
7
  6
CONTINUOUS
 10
227.3180495676
 20
80.7645149347
 11
225.8297107827
 21
80.754237687
  0
LINE
  5
35D
100
AcDbEntity
  8
0
100
AcDbLine
 62
7
  6
CONTINUOUS
 10
226.9856458178
 20
80.8794102389
 11
225.4973070329
 21
80.8691329912
  0
LINE
  5
35E
100
AcDbEntity
  8
0
100
AcDbLine
 62
7
  6
CONTINUOUS
 10
226.653242068
 20
80.9943055431
 11
225.1649032831
 21
80.9840282954
  0
LINE
  5
35F
100
AcDbEntity
  8
0
100
AcDbLine
 62
7
  6
CONTINUOUS
 10
226.3208383182
 20
81.1092008473
 11
224.8324995333
 21
81.0989235996
  0
LINE
  5
360
100
AcDbEntity
  8
0
100
AcDbLine
 62
7
  6
CONTINUOUS
 10
225.9983028047
 20
81.2206851971
 11
224.5099640198
 21
81.2104079494
  0
LINE
  5
361
100
AcDbEntity
  8
0
100
AcDbLine
 62
7
  6
CONTINUOUS
 10
225.6658990549
 20
81.3355805013
 11
224.17756027
 21
81.3253032536
  0
LINE
  5
362
100
AcDbEntity
  8
0
100
AcDbLine
 62
7
  6
CONTINUOUS
 10
225.3334953051
 20
81.4504758055
 11
223.8451565202
 21
81.4401985578
  0
LINE
  5
363
100
AcDbEntity
  8
0
100
AcDbLine
 62
7
  6
CONTINUOUS
 10
225.0010915553
 20
81.5653711097
 11
223.5127527704
 21
81.555093862
  0
LINE
  5
364
100
AcDbEntity
  8
0
100
AcDbLine
 62
7
  6
CONTINUOUS
 10
196.7890494287
 20
90.792137747
 11
196.9448636865
 21
90.7382805731
  0
LINE
  5
365
100
AcDbEntity
  8
0
100
AcDbLine
 62
7
  6
CONTINUOUS
 10
197.0487398583
 20
90.7023757906
 11
197.2772674363
 21
90.623385269
  0
LINE
  5
366
100
AcDbEntity
  8
0
100
AcDbLine
 62
7
  6
CONTINUOUS
 10
197.3811436081
 20
90.5874804864
 11
197.6096711861
 21
90.5084899648
  0
LINE
  5
367
100
AcDbEntity
  8
0
100
AcDbLine
 62
7
  6
CONTINUOUS
 10
197.7135473579
 20
90.4725851822
 11
197.9420749359
 21
90.3935946606
  0
LINE
  5
368
100
AcDbEntity
  8
0
100
AcDbLine
 62
7
  6
CONTINUOUS
 10
198.0459511077
 20
90.357689878
 11
198.2744786857
 21
90.2786993564
  0
LINE
  5
369
100
AcDbEntity
  8
0
100
AcDbLine
 62
7
  6
CONTINUOUS
 10
198.3783548575
 20
90.2427945738
 11
198.6068824355
 21
90.1638040522
  0
LINE
  5
36A
100
AcDbEntity
  8
0
100
AcDbLine
 62
7
  6
CONTINUOUS
 10
198.7107586073
 20
90.1278992696
 11
198.929417949
 21
90.0523197024
  0
LINE
  5
36B
100
AcDbEntity
  8
0
100
AcDbLine
 62
7
  6
CONTINUOUS
 10
199.0332941208
 20
90.0164149198
 11
199.2618216988
 21
89.9374243982
  0
LINE
  5
36C
100
AcDbEntity
  8
0
100
AcDbLine
 62
7
  6
CONTINUOUS
 10
199.3656978706
 20
89.9015196156
 11
199.5942254486
 21
89.822529094
  0
LINE
  5
36D
100
AcDbEntity
  8
0
100
AcDbLine
 62
7
  6
CONTINUOUS
 10
199.6981016204
 20
89.7866243114
 11
199.9266291984
 21
89.7076337898
  0
LINE
  5
36E
100
AcDbEntity
  8
0
100
AcDbLine
 62
7
  6
CONTINUOUS
 10
200.0305053702
 20
89.6717290072
 11
200.2590329482
 21
89.5927384856
  0
LINE
  5
36F
100
AcDbEntity
  8
0
100
AcDbLine
 62
7
  6
CONTINUOUS
 10
200.36290912
 20
89.556833703
 11
200.591436698
 21
89.4778431814
  0
LINE
  5
370
100
AcDbEntity
  8
0
100
AcDbLine
 62
7
  6
CONTINUOUS
 10
200.6953128698
 20
89.4419383989
 11
200.9139722115
 21
89.3663588316
  0
LINE
  5
371
100
AcDbEntity
  8
0
100
AcDbLine
 62
7
  6
CONTINUOUS
 10
201.0178483833
 20
89.330454049
 11
201.2463759613
 21
89.2514635274
  0
LINE
  5
372
100
AcDbEntity
  8
0
100
AcDbLine
 62
7
  6
CONTINUOUS
 10
201.3502521331
 20
89.2155587448
 11
201.5787797111
 21
89.1365682232
  0
LINE
  5
373
100
AcDbEntity
  8
0
100
AcDbLine
 62
7
  6
CONTINUOUS
 10
201.6826558829
 20
89.1006634406
 11
201.9111834609
 21
89.021672919
  0
LINE
  5
374
100
AcDbEntity
  8
0
100
AcDbLine
 62
7
  6
CONTINUOUS
 10
202.0150596327
 20
88.9857681364
 11
202.2435872107
 21
88.9067776148
  0
LINE
  5
375
100
AcDbEntity
  8
0
100
AcDbLine
 62
7
  6
CONTINUOUS
 10
202.3474633825
 20
88.8708728323
 11
202.5759909605
 21
88.7918823106
  0
LINE
  5
376
100
AcDbEntity
  8
0
100
AcDbLine
 62
7
  6
CONTINUOUS
 10
202.6798671323
 20
88.7559775281
 11
202.898526474
 21
88.6803979608
  0
LINE
  5
377
100
AcDbEntity
  8
0
100
AcDbLine
 62
7
  6
CONTINUOUS
 10
203.0024026458
 20
88.6444931782
 11
203.2309302238
 21
88.5655026566
  0
LINE
  5
378
100
AcDbEntity
  8
0
100
AcDbLine
 62
7
  6
CONTINUOUS
 10
203.3348063956
 20
88.529597874
 11
203.5633339736
 21
88.4506073524
  0
LINE
  5
379
100
AcDbEntity
  8
0
100
AcDbLine
 62
7
  6
CONTINUOUS
 10
203.6672101454
 20
88.4147025698
 11
203.8957377234
 21
88.3357120482
  0
LINE
  5
37A
100
AcDbEntity
  8
0
100
AcDbLine
 62
7
  6
CONTINUOUS
 10
203.9996138952
 20
88.2998072657
 11
204.2281414732
 21
88.220816744
  0
LINE
  5
37B
100
AcDbEntity
  8
0
100
AcDbLine
 62
7
  6
CONTINUOUS
 10
204.332017645
 20
88.1849119615
 11
204.560545223
 21
88.1059214398
  0
LINE
  5
37C
100
AcDbEntity
  8
0
100
AcDbLine
 62
7
  6
CONTINUOUS
 10
204.6644213948
 20
88.0700166573
 11
204.8830807365
 21
87.99443709
  0
LINE
  5
37D
100
AcDbEntity
  8
0
100
AcDbLine
 62
7
  6
CONTINUOUS
 10
204.9869569083
 20
87.9585323074
 11
205.2154844863
 21
87.8795417858
  0
LINE
  5
37E
100
AcDbEntity
  8
0
100
AcDbLine
 62
7
  6
CONTINUOUS
 10
205.3193606581
 20
87.8436370032
 11
205.5478882361
 21
87.7646464816
  0
LINE
  5
37F
100
AcDbEntity
  8
0
100
AcDbLine
 62
7
  6
CONTINUOUS
 10
205.6517644079
 20
87.7287416991
 11
205.8802919859
 21
87.6497511774
  0
LINE
  5
380
100
AcDbEntity
  8
0
100
AcDbLine
 62
7
  6
CONTINUOUS
 10
205.9841681577
 20
87.6138463949
 11
206.2126957357
 21
87.5348558732
  0
LINE
  5
381
100
AcDbEntity
  8
0
100
AcDbLine
 62
7
  6
CONTINUOUS
 10
206.3165719075
 20
87.4989510907
 11
206.5450994855
 21
87.4199605691
  0
LINE
  5
382
100
AcDbEntity
  8
0
100
AcDbLine
 62
7
  6
CONTINUOUS
 10
206.6489756573
 20
87.3840557865
 11
206.867634999
 21
87.3084762192
  0
LINE
  5
383
100
AcDbEntity
  8
0
100
AcDbLine
 62
7
  6
CONTINUOUS
 10
206.9715111708
 20
87.2725714366
 11
207.2000387488
 21
87.193580915
  0
LINE
  5
384
100
AcDbEntity
  8
0
100
AcDbLine
 62
7
  6
CONTINUOUS
 10
207.3039149206
 20
87.1576761325
 11
207.5324424986
 21
87.0786856108
  0
LINE
  5
385
100
AcDbEntity
  8
0
100
AcDbLine
 62
7
  6
CONTINUOUS
 10
207.6363186704
 20
87.0427808283
 11
207.8648462484
 21
86.9637903066
  0
LINE
  5
386
100
AcDbEntity
  8
0
100
AcDbLine
 62
7
  6
CONTINUOUS
 10
207.9687224202
 20
86.9278855241
 11
208.1972499982
 21
86.8488950025
  0
LINE
  5
387
100
AcDbEntity
  8
0
100
AcDbLine
 62
7
  6
CONTINUOUS
 10
208.30112617
 20
86.8129902199
 11
208.529653748
 21
86.7339996983
  0
LINE
  5
388
100
AcDbEntity
  8
0
100
AcDbLine
 62
7
  6
CONTINUOUS
 10
208.6335299198
 20
86.6980949157
 11
208.8521892615
 21
86.6225153484
  0
LINE
  5
389
100
AcDbEntity
  8
0
100
AcDbLine
 62
7
  6
CONTINUOUS
 10
208.9560654333
 20
86.5866105659
 11
209.1845930113
 21
86.5076200442
  0
LINE
  5
38A
100
AcDbEntity
  8
0
100
AcDbLine
 62
7
  6
CONTINUOUS
 10
209.2884691831
 20
86.4717152617
 11
209.5169967611
 21
86.39272474
  0
LINE
  5
38B
100
AcDbEntity
  8
0
100
AcDbLine
 62
7
  6
CONTINUOUS
 10
209.6208729329
 20
86.3568199575
 11
209.8494005109
 21
86.2778294359
  0
LINE
  5
38C
100
AcDbEntity
  8
0
100
AcDbLine
 62
7
  6
CONTINUOUS
 10
209.9532766827
 20
86.2419246533
 11
210.1818042607
 21
86.1629341317
  0
LINE
  5
38D
100
AcDbEntity
  8
0
100
AcDbLine
 62
7
  6
CONTINUOUS
 10
210.2856804325
 20
86.1270293491
 11
210.5142080105
 21
86.0480388275
  0
LINE
  5
38E
100
AcDbEntity
  8
0
100
AcDbLine
 62
7
  6
CONTINUOUS
 10
210.6180841823
 20
86.0121340449
 11
210.836743524
 21
85.9365544776
  0
LINE
  5
38F
100
AcDbEntity
  8
0
100
AcDbLine
 62
7
  6
CONTINUOUS
 10
210.9406196958
 20
85.9006496951
 11
211.1691472738
 21
85.8216591734
  0
LINE
  5
390
100
AcDbEntity
  8
0
100
AcDbLine
 62
7
  6
CONTINUOUS
 10
211.2730234456
 20
85.7857543909
 11
211.5015510236
 21
85.7067638693
  0
LINE
  5
391
100
AcDbEntity
  8
0
100
AcDbLine
 62
7
  6
CONTINUOUS
 10
211.6054271954
 20
85.6708590867
 11
211.8339547734
 21
85.5918685651
  0
LINE
  5
392
100
AcDbEntity
  8
0
100
AcDbLine
 62
7
  6
CONTINUOUS
 10
211.9378309452
 20
85.5559637825
 11
212.1663585232
 21
85.4769732609
  0
LINE
  5
393
100
AcDbEntity
  8
0
100
AcDbLine
 62
7
  6
CONTINUOUS
 10
212.270234695
 20
85.4410684783
 11
212.498762273
 21
85.3620779567
  0
LINE
  5
394
100
AcDbEntity
  8
0
100
AcDbLine
 62
7
  6
CONTINUOUS
 10
212.6026384448
 20
85.3261731741
 11
212.8212977865
 21
85.2505936068
  0
LINE
  5
395
100
AcDbEntity
  8
0
100
AcDbLine
 62
7
  6
CONTINUOUS
 10
212.9251739583
 20
85.2146888243
 11
213.1537015363
 21
85.1356983027
  0
LINE
  5
396
100
AcDbEntity
  8
0
100
AcDbLine
 62
7
  6
CONTINUOUS
 10
213.2575777081
 20
85.0997935201
 11
213.4861052861
 21
85.0208029985
  0
LINE
  5
397
100
AcDbEntity
  8
0
100
AcDbLine
 62
7
  6
CONTINUOUS
 10
213.5899814579
 20
84.9848982159
 11
213.8185090359
 21
84.9059076943
  0
LINE
  5
398
100
AcDbEntity
  8
0
100
AcDbLine
 62
7
  6
CONTINUOUS
 10
213.9223852077
 20
84.8700029117
 11
214.1509127857
 21
84.7910123901
  0
LINE
  5
399
100
AcDbEntity
  8
0
100
AcDbLine
 62
7
  6
CONTINUOUS
 10
214.2547889575
 20
84.7551076075
 11
214.4833165355
 21
84.6761170859
  0
LINE
  5
39A
100
AcDbEntity
  8
0
100
AcDbLine
 62
7
  6
CONTINUOUS
 10
214.5871927073
 20
84.6402123033
 11
214.805852049
 21
84.5646327361
  0
LINE
  5
39B
100
AcDbEntity
  8
0
100
AcDbLine
 62
7
  6
CONTINUOUS
 10
214.9097282208
 20
84.5287279535
 11
215.1382557988
 21
84.4497374319
  0
LINE
  5
39C
100
AcDbEntity
  8
0
100
AcDbLine
 62
7
  6
CONTINUOUS
 10
215.2421319706
 20
84.4138326493
 11
215.4706595486
 21
84.3348421277
  0
LINE
  5
39D
100
AcDbEntity
  8
0
100
AcDbLine
 62
7
  6
CONTINUOUS
 10
215.5745357204
 20
84.2989373451
 11
215.8030632984
 21
84.2199468235
  0
LINE
  5
39E
100
AcDbEntity
  8
0
100
AcDbLine
 62
7
  6
CONTINUOUS
 10
215.9069394702
 20
84.1840420409
 11
216.1354670482
 21
84.1050515193
  0
LINE
  5
39F
100
AcDbEntity
  8
0
100
AcDbLine
 62
7
  6
CONTINUOUS
 10
216.23934322
 20
84.0691467367
 11
216.467870798
 21
83.9901562151
  0
LINE
  5
3A0
100
AcDbEntity
  8
0
100
AcDbLine
 62
7
  6
CONTINUOUS
 10
216.5717469698
 20
83.9542514326
 11
216.7904063115
 21
83.8786718653
  0
LINE
  5
3A1
100
AcDbEntity
  8
0
100
AcDbLine
 62
7
  6
CONTINUOUS
 10
216.8942824833
 20
83.8427670827
 11
217.1228100613
 21
83.7637765611
  0
LINE
  5
3A2
100
AcDbEntity
  8
0
100
AcDbLine
 62
7
  6
CONTINUOUS
 10
217.2266862331
 20
83.7278717785
 11
217.4552138111
 21
83.6488812569
  0
LINE
  5
3A3
100
AcDbEntity
  8
0
100
AcDbLine
 62
7
  6
CONTINUOUS
 10
217.5590899829
 20
83.6129764743
 11
217.7876175609
 21
83.5339859527
  0
LINE
  5
3A4
100
AcDbEntity
  8
0
100
AcDbLine
 62
7
  6
CONTINUOUS
 10
217.8914937327
 20
83.4980811701
 11
218.1200213107
 21
83.4190906485
  0
LINE
  5
3A5
100
AcDbEntity
  8
0
100
AcDbLine
 62
7
  6
CONTINUOUS
 10
218.2238974825
 20
83.383185866
 11
218.4524250605
 21
83.3041953443
  0
LINE
  5
3A6
100
AcDbEntity
  8
0
100
AcDbLine
 62
7
  6
CONTINUOUS
 10
218.5563012323
 20
83.2682905618
 11
218.774960574
 21
83.1927109945
  0
LINE
  5
3A7
100
AcDbEntity
  8
0
100
AcDbLine
 62
7
  6
CONTINUOUS
 10
218.8788367458
 20
83.1568062119
 11
219.1073643238
 21
83.0778156903
  0
LINE
  5
3A8
100
AcDbEntity
  8
0
100
AcDbLine
 62
7
  6
CONTINUOUS
 10
219.2112404956
 20
83.0419109077
 11
219.4397680736
 21
82.9629203861
  0
LINE
  5
3A9
100
AcDbEntity
  8
0
100
AcDbLine
 62
7
  6
CONTINUOUS
 10
219.5436442454
 20
82.9270156035
 11
219.7721718234
 21
82.8480250819
  0
LINE
  5
3AA
100
AcDbEntity
  8
0
100
AcDbLine
 62
7
  6
CONTINUOUS
 10
219.8760479952
 20
82.8121202994
 11
220.1045755732
 21
82.7331297777
  0
LINE
  5
3AB
100
AcDbEntity
  8
0
100
AcDbLine
 62
7
  6
CONTINUOUS
 10
220.208451745
 20
82.6972249952
 11
220.436979323
 21
82.6182344735
  0
LINE
  5
3AC
100
AcDbEntity
  8
0
100
AcDbLine
 62
7
  6
CONTINUOUS
 10
220.5408554948
 20
82.582329691
 11
220.7595148365
 21
82.5067501237
  0
LINE
  5
3AD
100
AcDbEntity
  8
0
100
AcDbLine
 62
7
  6
CONTINUOUS
 10
220.8633910083
 20
82.4708453411
 11
221.0919185863
 21
82.3918548195
  0
LINE
  5
3AE
100
AcDbEntity
  8
0
100
AcDbLine
 62
7
  6
CONTINUOUS
 10
221.1957947581
 20
82.3559500369
 11
221.4243223361
 21
82.2769595153
  0
LINE
  5
3AF
100
AcDbEntity
  8
0
100
AcDbLine
 62
7
  6
CONTINUOUS
 10
221.5281985079
 20
82.2410547328
 11
221.7567260859
 21
82.1620642111
  0
LINE
  5
3B0
100
AcDbEntity
  8
0
100
AcDbLine
 62
7
  6
CONTINUOUS
 10
221.8606022577
 20
82.1261594286
 11
222.0891298357
 21
82.0471689069
  0
LINE
  5
3B1
100
AcDbEntity
  8
0
100
AcDbLine
 62
7
  6
CONTINUOUS
 10
222.1930060075
 20
82.0112641244
 11
222.4215335855
 21
81.9322736028
  0
LINE
  5
3B2
100
AcDbEntity
  8
0
100
AcDbLine
 62
7
  6
CONTINUOUS
 10
222.5254097573
 20
81.8963688202
 11
222.744069099
 21
81.8207892529
  0
LINE
  5
3B3
100
AcDbEntity
  8
0
100
AcDbLine
 62
7
  6
CONTINUOUS
 10
222.8479452708
 20
81.7848844704
 11
223.0764728488
 21
81.7058939487
  0
LINE
  5
3B4
100
AcDbEntity
  8
0
100
AcDbLine
 62
7
  6
CONTINUOUS
 10
223.1803490206
 20
81.6699891662
 11
223.4088765986
 21
81.5909986445
  0
LINE
  5
3B5
100
AcDbEntity
  8
0
100
AcDbLine
 62
7
  6
CONTINUOUS
 10
223.5127527704
 20
81.555093862
 11
223.7412803484
 21
81.4761033403
  0
LINE
  5
3B6
100
AcDbEntity
  8
0
100
AcDbLine
 62
7
  6
CONTINUOUS
 10
223.8451565202
 20
81.4401985578
 11
224.0736840982
 21
81.3612080362
  0
LINE
  5
3B7
100
AcDbEntity
  8
0
100
AcDbLine
 62
7
  6
CONTINUOUS
 10
224.17756027
 20
81.3253032536
 11
224.406087848
 21
81.246312732
  0
LINE
  5
3B8
100
AcDbEntity
  8
0
100
AcDbLine
 62
7
  6
CONTINUOUS
 10
224.5099640198
 20
81.2104079494
 11
224.7286233615
 21
81.1348283821
  0
LINE
  5
3B9
100
AcDbEntity
  8
0
100
AcDbLine
 62
7
  6
CONTINUOUS
 10
224.8324995333
 20
81.0989235996
 11
225.0610271113
 21
81.0199330779
  0
LINE
  5
3BA
100
AcDbEntity
  8
0
100
AcDbLine
 62
7
  6
CONTINUOUS
 10
225.1649032831
 20
80.9840282954
 11
225.3934308611
 21
80.9050377737
  0
LINE
  5
3BB
100
AcDbEntity
  8
0
100
AcDbLine
 62
7
  6
CONTINUOUS
 10
225.4973070329
 20
80.8691329912
 11
225.7258346109
 21
80.7901424696
  0
LINE
  5
3BC
100
AcDbEntity
  8
0
100
AcDbLine
 62
7
  6
CONTINUOUS
 10
225.8297107827
 20
80.754237687
 11
226.0582383607
 21
80.6752471654
  0
LINE
  5
3BD
100
AcDbEntity
  8
0
100
AcDbLine
 62
7
  6
CONTINUOUS
 10
226.1621145325
 20
80.6393423828
 11
226.3906421105
 21
80.5603518612
  0
LINE
  5
3BE
100
AcDbEntity
  8
0
100
AcDbLine
 62
7
  6
CONTINUOUS
 10
226.4945182823
 20
80.5244470786
 11
226.713177624
 21
80.4488675113
  0
LINE
  5
3BF
100
AcDbEntity
  8
0
100
AcDbLine
 62
7
  6
CONTINUOUS
 10
226.8170537958
 20
80.4129627288
 11
227.0455813738
 21
80.3339722071
  0
LINE
  5
3C0
100
AcDbEntity
  8
0
100
AcDbLine
 62
7
  6
CONTINUOUS
 10
227.1494575456
 20
80.2980674246
 11
227.3779851236
 21
80.219076903
  0
LINE
  5
3C1
100
AcDbEntity
  8
0
100
AcDbLine
 62
7
  6
CONTINUOUS
 10
227.4818612954
 20
80.1831721204
 11
227.7103888734
 21
80.1041815988
  0
LINE
  5
3C2
100
AcDbEntity
  8
0
100
AcDbLine
 62
7
  6
CONTINUOUS
 10
227.8142650452
 20
80.0682768162
 11
228.0427926232
 21
79.9892862946
  0
LINE
  5
3C3
100
AcDbEntity
  8
0
100
AcDbLine
 62
7
  6
CONTINUOUS
 10
228.146668795
 20
79.953381512
 11
228.375196373
 21
79.8743909904
  0
LINE
  5
3C4
100
AcDbEntity
  8
0
100
AcDbLine
 62
7
  6
CONTINUOUS
 10
228.4790725448
 20
79.8384862078
 11
228.6977318865
 21
79.7629066405
  0
LINE
  5
3C5
100
AcDbEntity
  8
0
100
AcDbLine
 62
7
  6
CONTINUOUS
 10
228.8016080583
 20
79.727001858
 11
229.0301356363
 21
79.6480113364
  0
LINE
  5
3C6
100
AcDbEntity
  8
0
100
AcDbLine
 62
7
  6
CONTINUOUS
 10
229.1340118081
 20
79.6121065538
 11
229.3625393861
 21
79.5331160322
  0
LINE
  5
3C7
100
AcDbEntity
  8
0
100
AcDbLine
 62
7
  6
CONTINUOUS
 10
229.4664155579
 20
79.4972112496
 11
229.6949431359
 21
79.418220728
  0
LINE
  5
3C8
100
AcDbEntity
  8
0
100
AcDbLine
 62
7
  6
CONTINUOUS
 10
229.7988193077
 20
79.3823159454
 11
230.0273468857
 21
79.3033254238
  0
LINE
  5
3C9
100
AcDbEntity
  8
0
100
AcDbLine
 62
7
  6
CONTINUOUS
 10
230.1312230575
 20
79.2674206412
 11
230.3597506355
 21
79.1884301196
  0
LINE
  5
3CA
100
AcDbEntity
  8
0
100
AcDbLine
 62
7
  6
CONTINUOUS
 10
230.4636268074
 20
79.152525337
 11
230.682286149
 21
79.0769457698
  0
LINE
  5
3CB
100
AcDbEntity
  8
0
100
AcDbLine
 62
7
  6
CONTINUOUS
 10
230.7861623208
 20
79.0410409872
 11
231.0146898988
 21
78.9620504656
  0
LINE
  5
3CC
100
AcDbEntity
  8
0
100
AcDbLine
 62
7
  6
CONTINUOUS
 10
231.1185660706
 20
78.926145683
 11
231.3470936486
 21
78.8471551614
  0
LINE
  5
3CD
100
AcDbEntity
  8
0
100
AcDbLine
 62
7
  6
CONTINUOUS
 10
231.4509698204
 20
78.8112503788
 11
231.6794973984
 21
78.7322598572
  0
LINE
  5
3CE
100
AcDbEntity
  8
0
100
AcDbLine
 62
7
  6
CONTINUOUS
 10
231.7833735702
 20
78.6963550746
 11
232.0119011482
 21
78.617364553
  0
LINE
  5
3CF
100
AcDbEntity
  8
0
100
AcDbLine
 62
7
  6
CONTINUOUS
 10
232.1157773201
 20
78.5814597704
 11
232.344304898
 21
78.5024692488
  0
LINE
  5
3D0
100
AcDbEntity
  8
0
100
AcDbLine
 62
7
  6
CONTINUOUS
 10
232.4481810699
 20
78.4665644663
 11
232.6668404115
 21
78.390984899
  0
LINE
  5
3D1
100
AcDbEntity
  8
0
100
AcDbLine
 62
7
  6
CONTINUOUS
 10
232.7707165833
 20
78.3550801164
 11
232.9992441613
 21
78.2760895948
  0
LINE
  5
3D2
100
AcDbEntity
  8
0
100
AcDbLine
 62
7
  6
CONTINUOUS
 10
233.1031203331
 20
78.2401848122
 11
233.3316479111
 21
78.1611942906
  0
LINE
  5
3D3
100
AcDbEntity
  8
0
100
AcDbLine
 62
7
  6
CONTINUOUS
 10
233.4355240829
 20
78.125289508
 11
233.6640516609
 21
78.0462989864
  0
LINE
  5
3D4
100
AcDbEntity
  8
0
100
AcDbLine
 62
7
  6
CONTINUOUS
 10
233.7679278328
 20
78.0103942039
 11
233.9964554107
 21
77.9314036822
  0
LINE
  5
3D5
100
AcDbEntity
  8
0
100
AcDbLine
 62
7
  6
CONTINUOUS
 10
234.1003315826
 20
77.8954988997
 11
234.3288591605
 21
77.816508378
  0
LINE
  5
3D6
100
AcDbEntity
  8
0
100
AcDbLine
 62
7
  6
CONTINUOUS
 10
234.4327353324
 20
77.7806035955
 11
234.651394674
 21
77.7050240282
  0
LINE
  5
3D7
100
AcDbEntity
  8
0
100
AcDbLine
 62
7
  6
CONTINUOUS
 10
234.7552708458
 20
77.6691192456
 11
234.9837984238
 21
77.590128724
  0
LINE
  5
3D8
100
AcDbEntity
  8
0
100
AcDbLine
 62
7
  6
CONTINUOUS
 10
235.0876745956
 20
77.5542239414
 11
235.3162021736
 21
77.4752334198
  0
LINE
  5
3D9
100
AcDbEntity
  8
0
100
AcDbLine
 62
7
  6
CONTINUOUS
 10
235.4200783454
 20
77.4393286373
 11
235.6486059234
 21
77.3603381156
  0
LINE
  5
3DA
100
AcDbEntity
  8
0
100
AcDbLine
 62
7
  6
CONTINUOUS
 10
235.7524820953
 20
77.3244333331
 11
235.9810096732
 21
77.2454428114
  0
LINE
  5
3DB
100
AcDbEntity
  8
0
100
AcDbLine
 62
7
  6
CONTINUOUS
 10
236.0848858451
 20
77.2095380289
 11
236.313413423
 21
77.1305475072
  0
LINE
  5
3DC
100
AcDbEntity
  8
0
100
AcDbLine
 62
7
  6
CONTINUOUS
 10
236.4172895949
 20
77.0946427247
 11
236.6359489365
 21
77.0190631574
  0
LINE
  5
3DD
100
AcDbEntity
  8
0
100
AcDbLine
 62
7
  6
CONTINUOUS
 10
236.7398251083
 20
76.9831583748
 11
236.9683526863
 21
76.9041678532
  0
LINE
  5
3DE
100
AcDbEntity
  8
0
100
AcDbLine
 62
7
  6
CONTINUOUS
 10
237.0722288581
 20
76.8682630707
 11
237.3007564361
 21
76.789272549
  0
LINE
  5
3DF
100
AcDbEntity
  8
0
100
AcDbLine
 62
7
  6
CONTINUOUS
 10
237.404632608
 20
76.7533677665
 11
237.6331601859
 21
76.6743772448
  0
LINE
  5
3E0
100
AcDbEntity
  8
0
100
AcDbLine
 62
7
  6
CONTINUOUS
 10
237.7370363578
 20
76.6384724623
 11
237.9655639357
 21
76.5594819406
  0
LINE
  5
3E1
100
AcDbEntity
  8
0
100
AcDbLine
 62
7
  6
CONTINUOUS
 10
238.0694401076
 20
76.5235771581
 11
238.2979676856
 21
76.4445866365
  0
LINE
  5
3E2
100
AcDbEntity
  8
0
100
AcDbLine
 62
7
  6
CONTINUOUS
 10
198.2719354212
 20
90.8042997516
 11
198.4222968864
 21
90.7523273346
  0
LINE
  5
3E3
100
AcDbEntity
  8
0
100
AcDbLine
 62
7
  6
CONTINUOUS
 10
198.5370786432
 20
90.7126530383
 11
198.7547006362
 21
90.6374320304
  0
LINE
  5
3E4
100
AcDbEntity
  8
0
100
AcDbLine
 62
7
  6
CONTINUOUS
 10
198.869482393
 20
90.5977577341
 11
199.087104386
 21
90.5225367262
  0
LINE
  5
3E5
100
AcDbEntity
  8
0
100
AcDbLine
 62
7
  6
CONTINUOUS
 10
199.2018861428
 20
90.4828624299
 11
199.4195081358
 21
90.407641422
  0
LINE
  5
3E6
100
AcDbEntity
  8
0
100
AcDbLine
 62
7
  6
CONTINUOUS
 10
199.5342898926
 20
90.3679671257
 11
199.7519118856
 21
90.2927461178
  0
LINE
  5
3E7
100
AcDbEntity
  8
0
100
AcDbLine
 62
7
  6
CONTINUOUS
 10
199.8666936424
 20
90.2530718215
 11
200.0843156354
 21
90.1778508136
  0
LINE
  5
3E8
100
AcDbEntity
  8
0
100
AcDbLine
 62
7
  6
CONTINUOUS
 10
200.1990973922
 20
90.1381765173
 11
200.4068511489
 21
90.0663664638
  0
LINE
  5
3E9
100
AcDbEntity
  8
0
100
AcDbLine
 62
7
  6
CONTINUOUS
 10
200.5216329057
 20
90.0266921675
 11
200.7392548987
 21
89.9514711596
  0
LINE
  5
3EA
100
AcDbEntity
  8
0
100
AcDbLine
 62
7
  6
CONTINUOUS
 10
200.8540366555
 20
89.9117968633
 11
201.0716586485
 21
89.8365758554
  0
LINE
  5
3EB
100
AcDbEntity
  8
0
100
AcDbLine
 62
7
  6
CONTINUOUS
 10
201.1864404053
 20
89.7969015591
 11
201.4040623983
 21
89.7216805512
  0
LINE
  5
3EC
100
AcDbEntity
  8
0
100
AcDbLine
 62
7
  6
CONTINUOUS
 10
201.5188441551
 20
89.6820062549
 11
201.7364661481
 21
89.606785247
  0
LINE
  5
3ED
100
AcDbEntity
  8
0
100
AcDbLine
 62
7
  6
CONTINUOUS
 10
201.8512479049
 20
89.5671109507
 11
202.0688698979
 21
89.4918899428
  0
LINE
  5
3EE
100
AcDbEntity
  8
0
100
AcDbLine
 62
7
  6
CONTINUOUS
 10
202.1836516547
 20
89.4522156466
 11
202.3914054114
 21
89.380405593
  0
LINE
  5
3EF
100
AcDbEntity
  8
0
100
AcDbLine
 62
7
  6
CONTINUOUS
 10
202.5061871682
 20
89.3407312967
 11
202.7238091612
 21
89.2655102888
  0
LINE
  5
3F0
100
AcDbEntity
  8
0
100
AcDbLine
 62
7
  6
CONTINUOUS
 10
202.838590918
 20
89.2258359925
 11
203.056212911
 21
89.1506149846
  0
LINE
  5
3F1
100
AcDbEntity
  8
0
100
AcDbLine
 62
7
  6
CONTINUOUS
 10
203.1709946678
 20
89.1109406883
 11
203.3886166608
 21
89.0357196804
  0
LINE
  5
3F2
100
AcDbEntity
  8
0
100
AcDbLine
 62
7
  6
CONTINUOUS
 10
203.5033984176
 20
88.9960453842
 11
203.7210204106
 21
88.9208243762
  0
LINE
  5
3F3
100
AcDbEntity
  8
0
100
AcDbLine
 62
7
  6
CONTINUOUS
 10
203.8358021674
 20
88.88115008
 11
204.0534241604
 21
88.8059290721
  0
LINE
  5
3F4
100
AcDbEntity
  8
0
100
AcDbLine
 62
7
  6
CONTINUOUS
 10
204.1682059172
 20
88.7662547758
 11
204.3759596739
 21
88.6944447222
  0
LINE
  5
3F5
100
AcDbEntity
  8
0
100
AcDbLine
 62
7
  6
CONTINUOUS
 10
204.4907414307
 20
88.6547704259
 11
204.7083634237
 21
88.579549418
  0
LINE
  5
3F6
100
AcDbEntity
  8
0
100
AcDbLine
 62
7
  6
CONTINUOUS
 10
204.8231451805
 20
88.5398751217
 11
205.0407671735
 21
88.4646541138
  0
LINE
  5
3F7
100
AcDbEntity
  8
0
100
AcDbLine
 62
7
  6
CONTINUOUS
 10
205.1555489303
 20
88.4249798176
 11
205.3731709233
 21
88.3497588097
  0
LINE
  5
3F8
100
AcDbEntity
  8
0
100
AcDbLine
 62
7
  6
CONTINUOUS
 10
205.4879526801
 20
88.3100845134
 11
205.7055746731
 21
88.2348635055
  0
LINE
  5
3F9
100
AcDbEntity
  8
0
100
AcDbLine
 62
7
  6
CONTINUOUS
 10
205.8203564299
 20
88.1951892092
 11
206.037978423
 21
88.1199682013
  0
LINE
  5
3FA
100
AcDbEntity
  8
0
100
AcDbLine
 62
7
  6
CONTINUOUS
 10
206.1527601797
 20
88.080293905
 11
206.3605139364
 21
88.0084838514
  0
LINE
  5
3FB
100
AcDbEntity
  8
0
100
AcDbLine
 62
7
  6
CONTINUOUS
 10
206.4752956932
 20
87.9688095551
 11
206.6929176862
 21
87.8935885472
  0
LINE
  5
3FC
100
AcDbEntity
  8
0
100
AcDbLine
 62
7
  6
CONTINUOUS
 10
206.807699443
 20
87.853914251
 11
207.025321436
 21
87.7786932431
  0
LINE
  5
3FD
100
AcDbEntity
  8
0
100
AcDbLine
 62
7
  6
CONTINUOUS
 10
207.1401031928
 20
87.7390189468
 11
207.3577251858
 21
87.6637979389
  0
LINE
  5
3FE
100
AcDbEntity
  8
0
100
AcDbLine
 62
7
  6
CONTINUOUS
 10
207.4725069426
 20
87.6241236426
 11
207.6901289357
 21
87.5489026347
  0
LINE
  5
3FF
100
AcDbEntity
  8
0
100
AcDbLine
 62
7
  6
CONTINUOUS
 10
207.8049106924
 20
87.5092283384
 11
208.0225326855
 21
87.4340073305
  0
LINE
  5
400
100
AcDbEntity
  8
0
100
AcDbLine
 62
7
  6
CONTINUOUS
 10
208.1373144422
 20
87.3943330342
 11
208.3450681989
 21
87.3225229806
  0
LINE
  5
401
100
AcDbEntity
  8
0
100
AcDbLine
 62
7
  6
CONTINUOUS
 10
208.4598499557
 20
87.2828486844
 11
208.6774719487
 21
87.2076276765
  0
LINE
  5
402
100
AcDbEntity
  8
0
100
AcDbLine
 62
7
  6
CONTINUOUS
 10
208.7922537055
 20
87.1679533802
 11
209.0098756985
 21
87.0927323723
  0
LINE
  5
403
100
AcDbEntity
  8
0
100
AcDbLine
 62
7
  6
CONTINUOUS
 10
209.1246574553
 20
87.053058076
 11
209.3422794483
 21
86.9778370681
  0
LINE
  5
404
100
AcDbEntity
  8
0
100
AcDbLine
 62
7
  6
CONTINUOUS
 10
209.4570612051
 20
86.9381627718
 11
209.6746831982
 21
86.8629417639
  0
LINE
  5
405
100
AcDbEntity
  8
0
100
AcDbLine
 62
7
  6
CONTINUOUS
 10
209.7894649549
 20
86.8232674676
 11
210.007086948
 21
86.7480464597
  0
LINE
  5
406
100
AcDbEntity
  8
0
100
AcDbLine
 62
7
  6
CONTINUOUS
 10
210.1218687047
 20
86.7083721634
 11
210.3296224614
 21
86.6365621099
  0
LINE
  5
407
100
AcDbEntity
  8
0
100
AcDbLine
 62
7
  6
CONTINUOUS
 10
210.4444042182
 20
86.5968878136
 11
210.6620262112
 21
86.5216668057
  0
LINE
  5
408
100
AcDbEntity
  8
0
100
AcDbLine
 62
7
  6
CONTINUOUS
 10
210.776807968
 20
86.4819925094
 11
210.994429961
 21
86.4067715015
  0
LINE
  5
409
100
AcDbEntity
  8
0
100
AcDbLine
 62
7
  6
CONTINUOUS
 10
211.1092117178
 20
86.3670972052
 11
211.3268337109
 21
86.2918761973
  0
LINE
  5
40A
100
AcDbEntity
  8
0
100
AcDbLine
 62
7
  6
CONTINUOUS
 10
211.4416154676
 20
86.252201901
 11
211.6592374607
 21
86.1769808931
  0
LINE
  5
40B
100
AcDbEntity
  8
0
100
AcDbLine
 62
7
  6
CONTINUOUS
 10
211.7740192174
 20
86.1373065968
 11
211.9916412105
 21
86.0620855889
  0
LINE
  5
40C
100
AcDbEntity
  8
0
100
AcDbLine
 62
7
  6
CONTINUOUS
 10
212.1064229672
 20
86.0224112926
 11
212.3141767239
 21
85.9506012391
  0
LINE
  5
40D
100
AcDbEntity
  8
0
100
AcDbLine
 62
7
  6
CONTINUOUS
 10
212.4289584807
 20
85.9109269428
 11
212.6465804737
 21
85.8357059349
  0
LINE
  5
40E
100
AcDbEntity
  8
0
100
AcDbLine
 62
7
  6
CONTINUOUS
 10
212.7613622305
 20
85.7960316386
 11
212.9789842236
 21
85.7208106307
  0
LINE
  5
40F
100
AcDbEntity
  8
0
100
AcDbLine
 62
7
  6
CONTINUOUS
 10
213.0937659803
 20
85.6811363344
 11
213.3113879734
 21
85.6059153265
  0
LINE
  5
410
100
AcDbEntity
  8
0
100
AcDbLine
 62
7
  6
CONTINUOUS
 10
213.4261697301
 20
85.5662410302
 11
213.6437917232
 21
85.4910200223
  0
LINE
  5
411
100
AcDbEntity
  8
0
100
AcDbLine
 62
7
  6
CONTINUOUS
 10
213.7585734799
 20
85.451345726
 11
213.976195473
 21
85.3761247181
  0
LINE
  5
412
100
AcDbEntity
  8
0
100
AcDbLine
 62
7
  6
CONTINUOUS
 10
214.0909772297
 20
85.3364504218
 11
214.2987309864
 21
85.2646403683
  0
LINE
  5
413
100
AcDbEntity
  8
0
100
AcDbLine
 62
7
  6
CONTINUOUS
 10
214.4135127432
 20
85.224966072
 11
214.6311347362
 21
85.1497450641
  0
LINE
  5
414
100
AcDbEntity
  8
0
100
AcDbLine
 62
7
  6
CONTINUOUS
 10
214.745916493
 20
85.1100707678
 11
214.9635384861
 21
85.0348497599
  0
LINE
  5
415
100
AcDbEntity
  8
0
100
AcDbLine
 62
7
  6
CONTINUOUS
 10
215.0783202428
 20
84.9951754636
 11
215.2959422359
 21
84.9199544557
  0
LINE
  5
416
100
AcDbEntity
  8
0
100
AcDbLine
 62
7
  6
CONTINUOUS
 10
215.4107239926
 20
84.8802801594
 11
215.6283459857
 21
84.8050591515
  0
LINE
  5
417
100
AcDbEntity
  8
0
100
AcDbLine
 62
7
  6
CONTINUOUS
 10
215.7431277424
 20
84.7653848552
 11
215.9607497355
 21
84.6901638473
  0
LINE
  5
418
100
AcDbEntity
  8
0
100
AcDbLine
 62
7
  6
CONTINUOUS
 10
216.0755314922
 20
84.6504895511
 11
216.2832852489
 21
84.5786794975
  0
LINE
  5
419
100
AcDbEntity
  8
0
100
AcDbLine
 62
7
  6
CONTINUOUS
 10
216.3980670057
 20
84.5390052012
 11
216.6156889988
 21
84.4637841933
  0
LINE
  5
41A
100
AcDbEntity
  8
0
100
AcDbLine
 62
7
  6
CONTINUOUS
 10
216.7304707555
 20
84.424109897
 11
216.9480927486
 21
84.3488888891
  0
LINE
  5
41B
100
AcDbEntity
  8
0
100
AcDbLine
 62
7
  6
CONTINUOUS
 10
217.0628745053
 20
84.3092145928
 11
217.2804964984
 21
84.2339935849
  0
LINE
  5
41C
100
AcDbEntity
  8
0
100
AcDbLine
 62
7
  6
CONTINUOUS
 10
217.3952782551
 20
84.1943192886
 11
217.6129002482
 21
84.1190982807
  0
LINE
  5
41D
100
AcDbEntity
  8
0
100
AcDbLine
 62
7
  6
CONTINUOUS
 10
217.7276820049
 20
84.0794239845
 11
217.945303998
 21
84.0042029766
  0
LINE
  5
41E
100
AcDbEntity
  8
0
100
AcDbLine
 62
7
  6
CONTINUOUS
 10
218.0600857547
 20
83.9645286803
 11
218.2678395115
 21
83.8927186267
  0
LINE
  5
41F
100
AcDbEntity
  8
0
100
AcDbLine
 62
7
  6
CONTINUOUS
 10
218.3826212682
 20
83.8530443304
 11
218.6002432613
 21
83.7778233225
  0
LINE
  5
420
100
AcDbEntity
  8
0
100
AcDbLine
 62
7
  6
CONTINUOUS
 10
218.715025018
 20
83.7381490262
 11
218.9326470111
 21
83.6629280183
  0
LINE
  5
421
100
AcDbEntity
  8
0
100
AcDbLine
 62
7
  6
CONTINUOUS
 10
219.0474287678
 20
83.623253722
 11
219.2650507609
 21
83.5480327141
  0
LINE
  5
422
100
AcDbEntity
  8
0
100
AcDbLine
 62
7
  6
CONTINUOUS
 10
219.3798325176
 20
83.5083584179
 11
219.5974545107
 21
83.43313741
  0
LINE
  5
423
100
AcDbEntity
  8
0
100
AcDbLine
 62
7
  6
CONTINUOUS
 10
219.7122362674
 20
83.3934631137
 11
219.9298582605
 21
83.3182421058
  0
LINE
  5
424
100
AcDbEntity
  8
0
100
AcDbLine
 62
7
  6
CONTINUOUS
 10
220.0446400172
 20
83.2785678095
 11
220.252393774
 21
83.2067577559
  0
LINE
  5
425
100
AcDbEntity
  8
0
100
AcDbLine
 62
7
  6
CONTINUOUS
 10
220.3671755307
 20
83.1670834596
 11
220.5847975238
 21
83.0918624517
  0
LINE
  5
426
100
AcDbEntity
  8
0
100
AcDbLine
 62
7
  6
CONTINUOUS
 10
220.6995792805
 20
83.0521881554
 11
220.9172012736
 21
82.9769671475
  0
LINE
  5
427
100
AcDbEntity
  8
0
100
AcDbLine
 62
7
  6
CONTINUOUS
 10
221.0319830303
 20
82.9372928513
 11
221.2496050234
 21
82.8620718434
  0
LINE
  5
428
100
AcDbEntity
  8
0
100
AcDbLine
 62
7
  6
CONTINUOUS
 10
221.3643867801
 20
82.8223975471
 11
221.5820087732
 21
82.7471765392
  0
LINE
  5
429
100
AcDbEntity
  8
0
100
AcDbLine
 62
7
  6
CONTINUOUS
 10
221.6967905299
 20
82.7075022429
 11
221.914412523
 21
82.632281235
  0
LINE
  5
42A
100
AcDbEntity
  8
0
100
AcDbLine
 62
7
  6
CONTINUOUS
 10
222.0291942797
 20
82.5926069387
 11
222.2369480365
 21
82.5207968851
  0
LINE
  5
42B
100
AcDbEntity
  8
0
100
AcDbLine
 62
7
  6
CONTINUOUS
 10
222.3517297932
 20
82.4811225888
 11
222.5693517863
 21
82.4059015809
  0
LINE
  5
42C
100
AcDbEntity
  8
0
100
AcDbLine
 62
7
  6
CONTINUOUS
 10
222.684133543
 20
82.3662272847
 11
222.9017555361
 21
82.2910062768
  0
LINE
  5
42D
100
AcDbEntity
  8
0
100
AcDbLine
 62
7
  6
CONTINUOUS
 10
223.0165372928
 20
82.2513319805
 11
223.2341592859
 21
82.1761109726
  0
LINE
  5
42E
100
AcDbEntity
  8
0
100
AcDbLine
 62
7
  6
CONTINUOUS
 10
223.3489410426
 20
82.1364366763
 11
223.5665630357
 21
82.0612156684
  0
LINE
  5
42F
100
AcDbEntity
  8
0
100
AcDbLine
 62
7
  6
CONTINUOUS
 10
223.6813447924
 20
82.0215413721
 11
223.8989667855
 21
81.9463203642
  0
LINE
  5
430
100
AcDbEntity
  8
0
100
AcDbLine
 62
7
  6
CONTINUOUS
 10
224.0137485422
 20
81.9066460679
 11
224.221502299
 21
81.8348360143
  0
LINE
  5
431
100
AcDbEntity
  8
0
100
AcDbLine
 62
7
  6
CONTINUOUS
 10
224.3362840557
 20
81.7951617181
 11
224.5539060488
 21
81.7199407102
  0
LINE
  5
432
100
AcDbEntity
  8
0
100
AcDbLine
 62
7
  6
CONTINUOUS
 10
224.6686878055
 20
81.6802664139
 11
224.8863097986
 21
81.605045406
  0
LINE
  5
433
100
AcDbEntity
  8
0
100
AcDbLine
 62
7
  6
CONTINUOUS
 10
225.0010915553
 20
81.5653711097
 11
225.2187135484
 21
81.4901501018
  0
LINE
  5
434
100
AcDbEntity
  8
0
100
AcDbLine
 62
7
  6
CONTINUOUS
 10
225.3334953051
 20
81.4504758055
 11
225.5511172982
 21
81.3752547976
  0
LINE
  5
435
100
AcDbEntity
  8
0
100
AcDbLine
 62
7
  6
CONTINUOUS
 10
225.6658990549
 20
81.3355805013
 11
225.883521048
 21
81.2603594934
  0
LINE
  5
436
100
AcDbEntity
  8
0
100
AcDbLine
 62
7
  6
CONTINUOUS
 10
225.9983028047
 20
81.2206851971
 11
226.2060565615
 21
81.1488751436
  0
LINE
  5
437
100
AcDbEntity
  8
0
100
AcDbLine
 62
7
  6
CONTINUOUS
 10
226.3208383182
 20
81.1092008473
 11
226.5384603113
 21
81.0339798394
  0
LINE
  5
438
100
AcDbEntity
  8
0
100
AcDbLine
 62
7
  6
CONTINUOUS
 10
226.653242068
 20
80.9943055431
 11
226.8708640611
 21
80.9190845352
  0
LINE
  5
439
100
AcDbEntity
  8
0
100
AcDbLine
 62
7
  6
CONTINUOUS
 10
226.9856458178
 20
80.8794102389
 11
227.2032678109
 21
80.804189231
  0
LINE
  5
43A
100
AcDbEntity
  8
0
100
AcDbLine
 62
7
  6
CONTINUOUS
 10
227.3180495676
 20
80.7645149347
 11
227.5356715607
 21
80.6892939268
  0
LINE
  5
43B
100
AcDbEntity
  8
0
100
AcDbLine
 62
7
  6
CONTINUOUS
 10
227.6504533174
 20
80.6496196305
 11
227.8680753105
 21
80.5743986226
  0
LINE
  5
43C
100
AcDbEntity
  8
0
100
AcDbLine
 62
7
  6
CONTINUOUS
 10
227.9828570672
 20
80.5347243263
 11
228.190610824
 21
80.4629142728
  0
LINE
  5
43D
100
AcDbEntity
  8
0
100
AcDbLine
 62
7
  6
CONTINUOUS
 10
228.3053925807
 20
80.4232399765
 11
228.5230145738
 21
80.3480189686
  0
LINE
  5
43E
100
AcDbEntity
  8
0
100
AcDbLine
 62
7
  6
CONTINUOUS
 10
228.6377963305
 20
80.3083446723
 11
228.8554183236
 21
80.2331236644
  0
LINE
  5
43F
100
AcDbEntity
  8
0
100
AcDbLine
 62
7
  6
CONTINUOUS
 10
228.9702000803
 20
80.1934493681
 11
229.1878220734
 21
80.1182283602
  0
LINE
  5
440
100
AcDbEntity
  8
0
100
AcDbLine
 62
7
  6
CONTINUOUS
 10
229.3026038301
 20
80.0785540639
 11
229.5202258232
 21
80.003333056
  0
LINE
  5
441
100
AcDbEntity
  8
0
100
AcDbLine
 62
7
  6
CONTINUOUS
 10
229.6350075799
 20
79.9636587597
 11
229.852629573
 21
79.8884377518
  0
LINE
  5
442
100
AcDbEntity
  8
0
100
AcDbLine
 62
7
  6
CONTINUOUS
 10
229.9674113297
 20
79.8487634555
 11
230.1751650865
 21
79.776953402
  0
LINE
  5
443
100
AcDbEntity
  8
0
100
AcDbLine
 62
7
  6
CONTINUOUS
 10
230.2899468432
 20
79.7372791057
 11
230.5075688363
 21
79.6620580978
  0
LINE
  5
444
100
AcDbEntity
  8
0
100
AcDbLine
 62
7
  6
CONTINUOUS
 10
230.622350593
 20
79.6223838015
 11
230.8399725861
 21
79.5471627936
  0
LINE
  5
445
100
AcDbEntity
  8
0
100
AcDbLine
 62
7
  6
CONTINUOUS
 10
230.9547543428
 20
79.5074884973
 11
231.1723763359
 21
79.4322674894
  0
LINE
  5
446
100
AcDbEntity
  8
0
100
AcDbLine
 62
7
  6
CONTINUOUS
 10
231.2871580926
 20
79.3925931931
 11
231.5047800857
 21
79.3173721852
  0
LINE
  5
447
100
AcDbEntity
  8
0
100
AcDbLine
 62
7
  6
CONTINUOUS
 10
231.6195618424
 20
79.2776978889
 11
231.8371838355
 21
79.202476881
  0
LINE
  5
448
100
AcDbEntity
  8
0
100
AcDbLine
 62
7
  6
CONTINUOUS
 10
231.9519655922
 20
79.1628025848
 11
232.159719349
 21
79.0909925312
  0
LINE
  5
449
100
AcDbEntity
  8
0
100
AcDbLine
 62
7
  6
CONTINUOUS
 10
232.2745011057
 20
79.0513182349
 11
232.4921230988
 21
78.976097227
  0
LINE
  5
44A
100
AcDbEntity
  8
0
100
AcDbLine
 62
7
  6
CONTINUOUS
 10
232.6069048555
 20
78.9364229307
 11
232.8245268486
 21
78.8612019228
  0
LINE
  5
44B
100
AcDbEntity
  8
0
100
AcDbLine
 62
7
  6
CONTINUOUS
 10
232.9393086053
 20
78.8215276265
 11
233.1569305984
 21
78.7463066186
  0
LINE
  5
44C
100
AcDbEntity
  8
0
100
AcDbLine
 62
7
  6
CONTINUOUS
 10
233.2717123551
 20
78.7066323223
 11
233.4893343482
 21
78.6314113144
  0
LINE
  5
44D
100
AcDbEntity
  8
0
100
AcDbLine
 62
7
  6
CONTINUOUS
 10
233.6041161049
 20
78.5917370182
 11
233.821738098
 21
78.5165160103
  0
LINE
  5
44E
100
AcDbEntity
  8
0
100
AcDbLine
 62
7
  6
CONTINUOUS
 10
233.9365198547
 20
78.476841714
 11
234.1442736115
 21
78.4050316604
  0
LINE
  5
44F
100
AcDbEntity
  8
0
100
AcDbLine
 62
7
  6
CONTINUOUS
 10
234.2590553682
 20
78.3653573641
 11
234.4766773613
 21
78.2901363562
  0
LINE
  5
450
100
AcDbEntity
  8
0
100
AcDbLine
 62
7
  6
CONTINUOUS
 10
234.591459118
 20
78.2504620599
 11
234.8090811111
 21
78.175241052
  0
LINE
  5
451
100
AcDbEntity
  8
0
100
AcDbLine
 62
7
  6
CONTINUOUS
 10
234.9238628678
 20
78.1355667557
 11
235.1414848609
 21
78.0603457478
  0
LINE
  5
452
100
AcDbEntity
  8
0
100
AcDbLine
 62
7
  6
CONTINUOUS
 10
235.2562666176
 20
78.0206714516
 11
235.4738886107
 21
77.9454504437
  0
LINE
  5
453
100
AcDbEntity
  8
0
100
AcDbLine
 62
7
  6
CONTINUOUS
 10
235.5886703674
 20
77.9057761474
 11
235.8062923605
 21
77.8305551395
  0
LINE
  5
454
100
AcDbEntity
  8
0
100
AcDbLine
 62
7
  6
CONTINUOUS
 10
235.9210741172
 20
77.7908808432
 11
236.128827874
 21
77.7190707896
  0
LINE
  5
455
100
AcDbEntity
  8
0
100
AcDbLine
 62
7
  6
CONTINUOUS
 10
236.2436096307
 20
77.6793964933
 11
236.4612316238
 21
77.6041754854
  0
LINE
  5
456
100
AcDbEntity
  8
0
100
AcDbLine
 62
7
  6
CONTINUOUS
 10
236.5760133805
 20
77.5645011891
 11
236.7936353736
 21
77.4892801812
  0
LINE
  5
457
100
AcDbEntity
  8
0
100
AcDbLine
 62
7
  6
CONTINUOUS
 10
236.9084171303
 20
77.449605885
 11
237.1260391234
 21
77.3743848771
  0
LINE
  5
458
100
AcDbEntity
  8
0
100
AcDbLine
 62
7
  6
CONTINUOUS
 10
237.2408208801
 20
77.3347105808
 11
237.4584428732
 21
77.2594895729
  0
LINE
  5
459
100
AcDbEntity
  8
0
100
AcDbLine
 62
7
  6
CONTINUOUS
 10
237.5732246299
 20
77.2198152766
 11
237.790846623
 21
77.1445942687
  0
LINE
  5
45A
100
AcDbEntity
  8
0
100
AcDbLine
 62
7
  6
CONTINUOUS
 10
237.9056283797
 20
77.1049199724
 11
238.1133821365
 21
77.0331099188
  0
LINE
  5
45B
100
AcDbEntity
  8
0
100
AcDbLine
 62
7
  6
CONTINUOUS
 10
238.2281638932
 20
76.9934356226
 11
238.4457858863
 21
76.9182146146
  0
LINE
  5
45C
100
AcDbEntity
  8
0
100
AcDbLine
 62
7
  6
CONTINUOUS
 10
238.560567643
 20
76.8785403184
 11
238.7781896361
 21
76.8033193105
  0
LINE
  5
45D
100
AcDbEntity
  8
0
100
AcDbLine
 62
7
  6
CONTINUOUS
 10
238.8929713928
 20
76.7636450142
 11
239.1105933859
 21
76.6884240063
  0
LINE
  5
45E
100
AcDbEntity
  8
0
100
AcDbLine
 62
7
  6
CONTINUOUS
 10
239.2253751426
 20
76.64874971
 11
239.4429971357
 21
76.5735287021
  0
LINE
  5
45F
100
AcDbEntity
  8
0
100
AcDbLine
 62
7
  6
CONTINUOUS
 10
239.5577788924
 20
76.5338544058
 11
239.7754008855
 21
76.4586333979
  0
LINE
  5
460
100
AcDbEntity
  8
0
100
AcDbLine
 62
7
  6
CONTINUOUS
 10
215.0107182602
 20
93.8992212845
 11
215.0783202428
 21
84.9951754636
  0
LINE
  5
461
100
AcDbEntity
  8
0
100
AcDbLine
 62
7
  6
CONTINUOUS
 10
215.2418518936
 20
84.4507223763
 11
215.2421319706
 21
84.4138326493
  0
LINE
  5
462
100
AcDbEntity
  8
0
100
AcDbLine
 62
7
  6
CONTINUOUS
 10
215.2283402532
 20
93.8240002766
 11
215.2959422359
 21
84.9199544557
  0
LINE
  5
463
100
AcDbEntity
  8
0
100
AcDbLine
 62
7
  6
CONTINUOUS
 10
215.34312201
 20
93.7843259803
 11
215.4107239926
 21
84.8802801594
  0
LINE
  5
464
100
AcDbEntity
  8
0
100
AcDbLine
 62
7
  6
CONTINUOUS
 10
215.5742556434
 20
84.3358270721
 11
215.5745357204
 21
84.2989373451
  0
LINE
  5
465
100
AcDbEntity
  8
0
100
AcDbLine
 62
7
  6
CONTINUOUS
 10
215.560744003
 20
93.7091049724
 11
215.6283459857
 21
84.8050591515
  0
LINE
  5
466
100
AcDbEntity
  8
0
100
AcDbLine
 62
7
  6
CONTINUOUS
 10
215.6755257598
 20
93.6694306762
 11
215.7431277424
 21
84.7653848552
  0
LINE
  5
467
100
AcDbEntity
  8
0
100
AcDbLine
 62
7
  6
CONTINUOUS
 10
215.9066593932
 20
84.2209317679
 11
215.9069394702
 21
84.1840420409
  0
LINE
  5
468
100
AcDbEntity
  8
0
100
AcDbLine
 62
7
  6
CONTINUOUS
 10
215.8931477528
 20
93.5942096683
 11
215.9607497355
 21
84.6901638473
  0
LINE
  5
469
100
AcDbEntity
  8
0
100
AcDbLine
 62
7
  6
CONTINUOUS
 10
216.0079295096
 20
93.554535372
 11
216.0755314922
 21
84.6504895511
  0
LINE
  5
46A
100
AcDbEntity
  8
0
100
AcDbLine
 62
7
  6
CONTINUOUS
 10
216.239063143
 20
84.1060364638
 11
216.23934322
 21
84.0691467367
  0
LINE
  5
46B
100
AcDbEntity
  8
0
100
AcDbLine
 62
7
  6
CONTINUOUS
 10
216.2156832663
 20
93.4827253184
 11
216.2832852489
 21
84.5786794975
  0
LINE
  5
46C
100
AcDbEntity
  8
0
100
AcDbLine
 62
7
  6
CONTINUOUS
 10
216.3304650231
 20
93.4430510221
 11
216.3980670057
 21
84.5390052012
  0
LINE
  5
46D
100
AcDbEntity
  8
0
100
AcDbLine
 62
7
  6
CONTINUOUS
 10
216.5714668928
 20
83.9911411596
 11
216.5717469698
 21
83.9542514326
  0
LINE
  5
46E
100
AcDbEntity
  8
0
100
AcDbLine
 62
7
  6
CONTINUOUS
 10
216.5480870161
 20
93.3678300142
 11
216.6156889988
 21
84.4637841933
  0
LINE
  5
46F
100
AcDbEntity
  8
0
100
AcDbLine
 62
7
  6
CONTINUOUS
 10
216.6628687729
 20
93.3281557179
 11
216.7304707555
 21
84.424109897
  0
LINE
  5
470
100
AcDbEntity
  8
0
100
AcDbLine
 62
7
  6
CONTINUOUS
 10
216.8940024063
 20
83.8796568097
 11
216.8942824833
 21
83.8427670827
  0
LINE
  5
471
100
AcDbEntity
  8
0
100
AcDbLine
 62
7
  6
CONTINUOUS
 10
216.8804907659
 20
93.25293471
 11
216.9480927486
 21
84.3488888891
  0
LINE
  5
472
100
AcDbEntity
  8
0
100
AcDbLine
 62
7
  6
CONTINUOUS
 10
216.9952725227
 20
93.2132604137
 11
217.0628745053
 21
84.3092145928
  0
LINE
  5
473
100
AcDbEntity
  8
0
100
AcDbLine
 62
7
  6
CONTINUOUS
 10
217.2264061561
 20
83.7647615055
 11
217.2266862331
 21
83.7278717785
  0
LINE
  5
474
100
AcDbEntity
  8
0
100
AcDbLine
 62
7
  6
CONTINUOUS
 10
217.2128945157
 20
93.1380394058
 11
217.2804964984
 21
84.2339935849
  0
LINE
  5
475
100
AcDbEntity
  8
0
100
AcDbLine
 62
7
  6
CONTINUOUS
 10
217.3276762725
 20
93.0983651096
 11
217.3952782551
 21
84.1943192886
  0
LINE
  5
476
100
AcDbEntity
  8
0
100
AcDbLine
 62
7
  6
CONTINUOUS
 10
217.5588099059
 20
83.6498662013
 11
217.5590899829
 21
83.6129764743
  0
LINE
  5
477
100
AcDbEntity
  8
0
100
AcDbLine
 62
7
  6
CONTINUOUS
 10
217.5452982655
 20
93.0231441017
 11
217.6129002482
 21
84.1190982807
  0
LINE
  5
478
100
AcDbEntity
  8
0
100
AcDbLine
 62
7
  6
CONTINUOUS
 10
217.6600800223
 20
92.9834698054
 11
217.7276820049
 21
84.0794239845
  0
LINE
  5
479
100
AcDbEntity
  8
0
100
AcDbLine
 62
7
  6
CONTINUOUS
 10
217.8912136557
 20
83.5349708972
 11
217.8914937327
 21
83.4980811701
  0
LINE
  5
47A
100
AcDbEntity
  8
0
100
AcDbLine
 62
7
  6
CONTINUOUS
 10
217.8777020153
 20
92.9082487975
 11
217.945303998
 21
84.0042029766
  0
LINE
  5
47B
100
AcDbEntity
  8
0
100
AcDbLine
 62
7
  6
CONTINUOUS
 10
217.9924837721
 20
92.8685745012
 11
218.0600857547
 21
83.9645286803
  0
LINE
  5
47C
100
AcDbEntity
  8
0
100
AcDbLine
 62
7
  6
CONTINUOUS
 10
218.2236174055
 20
83.420075593
 11
218.2238974825
 21
83.383185866
  0
LINE
  5
47D
100
AcDbEntity
  8
0
100
AcDbLine
 62
7
  6
CONTINUOUS
 10
218.2002375288
 20
92.7967644476
 11
218.2678395115
 21
83.8927186267
  0
LINE
  5
47E
100
AcDbEntity
  8
0
100
AcDbLine
 62
7
  6
CONTINUOUS
 10
218.3150192856
 20
92.7570901513
 11
218.3826212682
 21
83.8530443304
  0
LINE
  5
47F
100
AcDbEntity
  8
0
100
AcDbLine
 62
7
  6
CONTINUOUS
 10
218.5560211553
 20
83.3051802888
 11
218.5563012323
 21
83.2682905618
  0
LINE
  5
480
100
AcDbEntity
  8
0
100
AcDbLine
 62
7
  6
CONTINUOUS
 10
239.7089534195
 20
85.3436507608
 11
241.2466592787
 21
85.4369482307
  0
LINE
  5
481
100
AcDbEntity
  8
0
100
AcDbLine
 62
7
  6
CONTINUOUS
 10
239.4901769098
 20
85.4379002267
 11
239.3781356849
 21
85.4312691866
  0
LINE
  5
482
100
AcDbEntity
  8
0
100
AcDbLine
 62
7
  6
CONTINUOUS
 10
224.5539060488
 20
81.7199407102
 11
223.0764728488
 21
81.7058939487
  0
LINE
  5
483
100
AcDbEntity
  8
0
100
AcDbLine
 62
7
  6
CONTINUOUS
 10
224.221502299
 20
81.8348360143
 11
222.744069099
 21
81.8207892529
  0
LINE
  5
484
100
AcDbEntity
  8
0
100
AcDbLine
 62
7
  6
CONTINUOUS
 10
223.8989667855
 20
81.9463203642
 11
222.4215335855
 21
81.9322736028
  0
LINE
  5
485
100
AcDbEntity
  8
0
100
AcDbLine
 62
7
  6
CONTINUOUS
 10
223.5665630357
 20
82.0612156684
 11
222.0891298357
 21
82.0471689069
  0
LINE
  5
486
100
AcDbEntity
  8
0
100
AcDbLine
 62
7
  6
CONTINUOUS
 10
223.2341592859
 20
82.1761109726
 11
221.7567260859
 21
82.1620642111
  0
LINE
  5
487
100
AcDbEntity
  8
0
100
AcDbLine
 62
7
  6
CONTINUOUS
 10
222.9017555361
 20
82.2910062768
 11
221.4243223361
 21
82.2769595153
  0
LINE
  5
488
100
AcDbEntity
  8
0
100
AcDbLine
 62
7
  6
CONTINUOUS
 10
222.5693517863
 20
82.4059015809
 11
221.0919185863
 21
82.3918548195
  0
LINE
  5
489
100
AcDbEntity
  8
0
100
AcDbLine
 62
7
  6
CONTINUOUS
 10
222.2369480365
 20
82.5207968851
 11
220.7595148365
 21
82.5067501237
  0
LINE
  5
48A
100
AcDbEntity
  8
0
100
AcDbLine
 62
7
  6
CONTINUOUS
 10
221.914412523
 20
82.632281235
 11
220.436979323
 21
82.6182344735
  0
LINE
  5
48B
100
AcDbEntity
  8
0
100
AcDbLine
 62
7
  6
CONTINUOUS
 10
221.5820087732
 20
82.7471765392
 11
220.1045755732
 21
82.7331297777
  0
LINE
  5
48C
100
AcDbEntity
  8
0
100
AcDbLine
 62
7
  6
CONTINUOUS
 10
221.2496050234
 20
82.8620718434
 11
219.7721718234
 21
82.8480250819
  0
LINE
  5
48D
100
AcDbEntity
  8
0
100
AcDbLine
 62
7
  6
CONTINUOUS
 10
220.9172012736
 20
82.9769671475
 11
219.4397680736
 21
82.9629203861
  0
LINE
  5
48E
100
AcDbEntity
  8
0
100
AcDbLine
 62
7
  6
CONTINUOUS
 10
220.5847975238
 20
83.0918624517
 11
219.1073643238
 21
83.0778156903
  0
LINE
  5
48F
100
AcDbEntity
  8
0
100
AcDbLine
 62
7
  6
CONTINUOUS
 10
220.252393774
 20
83.2067577559
 11
218.774960574
 21
83.1927109945
  0
LINE
  5
490
100
AcDbEntity
  8
0
100
AcDbLine
 62
7
  6
CONTINUOUS
 10
219.9298582605
 20
83.3182421058
 11
218.4524250605
 21
83.3041953443
  0
LINE
  5
491
100
AcDbEntity
  8
0
100
AcDbLine
 62
7
  6
CONTINUOUS
 10
219.5974545107
 20
83.43313741
 11
218.1200213107
 21
83.4190906485
  0
LINE
  5
492
100
AcDbEntity
  8
0
100
AcDbLine
 62
7
  6
CONTINUOUS
 10
219.2650507609
 20
83.5480327141
 11
217.7876175609
 21
83.5339859527
  0
LINE
  5
493
100
AcDbEntity
  8
0
100
AcDbLine
 62
7
  6
CONTINUOUS
 10
218.9326470111
 20
83.6629280183
 11
217.4552138111
 21
83.6488812569
  0
LINE
  5
494
100
AcDbEntity
  8
0
100
AcDbLine
 62
7
  6
CONTINUOUS
 10
218.6002432613
 20
83.7778233225
 11
217.1228100613
 21
83.7637765611
  0
LINE
  5
495
100
AcDbEntity
  8
0
100
AcDbLine
 62
7
  6
CONTINUOUS
 10
218.2678395115
 20
83.8927186267
 11
216.7904063115
 21
83.8786718653
  0
LINE
  5
496
100
AcDbEntity
  8
0
100
AcDbLine
 62
7
  6
CONTINUOUS
 10
217.945303998
 20
84.0042029766
 11
216.467870798
 21
83.9901562151
  0
LINE
  5
497
100
AcDbEntity
  8
0
100
AcDbLine
 62
7
  6
CONTINUOUS
 10
217.6129002482
 20
84.1190982807
 11
216.1354670482
 21
84.1050515193
  0
LINE
  5
498
100
AcDbEntity
  8
0
100
AcDbLine
 62
7
  6
CONTINUOUS
 10
217.2804964984
 20
84.2339935849
 11
215.8030632984
 21
84.2199468235
  0
LINE
  5
499
100
AcDbEntity
  8
0
100
AcDbLine
 62
7
  6
CONTINUOUS
 10
216.9480927486
 20
84.3488888891
 11
215.4706595486
 21
84.3348421277
  0
LINE
  5
49A
100
AcDbEntity
  8
0
100
AcDbLine
 62
7
  6
CONTINUOUS
 10
216.6156889988
 20
84.4637841933
 11
215.1382557988
 21
84.4497374319
  0
LINE
  5
49B
100
AcDbEntity
  8
0
100
AcDbLine
 62
7
  6
CONTINUOUS
 10
216.2832852489
 20
84.5786794975
 11
214.805852049
 21
84.5646327361
  0
LINE
  5
49C
100
AcDbEntity
  8
0
100
AcDbLine
 62
7
  6
CONTINUOUS
 10
215.9607497355
 20
84.6901638473
 11
214.4833165355
 21
84.6761170859
  0
LINE
  5
49D
100
AcDbEntity
  8
0
100
AcDbLine
 62
7
  6
CONTINUOUS
 10
215.6283459857
 20
84.8050591515
 11
214.1509127857
 21
84.7910123901
  0
LINE
  5
49E
100
AcDbEntity
  8
0
100
AcDbLine
 62
7
  6
CONTINUOUS
 10
215.2959422359
 20
84.9199544557
 11
213.8185090359
 21
84.9059076943
  0
LINE
  5
49F
100
AcDbEntity
  8
0
100
AcDbLine
 62
7
  6
CONTINUOUS
 10
214.9635384861
 20
85.0348497599
 11
213.4861052861
 21
85.0208029985
  0
LINE
  5
4A0
100
AcDbEntity
  8
0
100
AcDbLine
 62
7
  6
CONTINUOUS
 10
224.6686878055
 20
81.6802664139
 11
223.1803490206
 21
81.6699891662
  0
LINE
  5
4A1
100
AcDbEntity
  8
0
100
AcDbLine
 62
7
  6
CONTINUOUS
 10
224.3362840557
 20
81.7951617181
 11
222.8479452708
 21
81.7848844704
  0
LINE
  5
4A2
100
AcDbEntity
  8
0
100
AcDbLine
 62
7
  6
CONTINUOUS
 10
224.0137485422
 20
81.9066460679
 11
222.5254097573
 21
81.8963688202
  0
LINE
  5
4A3
100
AcDbEntity
  8
0
100
AcDbLine
 62
7
  6
CONTINUOUS
 10
223.6813447924
 20
82.0215413721
 11
222.1930060075
 21
82.0112641244
  0
LINE
  5
4A4
100
AcDbEntity
  8
0
100
AcDbLine
 62
7
  6
CONTINUOUS
 10
223.3489410426
 20
82.1364366763
 11
221.8606022577
 21
82.1261594286
  0
LINE
  5
4A5
100
AcDbEntity
  8
0
100
AcDbLine
 62
7
  6
CONTINUOUS
 10
223.0165372928
 20
82.2513319805
 11
221.5281985079
 21
82.2410547328
  0
LINE
  5
4A6
100
AcDbEntity
  8
0
100
AcDbLine
 62
7
  6
CONTINUOUS
 10
222.684133543
 20
82.3662272847
 11
221.1957947581
 21
82.3559500369
  0
LINE
  5
4A7
100
AcDbEntity
  8
0
100
AcDbLine
 62
7
  6
CONTINUOUS
 10
222.3517297932
 20
82.4811225888
 11
220.8633910083
 21
82.4708453411
  0
LINE
  5
4A8
100
AcDbEntity
  8
0
100
AcDbLine
 62
7
  6
CONTINUOUS
 10
222.0291942797
 20
82.5926069387
 11
220.5408554948
 21
82.582329691
  0
LINE
  5
4A9
100
AcDbEntity
  8
0
100
AcDbLine
 62
7
  6
CONTINUOUS
 10
221.6967905299
 20
82.7075022429
 11
220.208451745
 21
82.6972249952
  0
LINE
  5
4AA
100
AcDbEntity
  8
0
100
AcDbLine
 62
7
  6
CONTINUOUS
 10
221.3643867801
 20
82.8223975471
 11
219.8760479952
 21
82.8121202994
  0
LINE
  5
4AB
100
AcDbEntity
  8
0
100
AcDbLine
 62
7
  6
CONTINUOUS
 10
221.0319830303
 20
82.9372928513
 11
219.5436442454
 21
82.9270156035
  0
LINE
  5
4AC
100
AcDbEntity
  8
0
100
AcDbLine
 62
7
  6
CONTINUOUS
 10
220.6995792805
 20
83.0521881554
 11
219.2112404956
 21
83.0419109077
  0
LINE
  5
4AD
100
AcDbEntity
  8
0
100
AcDbLine
 62
7
  6
CONTINUOUS
 10
220.3671755307
 20
83.1670834596
 11
218.8788367458
 21
83.1568062119
  0
LINE
  5
4AE
100
AcDbEntity
  8
0
100
AcDbLine
 62
7
  6
CONTINUOUS
 10
220.0446400172
 20
83.2785678095
 11
218.5563012323
 21
83.2682905618
  0
LINE
  5
4AF
100
AcDbEntity
  8
0
100
AcDbLine
 62
7
  6
CONTINUOUS
 10
219.7122362674
 20
83.3934631137
 11
218.2238974825
 21
83.383185866
  0
LINE
  5
4B0
100
AcDbEntity
  8
0
100
AcDbLine
 62
7
  6
CONTINUOUS
 10
219.3798325176
 20
83.5083584179
 11
217.8914937327
 21
83.4980811701
  0
LINE
  5
4B1
100
AcDbEntity
  8
0
100
AcDbLine
 62
7
  6
CONTINUOUS
 10
219.0474287678
 20
83.623253722
 11
217.5590899829
 21
83.6129764743
  0
LINE
  5
4B2
100
AcDbEntity
  8
0
100
AcDbLine
 62
7
  6
CONTINUOUS
 10
218.715025018
 20
83.7381490262
 11
217.2266862331
 21
83.7278717785
  0
LINE
  5
4B3
100
AcDbEntity
  8
0
100
AcDbLine
 62
7
  6
CONTINUOUS
 10
218.3826212682
 20
83.8530443304
 11
216.8942824833
 21
83.8427670827
  0
LINE
  5
4B4
100
AcDbEntity
  8
0
100
AcDbLine
 62
7
  6
CONTINUOUS
 10
218.0600857547
 20
83.9645286803
 11
216.5717469698
 21
83.9542514326
  0
LINE
  5
4B5
100
AcDbEntity
  8
0
100
AcDbLine
 62
7
  6
CONTINUOUS
 10
217.7276820049
 20
84.0794239845
 11
216.23934322
 21
84.0691467367
  0
LINE
  5
4B6
100
AcDbEntity
  8
0
100
AcDbLine
 62
7
  6
CONTINUOUS
 10
217.3952782551
 20
84.1943192886
 11
215.9069394702
 21
84.1840420409
  0
LINE
  5
4B7
100
AcDbEntity
  8
0
100
AcDbLine
 62
7
  6
CONTINUOUS
 10
217.0628745053
 20
84.3092145928
 11
215.5745357204
 21
84.2989373451
  0
LINE
  5
4B8
100
AcDbEntity
  8
0
100
AcDbLine
 62
7
  6
CONTINUOUS
 10
216.7304707555
 20
84.424109897
 11
215.2421319706
 21
84.4138326493
  0
LINE
  5
4B9
100
AcDbEntity
  8
0
100
AcDbLine
 62
7
  6
CONTINUOUS
 10
216.3980670057
 20
84.5390052012
 11
214.9097282208
 21
84.5287279535
  0
LINE
  5
4BA
100
AcDbEntity
  8
0
100
AcDbLine
 62
7
  6
CONTINUOUS
 10
216.0755314922
 20
84.6504895511
 11
214.5871927073
 21
84.6402123033
  0
LINE
  5
4BB
100
AcDbEntity
  8
0
100
AcDbLine
 62
7
  6
CONTINUOUS
 10
215.7431277424
 20
84.7653848552
 11
214.2547889575
 21
84.7551076075
  0
LINE
  5
4BC
100
AcDbEntity
  8
0
100
AcDbLine
 62
7
  6
CONTINUOUS
 10
215.4107239926
 20
84.8802801594
 11
213.9223852077
 21
84.8700029117
  0
LINE
  5
4BD
100
AcDbEntity
  8
0
100
AcDbLine
 62
7
  6
CONTINUOUS
 10
215.0783202428
 20
84.9951754636
 11
213.5899814579
 21
84.9848982159
  0
LINE
  5
4BE
100
AcDbEntity
  8
0
100
AcDbLine
 62
7
  6
CONTINUOUS
 10
214.745916493
 20
85.1100707678
 11
213.2575777081
 21
85.0997935201
  0
LINE
  5
4BF
100
AcDbEntity
  8
0
100
AcDbLine
 62
7
  6
CONTINUOUS
 10
218.5326412786
 20
92.6818691434
 11
218.6002432613
 21
83.7778233225
  0
LINE
  5
4C0
100
AcDbEntity
  8
0
100
AcDbLine
 62
7
  6
CONTINUOUS
 10
218.6474230354
 20
92.6421948471
 11
218.715025018
 21
83.7381490262
  0
LINE
  5
4C1
100
AcDbEntity
  8
0
100
AcDbLine
 62
7
  6
CONTINUOUS
 10
218.8785566688
 20
83.1936959389
 11
218.8788367458
 21
83.1568062119
  0
LINE
  5
4C2
100
AcDbEntity
  8
0
100
AcDbLine
 62
7
  6
CONTINUOUS
 10
218.8650450284
 20
92.5669738392
 11
218.9326470111
 21
83.6629280183
  0
LINE
  5
4C3
100
AcDbEntity
  8
0
100
AcDbLine
 62
7
  6
CONTINUOUS
 10
218.9798267852
 20
92.527299543
 11
219.0474287678
 21
83.623253722
  0
LINE
  5
4C4
100
AcDbEntity
  8
0
100
AcDbLine
 62
7
  6
CONTINUOUS
 10
219.2109604186
 20
83.0788006347
 11
219.2112404956
 21
83.0419109077
  0
LINE
  5
4C5
100
AcDbEntity
  8
0
100
AcDbLine
 62
7
  6
CONTINUOUS
 10
219.1974487782
 20
92.4520785351
 11
219.2650507609
 21
83.5480327141
  0
LINE
  5
4C6
100
AcDbEntity
  8
0
100
AcDbLine
 62
7
  6
CONTINUOUS
 10
219.312230535
 20
92.4124042388
 11
219.3798325176
 21
83.5083584179
  0
LINE
  5
4C7
100
AcDbEntity
  8
0
100
AcDbLine
 62
7
  6
CONTINUOUS
 10
219.5433641684
 20
82.9639053306
 11
219.5436442454
 21
82.9270156035
  0
LINE
  5
4C8
100
AcDbEntity
  8
0
100
AcDbLine
 62
7
  6
CONTINUOUS
 10
219.529852528
 20
92.3371832309
 11
219.5974545107
 21
83.43313741
  0
LINE
  5
4C9
100
AcDbEntity
  8
0
100
AcDbLine
 62
7
  6
CONTINUOUS
 10
219.6446342848
 20
92.2975089346
 11
219.7122362674
 21
83.3934631137
  0
LINE
  5
4CA
100
AcDbEntity
  8
0
100
AcDbLine
 62
7
  6
CONTINUOUS
 10
219.8757679182
 20
82.8490100264
 11
219.8760479952
 21
82.8121202994
  0
LINE
  5
4CB
100
AcDbEntity
  8
0
100
AcDbLine
 62
7
  6
CONTINUOUS
 10
219.8622562778
 20
92.2222879267
 11
219.9298582605
 21
83.3182421058
  0
LINE
  5
4CC
100
AcDbEntity
  8
0
100
AcDbLine
 62
7
  6
CONTINUOUS
 10
219.9770380346
 20
92.1826136304
 11
220.0446400172
 21
83.2785678095
  0
LINE
  5
4CD
100
AcDbEntity
  8
0
100
AcDbLine
 62
7
  6
CONTINUOUS
 10
220.208171668
 20
82.7341147222
 11
220.208451745
 21
82.6972249952
  0
LINE
  5
4CE
100
AcDbEntity
  8
0
100
AcDbLine
 62
7
  6
CONTINUOUS
 10
220.1847917913
 20
92.1108035768
 11
220.252393774
 21
83.2067577559
  0
LINE
  5
4CF
100
AcDbEntity
  8
0
100
AcDbLine
 62
7
  6
CONTINUOUS
 10
220.2995735481
 20
92.0711292805
 11
220.3671755307
 21
83.1670834596
  0
LINE
  5
4D0
100
AcDbEntity
  8
0
100
AcDbLine
 62
7
  6
CONTINUOUS
 10
220.5405754178
 20
82.619219418
 11
220.5408554948
 21
82.582329691
  0
LINE
  5
4D1
100
AcDbEntity
  8
0
100
AcDbLine
 62
7
  6
CONTINUOUS
 10
220.5171955411
 20
91.9959082726
 11
220.5847975238
 21
83.0918624517
  0
LINE
  5
4D2
100
AcDbEntity
  8
0
100
AcDbLine
 62
7
  6
CONTINUOUS
 10
220.6319772979
 20
91.9562339764
 11
220.6995792805
 21
83.0521881554
  0
LINE
  5
4D3
100
AcDbEntity
  8
0
100
AcDbLine
 62
7
  6
CONTINUOUS
 10
220.8631109313
 20
82.5077350681
 11
220.8633910083
 21
82.4708453411
  0
LINE
  5
4D4
100
AcDbEntity
  8
0
100
AcDbLine
 62
7
  6
CONTINUOUS
 10
220.8495992909
 20
91.8810129685
 11
220.9172012736
 21
82.9769671475
  0
LINE
  5
4D5
100
AcDbEntity
  8
0
100
AcDbLine
 62
7
  6
CONTINUOUS
 10
220.9643810477
 20
91.8413386722
 11
221.0319830303
 21
82.9372928513
  0
LINE
  5
4D6
100
AcDbEntity
  8
0
100
AcDbLine
 62
7
  6
CONTINUOUS
 10
221.1955146811
 20
82.392839764
 11
221.1957947581
 21
82.3559500369
  0
LINE
  5
4D7
100
AcDbEntity
  8
0
100
AcDbLine
 62
7
  6
CONTINUOUS
 10
221.1820030407
 20
91.7661176643
 11
221.2496050234
 21
82.8620718434
  0
LINE
  5
4D8
100
AcDbEntity
  8
0
100
AcDbLine
 62
7
  6
CONTINUOUS
 10
221.2967847975
 20
91.726443368
 11
221.3643867801
 21
82.8223975471
  0
LINE
  5
4D9
100
AcDbEntity
  8
0
100
AcDbLine
 62
7
  6
CONTINUOUS
 10
221.5279184309
 20
82.2779444598
 11
221.5281985079
 21
82.2410547328
  0
LINE
  5
4DA
100
AcDbEntity
  8
0
100
AcDbLine
 62
7
  6
CONTINUOUS
 10
221.5144067905
 20
91.6512223601
 11
221.5820087732
 21
82.7471765392
  0
LINE
  5
4DB
100
AcDbEntity
  8
0
100
AcDbLine
 62
7
  6
CONTINUOUS
 10
221.6291885473
 20
91.6115480638
 11
221.6967905299
 21
82.7075022429
  0
LINE
  5
4DC
100
AcDbEntity
  8
0
100
AcDbLine
 62
7
  6
CONTINUOUS
 10
221.8603221807
 20
82.1630491556
 11
221.8606022577
 21
82.1261594286
  0
LINE
  5
4DD
100
AcDbEntity
  8
0
100
AcDbLine
 62
7
  6
CONTINUOUS
 10
221.8468105403
 20
91.5363270559
 11
221.914412523
 21
82.632281235
  0
LINE
  5
4DE
100
AcDbEntity
  8
0
100
AcDbLine
 62
7
  6
CONTINUOUS
 10
221.9615922971
 20
91.4966527596
 11
222.0291942797
 21
82.5926069387
  0
LINE
  5
4DF
100
AcDbEntity
  8
0
100
AcDbLine
 62
7
  6
CONTINUOUS
 10
239.15777316
 20
85.5527955309
 11
239.0457319351
 21
85.5461644908
  0
LINE
  5
4E0
100
AcDbEntity
  8
0
100
AcDbLine
 62
7
  6
CONTINUOUS
 10
238.8253694102
 20
85.6676908351
 11
238.7133281853
 21
85.661059795
  0
LINE
  5
4E1
100
AcDbEntity
  8
0
100
AcDbLine
 62
7
  6
CONTINUOUS
 10
238.4929656604
 20
85.7825861393
 11
238.3809244355
 21
85.7759550992
  0
LINE
  5
4E2
100
AcDbEntity
  8
0
100
AcDbLine
 62
7
  6
CONTINUOUS
 10
238.1605619106
 20
85.8974814435
 11
238.0485206857
 21
85.8908504034
  0
LINE
  5
4E3
100
AcDbEntity
  8
0
100
AcDbLine
 62
7
  6
CONTINUOUS
 10
237.8380263971
 20
86.0089657933
 11
237.7259851722
 21
86.0023347532
  0
LINE
  5
4E4
100
AcDbEntity
  8
0
100
AcDbLine
 62
7
  6
CONTINUOUS
 10
237.5056226473
 20
86.1238610975
 11
237.3935814224
 21
86.1172300574
  0
LINE
  5
4E5
100
AcDbEntity
  8
0
100
AcDbLine
 62
7
  6
CONTINUOUS
 10
237.1732188975
 20
86.2387564017
 11
237.0611776726
 21
86.2321253616
  0
LINE
  5
4E6
100
AcDbEntity
  8
0
100
AcDbLine
 62
7
  6
CONTINUOUS
 10
236.8408151477
 20
86.3536517059
 11
236.7287739228
 21
86.3470206658
  0
LINE
  5
4E7
100
AcDbEntity
  8
0
100
AcDbLine
 62
7
  6
CONTINUOUS
 10
236.5084113979
 20
86.4685470101
 11
236.396370173
 21
86.46191597
  0
LINE
  5
4E8
100
AcDbEntity
  8
0
100
AcDbLine
 62
7
  6
CONTINUOUS
 10
236.1760076481
 20
86.5834423143
 11
236.0639664232
 21
86.5768112742
  0
LINE
  5
4E9
100
AcDbEntity
  8
0
100
AcDbLine
 62
7
  6
CONTINUOUS
 10
235.8534721346
 20
86.6949266641
 11
235.7414309097
 21
86.688295624
  0
LINE
  5
4EA
100
AcDbEntity
  8
0
100
AcDbLine
 62
7
  6
CONTINUOUS
 10
235.5210683848
 20
86.8098219683
 11
235.4090271599
 21
86.8031909282
  0
LINE
  5
4EB
100
AcDbEntity
  8
0
100
AcDbLine
 62
7
  6
CONTINUOUS
 10
235.188664635
 20
86.9247172725
 11
235.0766234101
 21
86.9180862324
  0
LINE
  5
4EC
100
AcDbEntity
  8
0
100
AcDbLine
 62
7
  6
CONTINUOUS
 10
234.8562608852
 20
87.0396125767
 11
234.7442196603
 21
87.0329815366
  0
LINE
  5
4ED
100
AcDbEntity
  8
0
100
AcDbLine
 62
7
  6
CONTINUOUS
 10
234.5238571354
 20
87.1545078808
 11
234.4118159105
 21
87.1478768408
  0
LINE
  5
4EE
100
AcDbEntity
  8
0
100
AcDbLine
 62
7
  6
CONTINUOUS
 10
234.1914533856
 20
87.269403185
 11
234.0794121607
 21
87.262772145
  0
LINE
  5
4EF
100
AcDbEntity
  8
0
100
AcDbLine
 62
7
  6
CONTINUOUS
 10
233.8689178721
 20
87.3808875349
 11
233.7568766472
 21
87.3742564948
  0
LINE
  5
4F0
100
AcDbEntity
  8
0
100
AcDbLine
 62
7
  6
CONTINUOUS
 10
233.5365141223
 20
87.4957828391
 11
233.4244728974
 21
87.489151799
  0
LINE
  5
4F1
100
AcDbEntity
  8
0
100
AcDbLine
 62
7
  6
CONTINUOUS
 10
233.2041103725
 20
87.6106781433
 11
233.0920691476
 21
87.6040471032
  0
LINE
  5
4F2
100
AcDbEntity
  8
0
100
AcDbLine
 62
7
  6
CONTINUOUS
 10
232.8717066227
 20
87.7255734474
 11
232.7596653978
 21
87.7189424074
  0
LINE
  5
4F3
100
AcDbEntity
  8
0
100
AcDbLine
 62
7
  6
CONTINUOUS
 10
232.5393028729
 20
87.8404687516
 11
232.427261648
 21
87.8338377116
  0
LINE
  5
4F4
100
AcDbEntity
  8
0
100
AcDbLine
 62
7
  6
CONTINUOUS
 10
232.2068991231
 20
87.9553640558
 11
232.0948578982
 21
87.9487330158
  0
LINE
  5
4F5
100
AcDbEntity
  8
0
100
AcDbLine
 62
7
  6
CONTINUOUS
 10
231.8843636096
 20
88.0668484057
 11
231.7723223847
 21
88.0602173656
  0
LINE
  5
4F6
100
AcDbEntity
  8
0
100
AcDbLine
 62
7
  6
CONTINUOUS
 10
231.5519598598
 20
88.1817437099
 11
231.4399186349
 21
88.1751126698
  0
LINE
  5
4F7
100
AcDbEntity
  8
0
100
AcDbLine
 62
7
  6
CONTINUOUS
 10
231.21955611
 20
88.296639014
 11
231.1075148851
 21
88.290007974
  0
LINE
  5
4F8
100
AcDbEntity
  8
0
100
AcDbLine
 62
7
  6
CONTINUOUS
 10
230.8871523602
 20
88.4115343182
 11
230.7751111353
 21
88.4049032782
  0
LINE
  5
4F9
100
AcDbEntity
  8
0
100
AcDbLine
 62
7
  6
CONTINUOUS
 10
230.5547486104
 20
88.5264296224
 11
230.4427073855
 21
88.5197985824
  0
LINE
  5
4FA
100
AcDbEntity
  8
0
100
AcDbLine
 62
7
  6
CONTINUOUS
 10
214.6311347362
 20
85.1497450641
 11
213.1537015363
 21
85.1356983027
  0
LINE
  5
4FB
100
AcDbEntity
  8
0
100
AcDbLine
 62
7
  6
CONTINUOUS
 10
214.2987309864
 20
85.2646403683
 11
212.8212977865
 21
85.2505936068
  0
LINE
  5
4FC
100
AcDbEntity
  8
0
100
AcDbLine
 62
7
  6
CONTINUOUS
 10
213.976195473
 20
85.3761247181
 11
212.498762273
 21
85.3620779567
  0
LINE
  5
4FD
100
AcDbEntity
  8
0
100
AcDbLine
 62
7
  6
CONTINUOUS
 10
213.6437917232
 20
85.4910200223
 11
212.1663585232
 21
85.4769732609
  0
LINE
  5
4FE
100
AcDbEntity
  8
0
100
AcDbLine
 62
7
  6
CONTINUOUS
 10
213.3113879734
 20
85.6059153265
 11
211.8339547734
 21
85.5918685651
  0
LINE
  5
4FF
100
AcDbEntity
  8
0
100
AcDbLine
 62
7
  6
CONTINUOUS
 10
212.9789842236
 20
85.7208106307
 11
211.5015510236
 21
85.7067638693
  0
LINE
  5
500
100
AcDbEntity
  8
0
100
AcDbLine
 62
7
  6
CONTINUOUS
 10
212.6465804737
 20
85.8357059349
 11
211.1691472738
 21
85.8216591734
  0
LINE
  5
501
100
AcDbEntity
  8
0
100
AcDbLine
 62
7
  6
CONTINUOUS
 10
212.3141767239
 20
85.9506012391
 11
210.836743524
 21
85.9365544776
  0
LINE
  5
502
100
AcDbEntity
  8
0
100
AcDbLine
 62
7
  6
CONTINUOUS
 10
211.9916412105
 20
86.0620855889
 11
210.5142080105
 21
86.0480388275
  0
LINE
  5
503
100
AcDbEntity
  8
0
100
AcDbLine
 62
7
  6
CONTINUOUS
 10
211.6592374607
 20
86.1769808931
 11
210.1818042607
 21
86.1629341317
  0
LINE
  5
504
100
AcDbEntity
  8
0
100
AcDbLine
 62
7
  6
CONTINUOUS
 10
211.3268337109
 20
86.2918761973
 11
209.8494005109
 21
86.2778294359
  0
LINE
  5
505
100
AcDbEntity
  8
0
100
AcDbLine
 62
7
  6
CONTINUOUS
 10
210.994429961
 20
86.4067715015
 11
209.5169967611
 21
86.39272474
  0
LINE
  5
506
100
AcDbEntity
  8
0
100
AcDbLine
 62
7
  6
CONTINUOUS
 10
210.6620262112
 20
86.5216668057
 11
209.1845930113
 21
86.5076200442
  0
LINE
  5
507
100
AcDbEntity
  8
0
100
AcDbLine
 62
7
  6
CONTINUOUS
 10
210.3296224614
 20
86.6365621099
 11
208.8521892615
 21
86.6225153484
  0
LINE
  5
508
100
AcDbEntity
  8
0
100
AcDbLine
 62
7
  6
CONTINUOUS
 10
210.007086948
 20
86.7480464597
 11
208.529653748
 21
86.7339996983
  0
LINE
  5
509
100
AcDbEntity
  8
0
100
AcDbLine
 62
7
  6
CONTINUOUS
 10
209.6746831982
 20
86.8629417639
 11
208.1972499982
 21
86.8488950025
  0
LINE
  5
50A
100
AcDbEntity
  8
0
100
AcDbLine
 62
7
  6
CONTINUOUS
 10
209.3422794483
 20
86.9778370681
 11
207.8648462484
 21
86.9637903066
  0
LINE
  5
50B
100
AcDbEntity
  8
0
100
AcDbLine
 62
7
  6
CONTINUOUS
 10
209.0098756985
 20
87.0927323723
 11
207.5324424986
 21
87.0786856108
  0
LINE
  5
50C
100
AcDbEntity
  8
0
100
AcDbLine
 62
7
  6
CONTINUOUS
 10
208.6774719487
 20
87.2076276765
 11
207.2000387488
 21
87.193580915
  0
LINE
  5
50D
100
AcDbEntity
  8
0
100
AcDbLine
 62
7
  6
CONTINUOUS
 10
208.3450681989
 20
87.3225229806
 11
206.867634999
 21
87.3084762192
  0
LINE
  5
50E
100
AcDbEntity
  8
0
100
AcDbLine
 62
7
  6
CONTINUOUS
 10
208.0225326855
 20
87.4340073305
 11
206.5450994855
 21
87.4199605691
  0
LINE
  5
50F
100
AcDbEntity
  8
0
100
AcDbLine
 62
7
  6
CONTINUOUS
 10
207.6901289357
 20
87.5489026347
 11
206.2126957357
 21
87.5348558732
  0
LINE
  5
510
100
AcDbEntity
  8
0
100
AcDbLine
 62
7
  6
CONTINUOUS
 10
207.3577251858
 20
87.6637979389
 11
205.8802919859
 21
87.6497511774
  0
LINE
  5
511
100
AcDbEntity
  8
0
100
AcDbLine
 62
7
  6
CONTINUOUS
 10
207.025321436
 20
87.7786932431
 11
205.5478882361
 21
87.7646464816
  0
LINE
  5
512
100
AcDbEntity
  8
0
100
AcDbLine
 62
7
  6
CONTINUOUS
 10
206.6929176862
 20
87.8935885472
 11
205.2154844863
 21
87.8795417858
  0
LINE
  5
513
100
AcDbEntity
  8
0
100
AcDbLine
 62
7
  6
CONTINUOUS
 10
206.3605139364
 20
88.0084838514
 11
204.8830807365
 21
87.99443709
  0
LINE
  5
514
100
AcDbEntity
  8
0
100
AcDbLine
 62
7
  6
CONTINUOUS
 10
206.037978423
 20
88.1199682013
 11
204.560545223
 21
88.1059214398
  0
LINE
  5
515
100
AcDbEntity
  8
0
100
AcDbLine
 62
7
  6
CONTINUOUS
 10
205.7055746731
 20
88.2348635055
 11
204.2281414732
 21
88.220816744
  0
LINE
  5
516
100
AcDbEntity
  8
0
100
AcDbLine
 62
7
  6
CONTINUOUS
 10
205.3731709233
 20
88.3497588097
 11
203.8957377234
 21
88.3357120482
  0
LINE
  5
517
100
AcDbEntity
  8
0
100
AcDbLine
 62
7
  6
CONTINUOUS
 10
205.0407671735
 20
88.4646541138
 11
203.5633339736
 21
88.4506073524
  0
LINE
  5
518
100
AcDbEntity
  8
0
100
AcDbLine
 62
7
  6
CONTINUOUS
 10
204.7083634237
 20
88.579549418
 11
203.2309302238
 21
88.5655026566
  0
LINE
  5
519
100
AcDbEntity
  8
0
100
AcDbLine
 62
7
  6
CONTINUOUS
 10
194.351373766
 20
86.3198448289
 11
191.879897112
 21
86.2995748213
  0
LINE
  5
51A
100
AcDbEntity
  8
0
100
AcDbLine
 62
7
  6
CONTINUOUS
 10
214.4135127432
 20
85.224966072
 11
212.9251739583
 21
85.2146888243
  0
LINE
  5
51B
100
AcDbEntity
  8
0
100
AcDbLine
 62
7
  6
CONTINUOUS
 10
214.0909772297
 20
85.3364504218
 11
212.6026384448
 21
85.3261731741
  0
LINE
  5
51C
100
AcDbEntity
  8
0
100
AcDbLine
 62
7
  6
CONTINUOUS
 10
213.7585734799
 20
85.451345726
 11
212.270234695
 21
85.4410684783
  0
LINE
  5
51D
100
AcDbEntity
  8
0
100
AcDbLine
 62
7
  6
CONTINUOUS
 10
213.4261697301
 20
85.5662410302
 11
211.9378309452
 21
85.5559637825
  0
LINE
  5
51E
100
AcDbEntity
  8
0
100
AcDbLine
 62
7
  6
CONTINUOUS
 10
213.0937659803
 20
85.6811363344
 11
211.6054271954
 21
85.6708590867
  0
LINE
  5
51F
100
AcDbEntity
  8
0
100
AcDbLine
 62
7
  6
CONTINUOUS
 10
212.7613622305
 20
85.7960316386
 11
211.2730234456
 21
85.7857543909
  0
LINE
  5
520
100
AcDbEntity
  8
0
100
AcDbLine
 62
7
  6
CONTINUOUS
 10
212.4289584807
 20
85.9109269428
 11
210.9406196958
 21
85.9006496951
  0
LINE
  5
521
100
AcDbEntity
  8
0
100
AcDbLine
 62
7
  6
CONTINUOUS
 10
212.1064229672
 20
86.0224112926
 11
210.6180841823
 21
86.0121340449
  0
LINE
  5
522
100
AcDbEntity
  8
0
100
AcDbLine
 62
7
  6
CONTINUOUS
 10
211.7740192174
 20
86.1373065968
 11
210.2856804325
 21
86.1270293491
  0
LINE
  5
523
100
AcDbEntity
  8
0
100
AcDbLine
 62
7
  6
CONTINUOUS
 10
211.4416154676
 20
86.252201901
 11
209.9532766827
 21
86.2419246533
  0
LINE
  5
524
100
AcDbEntity
  8
0
100
AcDbLine
 62
7
  6
CONTINUOUS
 10
211.1092117178
 20
86.3670972052
 11
209.6208729329
 21
86.3568199575
  0
LINE
  5
525
100
AcDbEntity
  8
0
100
AcDbLine
 62
7
  6
CONTINUOUS
 10
210.776807968
 20
86.4819925094
 11
209.2884691831
 21
86.4717152617
  0
LINE
  5
526
100
AcDbEntity
  8
0
100
AcDbLine
 62
7
  6
CONTINUOUS
 10
210.4444042182
 20
86.5968878136
 11
208.9560654333
 21
86.5866105659
  0
LINE
  5
527
100
AcDbEntity
  8
0
100
AcDbLine
 62
7
  6
CONTINUOUS
 10
210.1218687047
 20
86.7083721634
 11
208.6335299198
 21
86.6980949157
  0
LINE
  5
528
100
AcDbEntity
  8
0
100
AcDbLine
 62
7
  6
CONTINUOUS
 10
209.7894649549
 20
86.8232674676
 11
208.30112617
 21
86.8129902199
  0
LINE
  5
529
100
AcDbEntity
  8
0
100
AcDbLine
 62
7
  6
CONTINUOUS
 10
209.4570612051
 20
86.9381627718
 11
207.9687224202
 21
86.9278855241
  0
LINE
  5
52A
100
AcDbEntity
  8
0
100
AcDbLine
 62
7
  6
CONTINUOUS
 10
209.1246574553
 20
87.053058076
 11
207.6363186704
 21
87.0427808283
  0
LINE
  5
52B
100
AcDbEntity
  8
0
100
AcDbLine
 62
7
  6
CONTINUOUS
 10
208.7922537055
 20
87.1679533802
 11
207.3039149206
 21
87.1576761325
  0
LINE
  5
52C
100
AcDbEntity
  8
0
100
AcDbLine
 62
7
  6
CONTINUOUS
 10
208.4598499557
 20
87.2828486844
 11
206.9715111708
 21
87.2725714366
  0
LINE
  5
52D
100
AcDbEntity
  8
0
100
AcDbLine
 62
7
  6
CONTINUOUS
 10
208.1373144422
 20
87.3943330342
 11
206.6489756573
 21
87.3840557865
  0
LINE
  5
52E
100
AcDbEntity
  8
0
100
AcDbLine
 62
7
  6
CONTINUOUS
 10
207.8049106924
 20
87.5092283384
 11
206.3165719075
 21
87.4989510907
  0
LINE
  5
52F
100
AcDbEntity
  8
0
100
AcDbLine
 62
7
  6
CONTINUOUS
 10
207.4725069426
 20
87.6241236426
 11
205.9841681577
 21
87.6138463949
  0
LINE
  5
530
100
AcDbEntity
  8
0
100
AcDbLine
 62
7
  6
CONTINUOUS
 10
207.1401031928
 20
87.7390189468
 11
205.6517644079
 21
87.7287416991
  0
LINE
  5
531
100
AcDbEntity
  8
0
100
AcDbLine
 62
7
  6
CONTINUOUS
 10
206.807699443
 20
87.853914251
 11
205.3193606581
 21
87.8436370032
  0
LINE
  5
532
100
AcDbEntity
  8
0
100
AcDbLine
 62
7
  6
CONTINUOUS
 10
206.4752956932
 20
87.9688095551
 11
204.9869569083
 21
87.9585323074
  0
LINE
  5
533
100
AcDbEntity
  8
0
100
AcDbLine
 62
7
  6
CONTINUOUS
 10
206.1527601797
 20
88.080293905
 11
204.6644213948
 21
88.0700166573
  0
LINE
  5
534
100
AcDbEntity
  8
0
100
AcDbLine
 62
7
  6
CONTINUOUS
 10
205.8203564299
 20
88.1951892092
 11
204.332017645
 21
88.1849119615
  0
LINE
  5
535
100
AcDbEntity
  8
0
100
AcDbLine
 62
7
  6
CONTINUOUS
 10
205.4879526801
 20
88.3100845134
 11
203.9996138952
 21
88.2998072657
  0
LINE
  5
536
100
AcDbEntity
  8
0
100
AcDbLine
 62
7
  6
CONTINUOUS
 10
205.1555489303
 20
88.4249798176
 11
203.6672101454
 21
88.4147025698
  0
LINE
  5
537
100
AcDbEntity
  8
0
100
AcDbLine
 62
7
  6
CONTINUOUS
 10
204.8231451805
 20
88.5398751217
 11
203.3348063956
 21
88.529597874
  0
LINE
  5
538
100
AcDbEntity
  8
0
100
AcDbLine
 62
7
  6
CONTINUOUS
 10
204.4907414307
 20
88.6547704259
 11
203.0024026458
 21
88.6444931782
  0
LINE
  5
539
100
AcDbEntity
  8
0
100
AcDbLine
 62
7
  6
CONTINUOUS
 10
238.0457801539
 20
85.9371557398
 11
237.8380263971
 21
86.0089657933
  0
LINE
  5
53A
100
AcDbEntity
  8
0
100
AcDbLine
 62
7
  6
CONTINUOUS
 10
236.0612258913
 20
86.6231166105
 11
235.8534721346
 21
86.6949266641
  0
LINE
  5
53B
100
AcDbEntity
  8
0
100
AcDbLine
 62
7
  6
CONTINUOUS
 10
234.0766716288
 20
87.3090774813
 11
233.8689178721
 21
87.3808875349
  0
LINE
  5
53C
100
AcDbEntity
  8
0
100
AcDbLine
 62
7
  6
CONTINUOUS
 10
232.0921173663
 20
87.9950383521
 11
231.8843636096
 21
88.0668484057
  0
LINE
  5
53D
100
AcDbEntity
  8
0
100
AcDbLine
 62
7
  6
CONTINUOUS
 10
230.1075631038
 20
88.6809992229
 11
229.8998093471
 21
88.7528092765
  0
LINE
  5
53E
100
AcDbEntity
  8
0
100
AcDbLine
 62
7
  6
CONTINUOUS
 10
228.1230088413
 20
89.3669600937
 11
227.9152550846
 21
89.4387701472
  0
LINE
  5
53F
100
AcDbEntity
  8
0
100
AcDbLine
 62
7
  6
CONTINUOUS
 10
226.1384545788
 20
90.0529209645
 11
225.9307008221
 21
90.124731018
  0
LINE
  5
540
100
AcDbEntity
  8
0
100
AcDbLine
 62
7
  6
CONTINUOUS
 10
224.1539003163
 20
90.7388818353
 11
223.9461465596
 21
90.8106918888
  0
LINE
  5
541
100
AcDbEntity
  8
0
100
AcDbLine
 62
7
  6
CONTINUOUS
 10
222.1693460538
 20
91.424842706
 11
221.9615922971
 21
91.4966527596
  0
LINE
  5
542
100
AcDbEntity
  8
0
100
AcDbLine
 62
7
  6
CONTINUOUS
 10
220.1847917913
 20
92.1108035768
 11
219.9770380346
 21
92.1826136304
  0
LINE
  5
543
100
AcDbEntity
  8
0
100
AcDbLine
 62
7
  6
CONTINUOUS
 10
218.2002375288
 20
92.7967644476
 11
217.9924837721
 21
92.8685745012
  0
LINE
  5
544
100
AcDbEntity
  8
0
100
AcDbLine
 62
7
  6
CONTINUOUS
 10
216.2156832663
 20
93.4827253184
 11
216.0079295096
 21
93.554535372
  0
LINE
  5
545
100
AcDbEntity
  8
0
100
AcDbLine
 62
7
  6
CONTINUOUS
 10
214.2311290038
 20
94.1686861892
 11
214.0233752471
 21
94.2404962428
  0
LINE
  5
546
100
AcDbEntity
  8
0
100
AcDbLine
 62
7
  6
CONTINUOUS
 10
212.2465747413
 20
94.85464706
 11
212.0388209846
 21
94.9264571135
  0
LINE
  5
547
100
AcDbEntity
  8
0
100
AcDbLine
 62
7
  6
CONTINUOUS
 10
210.2620204788
 20
95.5406079308
 11
210.0542667221
 21
95.6124179843
  0
LINE
  5
548
100
AcDbEntity
  8
0
100
AcDbLine
 62
7
  6
CONTINUOUS
 10
208.2774662163
 20
96.2265688016
 11
208.0697124596
 21
96.2983788551
  0
LINE
  5
549
100
AcDbEntity
  8
0
100
AcDbLine
 62
7
  6
CONTINUOUS
 10
206.2929119538
 20
96.9125296723
 11
206.0851581971
 21
96.9843397259
  0
LINE
  5
54A
100
AcDbEntity
  8
0
100
AcDbLine
 62
7
  6
CONTINUOUS
 10
204.3083576913
 20
97.5984905431
 11
204.1006039346
 21
97.6703005967
  0
LINE
  5
54B
100
AcDbEntity
  8
0
100
AcDbLine
 62
7
  6
CONTINUOUS
 10
202.3238034288
 20
98.2844514139
 11
202.1160496721
 21
98.3562614675
  0
LINE
  5
54C
100
AcDbEntity
  8
0
100
AcDbLine
 62
7
  6
CONTINUOUS
 10
200.3392491663
 20
98.9704122847
 11
200.1314954096
 21
99.0422223383
  0
LINE
  5
54D
100
AcDbEntity
  8
0
100
AcDbLine
 62
7
  6
CONTINUOUS
 10
198.2043334385
 20
99.7083455725
 11
198.3546949038
 21
99.6563731555
  0
LINE
  5
54E
100
AcDbEntity
  8
0
100
AcDbLine
 62
7
  6
CONTINUOUS
 10
198.4694766605
 20
99.6166988592
 11
198.6870986536
 21
99.5414778513
  0
LINE
  5
54F
100
AcDbEntity
  8
0
100
AcDbLine
 62
7
  6
CONTINUOUS
 10
198.8018804103
 20
99.501803555
 11
199.0195024034
 21
99.4265825471
  0
LINE
  5
550
100
AcDbEntity
  8
0
100
AcDbLine
 62
7
  6
CONTINUOUS
 10
199.1342841601
 20
99.3869082508
 11
199.3519061532
 21
99.3116872429
  0
LINE
  5
551
100
AcDbEntity
  8
0
100
AcDbLine
 62
7
  6
CONTINUOUS
 10
199.46668791
 20
99.2720129466
 11
199.684309903
 21
99.1967919387
  0
LINE
  5
552
100
AcDbEntity
  8
0
100
AcDbLine
 62
7
  6
CONTINUOUS
 10
199.7990916598
 20
99.1571176424
 11
200.0167136528
 21
99.0818966345
  0
LINE
  5
553
100
AcDbEntity
  8
0
100
AcDbLine
 62
7
  6
CONTINUOUS
 10
200.454030923
 20
98.9307379884
 11
200.6716529161
 21
98.8555169805
  0
LINE
  5
554
100
AcDbEntity
  8
0
100
AcDbLine
 62
7
  6
CONTINUOUS
 10
200.7864346728
 20
98.8158426842
 11
201.0040566659
 21
98.7406216763
  0
LINE
  5
555
100
AcDbEntity
  8
0
100
AcDbLine
 62
7
  6
CONTINUOUS
 10
201.1188384226
 20
98.70094738
 11
201.3364604157
 21
98.6257263721
  0
LINE
  5
556
100
AcDbEntity
  8
0
100
AcDbLine
 62
7
  6
CONTINUOUS
 10
201.4512421725
 20
98.5860520759
 11
201.6688641655
 21
98.5108310679
  0
LINE
  5
557
100
AcDbEntity
  8
0
100
AcDbLine
 62
7
  6
CONTINUOUS
 10
201.7836459223
 20
98.4711567717
 11
202.0012679153
 21
98.3959357638
  0
LINE
  5
558
100
AcDbEntity
  8
0
100
AcDbLine
 62
7
  6
CONTINUOUS
 10
202.4385851855
 20
98.2447771176
 11
202.6562071786
 21
98.1695561097
  0
LINE
  5
559
100
AcDbEntity
  8
0
100
AcDbLine
 62
7
  6
CONTINUOUS
 10
202.7709889353
 20
98.1298818134
 11
202.9886109284
 21
98.0546608055
  0
LINE
  5
55A
100
AcDbEntity
  8
0
100
AcDbLine
 62
7
  6
CONTINUOUS
 10
203.1033926852
 20
98.0149865093
 11
203.3210146782
 21
97.9397655014
  0
LINE
  5
55B
100
AcDbEntity
  8
0
100
AcDbLine
 62
7
  6
CONTINUOUS
 10
203.435796435
 20
97.9000912051
 11
203.653418428
 21
97.8248701972
  0
LINE
  5
55C
100
AcDbEntity
  8
0
100
AcDbLine
 62
7
  6
CONTINUOUS
 10
203.7682001848
 20
97.7851959009
 11
203.9858221778
 21
97.709974893
  0
LINE
  5
55D
100
AcDbEntity
  8
0
100
AcDbLine
 62
7
  6
CONTINUOUS
 10
204.423139448
 20
97.5588162468
 11
204.6407614411
 21
97.4835952389
  0
LINE
  5
55E
100
AcDbEntity
  8
0
100
AcDbLine
 62
7
  6
CONTINUOUS
 10
204.7555431979
 20
97.4439209427
 11
204.9731651909
 21
97.3686999348
  0
LINE
  5
55F
100
AcDbEntity
  8
0
100
AcDbLine
 62
7
  6
CONTINUOUS
 10
205.0879469477
 20
97.3290256385
 11
205.3055689407
 21
97.2538046306
  0
LINE
  5
560
100
AcDbEntity
  8
0
100
AcDbLine
 62
7
  6
CONTINUOUS
 10
205.4203506975
 20
97.2141303343
 11
205.6379726905
 21
97.1389093264
  0
LINE
  5
561
100
AcDbEntity
  8
0
100
AcDbLine
 62
7
  6
CONTINUOUS
 10
205.7527544473
 20
97.0992350301
 11
205.9703764403
 21
97.0240140222
  0
LINE
  5
562
100
AcDbEntity
  8
0
100
AcDbLine
 62
7
  6
CONTINUOUS
 10
206.4076937106
 20
96.8728553761
 11
206.6253157036
 21
96.7976343682
  0
LINE
  5
563
100
AcDbEntity
  8
0
100
AcDbLine
 62
7
  6
CONTINUOUS
 10
206.7400974604
 20
96.7579600719
 11
206.9577194534
 21
96.682739064
  0
LINE
  5
564
100
AcDbEntity
  8
0
100
AcDbLine
 62
7
  6
CONTINUOUS
 10
207.0725012102
 20
96.6430647677
 11
207.2901232032
 21
96.5678437598
  0
LINE
  5
565
100
AcDbEntity
  8
0
100
AcDbLine
 62
7
  6
CONTINUOUS
 10
207.40490496
 20
96.5281694635
 11
207.622526953
 21
96.4529484556
  0
LINE
  5
566
100
AcDbEntity
  8
0
100
AcDbLine
 62
7
  6
CONTINUOUS
 10
207.7373087098
 20
96.4132741593
 11
207.9549307028
 21
96.3380531514
  0
LINE
  5
567
100
AcDbEntity
  8
0
100
AcDbLine
 62
7
  6
CONTINUOUS
 10
208.3922479731
 20
96.1868945053
 11
208.6098699661
 21
96.1116734974
  0
LINE
  5
568
100
AcDbEntity
  8
0
100
AcDbLine
 62
7
  6
CONTINUOUS
 10
208.7246517229
 20
96.0719992011
 11
208.9422737159
 21
95.9967781932
  0
LINE
  5
569
100
AcDbEntity
  8
0
100
AcDbLine
 62
7
  6
CONTINUOUS
 10
209.0570554727
 20
95.9571038969
 11
209.2746774657
 21
95.881882889
  0
LINE
  5
56A
100
AcDbEntity
  8
0
100
AcDbLine
 62
7
  6
CONTINUOUS
 10
209.3894592225
 20
95.8422085927
 11
209.6070812155
 21
95.7669875848
  0
LINE
  5
56B
100
AcDbEntity
  8
0
100
AcDbLine
 62
7
  6
CONTINUOUS
 10
209.7218629723
 20
95.7273132885
 11
209.9394849653
 21
95.6520922806
  0
LINE
  5
56C
100
AcDbEntity
  8
0
100
AcDbLine
 62
7
  6
CONTINUOUS
 10
210.3768022356
 20
95.5009336345
 11
210.5944242286
 21
95.4257126266
  0
LINE
  5
56D
100
AcDbEntity
  8
0
100
AcDbLine
 62
7
  6
CONTINUOUS
 10
210.7092059854
 20
95.3860383303
 11
210.9268279784
 21
95.3108173224
  0
LINE
  5
56E
100
AcDbEntity
  8
0
100
AcDbLine
 62
7
  6
CONTINUOUS
 10
211.0416097352
 20
95.2711430261
 11
211.2592317282
 21
95.1959220182
  0
LINE
  5
56F
100
AcDbEntity
  8
0
100
AcDbLine
 62
7
  6
CONTINUOUS
 10
211.374013485
 20
95.1562477219
 11
211.591635478
 21
95.081026714
  0
LINE
  5
570
100
AcDbEntity
  8
0
100
AcDbLine
 62
7
  6
CONTINUOUS
 10
211.7064172348
 20
95.0413524177
 11
211.9240392278
 21
94.9661314098
  0
LINE
  5
571
100
AcDbEntity
  8
0
100
AcDbLine
 62
7
  6
CONTINUOUS
 10
212.3613564981
 20
94.8149727637
 11
212.5789784911
 21
94.7397517558
  0
LINE
  5
572
100
AcDbEntity
  8
0
100
AcDbLine
 62
7
  6
CONTINUOUS
 10
212.6937602479
 20
94.7000774595
 11
212.9113822409
 21
94.6248564516
  0
LINE
  5
573
100
AcDbEntity
  8
0
100
AcDbLine
 62
7
  6
CONTINUOUS
 10
213.0261639977
 20
94.5851821553
 11
213.2437859907
 21
94.5099611474
  0
LINE
  5
574
100
AcDbEntity
  8
0
100
AcDbLine
 62
7
  6
CONTINUOUS
 10
213.3585677475
 20
94.4702868511
 11
213.5761897405
 21
94.3950658432
  0
LINE
  5
575
100
AcDbEntity
  8
0
100
AcDbLine
 62
7
  6
CONTINUOUS
 10
213.6909714973
 20
94.3553915469
 11
213.9085934903
 21
94.280170539
  0
LINE
  5
576
100
AcDbEntity
  8
0
100
AcDbLine
 62
7
  6
CONTINUOUS
 10
214.3459107606
 20
94.1290118929
 11
214.5635327536
 21
94.053790885
  0
LINE
  5
577
100
AcDbEntity
  8
0
100
AcDbLine
 62
7
  6
CONTINUOUS
 10
214.6783145104
 20
94.0141165887
 11
214.8959365034
 21
93.9388955808
  0
LINE
  5
578
100
AcDbEntity
  8
0
100
AcDbLine
 62
7
  6
CONTINUOUS
 10
215.0107182602
 20
93.8992212845
 11
215.2283402532
 21
93.8240002766
  0
LINE
  5
579
100
AcDbEntity
  8
0
100
AcDbLine
 62
7
  6
CONTINUOUS
 10
215.34312201
 20
93.7843259803
 11
215.560744003
 21
93.7091049724
  0
LINE
  5
57A
100
AcDbEntity
  8
0
100
AcDbLine
 62
7
  6
CONTINUOUS
 10
215.6755257598
 20
93.6694306762
 11
215.8931477528
 21
93.5942096683
  0
LINE
  5
57B
100
AcDbEntity
  8
0
100
AcDbLine
 62
7
  6
CONTINUOUS
 10
216.3304650231
 20
93.4430510221
 11
216.5480870161
 21
93.3678300142
  0
LINE
  5
57C
100
AcDbEntity
  8
0
100
AcDbLine
 62
7
  6
CONTINUOUS
 10
216.6628687729
 20
93.3281557179
 11
216.8804907659
 21
93.25293471
  0
LINE
  5
57D
100
AcDbEntity
  8
0
100
AcDbLine
 62
7
  6
CONTINUOUS
 10
216.9952725227
 20
93.2132604137
 11
217.2128945157
 21
93.1380394058
  0
LINE
  5
57E
100
AcDbEntity
  8
0
100
AcDbLine
 62
7
  6
CONTINUOUS
 10
217.3276762725
 20
93.0983651096
 11
217.5452982655
 21
93.0231441017
  0
LINE
  5
57F
100
AcDbEntity
  8
0
100
AcDbLine
 62
7
  6
CONTINUOUS
 10
217.6600800223
 20
92.9834698054
 11
217.8777020153
 21
92.9082487975
  0
LINE
  5
580
100
AcDbEntity
  8
0
100
AcDbLine
 62
7
  6
CONTINUOUS
 10
218.3150192856
 20
92.7570901513
 11
218.5326412786
 21
92.6818691434
  0
LINE
  5
581
100
AcDbEntity
  8
0
100
AcDbLine
 62
7
  6
CONTINUOUS
 10
218.6474230354
 20
92.6421948471
 11
218.8650450284
 21
92.5669738392
  0
LINE
  5
582
100
AcDbEntity
  8
0
100
AcDbLine
 62
7
  6
CONTINUOUS
 10
218.9798267852
 20
92.527299543
 11
219.1974487782
 21
92.4520785351
  0
LINE
  5
583
100
AcDbEntity
  8
0
100
AcDbLine
 62
7
  6
CONTINUOUS
 10
219.312230535
 20
92.4124042388
 11
219.529852528
 21
92.3371832309
  0
LINE
  5
584
100
AcDbEntity
  8
0
100
AcDbLine
 62
7
  6
CONTINUOUS
 10
219.6446342848
 20
92.2975089346
 11
219.8622562778
 21
92.2222879267
  0
LINE
  5
585
100
AcDbEntity
  8
0
100
AcDbLine
 62
7
  6
CONTINUOUS
 10
220.2995735481
 20
92.0711292805
 11
220.5171955411
 21
91.9959082726
  0
LINE
  5
586
100
AcDbEntity
  8
0
100
AcDbLine
 62
7
  6
CONTINUOUS
 10
220.6319772979
 20
91.9562339764
 11
220.8495992909
 21
91.8810129685
  0
LINE
  5
587
100
AcDbEntity
  8
0
100
AcDbLine
 62
7
  6
CONTINUOUS
 10
220.9643810477
 20
91.8413386722
 11
221.1820030407
 21
91.7661176643
  0
LINE
  5
588
100
AcDbEntity
  8
0
100
AcDbLine
 62
7
  6
CONTINUOUS
 10
221.2967847975
 20
91.726443368
 11
221.5144067905
 21
91.6512223601
  0
LINE
  5
589
100
AcDbEntity
  8
0
100
AcDbLine
 62
7
  6
CONTINUOUS
 10
221.6291885473
 20
91.6115480638
 11
221.8468105403
 21
91.5363270559
  0
LINE
  5
58A
100
AcDbEntity
  8
0
100
AcDbLine
 62
7
  6
CONTINUOUS
 10
222.2841278106
 20
91.3851684098
 11
222.5017498036
 21
91.3099474019
  0
LINE
  5
58B
100
AcDbEntity
  8
0
100
AcDbLine
 62
7
  6
CONTINUOUS
 10
222.6165315604
 20
91.2702731056
 11
222.8341535534
 21
91.1950520977
  0
LINE
  5
58C
100
AcDbEntity
  8
0
100
AcDbLine
 62
7
  6
CONTINUOUS
 10
222.9489353102
 20
91.1553778014
 11
223.1665573032
 21
91.0801567935
  0
LINE
  5
58D
100
AcDbEntity
  8
0
100
AcDbLine
 62
7
  6
CONTINUOUS
 10
223.28133906
 20
91.0404824972
 11
223.498961053
 21
90.9652614893
  0
LINE
  5
58E
100
AcDbEntity
  8
0
100
AcDbLine
 62
7
  6
CONTINUOUS
 10
223.6137428098
 20
90.925587193
 11
223.8313648028
 21
90.8503661851
  0
LINE
  5
58F
100
AcDbEntity
  8
0
100
AcDbLine
 62
7
  6
CONTINUOUS
 10
224.2686820731
 20
90.699207539
 11
224.4863040661
 21
90.6239865311
  0
LINE
  5
590
100
AcDbEntity
  8
0
100
AcDbLine
 62
7
  6
CONTINUOUS
 10
224.6010858229
 20
90.5843122348
 11
224.8187078159
 21
90.5090912269
  0
LINE
  5
591
100
AcDbEntity
  8
0
100
AcDbLine
 62
7
  6
CONTINUOUS
 10
224.9334895727
 20
90.4694169306
 11
225.1511115657
 21
90.3941959227
  0
LINE
  5
592
100
AcDbEntity
  8
0
100
AcDbLine
 62
7
  6
CONTINUOUS
 10
225.2658933225
 20
90.3545216264
 11
225.4835153155
 21
90.2793006185
  0
LINE
  5
593
100
AcDbEntity
  8
0
100
AcDbLine
 62
7
  6
CONTINUOUS
 10
225.5982970723
 20
90.2396263222
 11
225.8159190654
 21
90.1644053143
  0
LINE
  5
594
100
AcDbEntity
  8
0
100
AcDbLine
 62
7
  6
CONTINUOUS
 10
226.2532363356
 20
90.0132466682
 11
226.4708583286
 21
89.9380256603
  0
LINE
  5
595
100
AcDbEntity
  8
0
100
AcDbLine
 62
7
  6
CONTINUOUS
 10
226.5856400854
 20
89.898351364
 11
226.8032620784
 21
89.8231303561
  0
LINE
  5
596
100
AcDbEntity
  8
0
100
AcDbLine
 62
7
  6
CONTINUOUS
 10
226.9180438352
 20
89.7834560598
 11
227.1356658282
 21
89.7082350519
  0
LINE
  5
597
100
AcDbEntity
  8
0
100
AcDbLine
 62
7
  6
CONTINUOUS
 10
227.250447585
 20
89.6685607556
 11
227.4680695781
 21
89.5933397477
  0
LINE
  5
598
100
AcDbEntity
  8
0
100
AcDbLine
 62
7
  6
CONTINUOUS
 10
227.5828513348
 20
89.5536654514
 11
227.8004733279
 21
89.4784444435
  0
LINE
  5
599
100
AcDbEntity
  8
0
100
AcDbLine
 62
7
  6
CONTINUOUS
 10
228.2377905981
 20
89.3272857974
 11
228.4554125911
 21
89.2520647895
  0
LINE
  5
59A
100
AcDbEntity
  8
0
100
AcDbLine
 62
7
  6
CONTINUOUS
 10
228.5701943479
 20
89.2123904932
 11
228.7878163409
 21
89.1371694853
  0
LINE
  5
59B
100
AcDbEntity
  8
0
100
AcDbLine
 62
7
  6
CONTINUOUS
 10
228.9025980977
 20
89.097495189
 11
229.1202200908
 21
89.0222741811
  0
LINE
  5
59C
100
AcDbEntity
  8
0
100
AcDbLine
 62
7
  6
CONTINUOUS
 10
229.2350018475
 20
88.9825998848
 11
229.4526238406
 21
88.9073788769
  0
LINE
  5
59D
100
AcDbEntity
  8
0
100
AcDbLine
 62
7
  6
CONTINUOUS
 10
229.5674055973
 20
88.8677045806
 11
229.7850275904
 21
88.7924835727
  0
LINE
  5
59E
100
AcDbEntity
  8
0
100
AcDbLine
 62
7
  6
CONTINUOUS
 10
230.2223448606
 20
88.6413249266
 11
230.4399668536
 21
88.5661039187
  0
LINE
  5
59F
100
AcDbEntity
  8
0
100
AcDbLine
 62
7
  6
CONTINUOUS
 10
230.5547486104
 20
88.5264296224
 11
230.7723706034
 21
88.4512086145
  0
LINE
  5
5A0
100
AcDbEntity
  8
0
100
AcDbLine
 62
7
  6
CONTINUOUS
 10
230.8871523602
 20
88.4115343182
 11
231.1047743533
 21
88.3363133103
  0
LINE
  5
5A1
100
AcDbEntity
  8
0
100
AcDbLine
 62
7
  6
CONTINUOUS
 10
231.21955611
 20
88.296639014
 11
231.4371781031
 21
88.2214180061
  0
LINE
  5
5A2
100
AcDbEntity
  8
0
100
AcDbLine
 62
7
  6
CONTINUOUS
 10
231.5519598598
 20
88.1817437099
 11
231.7695818529
 21
88.106522702
  0
LINE
  5
5A3
100
AcDbEntity
  8
0
100
AcDbLine
 62
7
  6
CONTINUOUS
 10
232.2068991231
 20
87.9553640558
 11
232.4245211161
 21
87.8801430479
  0
LINE
  5
5A4
100
AcDbEntity
  8
0
100
AcDbLine
 62
7
  6
CONTINUOUS
 10
232.5393028729
 20
87.8404687516
 11
232.756924866
 21
87.7652477437
  0
LINE
  5
5A5
100
AcDbEntity
  8
0
100
AcDbLine
 62
7
  6
CONTINUOUS
 10
232.8717066227
 20
87.7255734474
 11
233.0893286158
 21
87.6503524395
  0
LINE
  5
5A6
100
AcDbEntity
  8
0
100
AcDbLine
 62
7
  6
CONTINUOUS
 10
233.2041103725
 20
87.6106781433
 11
233.4217323656
 21
87.5354571354
  0
LINE
  5
5A7
100
AcDbEntity
  8
0
100
AcDbLine
 62
7
  6
CONTINUOUS
 10
233.5365141223
 20
87.4957828391
 11
233.7541361154
 21
87.4205618312
  0
LINE
  5
5A8
100
AcDbEntity
  8
0
100
AcDbLine
 62
7
  6
CONTINUOUS
 10
234.1914533856
 20
87.269403185
 11
234.4090753787
 21
87.1941821771
  0
LINE
  5
5A9
100
AcDbEntity
  8
0
100
AcDbLine
 62
7
  6
CONTINUOUS
 10
234.5238571354
 20
87.1545078808
 11
234.7414791285
 21
87.0792868729
  0
LINE
  5
5AA
100
AcDbEntity
  8
0
100
AcDbLine
 62
7
  6
CONTINUOUS
 10
234.8562608852
 20
87.0396125767
 11
235.0738828783
 21
86.9643915688
  0
LINE
  5
5AB
100
AcDbEntity
  8
0
100
AcDbLine
 62
7
  6
CONTINUOUS
 10
235.188664635
 20
86.9247172725
 11
235.4062866281
 21
86.8494962646
  0
LINE
  5
5AC
100
AcDbEntity
  8
0
100
AcDbLine
 62
7
  6
CONTINUOUS
 10
235.5210683848
 20
86.8098219683
 11
235.7386903779
 21
86.7346009604
  0
LINE
  5
5AD
100
AcDbEntity
  8
0
100
AcDbLine
 62
7
  6
CONTINUOUS
 10
236.1760076481
 20
86.5834423142
 11
236.3936296412
 21
86.5082213063
  0
LINE
  5
5AE
100
AcDbEntity
  8
0
100
AcDbLine
 62
7
  6
CONTINUOUS
 10
236.5084113979
 20
86.4685470101
 11
236.726033391
 21
86.3933260022
  0
LINE
  5
5AF
100
AcDbEntity
  8
0
100
AcDbLine
 62
7
  6
CONTINUOUS
 10
236.8408151477
 20
86.3536517059
 11
237.0584371408
 21
86.278430698
  0
LINE
  5
5B0
100
AcDbEntity
  8
0
100
AcDbLine
 62
7
  6
CONTINUOUS
 10
237.1732188975
 20
86.2387564017
 11
237.3908408906
 21
86.1635353938
  0
LINE
  5
5B1
100
AcDbEntity
  8
0
100
AcDbLine
 62
7
  6
CONTINUOUS
 10
237.5056226473
 20
86.1238610975
 11
237.7232446404
 21
86.0486400896
  0
LINE
  5
5B2
100
AcDbEntity
  8
0
100
AcDbLine
 62
7
  6
CONTINUOUS
 10
238.1605619106
 20
85.8974814435
 11
238.3781839037
 21
85.8222604356
  0
LINE
  5
5B3
100
AcDbEntity
  8
0
100
AcDbLine
 62
7
  6
CONTINUOUS
 10
238.4929656604
 20
85.7825861393
 11
238.7105876535
 21
85.7073651314
  0
LINE
  5
5B4
100
AcDbEntity
  8
0
100
AcDbLine
 62
7
  6
CONTINUOUS
 10
238.8253694102
 20
85.6676908351
 11
239.0429914033
 21
85.5924698272
  0
LINE
  5
5B5
100
AcDbEntity
  8
0
100
AcDbLine
 62
7
  6
CONTINUOUS
 10
239.15777316
 20
85.5527955309
 11
239.3753951531
 21
85.477574523
  0
LINE
  5
5B6
100
AcDbEntity
  8
0
100
AcDbLine
 62
7
  6
CONTINUOUS
 10
239.4901769098
 20
85.4379002267
 11
239.7077989029
 21
85.3626792188
  0
LINE
  5
5B7
100
AcDbEntity
  8
0
100
AcDbLine
 62
7
  6
CONTINUOUS
 10
199.6961905532
 20
99.7988612542
 11
241.2466592787
 21
85.4369482307
  0
LINE
  5
5B8
100
AcDbEntity
  8
0
100
AcDbLine
 62
7
  6
CONTINUOUS
 10
222.1927259305
 20
82.0481538514
 11
222.1930060075
 21
82.0112641244
  0
LINE
  5
5B9
100
AcDbEntity
  8
0
100
AcDbLine
 62
7
  6
CONTINUOUS
 10
222.1693460538
 20
91.424842706
 11
222.2369480365
 21
82.5207968851
  0
LINE
  5
5BA
100
AcDbEntity
  8
0
100
AcDbLine
 62
7
  6
CONTINUOUS
 10
222.2841278106
 20
91.3851684098
 11
222.3517297932
 21
82.4811225888
  0
LINE
  5
5BB
100
AcDbEntity
  8
0
100
AcDbLine
 62
7
  6
CONTINUOUS
 10
222.5251296803
 20
81.9332585472
 11
222.5254097573
 21
81.8963688202
  0
LINE
  5
5BC
100
AcDbEntity
  8
0
100
AcDbLine
 62
7
  6
CONTINUOUS
 10
222.5017498036
 20
91.3099474019
 11
222.5693517863
 21
82.4059015809
  0
LINE
  5
5BD
100
AcDbEntity
  8
0
100
AcDbLine
 62
7
  6
CONTINUOUS
 10
222.6165315604
 20
91.2702731056
 11
222.684133543
 21
82.3662272847
  0
LINE
  5
5BE
100
AcDbEntity
  8
0
100
AcDbLine
 62
7
  6
CONTINUOUS
 10
222.8476651938
 20
81.8217741974
 11
222.8479452708
 21
81.7848844704
  0
LINE
  5
5BF
100
AcDbEntity
  8
0
100
AcDbLine
 62
7
  6
CONTINUOUS
 10
222.8341535534
 20
91.1950520977
 11
222.9017555361
 21
82.2910062768
  0
LINE
  5
5C0
100
AcDbEntity
  8
0
100
AcDbLine
 62
7
  6
CONTINUOUS
 10
222.9489353102
 20
91.1553778014
 11
223.0165372928
 21
82.2513319805
  0
LINE
  5
5C1
100
AcDbEntity
  8
0
100
AcDbLine
 62
7
  6
CONTINUOUS
 10
223.1800689436
 20
81.7068788932
 11
223.1803490206
 21
81.6699891662
  0
LINE
  5
5C2
100
AcDbEntity
  8
0
100
AcDbLine
 62
7
  6
CONTINUOUS
 10
223.1665573032
 20
91.0801567935
 11
223.2341592859
 21
82.1761109726
  0
LINE
  5
5C3
100
AcDbEntity
  8
0
100
AcDbLine
 62
7
  6
CONTINUOUS
 10
223.28133906
 20
91.0404824972
 11
223.3489410426
 21
82.1364366763
  0
LINE
  5
5C4
100
AcDbEntity
  8
0
100
AcDbLine
 62
7
  6
CONTINUOUS
 10
223.5124726934
 20
81.591983589
 11
223.5127527704
 21
81.555093862
  0
LINE
  5
5C5
100
AcDbEntity
  8
0
100
AcDbLine
 62
7
  6
CONTINUOUS
 10
223.498961053
 20
90.9652614893
 11
223.5665630357
 21
82.0612156684
  0
LINE
  5
5C6
100
AcDbEntity
  8
0
100
AcDbLine
 62
7
  6
CONTINUOUS
 10
223.6137428098
 20
90.925587193
 11
223.6813447924
 21
82.0215413721
  0
LINE
  5
5C7
100
AcDbEntity
  8
0
100
AcDbLine
 62
7
  6
CONTINUOUS
 10
223.8448764432
 20
81.4770882848
 11
223.8451565202
 21
81.4401985578
  0
LINE
  5
5C8
100
AcDbEntity
  8
0
100
AcDbLine
 62
7
  6
CONTINUOUS
 10
223.8313648028
 20
90.8503661851
 11
223.8989667855
 21
81.9463203642
  0
LINE
  5
5C9
100
AcDbEntity
  8
0
100
AcDbLine
 62
7
  6
CONTINUOUS
 10
223.9461465596
 20
90.8106918888
 11
224.0137485422
 21
81.9066460679
  0
LINE
  5
5CA
100
AcDbEntity
  8
0
100
AcDbLine
 62
7
  6
CONTINUOUS
 10
224.177280193
 20
81.3621929806
 11
224.17756027
 21
81.3253032536
  0
LINE
  5
5CB
100
AcDbEntity
  8
0
100
AcDbLine
 62
7
  6
CONTINUOUS
 10
224.1539003163
 20
90.7388818353
 11
224.221502299
 21
81.8348360143
  0
LINE
  5
5CC
100
AcDbEntity
  8
0
100
AcDbLine
 62
7
  6
CONTINUOUS
 10
224.2686820731
 20
90.699207539
 11
224.3362840557
 21
81.7951617181
  0
LINE
  5
5CD
100
AcDbEntity
  8
0
100
AcDbLine
 62
7
  6
CONTINUOUS
 10
224.5096839428
 20
81.2472976764
 11
224.5099640198
 21
81.2104079494
  0
LINE
  5
5CE
100
AcDbEntity
  8
0
100
AcDbLine
 62
7
  6
CONTINUOUS
 10
224.4863040661
 20
90.6239865311
 11
224.5539060488
 21
81.7199407102
  0
LINE
  5
5CF
100
AcDbEntity
  8
0
100
AcDbLine
 62
7
  6
CONTINUOUS
 10
224.6010858229
 20
90.5843122348
 11
224.6686878055
 21
81.6802664139
  0
LINE
  5
5D0
100
AcDbEntity
  8
0
100
AcDbLine
 62
7
  6
CONTINUOUS
 10
224.8322194563
 20
81.1358133266
 11
224.8324995333
 21
81.0989235996
  0
LINE
  5
5D1
100
AcDbEntity
  8
0
100
AcDbLine
 62
7
  6
CONTINUOUS
 10
224.8187078159
 20
90.5090912269
 11
224.8863097986
 21
81.605045406
  0
LINE
  5
5D2
100
AcDbEntity
  8
0
100
AcDbLine
 62
7
  6
CONTINUOUS
 10
224.9334895727
 20
90.4694169306
 11
225.0010915553
 21
81.5653711097
  0
LINE
  5
5D3
100
AcDbEntity
  8
0
100
AcDbLine
 62
7
  6
CONTINUOUS
 10
225.1646232061
 20
81.0209180224
 11
225.1649032831
 21
80.9840282954
  0
LINE
  5
5D4
100
AcDbEntity
  8
0
100
AcDbLine
 62
7
  6
CONTINUOUS
 10
225.1511115657
 20
90.3941959227
 11
225.2187135484
 21
81.4901501018
  0
LINE
  5
5D5
100
AcDbEntity
  8
0
100
AcDbLine
 62
7
  6
CONTINUOUS
 10
225.2658933225
 20
90.3545216264
 11
225.3334953051
 21
81.4504758055
  0
LINE
  5
5D6
100
AcDbEntity
  8
0
100
AcDbLine
 62
7
  6
CONTINUOUS
 10
225.4970269559
 20
80.9060227182
 11
225.4973070329
 21
80.8691329912
  0
LINE
  5
5D7
100
AcDbEntity
  8
0
100
AcDbLine
 62
7
  6
CONTINUOUS
 10
225.4835153155
 20
90.2793006185
 11
225.5511172982
 21
81.3752547976
  0
LINE
  5
5D8
100
AcDbEntity
  8
0
100
AcDbLine
 62
7
  6
CONTINUOUS
 10
225.5982970723
 20
90.2396263222
 11
225.6658990549
 21
81.3355805013
  0
LINE
  5
5D9
100
AcDbEntity
  8
0
100
AcDbLine
 62
7
  6
CONTINUOUS
 10
224.8842832083
 20
123.910219962
 11
224.8191643989
 21
122.455267842
  0
LINE
  5
5DA
100
AcDbEntity
  8
0
100
AcDbLine
 62
7
  6
CONTINUOUS
 10
230.2223448606
 20
88.6413249266
 11
230.1103036357
 21
88.6346938865
  0
LINE
  5
5DB
100
AcDbEntity
  8
0
100
AcDbLine
 62
7
  6
CONTINUOUS
 10
229.8998093471
 20
88.7528092765
 11
229.7877681222
 21
88.7461782364
  0
LINE
  5
5DC
100
AcDbEntity
  8
0
100
AcDbLine
 62
7
  6
CONTINUOUS
 10
229.5674055973
 20
88.8677045806
 11
229.4553643724
 21
88.8610735406
  0
LINE
  5
5DD
100
AcDbEntity
  8
0
100
AcDbLine
 62
7
  6
CONTINUOUS
 10
229.2350018475
 20
88.9825998848
 11
229.1229606226
 21
88.9759688448
  0
LINE
  5
5DE
100
AcDbEntity
  8
0
100
AcDbLine
 62
7
  6
CONTINUOUS
 10
228.9025980977
 20
89.097495189
 11
228.7905568728
 21
89.090864149
  0
LINE
  5
5DF
100
AcDbEntity
  8
0
100
AcDbLine
 62
7
  6
CONTINUOUS
 10
228.5701943479
 20
89.2123904932
 11
228.458153123
 21
89.2057594531
  0
LINE
  5
5E0
100
AcDbEntity
  8
0
100
AcDbLine
 62
7
  6
CONTINUOUS
 10
228.2377905981
 20
89.3272857974
 11
228.1257493731
 21
89.3206547573
  0
LINE
  5
5E1
100
AcDbEntity
  8
0
100
AcDbLine
 62
7
  6
CONTINUOUS
 10
227.9152550846
 20
89.4387701472
 11
227.8032138597
 21
89.4321391072
  0
LINE
  5
5E2
100
AcDbEntity
  8
0
100
AcDbLine
 62
7
  6
CONTINUOUS
 10
227.5828513348
 20
89.5536654514
 11
227.4708101099
 21
89.5470344114
  0
LINE
  5
5E3
100
AcDbEntity
  8
0
100
AcDbLine
 62
7
  6
CONTINUOUS
 10
227.250447585
 20
89.6685607556
 11
227.1384063601
 21
89.6619297155
  0
LINE
  5
5E4
100
AcDbEntity
  8
0
100
AcDbLine
 62
7
  6
CONTINUOUS
 10
226.9180438352
 20
89.7834560598
 11
226.8060026103
 21
89.7768250197
  0
LINE
  5
5E5
100
AcDbEntity
  8
0
100
AcDbLine
 62
7
  6
CONTINUOUS
 10
226.5856400854
 20
89.898351364
 11
226.4735988604
 21
89.8917203239
  0
LINE
  5
5E6
100
AcDbEntity
  8
0
100
AcDbLine
 62
7
  6
CONTINUOUS
 10
226.2532363356
 20
90.0132466682
 11
226.1411951106
 21
90.0066156281
  0
LINE
  5
5E7
100
AcDbEntity
  8
0
100
AcDbLine
 62
7
  6
CONTINUOUS
 10
225.9307008221
 20
90.124731018
 11
225.8186595972
 21
90.118099978
  0
LINE
  5
5E8
100
AcDbEntity
  8
0
100
AcDbLine
 62
7
  6
CONTINUOUS
 10
225.5982970723
 20
90.2396263222
 11
225.4862558474
 21
90.2329952821
  0
LINE
  5
5E9
100
AcDbEntity
  8
0
100
AcDbLine
 62
7
  6
CONTINUOUS
 10
225.2658933225
 20
90.3545216264
 11
225.1538520976
 21
90.3478905863
  0
LINE
  5
5EA
100
AcDbEntity
  8
0
100
AcDbLine
 62
7
  6
CONTINUOUS
 10
224.9334895727
 20
90.4694169306
 11
224.8214483477
 21
90.4627858905
  0
LINE
  5
5EB
100
AcDbEntity
  8
0
100
AcDbLine
 62
7
  6
CONTINUOUS
 10
224.6010858229
 20
90.5843122348
 11
224.4890445979
 21
90.5776811947
  0
LINE
  5
5EC
100
AcDbEntity
  8
0
100
AcDbLine
 62
7
  6
CONTINUOUS
 10
224.2686820731
 20
90.699207539
 11
224.1566408481
 21
90.6925764989
  0
LINE
  5
5ED
100
AcDbEntity
  8
0
100
AcDbLine
 62
7
  6
CONTINUOUS
 10
223.9461465596
 20
90.8106918888
 11
223.8341053347
 21
90.8040608487
  0
LINE
  5
5EE
100
AcDbEntity
  8
0
100
AcDbLine
 62
7
  6
CONTINUOUS
 10
223.6137428098
 20
90.925587193
 11
223.5017015849
 21
90.9189561529
  0
LINE
  5
5EF
100
AcDbEntity
  8
0
100
AcDbLine
 62
7
  6
CONTINUOUS
 10
223.28133906
 20
91.0404824972
 11
223.1692978351
 21
91.0338514571
  0
LINE
  5
5F0
100
AcDbEntity
  8
0
100
AcDbLine
 62
7
  6
CONTINUOUS
 10
222.9489353102
 20
91.1553778014
 11
222.8368940852
 21
91.1487467613
  0
LINE
  5
5F1
100
AcDbEntity
  8
0
100
AcDbLine
 62
7
  6
CONTINUOUS
 10
222.6165315604
 20
91.2702731056
 11
222.5044903354
 21
91.2636420655
  0
LINE
  5
5F2
100
AcDbEntity
  8
0
100
AcDbLine
 62
7
  6
CONTINUOUS
 10
222.2841278106
 20
91.3851684098
 11
222.1720865856
 21
91.3785373697
  0
LINE
  5
5F3
100
AcDbEntity
  8
0
100
AcDbLine
 62
7
  6
CONTINUOUS
 10
221.9615922971
 20
91.4966527596
 11
221.8495510722
 21
91.4900217195
  0
LINE
  5
5F4
100
AcDbEntity
  8
0
100
AcDbLine
 62
7
  6
CONTINUOUS
 10
221.6291885473
 20
91.6115480638
 11
221.5171473224
 21
91.6049170237
  0
LINE
  5
5F5
100
AcDbEntity
  8
0
100
AcDbLine
 62
7
  6
CONTINUOUS
 10
204.3759596739
 20
88.6944447222
 11
202.898526474
 21
88.6803979608
  0
LINE
  5
5F6
100
AcDbEntity
  8
0
100
AcDbLine
 62
7
  6
CONTINUOUS
 10
204.0534241604
 20
88.8059290721
 11
202.5759909605
 21
88.7918823106
  0
LINE
  5
5F7
100
AcDbEntity
  8
0
100
AcDbLine
 62
7
  6
CONTINUOUS
 10
203.7210204106
 20
88.9208243762
 11
202.2435872107
 21
88.9067776148
  0
LINE
  5
5F8
100
AcDbEntity
  8
0
100
AcDbLine
 62
7
  6
CONTINUOUS
 10
203.3886166608
 20
89.0357196804
 11
201.9111834609
 21
89.021672919
  0
LINE
  5
5F9
100
AcDbEntity
  8
0
100
AcDbLine
 62
7
  6
CONTINUOUS
 10
203.056212911
 20
89.1506149846
 11
201.5787797111
 21
89.1365682232
  0
LINE
  5
5FA
100
AcDbEntity
  8
0
100
AcDbLine
 62
7
  6
CONTINUOUS
 10
202.7238091612
 20
89.2655102888
 11
201.2463759613
 21
89.2514635274
  0
LINE
  5
5FB
100
AcDbEntity
  8
0
100
AcDbLine
 62
7
  6
CONTINUOUS
 10
202.3914054114
 20
89.380405593
 11
200.9139722115
 21
89.3663588316
  0
LINE
  5
5FC
100
AcDbEntity
  8
0
100
AcDbLine
 62
7
  6
CONTINUOUS
 10
202.0688698979
 20
89.4918899428
 11
200.591436698
 21
89.4778431814
  0
LINE
  5
5FD
100
AcDbEntity
  8
0
100
AcDbLine
 62
7
  6
CONTINUOUS
 10
201.7364661481
 20
89.606785247
 11
200.2590329482
 21
89.5927384856
  0
LINE
  5
5FE
100
AcDbEntity
  8
0
100
AcDbLine
 62
7
  6
CONTINUOUS
 10
201.4040623983
 20
89.7216805512
 11
199.9266291984
 21
89.7076337898
  0
LINE
  5
5FF
100
AcDbEntity
  8
0
100
AcDbLine
 62
7
  6
CONTINUOUS
 10
201.0716586485
 20
89.8365758554
 11
199.5942254486
 21
89.822529094
  0
LINE
  5
600
100
AcDbEntity
  8
0
100
AcDbLine
 62
7
  6
CONTINUOUS
 10
200.7392548987
 20
89.9514711596
 11
199.2618216988
 21
89.9374243982
  0
LINE
  5
601
100
AcDbEntity
  8
0
100
AcDbLine
 62
7
  6
CONTINUOUS
 10
200.4068511489
 20
90.0663664638
 11
198.929417949
 21
90.0523197024
  0
LINE
  5
602
100
AcDbEntity
  8
0
100
AcDbLine
 62
7
  6
CONTINUOUS
 10
200.0843156354
 20
90.1778508136
 11
198.6068824355
 21
90.1638040522
  0
LINE
  5
603
100
AcDbEntity
  8
0
100
AcDbLine
 62
7
  6
CONTINUOUS
 10
199.7519118856
 20
90.2927461178
 11
198.2744786857
 21
90.2786993564
  0
LINE
  5
604
100
AcDbEntity
  8
0
100
AcDbLine
 62
7
  6
CONTINUOUS
 10
199.4195081358
 20
90.407641422
 11
197.9420749359
 21
90.3935946606
  0
LINE
  5
605
100
AcDbEntity
  8
0
100
AcDbLine
 62
7
  6
CONTINUOUS
 10
199.087104386
 20
90.5225367262
 11
197.6096711861
 21
90.5084899648
  0
LINE
  5
606
100
AcDbEntity
  8
0
100
AcDbLine
 62
7
  6
CONTINUOUS
 10
198.7547006362
 20
90.6374320304
 11
197.2772674363
 21
90.623385269
  0
LINE
  5
607
100
AcDbEntity
  8
0
100
AcDbLine
 62
7
  6
CONTINUOUS
 10
198.4222968864
 20
90.7523273346
 11
196.9448636865
 21
90.7382805731
  0
LINE
  5
608
100
AcDbEntity
  8
0
100
AcDbLine
 62
7
  6
CONTINUOUS
 10
198.2719354212
 20
90.8042997516
 11
196.7890494287
 21
90.792137747
  0
LINE
  5
609
100
AcDbEntity
  8
0
100
AcDbLine
 62
7
  6
CONTINUOUS
 10
204.1682059172
 20
88.7662547758
 11
202.6798671323
 21
88.7559775281
  0
LINE
  5
60A
100
AcDbEntity
  8
0
100
AcDbLine
 62
7
  6
CONTINUOUS
 10
203.8358021674
 20
88.88115008
 11
202.3474633825
 21
88.8708728323
  0
LINE
  5
60B
100
AcDbEntity
  8
0
100
AcDbLine
 62
7
  6
CONTINUOUS
 10
203.5033984176
 20
88.9960453842
 11
202.0150596327
 21
88.9857681364
  0
LINE
  5
60C
100
AcDbEntity
  8
0
100
AcDbLine
 62
7
  6
CONTINUOUS
 10
203.1709946678
 20
89.1109406883
 11
201.6826558829
 21
89.1006634406
  0
LINE
  5
60D
100
AcDbEntity
  8
0
100
AcDbLine
 62
7
  6
CONTINUOUS
 10
202.838590918
 20
89.2258359925
 11
201.3502521331
 21
89.2155587448
  0
LINE
  5
60E
100
AcDbEntity
  8
0
100
AcDbLine
 62
7
  6
CONTINUOUS
 10
202.5061871682
 20
89.3407312967
 11
201.0178483833
 21
89.330454049
  0
LINE
  5
60F
100
AcDbEntity
  8
0
100
AcDbLine
 62
7
  6
CONTINUOUS
 10
202.1836516547
 20
89.4522156466
 11
200.6953128698
 21
89.4419383989
  0
LINE
  5
610
100
AcDbEntity
  8
0
100
AcDbLine
 62
7
  6
CONTINUOUS
 10
201.8512479049
 20
89.5671109507
 11
200.36290912
 21
89.556833703
  0
LINE
  5
611
100
AcDbEntity
  8
0
100
AcDbLine
 62
7
  6
CONTINUOUS
 10
201.5188441551
 20
89.6820062549
 11
200.0305053702
 21
89.6717290072
  0
LINE
  5
612
100
AcDbEntity
  8
0
100
AcDbLine
 62
7
  6
CONTINUOUS
 10
201.1864404053
 20
89.7969015591
 11
199.6981016204
 21
89.7866243114
  0
LINE
  5
613
100
AcDbEntity
  8
0
100
AcDbLine
 62
7
  6
CONTINUOUS
 10
200.8540366555
 20
89.9117968633
 11
199.3656978706
 21
89.9015196156
  0
LINE
  5
614
100
AcDbEntity
  8
0
100
AcDbLine
 62
7
  6
CONTINUOUS
 10
200.5216329057
 20
90.0266921675
 11
199.0332941208
 21
90.0164149198
  0
LINE
  5
615
100
AcDbEntity
  8
0
100
AcDbLine
 62
7
  6
CONTINUOUS
 10
200.1990973922
 20
90.1381765173
 11
198.7107586073
 21
90.1278992696
  0
LINE
  5
616
100
AcDbEntity
  8
0
100
AcDbLine
 62
7
  6
CONTINUOUS
 10
199.8666936424
 20
90.2530718215
 11
198.3783548575
 21
90.2427945738
  0
LINE
  5
617
100
AcDbEntity
  8
0
100
AcDbLine
 62
7
  6
CONTINUOUS
 10
199.5342898926
 20
90.3679671257
 11
198.0459511077
 21
90.357689878
  0
LINE
  5
618
100
AcDbEntity
  8
0
100
AcDbLine
 62
7
  6
CONTINUOUS
 10
199.2018861428
 20
90.4828624299
 11
197.7135473579
 21
90.4725851822
  0
LINE
  5
619
100
AcDbEntity
  8
0
100
AcDbLine
 62
7
  6
CONTINUOUS
 10
198.869482393
 20
90.5977577341
 11
197.3811436081
 21
90.5874804864
  0
LINE
  5
61A
100
AcDbEntity
  8
0
100
AcDbLine
 62
7
  6
CONTINUOUS
 10
198.5370786432
 20
90.7126530383
 11
197.0487398583
 21
90.7023757906
  0
LINE
  5
61B
100
AcDbEntity
  8
0
100
AcDbLine
 62
7
  6
CONTINUOUS
 10
225.8294307057
 20
80.791127414
 11
225.8297107827
 21
80.754237687
  0
LINE
  5
61C
100
AcDbEntity
  8
0
100
AcDbLine
 62
7
  6
CONTINUOUS
 10
225.8159190654
 20
90.1644053143
 11
225.883521048
 21
81.2603594934
  0
LINE
  5
61D
100
AcDbEntity
  8
0
100
AcDbLine
 62
7
  6
CONTINUOUS
 10
225.9307008221
 20
90.124731018
 11
225.9983028047
 21
81.2206851971
  0
LINE
  5
61E
100
AcDbEntity
  8
0
100
AcDbLine
 62
7
  6
CONTINUOUS
 10
226.1618344555
 20
80.6762321098
 11
226.1621145325
 21
80.6393423828
  0
LINE
  5
61F
100
AcDbEntity
  8
0
100
AcDbLine
 62
7
  6
CONTINUOUS
 10
226.1384545788
 20
90.0529209645
 11
226.2060565615
 21
81.1488751436
  0
LINE
  5
620
100
AcDbEntity
  8
0
100
AcDbLine
 62
7
  6
CONTINUOUS
 10
226.2532363356
 20
90.0132466682
 11
226.3208383182
 21
81.1092008473
  0
LINE
  5
621
100
AcDbEntity
  8
0
100
AcDbLine
 62
7
  6
CONTINUOUS
 10
226.4942382053
 20
80.5613368056
 11
226.4945182823
 21
80.5244470786
  0
LINE
  5
622
100
AcDbEntity
  8
0
100
AcDbLine
 62
7
  6
CONTINUOUS
 10
226.4708583286
 20
89.9380256603
 11
226.5384603113
 21
81.0339798394
  0
LINE
  5
623
100
AcDbEntity
  8
0
100
AcDbLine
 62
7
  6
CONTINUOUS
 10
226.5856400854
 20
89.898351364
 11
226.653242068
 21
80.9943055431
  0
LINE
  5
624
100
AcDbEntity
  8
0
100
AcDbLine
 62
7
  6
CONTINUOUS
 10
226.8167737188
 20
80.4498524558
 11
226.8170537958
 21
80.4129627288
  0
LINE
  5
625
100
AcDbEntity
  8
0
100
AcDbLine
 62
7
  6
CONTINUOUS
 10
226.8032620784
 20
89.8231303561
 11
226.8708640611
 21
80.9190845352
  0
LINE
  5
626
100
AcDbEntity
  8
0
100
AcDbLine
 62
7
  6
CONTINUOUS
 10
226.9180438352
 20
89.7834560598
 11
226.9856458178
 21
80.8794102389
  0
LINE
  5
627
100
AcDbEntity
  8
0
100
AcDbLine
 62
7
  6
CONTINUOUS
 10
227.1491774686
 20
80.3349571516
 11
227.1494575456
 21
80.2980674246
  0
LINE
  5
628
100
AcDbEntity
  8
0
100
AcDbLine
 62
7
  6
CONTINUOUS
 10
227.1356658282
 20
89.7082350519
 11
227.2032678109
 21
80.804189231
  0
LINE
  5
629
100
AcDbEntity
  8
0
100
AcDbLine
 62
7
  6
CONTINUOUS
 10
227.250447585
 20
89.6685607556
 11
227.3180495676
 21
80.7645149347
  0
LINE
  5
62A
100
AcDbEntity
  8
0
100
AcDbLine
 62
7
  6
CONTINUOUS
 10
227.4815812184
 20
80.2200618474
 11
227.4818612954
 21
80.1831721204
  0
LINE
  5
62B
100
AcDbEntity
  8
0
100
AcDbLine
 62
7
  6
CONTINUOUS
 10
227.4680695781
 20
89.5933397477
 11
227.5356715607
 21
80.6892939268
  0
LINE
  5
62C
100
AcDbEntity
  8
0
100
AcDbLine
 62
7
  6
CONTINUOUS
 10
227.5828513348
 20
89.5536654514
 11
227.6504533174
 21
80.6496196305
  0
LINE
  5
62D
100
AcDbEntity
  8
0
100
AcDbLine
 62
7
  6
CONTINUOUS
 10
227.8139849682
 20
80.1051665432
 11
227.8142650452
 21
80.0682768162
  0
LINE
  5
62E
100
AcDbEntity
  8
0
100
AcDbLine
 62
7
  6
CONTINUOUS
 10
227.8004733279
 20
89.4784444435
 11
227.8680753105
 21
80.5743986226
  0
LINE
  5
62F
100
AcDbEntity
  8
0
100
AcDbLine
 62
7
  6
CONTINUOUS
 10
227.9152550846
 20
89.4387701472
 11
227.9828570672
 21
80.5347243263
  0
LINE
  5
630
100
AcDbEntity
  8
0
100
AcDbLine
 62
7
  6
CONTINUOUS
 10
228.146388718
 20
79.990271239
 11
228.146668795
 21
79.953381512
  0
LINE
  5
631
100
AcDbEntity
  8
0
100
AcDbLine
 62
7
  6
CONTINUOUS
 10
228.1230088413
 20
89.3669600937
 11
228.190610824
 21
80.4629142728
  0
LINE
  5
632
100
AcDbEntity
  8
0
100
AcDbLine
 62
7
  6
CONTINUOUS
 10
228.2377905981
 20
89.3272857974
 11
228.3053925807
 21
80.4232399765
  0
LINE
  5
633
100
AcDbEntity
  8
0
100
AcDbLine
 62
7
  6
CONTINUOUS
 10
228.4787924678
 20
79.8753759348
 11
228.4790725449
 21
79.8384862078
  0
LINE
  5
634
100
AcDbEntity
  8
0
100
AcDbLine
 62
7
  6
CONTINUOUS
 10
228.4554125911
 20
89.2520647895
 11
228.5230145738
 21
80.3480189686
  0
LINE
  5
635
100
AcDbEntity
  8
0
100
AcDbLine
 62
7
  6
CONTINUOUS
 10
228.5701943479
 20
89.2123904932
 11
228.6377963305
 21
80.3083446723
  0
LINE
  5
636
100
AcDbEntity
  8
0
100
AcDbLine
 62
7
  6
CONTINUOUS
 10
228.8013279813
 20
79.763891585
 11
228.8016080583
 21
79.727001858
  0
LINE
  5
637
100
AcDbEntity
  8
0
100
AcDbLine
 62
7
  6
CONTINUOUS
 10
228.7878163409
 20
89.1371694853
 11
228.8554183236
 21
80.2331236644
  0
LINE
  5
638
100
AcDbEntity
  8
0
100
AcDbLine
 62
7
  6
CONTINUOUS
 10
228.9025980977
 20
89.097495189
 11
228.9702000803
 21
80.1934493681
  0
LINE
  5
639
100
AcDbEntity
  8
0
100
AcDbLine
 62
7
  6
CONTINUOUS
 10
228.5990143465
 20
133.1025308893
 11
228.5952586808
 21
133.5972001015
  0
LINE
  5
63A
100
AcDbEntity
  8
0
100
AcDbLine
 62
7
  6
CONTINUOUS
 10
229.1337317311
 20
79.6489962808
 11
229.1340118081
 21
79.6121065538
  0
LINE
  5
63B
100
AcDbEntity
  8
0
100
AcDbLine
 62
7
  6
CONTINUOUS
 10
229.1202200908
 20
89.0222741811
 11
229.1878220734
 21
80.1182283602
  0
LINE
  5
63C
100
AcDbEntity
  8
0
100
AcDbLine
 62
7
  6
CONTINUOUS
 10
229.2350018475
 20
88.9825998848
 11
229.3026038301
 21
80.0785540639
  0
LINE
  5
63D
100
AcDbEntity
  8
0
100
AcDbLine
 62
7
  6
CONTINUOUS
 10
221.2967847975
 20
91.726443368
 11
221.1847435725
 21
91.7198123279
  0
LINE
  5
63E
100
AcDbEntity
  8
0
100
AcDbLine
 62
7
  6
CONTINUOUS
 10
220.9643810477
 20
91.8413386722
 11
220.8523398227
 21
91.8347076321
  0
LINE
  5
63F
100
AcDbEntity
  8
0
100
AcDbLine
 62
7
  6
CONTINUOUS
 10
220.6319772979
 20
91.9562339764
 11
220.5199360729
 21
91.9496029363
  0
LINE
  5
640
100
AcDbEntity
  8
0
100
AcDbLine
 62
7
  6
CONTINUOUS
 10
220.2995735481
 20
92.0711292805
 11
220.1875323231
 21
92.0644982405
  0
LINE
  5
641
100
AcDbEntity
  8
0
100
AcDbLine
 62
7
  6
CONTINUOUS
 10
219.9770380346
 20
92.1826136304
 11
219.8649968097
 21
92.1759825903
  0
LINE
  5
642
100
AcDbEntity
  8
0
100
AcDbLine
 62
7
  6
CONTINUOUS
 10
219.6446342848
 20
92.2975089346
 11
219.5325930598
 21
92.2908778945
  0
LINE
  5
643
100
AcDbEntity
  8
0
100
AcDbLine
 62
7
  6
CONTINUOUS
 10
219.312230535
 20
92.4124042388
 11
219.20018931
 21
92.4057731987
  0
LINE
  5
644
100
AcDbEntity
  8
0
100
AcDbLine
 62
7
  6
CONTINUOUS
 10
218.9798267852
 20
92.527299543
 11
218.8677855602
 21
92.5206685029
  0
LINE
  5
645
100
AcDbEntity
  8
0
100
AcDbLine
 62
7
  6
CONTINUOUS
 10
218.6474230354
 20
92.6421948471
 11
218.5353818104
 21
92.6355638071
  0
LINE
  5
646
100
AcDbEntity
  8
0
100
AcDbLine
 62
7
  6
CONTINUOUS
 10
218.3150192856
 20
92.7570901513
 11
218.2029780606
 21
92.7504591113
  0
LINE
  5
647
100
AcDbEntity
  8
0
100
AcDbLine
 62
7
  6
CONTINUOUS
 10
217.9924837721
 20
92.8685745012
 11
217.8804425471
 21
92.8619434611
  0
LINE
  5
648
100
AcDbEntity
  8
0
100
AcDbLine
 62
7
  6
CONTINUOUS
 10
217.6600800223
 20
92.9834698054
 11
217.5480387973
 21
92.9768387653
  0
LINE
  5
649
100
AcDbEntity
  8
0
100
AcDbLine
 62
7
  6
CONTINUOUS
 10
217.3276762725
 20
93.0983651096
 11
217.2156350475
 21
93.0917340695
  0
LINE
  5
64A
100
AcDbEntity
  8
0
100
AcDbLine
 62
7
  6
CONTINUOUS
 10
216.9952725227
 20
93.2132604137
 11
216.8832312977
 21
93.2066293737
  0
LINE
  5
64B
100
AcDbEntity
  8
0
100
AcDbLine
 62
7
  6
CONTINUOUS
 10
216.6628687729
 20
93.3281557179
 11
216.5508275479
 21
93.3215246779
  0
LINE
  5
64C
100
AcDbEntity
  8
0
100
AcDbLine
 62
7
  6
CONTINUOUS
 10
216.3304650231
 20
93.4430510221
 11
216.2184237981
 21
93.436419982
  0
LINE
  5
64D
100
AcDbEntity
  8
0
100
AcDbLine
 62
7
  6
CONTINUOUS
 10
216.0079295096
 20
93.554535372
 11
215.8958882846
 21
93.5479043319
  0
LINE
  5
64E
100
AcDbEntity
  8
0
100
AcDbLine
 62
7
  6
CONTINUOUS
 10
215.6755257598
 20
93.6694306762
 11
215.5634845348
 21
93.6627996361
  0
LINE
  5
64F
100
AcDbEntity
  8
0
100
AcDbLine
 62
7
  6
CONTINUOUS
 10
215.34312201
 20
93.7843259803
 11
215.231080785
 21
93.7776949403
  0
LINE
  5
650
100
AcDbEntity
  8
0
100
AcDbLine
 62
7
  6
CONTINUOUS
 10
215.0107182602
 20
93.8992212845
 11
214.8986770352
 21
93.8925902445
  0
LINE
  5
651
100
AcDbEntity
  8
0
100
AcDbLine
 62
7
  6
CONTINUOUS
 10
214.6783145104
 20
94.0141165887
 11
214.5662732854
 21
94.0074855486
  0
LINE
  5
652
100
AcDbEntity
  8
0
100
AcDbLine
 62
7
  6
CONTINUOUS
 10
214.3459107606
 20
94.1290118929
 11
214.2338695356
 21
94.1223808528
  0
LINE
  5
653
100
AcDbEntity
  8
0
100
AcDbLine
 62
7
  6
CONTINUOUS
 10
214.0233752471
 20
94.2404962428
 11
213.9113340221
 21
94.2338652027
  0
LINE
  5
654
100
AcDbEntity
  8
0
100
AcDbLine
 62
7
  6
CONTINUOUS
 10
213.6909714973
 20
94.3553915469
 11
213.5789302723
 21
94.3487605069
  0
LINE
  5
655
100
AcDbEntity
  8
0
100
AcDbLine
 62
7
  6
CONTINUOUS
 10
213.3585677475
 20
94.4702868511
 11
213.2465265225
 21
94.4636558111
  0
LINE
  5
656
100
AcDbEntity
  8
0
100
AcDbLine
 62
7
  6
CONTINUOUS
 10
213.0261639977
 20
94.5851821553
 11
212.9141227727
 21
94.5785511152
  0
LINE
  5
657
100
AcDbEntity
  8
0
100
AcDbLine
 62
7
  6
CONTINUOUS
 10
212.6937602479
 20
94.7000774595
 11
212.5817190229
 21
94.6934464194
  0
LINE
  5
658
100
AcDbEntity
  8
0
100
AcDbLine
 62
7
  6
CONTINUOUS
 10
229.4661354809
 20
79.5341009766
 11
229.4664155579
 21
79.4972112496
  0
LINE
  5
659
100
AcDbEntity
  8
0
100
AcDbLine
 62
7
  6
CONTINUOUS
 10
229.4526238406
 20
88.9073788769
 11
229.5202258232
 21
80.003333056
  0
LINE
  5
65A
100
AcDbEntity
  8
0
100
AcDbLine
 62
7
  6
CONTINUOUS
 10
229.5674055973
 20
88.8677045806
 11
229.6350075799
 21
79.9636587597
  0
LINE
  5
65B
100
AcDbEntity
  8
0
100
AcDbLine
 62
7
  6
CONTINUOUS
 10
229.7985392307
 20
79.4192056724
 11
229.7988193077
 21
79.3823159454
  0
LINE
  5
65C
100
AcDbEntity
  8
0
100
AcDbLine
 62
7
  6
CONTINUOUS
 10
229.7850275904
 20
88.7924835727
 11
229.852629573
 21
79.8884377518
  0
LINE
  5
65D
100
AcDbEntity
  8
0
100
AcDbLine
 62
7
  6
CONTINUOUS
 10
229.8998093471
 20
88.7528092765
 11
229.9674113297
 21
79.8487634555
  0
LINE
  5
65E
100
AcDbEntity
  8
0
100
AcDbLine
 62
7
  6
CONTINUOUS
 10
230.1309429805
 20
79.3043103682
 11
230.1312230575
 21
79.2674206412
  0
LINE
  5
65F
100
AcDbEntity
  8
0
100
AcDbLine
 62
7
  6
CONTINUOUS
 10
230.1075631038
 20
88.6809992229
 11
230.1751650865
 21
79.776953402
  0
LINE
  5
660
100
AcDbEntity
  8
0
100
AcDbLine
 62
7
  6
CONTINUOUS
 10
230.2223448606
 20
88.6413249266
 11
230.2899468432
 21
79.7372791057
  0
LINE
  5
661
100
AcDbEntity
  8
0
100
AcDbLine
 62
7
  6
CONTINUOUS
 10
230.4633467303
 20
79.1894150641
 11
230.4636268074
 21
79.152525337
  0
LINE
  5
662
100
AcDbEntity
  8
0
100
AcDbLine
 62
7
  6
CONTINUOUS
 10
230.4399668536
 20
88.5661039187
 11
230.5075688363
 21
79.6620580978
  0
LINE
  5
663
100
AcDbEntity
  8
0
100
AcDbLine
 62
7
  6
CONTINUOUS
 10
230.5547486104
 20
88.5264296224
 11
230.622350593
 21
79.6223838015
  0
LINE
  5
664
100
AcDbEntity
  8
0
100
AcDbLine
 62
7
  6
CONTINUOUS
 10
230.7858822438
 20
79.0779307142
 11
230.7861623208
 21
79.0410409872
  0
LINE
  5
665
100
AcDbEntity
  8
0
100
AcDbLine
 62
7
  6
CONTINUOUS
 10
230.7723706034
 20
88.4512086145
 11
230.8399725861
 21
79.5471627936
  0
LINE
  5
666
100
AcDbEntity
  8
0
100
AcDbLine
 62
7
  6
CONTINUOUS
 10
230.8871523602
 20
88.4115343182
 11
230.9547543428
 21
79.5074884973
  0
LINE
  5
667
100
AcDbEntity
  8
0
100
AcDbLine
 62
7
  6
CONTINUOUS
 10
231.1182859936
 20
78.96303541
 11
231.1185660706
 21
78.926145683
  0
LINE
  5
668
100
AcDbEntity
  8
0
100
AcDbLine
 62
7
  6
CONTINUOUS
 10
231.1047743533
 20
88.3363133103
 11
231.1723763359
 21
79.4322674894
  0
LINE
  5
669
100
AcDbEntity
  8
0
100
AcDbLine
 62
7
  6
CONTINUOUS
 10
231.21955611
 20
88.296639014
 11
231.2871580926
 21
79.3925931931
  0
LINE
  5
66A
100
AcDbEntity
  8
0
100
AcDbLine
 62
7
  6
CONTINUOUS
 10
231.4506897434
 20
78.8481401058
 11
231.4509698204
 21
78.8112503788
  0
LINE
  5
66B
100
AcDbEntity
  8
0
100
AcDbLine
 62
7
  6
CONTINUOUS
 10
231.4371781031
 20
88.2214180061
 11
231.5047800857
 21
79.3173721852
  0
LINE
  5
66C
100
AcDbEntity
  8
0
100
AcDbLine
 62
7
  6
CONTINUOUS
 10
231.5519598598
 20
88.1817437099
 11
231.6195618424
 21
79.2776978889
  0
LINE
  5
66D
100
AcDbEntity
  8
0
100
AcDbLine
 62
7
  6
CONTINUOUS
 10
231.7830934932
 20
78.7332448016
 11
231.7833735702
 21
78.6963550746
  0
LINE
  5
66E
100
AcDbEntity
  8
0
100
AcDbLine
 62
7
  6
CONTINUOUS
 10
231.7695818529
 20
88.106522702
 11
231.8371838355
 21
79.202476881
  0
LINE
  5
66F
100
AcDbEntity
  8
0
100
AcDbLine
 62
7
  6
CONTINUOUS
 10
231.8843636096
 20
88.0668484057
 11
231.9519655922
 21
79.1628025848
  0
LINE
  5
670
100
AcDbEntity
  8
0
100
AcDbLine
 62
7
  6
CONTINUOUS
 10
232.115497243
 20
78.6183494975
 11
232.1157773201
 21
78.5814597704
  0
LINE
  5
671
100
AcDbEntity
  8
0
100
AcDbLine
 62
7
  6
CONTINUOUS
 10
232.0921173663
 20
87.9950383521
 11
232.159719349
 21
79.0909925312
  0
LINE
  5
672
100
AcDbEntity
  8
0
100
AcDbLine
 62
7
  6
CONTINUOUS
 10
232.2068991231
 20
87.9553640558
 11
232.2745011057
 21
79.0513182349
  0
LINE
  5
673
100
AcDbEntity
  8
0
100
AcDbLine
 62
7
  6
CONTINUOUS
 10
232.4479009928
 20
78.5034541933
 11
232.4481810699
 21
78.4665644663
  0
LINE
  5
674
100
AcDbEntity
  8
0
100
AcDbLine
 62
7
  6
CONTINUOUS
 10
232.4245211161
 20
87.8801430479
 11
232.4921230988
 21
78.976097227
  0
LINE
  5
675
100
AcDbEntity
  8
0
100
AcDbLine
 62
7
  6
CONTINUOUS
 10
232.5393028729
 20
87.8404687516
 11
232.6069048555
 21
78.9364229307
  0
LINE
  5
676
100
AcDbEntity
  8
0
100
AcDbLine
 62
7
  6
CONTINUOUS
 10
232.7704365063
 20
78.3919698434
 11
232.7707165833
 21
78.3550801164
  0
LINE
  5
677
100
AcDbEntity
  8
0
100
AcDbLine
 62
7
  6
CONTINUOUS
 10
232.756924866
 20
87.7652477437
 11
232.8245268486
 21
78.8612019228
  0
LINE
  5
678
100
AcDbEntity
  8
0
100
AcDbLine
 62
7
  6
CONTINUOUS
 10
232.8717066227
 20
87.7255734474
 11
232.9393086053
 21
78.8215276265
  0
LINE
  5
679
100
AcDbEntity
  8
0
100
AcDbLine
 62
7
  6
CONTINUOUS
 10
212.3613564981
 20
94.8149727637
 11
212.2493152731
 21
94.8083417236
  0
LINE
  5
67A
100
AcDbEntity
  8
0
100
AcDbLine
 62
7
  6
CONTINUOUS
 10
212.0388209846
 20
94.9264571135
 11
211.9267797596
 21
94.9198260735
  0
LINE
  5
67B
100
AcDbEntity
  8
0
100
AcDbLine
 62
7
  6
CONTINUOUS
 10
211.7064172348
 20
95.0413524177
 11
211.5943760098
 21
95.0347213777
  0
LINE
  5
67C
100
AcDbEntity
  8
0
100
AcDbLine
 62
7
  6
CONTINUOUS
 10
211.374013485
 20
95.1562477219
 11
211.26197226
 21
95.1496166818
  0
LINE
  5
67D
100
AcDbEntity
  8
0
100
AcDbLine
 62
7
  6
CONTINUOUS
 10
211.0416097352
 20
95.2711430261
 11
210.9295685102
 21
95.264511986
  0
LINE
  5
67E
100
AcDbEntity
  8
0
100
AcDbLine
 62
7
  6
CONTINUOUS
 10
210.7092059854
 20
95.3860383303
 11
210.5971647604
 21
95.3794072902
  0
LINE
  5
67F
100
AcDbEntity
  8
0
100
AcDbLine
 62
7
  6
CONTINUOUS
 10
210.3768022356
 20
95.5009336345
 11
210.2647610106
 21
95.4943025944
  0
LINE
  5
680
100
AcDbEntity
  8
0
100
AcDbLine
 62
7
  6
CONTINUOUS
 10
210.0542667221
 20
95.6124179843
 11
209.9422254971
 21
95.6057869443
  0
LINE
  5
681
100
AcDbEntity
  8
0
100
AcDbLine
 62
7
  6
CONTINUOUS
 10
209.7218629723
 20
95.7273132885
 11
209.6098217473
 21
95.7206822484
  0
LINE
  5
682
100
AcDbEntity
  8
0
100
AcDbLine
 62
7
  6
CONTINUOUS
 10
209.3894592225
 20
95.8422085927
 11
209.2774179975
 21
95.8355775526
  0
LINE
  5
683
100
AcDbEntity
  8
0
100
AcDbLine
 62
7
  6
CONTINUOUS
 10
209.0570554727
 20
95.9571038969
 11
208.9450142477
 21
95.9504728568
  0
LINE
  5
684
100
AcDbEntity
  8
0
100
AcDbLine
 62
7
  6
CONTINUOUS
 10
208.7246517229
 20
96.0719992011
 11
208.6126104979
 21
96.065368161
  0
LINE
  5
685
100
AcDbEntity
  8
0
100
AcDbLine
 62
7
  6
CONTINUOUS
 10
208.3922479731
 20
96.1868945053
 11
208.2802067481
 21
96.1802634652
  0
LINE
  5
686
100
AcDbEntity
  8
0
100
AcDbLine
 62
7
  6
CONTINUOUS
 10
208.0697124596
 20
96.2983788551
 11
207.9576712346
 21
96.291747815
  0
LINE
  5
687
100
AcDbEntity
  8
0
100
AcDbLine
 62
7
  6
CONTINUOUS
 10
207.7373087098
 20
96.4132741593
 11
207.6252674848
 21
96.4066431192
  0
LINE
  5
688
100
AcDbEntity
  8
0
100
AcDbLine
 62
7
  6
CONTINUOUS
 10
207.40490496
 20
96.5281694635
 11
207.292863735
 21
96.5215384234
  0
LINE
  5
689
100
AcDbEntity
  8
0
100
AcDbLine
 62
7
  6
CONTINUOUS
 10
207.0725012102
 20
96.6430647677
 11
206.9604599852
 21
96.6364337276
  0
LINE
  5
68A
100
AcDbEntity
  8
0
100
AcDbLine
 62
7
  6
CONTINUOUS
 10
206.7400974604
 20
96.7579600719
 11
206.6280562354
 21
96.7513290318
  0
LINE
  5
68B
100
AcDbEntity
  8
0
100
AcDbLine
 62
7
  6
CONTINUOUS
 10
206.4076937106
 20
96.8728553761
 11
206.2956524856
 21
96.866224336
  0
LINE
  5
68C
100
AcDbEntity
  8
0
100
AcDbLine
 62
7
  6
CONTINUOUS
 10
206.0851581971
 20
96.9843397259
 11
205.9731169721
 21
96.9777086858
  0
LINE
  5
68D
100
AcDbEntity
  8
0
100
AcDbLine
 62
7
  6
CONTINUOUS
 10
205.7527544473
 20
97.0992350301
 11
205.6407132223
 21
97.09260399
  0
LINE
  5
68E
100
AcDbEntity
  8
0
100
AcDbLine
 62
7
  6
CONTINUOUS
 10
205.4203506975
 20
97.2141303343
 11
205.3083094725
 21
97.2074992942
  0
LINE
  5
68F
100
AcDbEntity
  8
0
100
AcDbLine
 62
7
  6
CONTINUOUS
 10
205.0879469477
 20
97.3290256385
 11
204.9759057227
 21
97.3223945984
  0
LINE
  5
690
100
AcDbEntity
  8
0
100
AcDbLine
 62
7
  6
CONTINUOUS
 10
204.7555431979
 20
97.4439209427
 11
204.6435019729
 21
97.4372899026
  0
LINE
  5
691
100
AcDbEntity
  8
0
100
AcDbLine
 62
7
  6
CONTINUOUS
 10
204.423139448
 20
97.5588162468
 11
204.3110982231
 21
97.5521852068
  0
LINE
  5
692
100
AcDbEntity
  8
0
100
AcDbLine
 62
7
  6
CONTINUOUS
 10
204.1006039346
 20
97.6703005967
 11
203.9885627096
 21
97.6636695566
  0
LINE
  5
693
100
AcDbEntity
  8
0
100
AcDbLine
 62
7
  6
CONTINUOUS
 10
203.7682001848
 20
97.7851959009
 11
203.6561589598
 21
97.7785648608
  0
LINE
  5
694
100
AcDbEntity
  8
0
100
AcDbLine
 62
7
  6
CONTINUOUS
 10
233.1028402561
 20
78.2770745392
 11
233.1031203331
 21
78.2401848122
  0
LINE
  5
695
100
AcDbEntity
  8
0
100
AcDbLine
 62
7
  6
CONTINUOUS
 10
233.0893286158
 20
87.6503524395
 11
233.1569305984
 21
78.7463066186
  0
LINE
  5
696
100
AcDbEntity
  8
0
100
AcDbLine
 62
7
  6
CONTINUOUS
 10
233.2041103725
 20
87.6106781433
 11
233.2717123551
 21
78.7066323223
  0
LINE
  5
697
100
AcDbEntity
  8
0
100
AcDbLine
 62
7
  6
CONTINUOUS
 10
233.4352440059
 20
78.162179235
 11
233.4355240829
 21
78.125289508
  0
LINE
  5
698
100
AcDbEntity
  8
0
100
AcDbLine
 62
7
  6
CONTINUOUS
 10
233.4217323656
 20
87.5354571354
 11
233.4893343482
 21
78.6314113144
  0
LINE
  5
699
100
AcDbEntity
  8
0
100
AcDbLine
 62
7
  6
CONTINUOUS
 10
233.5365141223
 20
87.4957828391
 11
233.6041161049
 21
78.5917370182
  0
LINE
  5
69A
100
AcDbEntity
  8
0
100
AcDbLine
 62
7
  6
CONTINUOUS
 10
233.7676477557
 20
78.0472839309
 11
233.7679278328
 21
78.0103942039
  0
LINE
  5
69B
100
AcDbEntity
  8
0
100
AcDbLine
 62
7
  6
CONTINUOUS
 10
233.7541361154
 20
87.4205618312
 11
233.821738098
 21
78.5165160103
  0
LINE
  5
69C
100
AcDbEntity
  8
0
100
AcDbLine
 62
7
  6
CONTINUOUS
 10
233.8689178721
 20
87.3808875349
 11
233.9365198547
 21
78.476841714
  0
LINE
  5
69D
100
AcDbEntity
  8
0
100
AcDbLine
 62
7
  6
CONTINUOUS
 10
234.1000515055
 20
77.9323886267
 11
234.1003315826
 21
77.8954988997
  0
LINE
  5
69E
100
AcDbEntity
  8
0
100
AcDbLine
 62
7
  6
CONTINUOUS
 10
234.0766716288
 20
87.3090774813
 11
234.1442736115
 21
78.4050316604
  0
LINE
  5
69F
100
AcDbEntity
  8
0
100
AcDbLine
 62
7
  6
CONTINUOUS
 10
234.1914533856
 20
87.269403185
 11
234.2590553682
 21
78.3653573641
  0
LINE
  5
6A0
100
AcDbEntity
  8
0
100
AcDbLine
 62
7
  6
CONTINUOUS
 10
234.4324552553
 20
77.8174933225
 11
234.4327353324
 21
77.7806035955
  0
LINE
  5
6A1
100
AcDbEntity
  8
0
100
AcDbLine
 62
7
  6
CONTINUOUS
 10
234.4090753787
 20
87.1941821771
 11
234.4766773613
 21
78.2901363562
  0
LINE
  5
6A2
100
AcDbEntity
  8
0
100
AcDbLine
 62
7
  6
CONTINUOUS
 10
234.5238571354
 20
87.1545078808
 11
234.591459118
 21
78.2504620599
  0
LINE
  5
6A3
100
AcDbEntity
  8
0
100
AcDbLine
 62
7
  6
CONTINUOUS
 10
234.7549907688
 20
77.7060089726
 11
234.7552708458
 21
77.6691192456
  0
LINE
  5
6A4
100
AcDbEntity
  8
0
100
AcDbLine
 62
7
  6
CONTINUOUS
 10
234.7414791285
 20
87.0792868729
 11
234.8090811111
 21
78.175241052
  0
LINE
  5
6A5
100
AcDbEntity
  8
0
100
AcDbLine
 62
7
  6
CONTINUOUS
 10
234.8562608852
 20
87.0396125767
 11
234.9238628678
 21
78.1355667557
  0
LINE
  5
6A6
100
AcDbEntity
  8
0
100
AcDbLine
 62
7
  6
CONTINUOUS
 10
235.0873945186
 20
77.5911136684
 11
235.0876745956
 21
77.5542239414
  0
LINE
  5
6A7
100
AcDbEntity
  8
0
100
AcDbLine
 62
7
  6
CONTINUOUS
 10
235.0738828783
 20
86.9643915688
 11
235.1414848609
 21
78.0603457478
  0
LINE
  5
6A8
100
AcDbEntity
  8
0
100
AcDbLine
 62
7
  6
CONTINUOUS
 10
235.188664635
 20
86.9247172725
 11
235.2562666176
 21
78.0206714516
  0
LINE
  5
6A9
100
AcDbEntity
  8
0
100
AcDbLine
 62
7
  6
CONTINUOUS
 10
235.4197982684
 20
77.4762183643
 11
235.4200783454
 21
77.4393286373
  0
LINE
  5
6AA
100
AcDbEntity
  8
0
100
AcDbLine
 62
7
  6
CONTINUOUS
 10
235.4062866281
 20
86.8494962646
 11
235.4738886107
 21
77.9454504437
  0
LINE
  5
6AB
100
AcDbEntity
  8
0
100
AcDbLine
 62
7
  6
CONTINUOUS
 10
235.5210683848
 20
86.8098219683
 11
235.5886703674
 21
77.9057761474
  0
LINE
  5
6AC
100
AcDbEntity
  8
0
100
AcDbLine
 62
7
  6
CONTINUOUS
 10
235.7522020182
 20
77.3613230601
 11
235.7524820953
 21
77.3244333331
  0
LINE
  5
6AD
100
AcDbEntity
  8
0
100
AcDbLine
 62
7
  6
CONTINUOUS
 10
235.7386903779
 20
86.7346009604
 11
235.8062923605
 21
77.8305551395
  0
LINE
  5
6AE
100
AcDbEntity
  8
0
100
AcDbLine
 62
7
  6
CONTINUOUS
 10
235.8534721346
 20
86.6949266641
 11
235.9210741172
 21
77.7908808432
  0
LINE
  5
6AF
100
AcDbEntity
  8
0
100
AcDbLine
 62
7
  6
CONTINUOUS
 10
236.084605768
 20
77.2464277559
 11
236.0848858451
 21
77.2095380289
  0
LINE
  5
6B0
100
AcDbEntity
  8
0
100
AcDbLine
 62
7
  6
CONTINUOUS
 10
236.0612258913
 20
86.6231166105
 11
236.128827874
 21
77.7190707896
  0
LINE
  5
6B1
100
AcDbEntity
  8
0
100
AcDbLine
 62
7
  6
CONTINUOUS
 10
236.1760076481
 20
86.5834423142
 11
236.2436096307
 21
77.6793964933
  0
LINE
  5
6B2
100
AcDbEntity
  8
0
100
AcDbLine
 62
7
  6
CONTINUOUS
 10
236.4170095178
 20
77.1315324517
 11
236.4172895949
 21
77.0946427247
  0
LINE
  5
6B3
100
AcDbEntity
  8
0
100
AcDbLine
 62
7
  6
CONTINUOUS
 10
236.3936296412
 20
86.5082213063
 11
236.4612316238
 21
77.6041754854
  0
LINE
  5
6B4
100
AcDbEntity
  8
0
100
AcDbLine
 62
7
  6
CONTINUOUS
 10
236.5084113979
 20
86.4685470101
 11
236.5760133805
 21
77.5645011891
  0
LINE
  5
6B5
100
AcDbEntity
  8
0
100
AcDbLine
 62
7
  6
CONTINUOUS
 10
199.6961905532
 20
99.7988612542
 11
198.2043334385
 21
99.7083455725
  0
LINE
  5
6B6
100
AcDbEntity
  8
0
100
AcDbLine
 62
7
  6
CONTINUOUS
 10
203.435796435
 20
97.9000912051
 11
203.32375521
 21
97.893460165
  0
LINE
  5
6B7
100
AcDbEntity
  8
0
100
AcDbLine
 62
7
  6
CONTINUOUS
 10
203.1033926852
 20
98.0149865093
 11
202.9913514602
 21
98.0083554692
  0
LINE
  5
6B8
100
AcDbEntity
  8
0
100
AcDbLine
 62
7
  6
CONTINUOUS
 10
202.7709889353
 20
98.1298818134
 11
202.6589477104
 21
98.1232507734
  0
LINE
  5
6B9
100
AcDbEntity
  8
0
100
AcDbLine
 62
7
  6
CONTINUOUS
 10
202.4385851855
 20
98.2447771176
 11
202.3265439606
 21
98.2381460776
  0
LINE
  5
6BA
100
AcDbEntity
  8
0
100
AcDbLine
 62
7
  6
CONTINUOUS
 10
202.1160496721
 20
98.3562614675
 11
202.0040084471
 21
98.3496304274
  0
LINE
  5
6BB
100
AcDbEntity
  8
0
100
AcDbLine
 62
7
  6
CONTINUOUS
 10
201.7836459223
 20
98.4711567717
 11
201.6716046973
 21
98.4645257316
  0
LINE
  5
6BC
100
AcDbEntity
  8
0
100
AcDbLine
 62
7
  6
CONTINUOUS
 10
201.4512421725
 20
98.5860520759
 11
201.3392009475
 21
98.5794210358
  0
LINE
  5
6BD
100
AcDbEntity
  8
0
100
AcDbLine
 62
7
  6
CONTINUOUS
 10
201.1188384226
 20
98.70094738
 11
201.0067971977
 21
98.69431634
  0
LINE
  5
6BE
100
AcDbEntity
  8
0
100
AcDbLine
 62
7
  6
CONTINUOUS
 10
200.7864346728
 20
98.8158426842
 11
200.6743934479
 21
98.8092116442
  0
LINE
  5
6BF
100
AcDbEntity
  8
0
100
AcDbLine
 62
7
  6
CONTINUOUS
 10
200.454030923
 20
98.9307379884
 11
200.3419896981
 21
98.9241069483
  0
LINE
  5
6C0
100
AcDbEntity
  8
0
100
AcDbLine
 62
7
  6
CONTINUOUS
 10
200.1314954096
 20
99.0422223383
 11
200.0194541846
 21
99.0355912982
  0
LINE
  5
6C1
100
AcDbEntity
  8
0
100
AcDbLine
 62
7
  6
CONTINUOUS
 10
199.7990916598
 20
99.1571176424
 11
199.6870504348
 21
99.1504866024
  0
LINE
  5
6C2
100
AcDbEntity
  8
0
100
AcDbLine
 62
7
  6
CONTINUOUS
 10
199.46668791
 20
99.2720129466
 11
199.354646685
 21
99.2653819066
  0
LINE
  5
6C3
100
AcDbEntity
  8
0
100
AcDbLine
 62
7
  6
CONTINUOUS
 10
199.1342841601
 20
99.3869082508
 11
199.0222429352
 21
99.3802772108
  0
LINE
  5
6C4
100
AcDbEntity
  8
0
100
AcDbLine
 62
7
  6
CONTINUOUS
 10
198.8018804103
 20
99.501803555
 11
198.6898391854
 21
99.4951725149
  0
LINE
  5
6C5
100
AcDbEntity
  8
0
100
AcDbLine
 62
7
  6
CONTINUOUS
 10
198.4694766605
 20
99.6166988592
 11
198.3574354356
 21
99.6100678191
  0
LINE
  5
6C6
100
AcDbEntity
  8
0
100
AcDbLine
 62
7
  6
CONTINUOUS
 10
236.7395450313
 20
77.0200481018
 11
236.7398251083
 21
76.9831583748
  0
LINE
  5
6C7
100
AcDbEntity
  8
0
100
AcDbLine
 62
7
  6
CONTINUOUS
 10
236.726033391
 20
86.3933260022
 11
236.7936353736
 21
77.4892801812
  0
LINE
  5
6C8
100
AcDbEntity
  8
0
100
AcDbLine
 62
7
  6
CONTINUOUS
 10
236.8408151477
 20
86.3536517059
 11
236.9084171303
 21
77.449605885
  0
LINE
  5
6C9
100
AcDbEntity
  8
0
100
AcDbLine
 62
7
  6
CONTINUOUS
 10
237.0719487811
 20
76.9051527977
 11
237.0722288581
 21
76.8682630707
  0
LINE
  5
6CA
100
AcDbEntity
  8
0
100
AcDbLine
 62
7
  6
CONTINUOUS
 10
237.0584371408
 20
86.278430698
 11
237.1260391234
 21
77.3743848771
  0
LINE
  5
6CB
100
AcDbEntity
  8
0
100
AcDbLine
 62
7
  6
CONTINUOUS
 10
237.1732188975
 20
86.2387564017
 11
237.2408208801
 21
77.3347105808
  0
LINE
  5
6CC
100
AcDbEntity
  8
0
100
AcDbLine
 62
7
  6
CONTINUOUS
 10
237.4043525309
 20
76.7902574935
 11
237.404632608
 21
76.7533677665
  0
LINE
  5
6CD
100
AcDbEntity
  8
0
100
AcDbLine
 62
7
  6
CONTINUOUS
 10
237.3908408906
 20
86.1635353938
 11
237.4584428732
 21
77.2594895729
  0
LINE
  5
6CE
100
AcDbEntity
  8
0
100
AcDbLine
 62
7
  6
CONTINUOUS
 10
237.5056226473
 20
86.1238610975
 11
237.5732246299
 21
77.2198152766
  0
LINE
  5
6CF
100
AcDbEntity
  8
0
100
AcDbLine
 62
7
  6
CONTINUOUS
 10
237.7367562807
 20
76.6753621893
 11
237.7370363578
 21
76.6384724623
  0
LINE
  5
6D0
100
AcDbEntity
  8
0
100
AcDbLine
 62
7
  6
CONTINUOUS
 10
237.7232446404
 20
86.0486400896
 11
237.790846623
 21
77.1445942687
  0
LINE
  5
6D1
100
AcDbEntity
  8
0
100
AcDbLine
 62
7
  6
CONTINUOUS
 10
237.8380263971
 20
86.0089657933
 11
237.9056283797
 21
77.1049199724
  0
LINE
  5
6D2
100
AcDbEntity
  8
0
100
AcDbLine
 62
7
  6
CONTINUOUS
 10
238.0691600305
 20
76.5604668851
 11
238.0694401076
 21
76.5235771581
  0
LINE
  5
6D3
100
AcDbEntity
  8
0
100
AcDbLine
 62
7
  6
CONTINUOUS
 10
238.0457801539
 20
85.9371557398
 11
238.1133821365
 21
77.0331099188
  0
LINE
  5
6D4
100
AcDbEntity
  8
0
100
AcDbLine
 62
7
  6
CONTINUOUS
 10
238.1605619106
 20
85.8974814435
 11
238.2281638932
 21
76.9934356226
  0
LINE
  5
6D5
100
AcDbEntity
  8
0
100
AcDbLine
 62
7
  6
CONTINUOUS
 10
238.339406726
 20
76.4449012531
 11
238.3545408171
 21
74.4515478743
  0
LINE
  5
6D6
100
AcDbEntity
  8
0
100
AcDbLine
 62
7
  6
CONTINUOUS
 10
238.3781839037
 20
85.8222604356
 11
238.4457858863
 21
76.9182146146
  0
LINE
  5
6D7
100
AcDbEntity
  8
0
100
AcDbLine
 62
7
  6
CONTINUOUS
 10
238.4929656604
 20
85.7825861393
 11
238.560567643
 21
76.8785403184
  0
LINE
  5
6D8
100
AcDbEntity
  8
0
100
AcDbLine
 62
7
  6
CONTINUOUS
 10
238.7105876535
 20
85.7073651314
 11
238.7781896361
 21
76.8033193105
  0
LINE
  5
6D9
100
AcDbEntity
  8
0
100
AcDbLine
 62
7
  6
CONTINUOUS
 10
238.8253694102
 20
85.6676908351
 11
238.8929713928
 21
76.7636450142
  0
LINE
  5
6DA
100
AcDbEntity
  8
0
100
AcDbLine
 62
7
  6
CONTINUOUS
 10
238.4811652969
 20
133.678280132
 11
238.4999436254
 21
131.2049340707
  0
LINE
  5
6DB
100
AcDbEntity
  8
0
100
AcDbLine
 62
7
  6
CONTINUOUS
 10
239.0429914033
 20
85.5924698272
 11
239.1105933859
 21
76.6884240063
  0
LINE
  5
6DC
100
AcDbEntity
  8
0
100
AcDbLine
 62
7
  6
CONTINUOUS
 10
239.15777316
 20
85.5527955309
 11
239.2253751426
 21
76.64874971
  0
LINE
  5
6DD
100
AcDbEntity
  8
0
100
AcDbLine
 62
7
  6
CONTINUOUS
 10
239.3753951531
 20
85.477574523
 11
239.4429971357
 21
76.5735287021
  0
LINE
  5
6DE
100
AcDbEntity
  8
0
100
AcDbLine
 62
7
  6
CONTINUOUS
 10
239.4901769098
 20
85.4379002267
 11
239.5577788924
 21
76.5338544058
  0
LINE
  5
6DF
100
AcDbEntity
  8
0
100
AcDbLine
 62
7
  6
CONTINUOUS
 10
239.7077989029
 20
85.3626792188
 11
239.7754008855
 21
76.4586333979
  0
LINE
  5
6E0
100
AcDbEntity
  8
0
100
AcDbLine
 62
7
  6
CONTINUOUS
 10
277.5977140255
 20
114.3494049781
 11
276.3516475655
 21
114.3391852673
  0
LINE
  5
6E1
100
AcDbEntity
  8
0
100
AcDbLine
 62
7
  6
CONTINUOUS
 10
224.8191643989
 20
122.455267842
 11
266.3696331244
 21
108.0933548184
  0
LINE
  5
6E2
100
AcDbEntity
  8
0
100
AcDbLine
 62
7
  6
CONTINUOUS
 10
224.8842832083
 20
123.910219962
 11
266.4347519338
 21
109.5483069385
  0
LINE
  5
6E3
100
AcDbEntity
  8
0
100
AcDbLine
 62
7
  6
CONTINUOUS
 10
275.9707052774
 20
114.1549243872
 11
234.4202365519
 21
128.5168374107
  0
LINE
  5
6E4
100
AcDbEntity
  8
0
100
AcDbLine
 62
7
  6
CONTINUOUS
 10
234.8011788399
 20
128.7010982909
 11
276.3516475655
 21
114.3391852673
  0
LINE
  5
6E5
100
AcDbEntity
  8
0
100
AcDbLine
 62
7
  6
CONTINUOUS
 10
236.0472452999
 20
128.7113180017
 11
277.5977140255
 21
114.3494049781
  0
LINE
  5
6E6
100
AcDbEntity
  8
DTM_AXIS
100
AcDbLine
 62
7
  6
CONTINUOUS
 10
232.2539950485
 20
133.6272075119
 11
233.5438454874
 21
132.8957362984
  0
LINE
  5
6E7
100
AcDbEntity
  8
0
100
AcDbLine
 62
7
  6
CONTINUOUS
 10
236.0472452999
 20
128.7113180017
 11
234.8011788399
 21
128.7010982909
  0
LINE
  5
6E8
100
AcDbEntity
  8
0
100
AcDbLine
 62
7
  6
CONTINUOUS
 10
238.4999436254
 20
131.2049340707
 11
280.050412351
 21
116.8430210471
  0
LINE
  5
6E9
100
AcDbEntity
  8
DTM_AXIS
100
AcDbLine
 62
7
  6
CONTINUOUS
 10
232.2539950485
 20
133.6272075119
 11
233.8495920171
 21
133.0756896689
  0
LINE
  5
6EA
100
AcDbEntity
  8
0
100
AcDbLine
 62
7
  6
CONTINUOUS
 10
266.4347519338
 20
109.5483069385
 11
266.3696331244
 21
108.0933548184
  0
LINE
  5
6EB
100
AcDbEntity
  8
DTM_AXIS
100
AcDbLine
 62
7
  6
CONTINUOUS
 10
228.5952586808
 20
133.5972001015
 11
232.2539950485
 21
133.6272075119
  0
LINE
  5
6EC
100
AcDbEntity
  8
DTM_AXIS
100
AcDbLine
 62
7
  6
CONTINUOUS
 10
234.8224289292
 20
133.6482727217
 11
238.4811652969
 21
133.678280132
  0
LINE
  5
6ED
100
AcDbEntity
  8
0
100
AcDbLine
 62
7
  6
CONTINUOUS
 10
238.4811652969
 20
133.678280132
 11
280.0316340225
 21
119.3163671085
  0
LINE
  5
6EE
100
AcDbEntity
  8
0
100
AcDbLine
 62
7
  6
CONTINUOUS
 10
280.0316340225
 20
119.3163671085
 11
280.050412351
 21
116.8430210471
  0
LINE
  5
6EF
100
AcDbEntity
  8
DTM_AXIS
100
AcDbLine
 62
7
  6
CONTINUOUS
 10
41.1993161444
 20
78.8646612777
 11
39.7151055944
 21
81.4353893595
  0
LINE
  5
6F0
100
AcDbEntity
  8
DTM_AXIS
100
AcDbLine
 62
7
  6
CONTINUOUS
 10
39.7151055944
 20
93.4072785248
 11
39.7151055944
 21
81.4353893595
  0
LINE
  5
6F1
100
AcDbEntity
  8
DTM_AXIS
100
AcDbLine
 62
7
  6
CONTINUOUS
 10
39.7151055944
 20
64.5172926277
 11
39.7151055944
 21
76.293933196
  0
LINE
  5
6F2
100
AcDbEntity
  8
0
100
AcDbLine
 62
7
  6
CONTINUOUS
 10
44.6624740944
 20
64.5172926277
 11
39.7151055944
 21
64.5172926277
  0
LINE
  5
6F3
100
AcDbEntity
  8
0
100
AcDbLine
 62
7
  6
CONTINUOUS
 10
49.6098425944
 20
73.4225559277
 11
49.6098425944
 21
69.4646611277
  0
LINE
  5
6F4
100
AcDbEntity
  8
0
100
AcDbLine
 62
7
  6
CONTINUOUS
 10
52.5782636944
 20
73.4225559277
 11
49.6098425944
 21
73.4225559277
  0
LINE
  5
6F5
100
AcDbEntity
  8
0
100
AcDbLine
 62
7
  6
CONTINUOUS
 10
52.5782636944
 20
91.2330825277
 11
52.5782636944
 21
73.4225559277
  0
LINE
  5
6F6
100
AcDbEntity
  8
DTM_AXIS
100
AcDbLine
 62
7
  6
CONTINUOUS
 10
39.7151055944
 20
76.293933196
 11
41.1993161444
 21
78.8646612777
  0
LINE
  5
6F7
100
AcDbEntity
  8
DTM_AXIS
100
AcDbLine
 62
7
  6
CONTINUOUS
 10
123.8203700944
 20
157.0330835777
 11
126.3910981762
 21
158.5172941277
  0
LINE
  5
6F8
100
AcDbEntity
  8
0
100
AcDbLine
 62
7
  6
CONTINUOUS
 10
55.5658327015
 20
91.3896543849
 11
52.5782636944
 21
91.2330825277
  0
LINE
  5
6F9
100
AcDbEntity
  8
0
100
AcDbLine
 62
7
  6
CONTINUOUS
 10
106.3503004881
 20
139.2027675037
 11
106.1978434974
 21
136.2937148257
  0
LINE
  5
6FA
100
AcDbEntity
  8
0
100
AcDbLine
 62
7
  6
CONTINUOUS
 10
113.9256330944
 20
157.5278204277
 11
113.9256330944
 21
158.5172941277
  0
LINE
  5
6FB
100
AcDbEntity
  8
DTM_AXIS
100
AcDbLine
 62
7
  6
CONTINUOUS
 10
89.9341101534
 20
143.9349013846
 11
106.3377651445
 21
148.5185155839
  0
LINE
  5
6FC
100
AcDbEntity
  8
0
100
AcDbLine
 62
7
  6
CONTINUOUS
 10
128.7677385944
 20
148.6225571277
 11
126.2733796277
 21
148.6225571277
  0
LINE
  5
6FD
100
AcDbEntity
  8
0
100
AcDbLine
 62
7
  6
CONTINUOUS
 10
133.7151070944
 20
158.5172941277
 11
133.7151070944
 21
153.5699256277
  0
LINE
  5
6FE
100
AcDbEntity
  8
DTM_AXIS
100
AcDbLine
 62
7
  6
CONTINUOUS
 10
113.9256330944
 20
158.5172941277
 11
121.2496420127
 21
158.5172941277
  0
LINE
  5
6FF
100
AcDbEntity
  8
DTM_AXIS
100
AcDbLine
 62
7
  6
CONTINUOUS
 10
126.3910981762
 20
158.5172941277
 11
133.7151070944
 21
158.5172941277
  0
LINE
  5
700
100
AcDbEntity
  8
DTM_AXIS
100
AcDbLine
 62
7
  6
CONTINUOUS
 10
121.2496420127
 20
158.5172941277
 11
123.8203700944
 21
157.0330835777
  0
ARC
  5
701
100
AcDbEntity
  8
DTM_AXIS
100
AcDbCircle
 62
7
  6
CONTINUOUS
 10
225.1408829444
 20
96.851981526
 40
30.556052506
100
AcDbArc
 50
106.1035104173
 51
163.0938177477
  0
ARC
  5
702
100
AcDbEntity
  8
0
100
AcDbCircle
 62
7
  6
CONTINUOUS
 10
224.7929377483
 20
136.2721830762
 40
12.3623772946
100
AcDbArc
 50
270.4233643179
 51
321.1465475943
  0
ARC
  5
703
100
AcDbEntity
  8
0
100
AcDbCircle
 62
7
  6
CONTINUOUS
 10
266.3434186633
 20
121.9102448189
 40
12.3623519718
100
AcDbArc
 50
270.4233086886
 51
321.1466032288
  0
ARC
  5
704
100
AcDbEntity
  8
DTM_AXIS
100
AcDbCircle
 62
7
  6
CONTINUOUS
 10
187.7061401846
 20
108.4630617516
 40
8.7248243597
100
AcDbArc
 50
297.762590394
 51
320.3052003178
  0
ARC
  5
705
100
AcDbEntity
  8
DTM_AXIS
100
AcDbCircle
 62
7
  6
CONTINUOUS
 10
187.5816352431
 20
108.2692227152
 40
8.6998268241
100
AcDbArc
 50
321.8113736735
 51
343.084729309
  0
ARC
  5
706
100
AcDbEntity
  8
DTM_AXIS
100
AcDbCircle
 62
7
  6
CONTINUOUS
 10
223.403794391
 20
133.5541186109
 40
5.1901487924
100
AcDbArc
 50
286.0949834299
 51
319.6662173484
  0
ARC
  5
707
100
AcDbEntity
  8
DTM_AXIS
100
AcDbCircle
 62
7
  6
CONTINUOUS
 10
224.637760034
 20
133.0724954931
 40
3.9613678195
100
AcDbArc
 50
313.4122163571
 51
0.4344251404
  0
ARC
  5
708
100
AcDbEntity
  8
0
100
AcDbCircle
 62
7
  6
CONTINUOUS
 10
196.8256936416
 20
86.3393514448
 40
2.4743142268
100
AcDbArc
 50
90.5007021937
 51
180.4516892173
  0
ARC
  5
709
100
AcDbEntity
  8
0
100
AcDbCircle
 62
7
  6
CONTINUOUS
 10
238.5215651755
 20
128.7308246175
 40
2.4743142268
100
AcDbArc
 50
90.5007021937
 51
180.4516892173
  0
ARC
  5
70A
100
AcDbEntity
  8
0
100
AcDbCircle
 62
7
  6
CONTINUOUS
 10
280.0720301302
 20
114.3689154807
 40
2.4743100026
100
AcDbArc
 50
90.5006156604
 51
180.4517799018
  0
ARC
  5
70B
100
AcDbEntity
  8
0
100
AcDbCircle
 62
7
  6
CONTINUOUS
 10
238.3761585963
 20
71.9774423079
 40
2.4743100026
100
AcDbArc
 50
90.5006156604
 51
180.4517799018
  0
ARC
  5
70C
100
AcDbEntity
  8
0
100
AcDbCircle
 62
7
  6
CONTINUOUS
 10
276.3557905614
 20
113.8447081343
 40
0.4944944889
100
AcDbArc
 50
90.4800436953
 51
141.1458439749
  0
ARC
  5
70D
100
AcDbEntity
  8
0
100
AcDbCircle
 62
7
  6
CONTINUOUS
 10
234.8053218359
 20
128.2066211578
 40
0.4944944889
100
AcDbArc
 50
90.4800436953
 51
141.1458439749
  0
ARC
  5
70E
100
AcDbEntity
  8
DTM_AXIS
100
AcDbCircle
 62
7
  6
CONTINUOUS
 10
106.3751148252
 20
85.0964920832
 40
61.0922666442
100
AcDbArc
 50
105.6117661468
 51
162.6340751818
  0
ARC
  5
70F
100
AcDbEntity
  8
0
100
AcDbCircle
 62
7
  6
CONTINUOUS
 10
106.3751148252
 20
85.0964920832
 40
51.1975296442
100
AcDbArc
 50
90.1983869002
 51
172.939388679
  0
ARC
  5
710
100
AcDbEntity
  8
0
100
AcDbCircle
 62
7
  6
CONTINUOUS
 10
106.3751148252
 20
163.9395975577
 40
24.7368425
100
AcDbArc
 50
269.942524717
 51
320.665577542
  0
ARC
  5
711
100
AcDbEntity
  8
DTM_AXIS
100
AcDbCircle
 62
7
  6
CONTINUOUS
 10
31.718403032
 20
108.913627254
 40
17.4468937861
100
AcDbArc
 50
297.2803871182
 51
319.8327777105
  0
ARC
  5
712
100
AcDbEntity
  8
DTM_AXIS
100
AcDbCircle
 62
7
  6
CONTINUOUS
 10
31.4758986866
 20
108.519573781
 40
17.3840567558
100
AcDbArc
 50
321.340956569
 51
342.6340751818
  0
ARC
  5
713
100
AcDbEntity
  8
DTM_AXIS
100
AcDbCircle
 62
7
  6
CONTINUOUS
 10
103.5438424891
 20
158.5172941277
 40
10.3817906053
100
AcDbArc
 50
285.6117661468
 51
319.1907398078
  0
ARC
  5
714
100
AcDbEntity
  8
DTM_AXIS
100
AcDbCircle
 62
7
  6
CONTINUOUS
 10
106.0098434944
 20
157.5278204277
 40
7.9157896
100
AcDbArc
 50
312.9338363636
 51
360.0
  0
ARC
  5
715
100
AcDbEntity
  8
0
100
AcDbCircle
 62
7
  6
CONTINUOUS
 10
133.7151070944
 20
148.6225571277
 40
4.9473685
100
AcDbArc
 50
90.0
 51
180.0
  0
ARC
  5
716
100
AcDbEntity
  8
0
100
AcDbCircle
 62
7
  6
CONTINUOUS
 10
49.6098425944
 20
64.5172926277
 40
4.9473685
100
AcDbArc
 50
90.0
 51
180.0
  0
ARC
  5
717
100
AcDbEntity
  8
0
100
AcDbCircle
 62
7
  6
CONTINUOUS
 10
126.2733796277
 20
147.6330834277
 40
0.9894737
100
AcDbArc
 50
90.0
 51
140.665577542
  0
SPLINE
  5
718
100
AcDbEntity
  8
0
100
AcDbSpline
 62
7
  6
CONTINUOUS
 70
0
 71
3
 72
15
 73
11
 74
0
 42
0.0000001
 43
0.0000001
 44
0.0000000001
 40
0.0
 40
0.0
 40
0.0
 40
0.0
 40
0.1250362718
 40
0.2500741232
 40
0.3751058406
 40
0.5001244591
 40
0.6251247122
 40
0.7501036997
 40
0.8750612507
 40
1.0
 40
1.0
 40
1.0
 40
1.0
 10
241.2466592787
 20
85.4369482307
 30
0.0
 10
241.4239832296
 20
86.9648808871
 30
0.0
 10
242.0561594825
 20
89.995799919
 30
0.0
 10
243.8029831283
 20
94.2927322949
 30
0.0
 10
246.2924683221
 20
98.2079761262
 30
0.0
 10
249.4435523332
 20
101.6123725478
 30
0.0
 10
253.1537832727
 20
104.3958091922
 30
0.0
 10
257.3031246658
 20
106.4676861718
 30
0.0
 10
261.7547949578
 20
107.7606650175
 30
0.0
 10
264.8327495454
 20
108.0754239639
 30
0.0
 10
266.3696331244
 20
108.0933548184
 30
0.0
  0
SPLINE
  5
719
100
AcDbEntity
  8
0
100
AcDbSpline
 62
7
  6
CONTINUOUS
 70
0
 71
3
 72
15
 73
11
 74
0
 42
0.0000001
 43
0.0000001
 44
0.0000000001
 40
0.0
 40
0.0
 40
0.0
 40
0.0
 40
0.1249386153
 40
0.2498962912
 40
0.3748752932
 40
0.4998755409
 40
0.624894154
 40
0.749925886
 40
0.8749638623
 40
1.0
 40
1.0
 40
1.0
 40
1.0
 10
224.8191643989
 20
122.455267842
 30
0.0
 10
223.2822825727
 20
122.4373370079
 30
0.0
 10
220.2043285379
 20
122.1225763776
 30
0.0
 10
215.7526582018
 20
120.8295987181
 30
0.0
 10
211.6033160196
 20
118.7577201203
 30
0.0
 10
207.8930855227
 20
115.9742834448
 30
0.0
 10
204.7420015261
 20
112.5698874668
 30
0.0
 10
202.2525146419
 20
108.6546430167
 30
0.0
 10
200.5056921711
 20
104.3577104754
 30
0.0
 10
199.8735143018
 20
101.3267921678
 30
0.0
 10
199.6961905532
 20
99.7988612542
 30
0.0
  0
ENDSEC
  0
SECTION
  2
OBJECTS
  0
DICTIONARY
  5
C
100
AcDbDictionary
280
0
281
1
  3
ACAD_GROUP
350
D
  3
ACAD_MLINESTYLE
350
17
  3
ACAD_LAYOUT
350
1A
  3
ACAD_PLOTSETTINGS
350
19
  3
ACAD_PLOTSTYLENAME
350
E
  3
ACAD_TABLESTYLE
350
       71A
  0
DICTIONARY
  5
D
102
{ACAD_REACTORS
330
C
102
}
100
AcDbDictionary
280
0
281
1
  0
ACDBDICTIONARYWDFLT
  5
E
102
{ACAD_REACTORS
330
C
102
}
100
AcDbDictionary
281
1
  3
Normal
350
F
100
AcDbDictionaryWithDefault
340
F
  0
DICTIONARY
  5
17
102
{ACAD_REACTORS
330
C
102
}
100
AcDbDictionary
280
0
281
1
  3
Standard
350
18
  0
DICTIONARY
  5
71A
330
C
100
AcDbDictionary
281
1
  3
Standard
350
       71D
  3
Standard1
350
       71E
  0
DICTIONARY
  5
19
102
{ACAD_REACTORS
330
C
102
}
100
AcDbDictionary
281
1
  0
DICTIONARY
  5
1A
102
{ACAD_REACTORS
330
C
102
}
100
AcDbDictionary
281
1
  3
Model
350
71B
  3
Layout1
350
71C
  0
ACDBPLACEHOLDER
  5
F
102
{ACAD_REACTORS
330
E
102
}
  0
MLINESTYLE
  5
18
102
{ACAD_REACTORS
330
17
102
}
100
AcDbMlineStyle
  2
STANDARD
 70
0
  3

 62
256
 51
90.0
 52
90.0
 71
2
 49
0.5
 62
256
  6
BYLAYER
 49
-0.5
 62
256
  6
BYLAYER
  0
LAYOUT
  5
71B
102
{ACAD_REACTORS
330
1A
102
}
100
AcDbPlotSettings
  1

  2
none_device
  4
ISO_A4_(297.00_x_210.00_MM)
  6

 40
0.0
 41
0.0
 42
0.0
 43
0.0
 44
297.0
 45
210.0
 46
0.0
 47
0.0
 48
0.0
 49
0.0
140
0.0
141
0.0
142
1.0
143
1.0
 70
1024
 72
1
 73
0
 74
0
  7

 75
0
147
1.0
148
0.0
149
0.0
100
AcDbLayout
  1
Model
 70
0
 71
0
 10
0.0
 20
0.0
 11
297.0
 21
210.0
 12
0.0
 22
0.0
 32
0.0
 14
0.0
 24
0.0
 34
0.0
 15
0.0
 25
0.0
 35
0.0
146
0.0
 13
0.0
 23
0.0
 33
0.0
 16
1.0
 26
0.0
 36
0.0
 17
0.0
 27
1.0
 37
0.0
 76
0
330
20A
345
0
346
0
  0
LAYOUT
  5
71C
102
{ACAD_REACTORS
330
1A
102
}
100
AcDbPlotSettings
  1

  2
none_device
  4
ISO_A4_(297.00_x_210.00_MM)
  6

 40
0.0
 41
0.0
 42
0.0
 43
0.0
 44
297.0
 45
210.0
 46
0.0
 47
0.0
 48
0.0
 49
0.0
140
0.0
141
0.0
142
1.0
143
1.0
 70
0
 72
1
 73
0
 74
0
  7

 75
0
147
1.0
148
0.0
149
0.0
100
AcDbLayout
  1
Layout1
 70
0
 71
1
 10
0.0
 20
0.0
 11
297.0
 21
210.0
 12
0.0
 22
0.0
 32
0.0
 14
0.0
 24
0.0
 34
0.0
 15
0.0
 25
0.0
 35
0.0
146
0.0
 13
0.0
 23
0.0
 33
0.0
 16
1.0
 26
0.0
 36
0.0
 17
0.0
 27
1.0
 37
0.0
 76
0
330
20B
345
0
346
0
  0
TABLESTYLE
  5
71D
102
{ACAD_REACTORS
330
71A
330
257
102
}
330
71A
100
AcDbTableStyle
  3
Standard
 70
0
 71
0
 40
0.06
 41
0.06
280
1
281
1
  7
Standard
140
0.18
170
1
 62
0
 63
7
283
0
  7
Standard
140
0.18
170
1
 62
0
 63
7
283
0
  7
Standard
140
0.18
170
1
 62
0
 63
7
283
0
  0
TABLESTYLE
  5
71E
102
{ACAD_REACTORS
330
71A
102
}
330
71A
100
AcDbTableStyle
  3
Standard1
 70
1
 71
0
 40
0.06
 41
0.06
280
1
281
1
  7
Standard
140
0.18
170
1
 62
0
 63
7
283
0
  7
Standard
140
0.18
170
1
 62
0
 63
7
283
0
  7
Standard
140
0.18
170
1
 62
0
 63
7
283
0
  0
ENDSEC
  0
EOF
