999
DXF file: O:\ORAC_PRODUCTEN\ORAC_XPS\CX\CX107\CX107_5mm_diep\cx107-xps_5mm_steek_2.dxf
999
Pro/ENGINEER 2018500 by Parametric Technology Corporation
  0
SECTION
  2
HEADER
  9
$ACADVER
  1
AC1024
  9
$DWGCODEPAGE
  3
ANSI_1252
  9
$EXTMAX
 10
297.0
 20
210.0
 30
0.0
  9
$EXTMIN
 10
0.0
 20
0.0
 30
0.0
  9
$LIMMIN
 10
0.0
 20
0.0
  9
$LIMMAX
 10
297.0
 20
210.0
  9
$VIEWCTR
 10
148.5
 20
105.0
  9
$VIEWSIZE
 40
210.0
  9
$CLAYER
  8
0
  9
$LTSCALE
 40
16.335
  9
$CELTYPE
  6
BYLAYER
  9
$DIMSCALE
 40
1.0
  9
$DIMASZ
 40
3.5
  9
$DIMEXO
 40
1.0
  9
$DIMDLI
 40
11.286
  9
$DIMEXE
 40
1.5
  9
$DIMCEN
 40
2.673
  9
$DIMLFAC
 40
1.0
  9
$DIMBLK
  1
_FILLED
  9
$DIMALT
 70
0
  9
$DIMALTF
 40
0.0393700787
  9
$DIMTXT
 40
2.5
  9
$DIMTOL
 70
1
  9
$DIMLIM
 70
0
  9
$DIMTFAC
 40
1.0
  9
$DIMTP
 40
0.001
  9
$DIMTM
 40
0.001
  9
$DIMGAP
 40
0.625
  9
$DIMDSEP
 70
44
  9
$AUNITS
 70
0
  9
$PDMODE
 70
3
  9
$PDSIZE
 40
8.0
  9
$HANDSEED
  5
5E8
  9
$TILEMODE
 70
1
  9
$MEASUREMENT
 70
1
  9
$INSUNITS
 70
4
  0
ENDSEC
  0
SECTION
  2
CLASSES
  0
CLASS
  1
ACDBDICTIONARYWDFLT
  2
AcDbDictionaryWithDefault
  3
AutoCAD 2000
 90
0
 91
1
280
0
281
0
  0
CLASS
  1
ACDBPLACEHOLDER
  2
AcDbPlaceHolder
  3
AutoCAD 2000
 90
0
 91
1
280
0
281
0
  0
CLASS
  1
LAYOUT
  2
AcDbLayout
  3
AutoCAD 2000
 90
0
 91
0
280
0
281
0
  0
CLASS
  1
TABLESTYLE
  2
AcDbTableStyle
  3
ObjectDBX Classes
 90
2047
 91
1
280
0
281
0
  0
CLASS
  1
ACAD_TABLE
  2
AcDbTable
  3
ObjectDBX Classes
 90
1025
 91
1
280
0
281
1
  0
ENDSEC
  0
SECTION
  2
TABLES
  0
TABLE
  2
VPORT
  5
8
100
AcDbSymbolTable
 70
2
  0
VPORT
  5
1F4
100
AcDbSymbolTableRecord
100
AcDbViewportTableRecord
  2
*ACTIVE
 70
0
 10
0.0
 20
0.0
 11
1.0
 21
1.0
 12
148.5
 22
105.0
 13
0.0
 23
0.0
 14
1.0
 24
1.0
 15
0.0
 25
0.0
 16
0.0
 26
0.0
 36
1.0
 17
0.0
 27
0.0
 37
0.0
 40
210.0
 41
1.4142857143
 42
50.0
 43
0.0
 44
0.0
 50
0.0
 51
0.0
 71
0
 72
100
 73
1
 74
1
 75
0
 76
0
 77
0
 78
0
  0
ENDTAB
  0
TABLE
  2
LTYPE
  5
5
100
AcDbSymbolTable
 70
6
  0
LTYPE
  5
14
100
AcDbSymbolTableRecord
100
AcDbLinetypeTableRecord
  2
BYBLOCK
 70
0
  3

 72
65
 73
0
 40
0.0
  0
LTYPE
  5
15
100
AcDbSymbolTableRecord
100
AcDbLinetypeTableRecord
  2
BYLAYER
 70
0
  3

 72
65
 73
0
 40
0.0
  0
LTYPE
  5
16
100
AcDbSymbolTableRecord
100
AcDbLinetypeTableRecord
  2
CONTINUOUS
 70
64
  3
Solid line
 72
65
 73
0
 40
0.0
  0
LTYPE
  5
1F5
100
AcDbSymbolTableRecord
100
AcDbLinetypeTableRecord
  2
CENTER
 70
64
  3
____ _ ____ _ ____ _ ____ _ ____ _ ____ _ ____
 72
65
 73
4
 40
0.6
 49
0.375
 74
0
 49
-0.075
 74
0
 49
0.075
 74
0
 49
-0.075
 74
0
  0
LTYPE
  5
1F6
100
AcDbSymbolTableRecord
100
AcDbLinetypeTableRecord
  2
HIDDEN
 70
64
  3
- - - - - - - - - - - - - - - - - - - -
 72
65
 73
2
 40
0.2
 49
0.1
 74
0
 49
-0.1
 74
0
  0
LTYPE
  5
1F7
100
AcDbSymbolTableRecord
100
AcDbLinetypeTableRecord
  2
PHANTOM
 70
64
  3
_____ _ _ _____ _ _ _____ _ _ _____
 72
65
 73
6
 40
0.8
 49
0.45
 74
0
 49
-0.05
 74
0
 49
0.1
 74
0
 49
-0.05
 74
0
 49
0.1
 74
0
 49
-0.05
 74
0
  0
LTYPE
  5
1F8
100
AcDbSymbolTableRecord
100
AcDbLinetypeTableRecord
  2
DOT
 70
64
  3
. . . . . . . . . . . . . . . . . . . .
 72
65
 73
2
 40
0.2
 49
0.1
 74
0
 49
-0.1
 74
0
  0
LTYPE
  5
1F9
100
AcDbSymbolTableRecord
100
AcDbLinetypeTableRecord
  2
DASHED
 70
64
  3
- - - - - - - - - - - - - - - - - - - -
 72
65
 73
2
 40
0.2
 49
0.1
 74
0
 49
-0.1
 74
0
  0
ENDTAB
  0
TABLE
  2
LAYER
  5
2
100
AcDbSymbolTable
 70
36
  0
LAYER
  5
10
100
AcDbSymbolTableRecord
100
AcDbLayerTableRecord
  2
0
 70
0
 62
7
  6
CONTINUOUS
370
-3
390
F
  0
LAYER
  5
1FA
100
AcDbSymbolTableRecord
100
AcDbLayerTableRecord
  2
DEFAULT_1
 70
0
 62
7
  6
CENTER
370
-3
390
F
  0
LAYER
  5
1FB
100
AcDbSymbolTableRecord
100
AcDbLayerTableRecord
  2
DEFAULT_2
 70
0
 62
8
  6
HIDDEN
370
-3
390
F
  0
LAYER
  5
1FC
100
AcDbSymbolTableRecord
100
AcDbLayerTableRecord
  2
DEFAULT_3
 70
0
 62
7
  6
PHANTOM
370
-3
390
F
  0
LAYER
  5
1FD
100
AcDbSymbolTableRecord
100
AcDbLayerTableRecord
  2
01___PRT_ALL_DTM_PLN
 70
0
 62
7
  6
CONTINUOUS
370
-3
390
F
  0
LAYER
  5
1FE
100
AcDbSymbolTableRecord
100
AcDbLayerTableRecord
  2
01___PRT_DEF_DTM_PLN
 70
0
 62
7
  6
CONTINUOUS
370
-3
390
F
  0
LAYER
  5
1FF
100
AcDbSymbolTableRecord
100
AcDbLayerTableRecord
  2
02___PRT_ALL_AXES
 70
0
 62
7
  6
CONTINUOUS
370
-3
390
F
  0
LAYER
  5
200
100
AcDbSymbolTableRecord
100
AcDbLayerTableRecord
  2
03___PRT_ALL_CURVES
 70
0
 62
7
  6
CONTINUOUS
370
-3
390
F
  0
LAYER
  5
201
100
AcDbSymbolTableRecord
100
AcDbLayerTableRecord
  2
04___PRT_ALL_DTM_PNT
 70
0
 62
7
  6
CONTINUOUS
370
-3
390
F
  0
LAYER
  5
202
100
AcDbSymbolTableRecord
100
AcDbLayerTableRecord
  2
05___PRT_ALL_DTM_CSYS
 70
0
 62
7
  6
CONTINUOUS
370
-3
390
F
  0
LAYER
  5
203
100
AcDbSymbolTableRecord
100
AcDbLayerTableRecord
  2
05___PRT_DEF_DTM_CSYS
 70
0
 62
7
  6
CONTINUOUS
370
-3
390
F
  0
LAYER
  5
204
100
AcDbSymbolTableRecord
100
AcDbLayerTableRecord
  2
06___PRT_ALL_SURFS
 70
0
 62
7
  6
CONTINUOUS
370
-3
390
F
  0
LAYER
  5
205
100
AcDbSymbolTableRecord
100
AcDbLayerTableRecord
  2
8_ALL_NOTES_BALLOONS_SYMB
 70
0
 62
7
  6
CONTINUOUS
370
-3
390
F
  0
LAYER
  5
206
100
AcDbSymbolTableRecord
100
AcDbLayerTableRecord
  2
AXES
 70
0
 62
7
  6
CONTINUOUS
370
-3
390
F
  0
LAYER
  5
207
100
AcDbSymbolTableRecord
100
AcDbLayerTableRecord
  2
REF_PLANS
 70
0
 62
7
  6
CONTINUOUS
370
-3
390
F
  0
ENDTAB
  0
TABLE
  2
STYLE
  5
3
100
AcDbSymbolTable
 70
1
  0
STYLE
  5
11
100
AcDbSymbolTableRecord
100
AcDbTextStyleTableRecord
  2
STANDARD
 70
0
 40
0.0
 41
1.0
 50
0.0
 71
0
 42
0.2
  3
cgtime.ttf
  4

  0
STYLE
  5
208
100
AcDbSymbolTableRecord
100
AcDbTextStyleTableRecord
  2
TEXTSTYLE_1
 70
0
 40
0.0
 41
0.8
 50
0.0
 71
0
 42
0.2
  3
gdt
  4

  0
STYLE
  5
209
100
AcDbSymbolTableRecord
100
AcDbTextStyleTableRecord
  2
TEXTSTYLE_2
 70
0
 40
0.0
 41
1.0
 50
0.0
 71
0
 42
0.2
  3
trium.ttf
  4

  0
STYLE
  5
20A
100
AcDbSymbolTableRecord
100
AcDbTextStyleTableRecord
  2
TEXTSTYLE_3
 70
0
 40
0.0
 41
1.0
 50
0.0
 71
0
 42
0.2
  3
calibri.ttf
  4

  0
ENDTAB
  0
TABLE
  2
VIEW
  5
6
100
AcDbSymbolTable
 70
0
  0
ENDTAB
  0
TABLE
  2
UCS
  5
7
100
AcDbSymbolTable
 70
0
  0
ENDTAB
  0
TABLE
  2
APPID
  5
9
100
AcDbSymbolTable
 70
1
  0
APPID
  5
20B
100
AcDbSymbolTableRecord
100
AcDbRegAppTableRecord
  2
ACAD
 70
0
  0
ENDTAB
  0
TABLE
  2
BLOCK_RECORD
  5
1
100
AcDbSymbolTable
 70
0
  0
BLOCK_RECORD
  5
20C
100
AcDbSymbolTableRecord
100
AcDbBlockTableRecord
  2
*Model_Space
  0
BLOCK_RECORD
  5
20D
100
AcDbSymbolTableRecord
100
AcDbBlockTableRecord
  2
*Paper_Space
  0
BLOCK_RECORD
  5
20E
100
AcDbSymbolTableRecord
100
AcDbBlockTableRecord
  2
_FILLED
  0
BLOCK_RECORD
  5
20F
100
AcDbSymbolTableRecord
100
AcDbBlockTableRecord
  2
*D0
  0
BLOCK_RECORD
  5
210
100
AcDbSymbolTableRecord
100
AcDbBlockTableRecord
  2
*D1
  0
BLOCK_RECORD
  5
211
100
AcDbSymbolTableRecord
100
AcDbBlockTableRecord
  2
*D2
  0
BLOCK_RECORD
  5
212
100
AcDbSymbolTableRecord
100
AcDbBlockTableRecord
  2
*D3
  0
BLOCK_RECORD
  5
213
100
AcDbSymbolTableRecord
100
AcDbBlockTableRecord
  2
*D4
  0
BLOCK_RECORD
  5
214
100
AcDbSymbolTableRecord
100
AcDbBlockTableRecord
  2
*D5
  0
BLOCK_RECORD
  5
215
100
AcDbSymbolTableRecord
100
AcDbBlockTableRecord
  2
*T1
  0
ENDTAB
  0
TABLE
  2
DIMSTYLE
  5
A
100
AcDbSymbolTable
 70
1
100
AcDbDimStyleTable
 71
0
  0
DIMSTYLE
105
216
100
AcDbSymbolTableRecord
100
AcDbDimStyleTableRecord
  2
STANDARD
 70
0
  3

  4

 40
1.0
 41
3.5
 42
1.0
 43
0.38
 44
1.5
 45
0.0
 46
0.0
 47
0.001
 48
0.001
140
2.5
141
0.09
142
0.0
143
25.4
144
1.0
145
0.0
146
1.0
147
0.625
 71
1.0
 72
0.0
 73
1
 74
1
 75
0
 76
0
 77
0
 78
8
 79
2
170
0
171
2
172
0
173
0
174
0
175
0
176
0
177
0
178
0
270
2
179
3
271
3
272
3
273
2
274
2
275
0
280
0
281
0
282
0
283
1
284
8
285
0
286
0
287
3
288
0
340
11
278
44
341
20E
342
20E
343
20E
344
20E
  0
DIMSTYLE
105
217
100
AcDbSymbolTableRecord
100
AcDbDimStyleTableRecord
  2
DIMSTYLE_1
 70
0
  3

  4

 40
1.0
 41
3.5
 42
1.0
 43
0.38
 44
1.5
 45
0.0
 46
0.0
 47
0.001
 48
0.001
140
2.5
141
0.09
142
0.0
143
25.4
144
1.0
145
0.0
146
1.0
147
1.25
 71
0.0
 72
0.0
 73
1
 74
1
 75
0
 76
0
 77
0
 78
8
 79
2
170
0
171
2
172
0
173
0
174
0
175
0
176
0
177
0
178
0
270
2
179
3
271
3
272
3
273
2
274
2
275
0
280
0
281
0
282
0
283
1
284
8
285
0
286
0
287
3
288
0
340
11
278
44
341
20E
342
20E
343
20E
344
20E
  0
DIMSTYLE
105
218
100
AcDbSymbolTableRecord
100
AcDbDimStyleTableRecord
  2
DIMSTYLE_2
 70
0
  3

  4

 40
1.0
 41
3.5
 42
1.0
 43
0.38
 44
1.5
 45
0.0
 46
0.0
 47
0.001
 48
0.001
140
2.5
141
0.09
142
0.0
143
25.4
144
1.0
145
0.0
146
1.0
147
1.25
 71
0.0
 72
0.0
 73
1
 74
1
 75
0
 76
0
 77
0
 78
8
 79
2
170
0
171
2
172
0
173
0
174
0
175
0
176
0
177
0
178
0
270
2
179
3
271
1
272
1
273
2
274
2
275
0
280
0
281
0
282
0
283
1
284
8
285
0
286
0
287
3
288
0
340
11
278
44
341
20E
342
20E
343
20E
344
20E
  0
DIMSTYLE
105
219
100
AcDbSymbolTableRecord
100
AcDbDimStyleTableRecord
  2
DIMSTYLE_3
 70
0
  3

  4

 40
1.0
 41
3.5
 42
1.0
 43
0.38
 44
1.5
 45
0.0
 46
0.0
 47
0.001
 48
0.001
140
2.5
141
0.09
142
0.0
143
25.4
144
2.0
145
0.0
146
1.0
147
1.25
 71
0.0
 72
0.0
 73
1
 74
1
 75
0
 76
0
 77
0
 78
8
 79
2
170
0
171
2
172
0
173
0
174
0
175
0
176
0
177
0
178
0
270
2
179
3
271
3
272
3
273
2
274
2
275
0
280
0
281
0
282
0
283
1
284
8
285
0
286
0
287
3
288
0
340
11
278
44
341
20E
342
20E
343
20E
344
20E
  0
ENDTAB
  0
ENDSEC
  0
SECTION
  2
BLOCKS
  0
BLOCK
  5
20
100
AcDbEntity
  8
0
100
AcDbBlockBegin
  2
*Model_Space
 70
0
 10
0.0
 20
0.0
 30
0.0
  3
*Model_Space
  1

  0
ENDBLK
  5
21
100
AcDbEntity
  8
0
100
AcDbBlockEnd
  0
BLOCK
  5
1C
100
AcDbEntity
  8
0
100
AcDbBlockBegin
  2
*Paper_Space
 70
0
 10
0.0
 20
0.0
 30
0.0
  3
*Paper_Space
  1

  0
ENDBLK
  5
1D
100
AcDbEntity
  8
0
100
AcDbBlockEnd
  0
BLOCK
  5
21A
100
AcDbEntity
  8
0
100
AcDbBlockBegin
  2
_FILLED
 70
64
 10
0.0
 20
0.0
  3
_FILLED
  1

  0
SOLID
  5
21B
100
AcDbEntity
  8
0
  6
BYBLOCK
 62
0
100
AcDbTrace
 10
0.0
 20
0.0
 11
-1.0
 21
0.2142857143
 12
-1.0
 22
-0.2142857143
 13
-1.0
 23
-0.2142857143
  0
ENDBLK
  5
21C
100
AcDbEntity
  8
0
  6
BYBLOCK
 62
0
100
AcDbBlockEnd
  0
BLOCK
  5
21D
100
AcDbEntity
  8
0
100
AcDbBlockBegin
 62
2
  6
CONTINUOUS
  2
*D0
 70
65
 10
0.0
 20
0.0
  3
*D0
  1

  0
TEXT
  5
21E
100
AcDbEntity
  8
0
100
AcDbText
 62
2
  6
CONTINUOUS
 10
11.7894289369
 20
114.567481523
  7
STANDARD
 40
2.5
  1
120
 72
5
 11
17.2466273805
 21
114.567481523
100
AcDbText
  0
TEXT
  5
21F
100
AcDbEntity
  8
0
100
AcDbText
 62
2
  6
CONTINUOUS
 10
17.2466273805
 20
114.567481523
  7
STANDARD
 40
2.5
  1
mm
 72
5
 11
22.9178336062
 21
114.567481523
100
AcDbText
  0
TEXT
  5
220
100
AcDbEntity
  8
0
100
AcDbText
 62
2
  6
CONTINUOUS
 10
12.5676390537
 20
110.817481523
  7
STANDARD
 40
2.5
  1
4-3/4"
 72
5
 11
22.1396234895
 21
110.817481523
100
AcDbText
  0
LINE
  5
221
100
AcDbEntity
  8
0
100
AcDbLine
 62
2
  6
CONTINUOUS
 10
126.8976158567
 20
175.817481523
 11
15.8536312716
 21
175.817481523
  0
LINE
  5
222
100
AcDbEntity
  8
0
100
AcDbLine
 62
2
  6
CONTINUOUS
 10
26.1167652808
 20
55.817481523
 11
15.8536312716
 21
55.817481523
  0
LINE
  5
223
100
AcDbEntity
  8
0
100
AcDbLine
 62
2
  6
CONTINUOUS
 10
17.3536312716
 20
175.817481523
 11
17.3536312716
 21
118.317481523
  0
LINE
  5
224
100
AcDbEntity
  8
0
100
AcDbLine
 62
2
  6
CONTINUOUS
 10
17.3536312716
 20
55.817481523
 11
17.3536312716
 21
109.567481523
  0
INSERT
  5
225
100
AcDbEntity
  8
0
100
AcDbBlockReference
 62
2
  6
CONTINUOUS
  2
_FILLED
 10
17.3536312716
 20
175.817481523
 41
3.5
 42
3.5
 43
3.5
 50
90.0
  0
INSERT
  5
226
100
AcDbEntity
  8
0
100
AcDbBlockReference
 62
2
  6
CONTINUOUS
  2
_FILLED
 10
17.3536312716
 20
55.817481523
 41
3.5
 42
3.5
 43
3.5
 50
270.0
  0
ENDBLK
  5
227
100
AcDbEntity
  8
0
  6
BYBLOCK
 62
0
100
AcDbBlockEnd
  0
BLOCK
  5
228
100
AcDbEntity
  8
0
100
AcDbBlockBegin
 62
2
  6
CONTINUOUS
  2
*D1
 70
65
 10
0.0
 20
0.0
  3
*D1
  1

  0
TEXT
  5
229
100
AcDbEntity
  8
0
100
AcDbText
 62
2
  6
CONTINUOUS
 10
81.5525629462
 20
182.8413449647
  7
STANDARD
 40
2.5
  1
120
 72
5
 11
87.0097613898
 21
182.8413449647
100
AcDbText
  0
TEXT
  5
22A
100
AcDbEntity
  8
0
100
AcDbText
 62
2
  6
CONTINUOUS
 10
87.0097613898
 20
182.8413449647
  7
STANDARD
 40
2.5
  1
mm
 72
5
 11
92.6809676155
 21
182.8413449647
100
AcDbText
  0
TEXT
  5
22B
100
AcDbEntity
  8
0
100
AcDbText
 62
2
  6
CONTINUOUS
 10
82.3307730629
 20
179.0913449647
  7
STANDARD
 40
2.5
  1
4-3/4"
 72
5
 11
91.9027574987
 21
179.0913449647
100
AcDbText
  0
LINE
  5
22C
100
AcDbEntity
  8
0
100
AcDbLine
 62
2
  6
CONTINUOUS
 10
27.1167652808
 20
70.7671702157
 11
27.1167652808
 21
185.5913449647
  0
LINE
  5
22D
100
AcDbEntity
  8
0
100
AcDbLine
 62
2
  6
CONTINUOUS
 10
147.1167652808
 20
176.817481523
 11
147.1167652808
 21
185.5913449647
  0
LINE
  5
22E
100
AcDbEntity
  8
0
100
AcDbLine
 62
2
  6
CONTINUOUS
 10
27.1167652808
 20
184.0913449647
 11
80.3025629462
 21
184.0913449647
  0
LINE
  5
22F
100
AcDbEntity
  8
0
100
AcDbLine
 62
2
  6
CONTINUOUS
 10
147.1167652808
 20
184.0913449647
 11
93.9309676155
 21
184.0913449647
  0
INSERT
  5
230
100
AcDbEntity
  8
0
100
AcDbBlockReference
 62
2
  6
CONTINUOUS
  2
_FILLED
 10
27.1167652808
 20
184.0913449647
 41
3.5
 42
3.5
 43
3.5
 50
180.0
  0
INSERT
  5
231
100
AcDbEntity
  8
0
100
AcDbBlockReference
 62
2
  6
CONTINUOUS
  2
_FILLED
 10
147.1167652808
 20
184.0913449647
 41
3.5
 42
3.5
 43
3.5
  0
ENDBLK
  5
232
100
AcDbEntity
  8
0
  6
BYBLOCK
 62
0
100
AcDbBlockEnd
  0
BLOCK
  5
233
100
AcDbEntity
  8
0
100
AcDbBlockBegin
 62
2
  6
CONTINUOUS
  2
*D2
 70
65
 10
0.0
 20
0.0
  3
*D2
  1

  0
TEXT
  5
234
100
AcDbEntity
  8
0
100
AcDbText
 62
2
  6
CONTINUOUS
 10
95.4702178236
 20
99.132316918
  7
STANDARD
 40
2.5
  1
169,7
 72
5
 11
103.9624357224
 21
99.132316918
100
AcDbText
  0
TEXT
  5
235
100
AcDbEntity
  8
0
100
AcDbText
 62
2
  6
CONTINUOUS
 10
103.9624357224
 20
99.132316918
  7
STANDARD
 40
2.5
  1
mm
 72
5
 11
109.6336419481
 21
99.132316918
100
AcDbText
  0
TEXT
  5
236
100
AcDbEntity
  8
0
100
AcDbText
 62
2
  6
CONTINUOUS
 10
97.7659376679
 20
95.382316918
  7
STANDARD
 40
2.5
  1
6-3/4"
 72
5
 11
107.3379221037
 21
95.382316918
100
AcDbText
  0
LINE
  5
237
100
AcDbEntity
  8
0
100
AcDbLine
 62
2
  6
CONTINUOUS
 10
147.823872062
 20
175.1103747418
 11
163.6125900576
 21
159.3216567462
  0
LINE
  5
238
100
AcDbEntity
  8
0
100
AcDbLine
 62
2
  6
CONTINUOUS
 10
27.823872062
 20
55.1103747418
 11
43.6125900576
 21
39.3216567462
  0
LINE
  5
239
100
AcDbEntity
  8
0
100
AcDbLine
 62
2
  6
CONTINUOUS
 10
162.5519298858
 20
160.382316918
 11
105.0519298858
 21
102.882316918
  0
LINE
  5
23A
100
AcDbEntity
  8
0
100
AcDbLine
 62
2
  6
CONTINUOUS
 10
42.5519298858
 20
40.382316918
 11
96.5159376679
 21
94.3463247001
  0
INSERT
  5
23B
100
AcDbEntity
  8
0
100
AcDbBlockReference
 62
2
  6
CONTINUOUS
  2
_FILLED
 10
162.5519298858
 20
160.382316918
 41
3.5
 42
3.5
 43
3.5
 50
45.0
  0
INSERT
  5
23C
100
AcDbEntity
  8
0
100
AcDbBlockReference
 62
2
  6
CONTINUOUS
  2
_FILLED
 10
42.5519298858
 20
40.382316918
 41
3.5
 42
3.5
 43
3.5
 50
225.0
  0
ENDBLK
  5
23D
100
AcDbEntity
  8
0
  6
BYBLOCK
 62
0
100
AcDbBlockEnd
  0
BLOCK
  5
23E
100
AcDbEntity
  8
0
100
AcDbBlockBegin
 62
2
  6
CONTINUOUS
  2
*D3
 70
65
 10
0.0
 20
0.0
  3
*D3
  1

  0
TEXT
  5
23F
100
AcDbEntity
  8
0
100
AcDbText
 62
2
  6
CONTINUOUS
 10
170.941139019
 20
183.3126352072
  7
STANDARD
 40
2.5
  1
7
 72
5
 11
172.7602051668
 21
183.3126352072
100
AcDbText
  0
TEXT
  5
240
100
AcDbEntity
  8
0
100
AcDbText
 62
2
  6
CONTINUOUS
 10
172.7602051668
 20
183.3126352072
  7
STANDARD
 40
2.5
  1
mm
 72
5
 11
178.4314113925
 21
183.3126352072
100
AcDbText
  0
TEXT
  5
241
100
AcDbEntity
  8
0
100
AcDbText
 62
2
  6
CONTINUOUS
 10
170.941139019
 20
179.5626352072
  7
STANDARD
 40
2.5
  1
1/4"
 72
5
 11
177.4781039995
 21
179.5626352072
100
AcDbText
  0
LINE
  5
242
100
AcDbEntity
  8
0
100
AcDbLine
 62
2
  6
CONTINUOUS
 10
148.1167652808
 20
168.817481523
 11
166.441139019
 21
168.817481523
  0
LINE
  5
243
100
AcDbEntity
  8
0
100
AcDbLine
 62
2
  6
CONTINUOUS
 10
148.1167652808
 20
175.817481523
 11
166.441139019
 21
175.817481523
  0
LINE
  5
244
100
AcDbEntity
  8
0
100
AcDbLine
 62
2
  6
CONTINUOUS
 10
164.941139019
 20
168.817481523
 11
164.941139019
 21
163.817481523
  0
LINE
  5
245
100
AcDbEntity
  8
0
100
AcDbLine
 62
2
  6
CONTINUOUS
 10
164.941139019
 20
175.817481523
 11
164.941139019
 21
184.5626352072
  0
LINE
  5
246
100
AcDbEntity
  8
0
100
AcDbLine
 62
2
  6
CONTINUOUS
 10
164.941139019
 20
184.5626352072
 11
169.691139019
 21
184.5626352072
  0
INSERT
  5
247
100
AcDbEntity
  8
0
100
AcDbBlockReference
 62
2
  6
CONTINUOUS
  2
_FILLED
 10
164.941139019
 20
168.817481523
 41
3.5
 42
3.5
 43
3.5
 50
90.0
  0
INSERT
  5
248
100
AcDbEntity
  8
0
100
AcDbBlockReference
 62
2
  6
CONTINUOUS
  2
_FILLED
 10
164.941139019
 20
175.817481523
 41
3.5
 42
3.5
 43
3.5
 50
270.0
  0
ENDBLK
  5
249
100
AcDbEntity
  8
0
  6
BYBLOCK
 62
0
100
AcDbBlockEnd
  0
BLOCK
  5
24A
100
AcDbEntity
  8
0
100
AcDbBlockBegin
 62
2
  6
CONTINUOUS
  2
*D4
 70
65
 10
0.0
 20
0.0
  3
*D4
  1

  0
TEXT
  5
24B
100
AcDbEntity
  8
0
100
AcDbText
 62
2
  6
CONTINUOUS
 10
27.8716290941
 20
38.1561432656
  7
STANDARD
 40
2.5
  1
9
 72
5
 11
29.6906952419
 21
38.1561432656
100
AcDbText
  0
TEXT
  5
24C
100
AcDbEntity
  8
0
100
AcDbText
 62
2
  6
CONTINUOUS
 10
29.6906952419
 20
38.1561432656
  7
STANDARD
 40
2.5
  1
mm
 72
5
 11
35.3619014676
 21
38.1561432656
100
AcDbText
  0
TEXT
  5
24D
100
AcDbEntity
  8
0
100
AcDbText
 62
2
  6
CONTINUOUS
 10
28.3482827906
 20
34.4061432656
  7
STANDARD
 40
2.5
  1
3/8"
 72
5
 11
34.8852477711
 21
34.4061432656
100
AcDbText
  0
LINE
  5
24E
100
AcDbEntity
  8
0
100
AcDbLine
 62
2
  6
CONTINUOUS
 10
27.1167652808
 20
54.817481523
 11
27.1167652808
 21
37.9061432656
  0
LINE
  5
24F
100
AcDbEntity
  8
0
100
AcDbLine
 62
2
  6
CONTINUOUS
 10
36.1167652808
 20
54.817481523
 11
36.1167652808
 21
37.9061432656
  0
LINE
  5
250
100
AcDbEntity
  8
0
100
AcDbLine
 62
2
  6
CONTINUOUS
 10
27.1167652808
 20
39.4061432656
 11
22.1167652808
 21
39.4061432656
  0
LINE
  5
251
100
AcDbEntity
  8
0
100
AcDbLine
 62
2
  6
CONTINUOUS
 10
36.1167652808
 20
39.4061432656
 11
41.1167652808
 21
39.4061432656
  0
INSERT
  5
252
100
AcDbEntity
  8
0
100
AcDbBlockReference
 62
2
  6
CONTINUOUS
  2
_FILLED
 10
27.1167652808
 20
39.4061432656
 41
3.5
 42
3.5
 43
3.5
  0
INSERT
  5
253
100
AcDbEntity
  8
0
100
AcDbBlockReference
 62
2
  6
CONTINUOUS
  2
_FILLED
 10
36.1167652808
 20
39.4061432656
 41
3.5
 42
3.5
 43
3.5
 50
180.0
  0
ENDBLK
  5
254
100
AcDbEntity
  8
0
  6
BYBLOCK
 62
0
100
AcDbBlockEnd
  0
BLOCK
  5
255
100
AcDbEntity
  8
0
100
AcDbBlockBegin
 62
2
  6
CONTINUOUS
  2
*D5
 70
65
 10
0.0
 20
0.0
  3
*D5
  1

  0
TEXT
  5
256
100
AcDbEntity
  8
0
100
AcDbText
 62
2
  6
CONTINUOUS
 10
158.7338740702
 20
57.1489989956
  7
STANDARD
 40
2.5
  1
17,5
 72
5
 11
165.4070258212
 21
57.1489989956
100
AcDbText
  0
TEXT
  5
257
100
AcDbEntity
  8
0
100
AcDbText
 62
2
  6
CONTINUOUS
 10
165.4070258212
 20
57.1489989956
  7
STANDARD
 40
2.5
  1
mm
 72
5
 11
171.0782320469
 21
57.1489989956
100
AcDbText
  0
TEXT
  5
258
100
AcDbEntity
  8
0
100
AcDbText
 62
2
  6
CONTINUOUS
 10
163.4615005293
 20
53.3989989956
  7
STANDARD
 40
2.5
  1
 3/4"
 72
5
 11
171.0782320469
 21
53.3989989956
100
AcDbText
  0
LINE
  5
259
100
AcDbEntity
  8
0
100
AcDbLine
 62
2
  6
CONTINUOUS
 10
175.8654882153
 20
69.2301003007
 11
175.8654882153
 21
56.8989989956
  0
LINE
  5
25A
100
AcDbEntity
  8
0
100
AcDbLine
 62
2
  6
CONTINUOUS
 10
184.6154882153
 20
69.2301003007
 11
184.6154882153
 21
56.8989989956
  0
LINE
  5
25B
100
AcDbEntity
  8
0
100
AcDbLine
 62
2
  6
CONTINUOUS
 10
175.8654882153
 20
58.3989989956
 11
180.2404882153
 21
58.3989989956
  0
LINE
  5
25C
100
AcDbEntity
  8
0
100
AcDbLine
 62
2
  6
CONTINUOUS
 10
180.2404882153
 20
58.3989989956
 11
172.3282320469
 21
58.3989989956
  0
LINE
  5
25D
100
AcDbEntity
  8
0
100
AcDbLine
 62
2
  6
CONTINUOUS
 10
184.6154882153
 20
58.3989989956
 11
180.2404882153
 21
58.3989989956
  0
INSERT
  5
25E
100
AcDbEntity
  8
0
100
AcDbBlockReference
 62
2
  6
CONTINUOUS
  2
_FILLED
 10
175.8654882153
 20
58.3989989956
 41
3.5
 42
3.5
 43
3.5
 50
180.0
  0
INSERT
  5
25F
100
AcDbEntity
  8
0
100
AcDbBlockReference
 62
2
  6
CONTINUOUS
  2
_FILLED
 10
184.6154882153
 20
58.3989989956
 41
3.5
 42
3.5
 43
3.5
  0
ENDBLK
  5
260
100
AcDbEntity
  8
0
  6
BYBLOCK
 62
0
100
AcDbBlockEnd
  0
BLOCK
  5
261
100
AcDbEntity
  8
0
100
AcDbBlockBegin
  2
*T1
 70
1
 10
0.0
 20
0.0
  3
*T1
  1

  0
LINE
  5
262
100
AcDbEntity
  8
0
100
AcDbLine
 62
7
  6
CONTINUOUS
 10
0.0
 20
0.0
 11
148.0
 21
0.0
  0
LINE
  5
263
100
AcDbEntity
  8
0
100
AcDbLine
 62
7
  6
CONTINUOUS
 10
0.0
 20
0.0
 11
0.0
 21
-43.0
  0
LINE
  5
264
100
AcDbEntity
  8
0
100
AcDbLine
 62
7
  6
CONTINUOUS
 10
45.0
 20
-20.0
 11
148.0
 21
-20.0
  0
LINE
  5
265
100
AcDbEntity
  8
0
100
AcDbLine
 62
7
  6
CONTINUOUS
 10
45.0
 20
-28.0
 11
148.0
 21
-28.0
  0
LINE
  5
266
100
AcDbEntity
  8
0
100
AcDbLine
 62
7
  6
CONTINUOUS
 10
0.0
 20
-43.0
 11
148.0
 21
-43.0
  0
LINE
  5
267
100
AcDbEntity
  8
0
100
AcDbLine
 62
7
  6
CONTINUOUS
 10
45.0
 20
0.0
 11
45.0
 21
-43.0
  0
LINE
  5
268
100
AcDbEntity
  8
0
100
AcDbLine
 62
7
  6
CONTINUOUS
 10
143.0
 20
0.0
 11
143.0
 21
-20.0
  0
LINE
  5
269
100
AcDbEntity
  8
0
100
AcDbLine
 62
7
  6
CONTINUOUS
 10
148.0
 20
0.0
 11
148.0
 21
-43.0
  0
TEXT
  5
26A
100
AcDbEntity
  8
0
100
AcDbText
 62
7
  6
CONTINUOUS
 10
8.9659749243
 20
-9.175
  7
STANDARD
 40
8.0
  1
O
 72
5
 11
17.370644185
 21
-9.175
100
AcDbText
  0
TEXT
  5
26B
100
AcDbEntity
  8
0
100
AcDbText
 62
7
  6
CONTINUOUS
 10
17.370644185
 20
-9.175
  7
STANDARD
 40
5.5
  1
RAC
 72
5
 11
33.9562472979
 21
-9.175
100
AcDbText
  0
TEXT
  5
26C
100
AcDbEntity
  8
0
100
AcDbText
 62
7
  6
CONTINUOUS
 10
33.9562472979
 20
-4.425
  7
TEXTSTYLE_2
 40
3.0
  1
®
 72
5
 11
36.0340250757
 21
-4.425
100
AcDbText
  0
TEXT
  5
26D
100
AcDbEntity
  8
0
100
AcDbText
 62
7
  6
CONTINUOUS
 10
9.5323389537
 20
-13.825
  7
TEXTSTYLE_2
 40
3.0
  1
D  E  C  O  R
 72
5
 11
34.3878945093
 21
-13.825
100
AcDbText
  0
TEXT
  5
26E
100
AcDbEntity
  8
0
100
AcDbText
 62
7
  6
CONTINUOUS
 10
34.3878945093
 20
-13.825
  7
STANDARD
 40
2.5
  1
 
 72
5
 11
35.4676610463
 21
-13.825
100
AcDbText
  0
TEXT
  5
26F
100
AcDbEntity
  8
0
100
AcDbText
 62
7
  6
CONTINUOUS
 10
52.8786764706
 20
-4.6
  7
TEXTSTYLE_3
 40
2.7
  1
Part name:
 72
5
 11
71.9375
 21
-4.6
100
AcDbText
  0
TEXT
  5
270
100
AcDbEntity
  8
0
100
AcDbText
 62
7
  6
CONTINUOUS
 10
49.6908613445
 20
-11.35
  7
TEXTSTYLE_3
 40
2.7
  1
Designed by:
 72
5
 11
71.9375
 21
-11.35
100
AcDbText
  0
TEXT
  5
271
100
AcDbEntity
  8
0
100
AcDbText
 62
7
  6
CONTINUOUS
 10
49.3732142857
 20
-18.1
  7
TEXTSTYLE_3
 40
2.7
  1
Designed on:
 72
5
 11
71.9375
 21
-18.1
100
AcDbText
  0
TEXT
  5
272
100
AcDbEntity
  8
0
100
AcDbText
 62
2
  6
CONTINUOUS
 10
74.0625
 20
-4.6
  7
TEXTSTYLE_3
 40
2.7
  1
CX107
 72
5
 11
85.0099789916
 21
-4.6
100
AcDbText
  0
TEXT
  5
273
100
AcDbEntity
  8
0
100
AcDbText
 62
2
  6
CONTINUOUS
 10
74.0625
 20
-11.35
  7
TEXTSTYLE_3
 40
2.7
  1
ORAC
 72
5
 11
83.9209033613
 21
-11.35
100
AcDbText
  0
TEXT
  5
274
100
AcDbEntity
  8
0
100
AcDbText
 62
2
  6
CONTINUOUS
 10
74.0625
 20
-18.1
  7
TEXTSTYLE_3
 40
2.7
  1
29-Sept-2009
 72
5
 11
97.3414915966
 21
-18.1
100
AcDbText
  0
TEXT
  5
275
100
AcDbEntity
  8
0
100
AcDbText
 62
2
  6
CONTINUOUS
 10
146.5625
 20
-16.0
  7
TEXTSTYLE_3
 40
1.5
  1
Version: 1.0 
 50
90.0
 72
5
 11
146.5625
 21
-4.0
100
AcDbText
  0
TEXT
  5
276
100
AcDbEntity
  8
0
100
AcDbText
 62
7
  6
CONTINUOUS
 10
9.6586134454
 20
-22.75
  7
TEXTSTYLE_3
 40
2.5
  1
Biekorfstraat 32
 72
5
 11
35.3413865546
 21
-22.75
100
AcDbText
  0
TEXT
  5
277
100
AcDbEntity
  8
0
100
AcDbText
 62
7
  6
CONTINUOUS
 10
2.2584033613
 20
-26.5
  7
TEXTSTYLE_3
 40
2.5
  1
8400 Oostende - Belgium
 72
5
 11
42.7415966387
 21
-26.5
100
AcDbText
  0
TEXT
  5
278
100
AcDbEntity
  8
0
100
AcDbText
 62
7
  6
CONTINUOUS
 10
4.2699579832
 20
-30.25
  7
TEXTSTYLE_3
 40
2.5
  1
Tel  +32 (0)59 80 32 52
 72
5
 11
40.7300420168
 21
-30.25
100
AcDbText
  0
TEXT
  5
279
100
AcDbEntity
  8
0
100
AcDbText
 62
7
  6
CONTINUOUS
 10
5.7405462185
 20
-34.0
  7
TEXTSTYLE_3
 40
2.5
  1
www.oracdecor.com
 72
5
 11
39.2594537815
 21
-34.0
100
AcDbText
  0
TEXT
  5
27A
100
AcDbEntity
  8
0
100
AcDbText
 62
7
  6
CONTINUOUS
 10
5.5777310924
 20
-37.75
  7
TEXTSTYLE_3
 40
2.5
  1
info@oracdecor.com
 72
5
 11
39.4222689076
 21
-37.75
100
AcDbText
  0
TEXT
  5
27B
100
AcDbEntity
  8
0
100
AcDbText
 62
7
  6
CONTINUOUS
 10
46.0625
 20
-23.375
  7
TEXTSTYLE_3
 40
2.5
  1
Unless otherwise specified: all dimensions are in millimeters 
 72
5
 11
143.4259453782
 21
-23.375
100
AcDbText
  0
TEXT
  5
27C
100
AcDbEntity
  8
0
100
AcDbText
 62
7
  6
CONTINUOUS
 10
46.0625
 20
-27.125
  7
TEXTSTYLE_3
 40
2.5
  1
and inches, scale 1:1, length 2 meters
 72
5
 11
106.1675420168
 21
-27.125
100
AcDbText
  0
TEXT
  5
27D
100
AcDbEntity
  8
0
100
AcDbText
 62
7
  6
CONTINUOUS
 10
46.0625
 20
-31.81
  7
TEXTSTYLE_3
 40
1.8
  1
All information in this document is Orac's exclusive property.  It may in no case 
 72
5
 11
137.5070378151
 21
-31.81
100
AcDbText
  0
TEXT
  5
27E
100
AcDbEntity
  8
0
100
AcDbText
 62
7
  6
CONTINUOUS
 10
46.0625
 20
-34.87
  7
TEXTSTYLE_3
 40
1.8
  1
be reproduced, even partly, be communicated to a third party or used for any 
 72
5
 11
136.3272058824
 21
-34.87
100
AcDbText
  0
TEXT
  5
27F
100
AcDbEntity
  8
0
100
AcDbText
 62
7
  6
CONTINUOUS
 10
46.0625
 20
-37.93
  7
TEXTSTYLE_3
 40
1.8
  1
possible purpose without ORAC's express written permission. Further legal 
 72
5
 11
132.7952731092
 21
-37.93
100
AcDbText
  0
TEXT
  5
280
100
AcDbEntity
  8
0
100
AcDbText
 62
7
  6
CONTINUOUS
 10
46.0625
 20
-40.99
  7
TEXTSTYLE_3
 40
1.8
  1
information can be found at https://www.oracdecor.com/en/general-sales-conditions
 72
5
 11
145.349894958
 21
-40.99
100
AcDbText
  0
ENDBLK
  5
281
100
AcDbEntity
  8
0
  6
BYBLOCK
 62
0
100
AcDbBlockEnd
  0
ENDSEC
  0
SECTION
  2
ENTITIES
  0
DIMENSION
  5
282
100
AcDbEntity
  8
0
100
AcDbDimension
 62
2
  6
CONTINUOUS
  2
*D0
 10
17.3536312716
 20
55.817481523
 11
17.3536312716
 21
113.942481523
 70
160
 71
2
 72
2
 41
0.9
 42
120.0
  1
<>mm\P4-3/4"
  3
DIMSTYLE_1
100
AcDbAlignedDimension
 13
127.8976158567
 23
175.817481523
 14
27.1167652808
 24
55.817481523
 50
270.0
100
AcDbRotatedDimension
  0
DIMENSION
  5
283
100
AcDbEntity
  8
0
100
AcDbDimension
 62
2
  6
CONTINUOUS
  2
*D1
 10
147.1167652808
 20
184.0913449647
 11
87.1167652808
 21
182.2163449647
 70
160
 71
2
 72
2
 41
0.9
 42
120.0
  1
<>mm\P4-3/4"
  3
DIMSTYLE_1
100
AcDbAlignedDimension
 13
27.1167652808
 23
69.7671702157
 14
147.1167652808
 24
175.817481523
100
AcDbRotatedDimension
  0
DIMENSION
  5
284
100
AcDbEntity
  8
0
100
AcDbDimension
 62
2
  6
CONTINUOUS
  2
*D2
 10
42.5519298858
 20
40.382316918
 11
102.5519298858
 21
98.507316918
 70
160
 71
2
 72
2
 41
0.9
 42
169.7056274848
  1
<>mm\P6-3/4"
  3
DIMSTYLE_2
100
AcDbAlignedDimension
 13
147.1167652808
 23
175.817481523
 14
27.1167652808
 24
55.817481523
 50
225.0
100
AcDbRotatedDimension
  0
DIMENSION
  5
285
100
AcDbEntity
  8
0
100
AcDbDimension
 62
2
  6
CONTINUOUS
  2
*D3
 10
164.941139019
 20
175.817481523
 11
174.6862752057
 21
182.6876352072
 70
160
 71
1
 72
2
 41
0.9
 42
7.0
  1
<>mm\P1/4"
  3
DIMSTYLE_1
100
AcDbAlignedDimension
 13
147.1167652808
 23
168.817481523
 14
147.1167652808
 24
175.817481523
 50
90.0
100
AcDbRotatedDimension
  0
DIMENSION
  5
286
100
AcDbEntity
  8
0
100
AcDbDimension
 62
2
  6
CONTINUOUS
  2
*D4
 10
36.1167652808
 20
39.4061432656
 11
31.6167652808
 21
37.5311432656
 70
160
 71
2
 72
2
 41
0.9
 42
9.0
  1
<>mm\P3/8"
  3
DIMSTYLE_1
100
AcDbAlignedDimension
 13
27.1167652808
 23
55.817481523
 14
36.1167652808
 24
55.817481523
100
AcDbRotatedDimension
  0
DIMENSION
  5
287
100
AcDbEntity
  8
0
100
AcDbDimension
 62
2
  6
CONTINUOUS
  2
*D5
 10
184.6154882153
 20
58.3989989956
 11
164.9060530585
 21
56.5239989956
 70
160
 71
3
 72
2
 41
0.9
 42
17.5
  1
<>mm\P 3/4"
  3
DIMSTYLE_3
100
AcDbAlignedDimension
 13
175.8654882153
 23
70.2301003007
 14
184.6154882153
 24
70.2301003007
100
AcDbRotatedDimension
  0
ACAD_TABLE
  5
288
100
AcDbEntity
  8
0
 62
2
  6
CONTINUOUS
100
AcDbBlockReference
  2
*T1
 10
144.0
 20
48.0
 30
0.0
100
AcDbTable
342
       5E6
343
215
 11
1.0
 21
0.0
 31
0.0
 90
22
 91
4
 92
4
 93
0
 94
0
 95
0
 96
0
141
15.0
141
5.0
141
8.0
141
15.0
142
45.0
142
28.0
142
70.0
142
5.0
171
1
172
0
173
0
174
0
175
1
176
1
 91
41
178
0
145
0.0
301
CELL_VALUE
 90
4
  1
\A1;O\H5.5;RAC\fCG Triumvirate;\H3.0;\S®^ ;\PD  E  C  O  R\fCG Times;\H2.5; 
304
ACVALUE_END
170
5
140
8.0
 64
7
171
1
172
0
173
0
174
0
175
1
176
2
 91
57
178
0
145
0.0
  7
TEXTSTYLE_3
301
CELL_VALUE
 90
4
  1
Part name:\PDesigned by:\PDesigned on:
304
ACVALUE_END
170
6
140
2.7
 64
7
171
1
172
0
173
0
174
0
175
1
176
2
 91
49
178
0
145
0.0
  7
TEXTSTYLE_3
301
CELL_VALUE
 90
4
  1
CX107\PORAC\P29-Sept-2009
304
ACVALUE_END
170
4
140
2.7
171
1
172
0
173
0
174
0
175
1
176
2
 91
49
178
0
145
0.0
  7
TEXTSTYLE_3
301
CELL_VALUE
 90
4
  1
Version: 1.0 
304
ACVALUE_END
170
6
140
1.5
171
1
172
0
173
0
174
0
175
1
176
3
 91
57
178
0
145
0.0
  7
TEXTSTYLE_3
301
CELL_VALUE
 90
4
  1
Biekorfstraat 32\P8400 Oostende - Belgium\PTel  +32 (0)59 80 32 52\Pwww.oracdecor.com\Pinfo@oracdecor.com
304
ACVALUE_END
170
5
140
2.5
 64
7
171
1
172
0
173
1
174
0
175
1
176
1
 91
1
178
0
145
0.0
170
1
171
1
172
0
173
1
174
0
175
1
176
1
 91
1
178
0
145
0.0
170
1
171
1
172
0
173
1
174
0
175
1
176
1
 91
1
178
0
145
0.0
170
1
171
1
172
0
173
1
174
0
175
1
176
1
 91
1
178
0
145
0.0
170
1
171
1
172
0
173
0
174
0
175
3
176
1
 91
57
178
0
145
0.0
  7
TEXTSTYLE_3
301
CELL_VALUE
 90
4
  1
Unless otherwise specified: all dimensions are in millimeters \Pand inches, scale 1:1, length 2 meters
304
ACVALUE_END
170
4
140
2.5
 64
7
171
1
172
0
173
1
174
0
175
1
176
1
 91
1
178
0
145
0.0
170
1
171
1
172
0
173
1
174
0
175
1
176
1
 91
1
178
0
145
0.0
170
1
171
1
172
0
173
1
174
0
175
1
176
1
 91
1
178
0
145
0.0
170
1
171
1
172
0
173
0
174
0
175
3
176
1
 91
57
178
0
145
0.0
  7
TEXTSTYLE_3
301
CELL_VALUE
 90
4
  2
All information in this document is Orac's exclusive property.  It may in no case \Pbe reproduced, even partly, be communicated to a third party or used for any \Ppossible purpose without ORAC's express written permission. Further legal \Pinformation
  1
 can be found at https://www.oracdecor.com/en/general-sales-conditions
304
ACVALUE_END
170
4
140
1.8
 64
7
171
1
172
0
173
1
174
0
175
1
176
1
 91
1
178
0
145
0.0
170
1
171
1
172
0
173
1
174
0
175
1
176
1
 91
1
178
0
145
0.0
170
1
  0
TEXT
  5
289
100
AcDbEntity
  8
0
100
AcDbText
 62
2
  6
CONTINUOUS
 10
222.7596108353
 20
105.9259038857
  7
STANDARD
 40
2.5
  1
SCALE  
 72
5
 11
236.5631127808
 21
105.9259038857
100
AcDbText
  0
TEXT
  5
28A
100
AcDbEntity
  8
0
100
AcDbText
 62
2
  6
CONTINUOUS
 10
236.5631127808
 20
105.9259038857
  7
STANDARD
 40
2.5
  1
1:2
 72
5
 11
241.4171983839
 21
105.9259038857
100
AcDbText
  0
TEXT
  5
28B
100
AcDbEntity
  8
0
100
AcDbText
 62
2
  6
CONTINUOUS
 10
238.9039877622
 20
56.176185827
  7
STANDARD
 40
2.5
  1
SCALE  
 72
5
 11
252.7074897077
 21
56.176185827
100
AcDbText
  0
TEXT
  5
28C
100
AcDbEntity
  8
0
100
AcDbText
 62
2
  6
CONTINUOUS
 10
252.7074897077
 20
56.176185827
  7
STANDARD
 40
2.5
  1
1:2
 72
5
 11
257.5615753108
 21
56.176185827
100
AcDbText
  0
LINE
  5
28D
100
AcDbEntity
  8
0
100
AcDbLine
 62
5
  6
CONTINUOUS
 10
0.0
 20
0.0
 11
0.0
 21
210.0
  0
LINE
  5
28E
100
AcDbEntity
  8
0
100
AcDbLine
 62
7
  6
CONTINUOUS
 10
5.0
 20
5.0
 11
5.0
 21
195.0
  0
LINE
  5
28F
100
AcDbEntity
  8
0
100
AcDbLine
 62
5
  6
CONTINUOUS
 10
0.0
 20
0.0
 11
297.0
 21
0.0
  0
LINE
  5
290
100
AcDbEntity
  8
0
100
AcDbLine
 62
7
  6
CONTINUOUS
 10
5.0
 20
5.0
 11
292.0
 21
5.0
  0
LINE
  5
291
100
AcDbEntity
  8
0
100
AcDbLine
 62
4
  6
CONTINUOUS
 10
148.5
 20
195.0
 11
148.5
 21
205.0
  0
LINE
  5
292
100
AcDbEntity
  8
0
100
AcDbLine
 62
7
  6
CONTINUOUS
 10
5.0
 20
195.0
 11
292.0
 21
195.0
  0
LINE
  5
293
100
AcDbEntity
  8
0
100
AcDbLine
 62
5
  6
CONTINUOUS
 10
0.0
 20
210.0
 11
297.0
 21
210.0
  0
LINE
  5
294
100
AcDbEntity
  8
0
100
AcDbLine
 62
7
  6
CONTINUOUS
 10
292.0
 20
5.0
 11
292.0
 21
195.0
  0
LINE
  5
295
100
AcDbEntity
  8
0
100
AcDbLine
 62
5
  6
CONTINUOUS
 10
297.0
 20
0.0
 11
297.0
 21
210.0
  0
LINE
  5
296
100
AcDbEntity
  8
02___PRT_ALL_AXES
100
AcDbLine
 62
7
  6
CONTINUOUS
 10
177.5670927606
 20
120.2135440105
 11
178.3794589975
 21
118.9541207664
  0
LINE
  5
297
100
AcDbEntity
  8
02___PRT_ALL_AXES
100
AcDbLine
 62
7
  6
CONTINUOUS
 10
177.4704566907
 20
122.1368689439
 11
177.5670927606
 21
120.2135440105
  0
LINE
  5
298
100
AcDbEntity
  8
02___PRT_ALL_AXES
100
AcDbLine
 62
7
  6
CONTINUOUS
 10
177.6974630279
 20
117.6188152933
 11
177.8204511665
 21
115.1710113436
  0
LINE
  5
299
100
AcDbEntity
  8
02___PRT_ALL_AXES
100
AcDbLine
 62
7
  6
CONTINUOUS
 10
183.4486889811
 20
132.3640784851
 11
183.6487300155
 21
128.3827089036
  0
LINE
  5
29A
100
AcDbEntity
  8
02___PRT_ALL_AXES
100
AcDbLine
 62
7
  6
CONTINUOUS
 10
186.5357267094
 20
120.6198624617
 11
186.3224636675
 21
124.8643865444
  0
LINE
  5
29B
100
AcDbEntity
  8
02___PRT_ALL_AXES
100
AcDbLine
 62
7
  6
CONTINUOUS
 10
187.1914189618
 20
132.4179583517
 11
187.5677655063
 21
124.9276217352
  0
LINE
  5
29C
100
AcDbEntity
  8
02___PRT_ALL_AXES
100
AcDbLine
 62
7
  6
CONTINUOUS
 10
189.0145090836
 20
123.2366580056
 11
188.5503483453
 21
132.4747398327
  0
LINE
  5
29D
100
AcDbEntity
  8
02___PRT_ALL_AXES
100
AcDbLine
 62
7
  6
CONTINUOUS
 10
188.9408795212
 20
132.4525588121
 11
189.4050402595
 21
123.2144769851
  0
LINE
  5
29E
100
AcDbEntity
  8
02___PRT_ALL_AXES
100
AcDbLine
 62
7
  6
CONTINUOUS
 10
189.632295349
 20
123.2015695653
 11
189.1681346107
 21
132.4396513924
  0
LINE
  5
29F
100
AcDbEntity
  8
02___PRT_ALL_AXES
100
AcDbLine
 62
7
  6
CONTINUOUS
 10
189.5586657866
 20
132.4174703719
 11
190.0228265249
 21
123.1793885448
  0
LINE
  5
2A0
100
AcDbEntity
  8
02___PRT_ALL_AXES
100
AcDbLine
 62
7
  6
CONTINUOUS
 10
190.2500816144
 20
123.1664811251
 11
189.7859208761
 21
132.4045629521
  0
LINE
  5
2A1
100
AcDbEntity
  8
02___PRT_ALL_AXES
100
AcDbLine
 62
7
  6
CONTINUOUS
 10
190.176452052
 20
132.3823819316
 11
190.6406127903
 21
123.1443001045
  0
LINE
  5
2A2
100
AcDbEntity
  8
02___PRT_ALL_AXES
100
AcDbLine
 62
7
  6
CONTINUOUS
 10
190.4037071415
 20
132.3694745119
 11
190.8678678798
 21
123.1313926848
  0
LINE
  5
2A3
100
AcDbEntity
  8
02___PRT_ALL_AXES
100
AcDbLine
 62
7
  6
CONTINUOUS
 10
191.2583990557
 20
123.1092116643
 11
190.7942383174
 21
132.3472934914
  0
LINE
  5
2A4
100
AcDbEntity
  8
02___PRT_ALL_AXES
100
AcDbLine
 62
7
  6
CONTINUOUS
 10
190.9273244781
 20
132.6076639241
 11
190.7642409755
 21
135.8534764579
  0
LINE
  5
2A5
100
AcDbEntity
  8
02___PRT_ALL_AXES
100
AcDbLine
 62
7
  6
CONTINUOUS
 10
191.0214934069
 20
132.3343860716
 11
191.4856541452
 21
123.0963042446
  0
LINE
  5
2A6
100
AcDbEntity
  8
02___PRT_ALL_AXES
100
AcDbLine
 62
7
  6
CONTINUOUS
 10
191.8761853211
 20
123.074123224
 11
191.4120245828
 21
132.3122050511
  0
LINE
  5
2A7
100
AcDbEntity
  8
02___PRT_ALL_AXES
100
AcDbLine
 62
7
  6
CONTINUOUS
 10
191.6392796723
 20
132.2992976314
 11
192.1034404106
 21
123.0612158043
  0
LINE
  5
2A8
100
AcDbEntity
  8
02___PRT_ALL_AXES
100
AcDbLine
 62
7
  6
CONTINUOUS
 10
192.4939715865
 20
123.0390347838
 11
192.0298108483
 21
132.2771166108
  0
LINE
  5
2A9
100
AcDbEntity
  8
02___PRT_ALL_AXES
100
AcDbLine
 62
7
  6
CONTINUOUS
 10
192.721226676
 20
123.026127364
 11
192.2570659377
 21
132.2642091911
  0
LINE
  5
2AA
100
AcDbEntity
  8
02___PRT_ALL_AXES
100
AcDbLine
 62
7
  6
CONTINUOUS
 10
192.6475971137
 20
132.2420281706
 11
193.1117578519
 21
123.0039463435
  0
LINE
  5
2AB
100
AcDbEntity
  8
02___PRT_ALL_AXES
100
AcDbLine
 62
7
  6
CONTINUOUS
 10
193.3390129414
 20
122.9910389238
 11
192.8748522031
 21
132.2291207509
  0
LINE
  5
2AC
100
AcDbEntity
  8
02___PRT_ALL_AXES
100
AcDbLine
 62
7
  6
CONTINUOUS
 10
193.2653833791
 20
132.2069397303
 11
193.7295441173
 21
122.9688579033
  0
LINE
  5
2AD
100
AcDbEntity
  8
02___PRT_ALL_AXES
100
AcDbLine
 62
7
  6
CONTINUOUS
 10
193.9567992068
 20
122.9559504835
 11
193.4926384685
 21
132.1940323106
  0
LINE
  5
2AE
100
AcDbEntity
  8
02___PRT_ALL_AXES
100
AcDbLine
 62
7
  6
CONTINUOUS
 10
193.8831696445
 20
132.1718512901
 11
194.3473303827
 21
122.933769463
  0
LINE
  5
2AF
100
AcDbEntity
  8
02___PRT_ALL_AXES
100
AcDbLine
 62
7
  6
CONTINUOUS
 10
194.1104247339
 20
132.1589438703
 11
194.5745854722
 21
122.9208620433
  0
LINE
  5
2B0
100
AcDbEntity
  8
02___PRT_ALL_AXES
100
AcDbLine
 62
7
  6
CONTINUOUS
 10
194.9651166481
 20
122.8986810227
 11
194.5009559099
 21
132.1367628498
  0
LINE
  5
2B1
100
AcDbEntity
  8
02___PRT_ALL_AXES
100
AcDbLine
 62
7
  6
CONTINUOUS
 10
194.7282109993
 20
132.1238554301
 11
195.1923717376
 21
122.885773603
  0
LINE
  5
2B2
100
AcDbEntity
  8
02___PRT_ALL_AXES
100
AcDbLine
 62
7
  6
CONTINUOUS
 10
195.5829029135
 20
122.8635925825
 11
195.1187421753
 21
132.1016744096
  0
LINE
  5
2B3
100
AcDbEntity
  8
02___PRT_ALL_AXES
100
AcDbLine
 62
7
  6
CONTINUOUS
 10
195.3459972648
 20
132.0887669898
 11
195.810158003
 21
122.8506851628
  0
LINE
  5
2B4
100
AcDbEntity
  8
02___PRT_ALL_AXES
100
AcDbLine
 62
7
  6
CONTINUOUS
 10
196.2006891789
 20
122.8285041422
 11
195.7365284407
 21
132.0665859693
  0
LINE
  5
2B5
100
AcDbEntity
  8
02___PRT_ALL_AXES
100
AcDbLine
 62
7
  6
CONTINUOUS
 10
196.4279442684
 20
122.8155967225
 11
195.9637835302
 21
132.0536785496
  0
LINE
  5
2B6
100
AcDbEntity
  8
02___PRT_ALL_AXES
100
AcDbLine
 62
7
  6
CONTINUOUS
 10
196.3543147061
 20
132.031497529
 11
196.8184754443
 21
122.793415702
  0
LINE
  5
2B7
100
AcDbEntity
  8
02___PRT_ALL_AXES
100
AcDbLine
 62
7
  6
CONTINUOUS
 10
197.0457305338
 20
122.7805082822
 11
196.5815697956
 21
132.0185901093
  0
LINE
  5
2B8
100
AcDbEntity
  8
02___PRT_ALL_AXES
100
AcDbLine
 62
7
  6
CONTINUOUS
 10
196.9721009715
 20
131.9964090888
 11
197.4362617097
 21
122.7583272617
  0
LINE
  5
2B9
100
AcDbEntity
  8
02___PRT_ALL_AXES
100
AcDbLine
 62
7
  6
CONTINUOUS
 10
197.6635167992
 20
122.745419842
 11
197.199356061
 21
131.9835016691
  0
LINE
  5
2BA
100
AcDbEntity
  8
02___PRT_ALL_AXES
100
AcDbLine
 62
7
  6
CONTINUOUS
 10
197.5898872369
 20
131.9613206485
 11
198.0540479751
 21
122.7232388215
  0
LINE
  5
2BB
100
AcDbEntity
  8
02___PRT_ALL_AXES
100
AcDbLine
 62
7
  6
CONTINUOUS
 10
197.8171423264
 20
131.9484132288
 11
198.2813030646
 21
122.7103314017
  0
LINE
  5
2BC
100
AcDbEntity
  8
02___PRT_ALL_AXES
100
AcDbLine
 62
7
  6
CONTINUOUS
 10
198.6718342406
 20
122.6881503812
 11
198.2076735023
 21
131.9262322083
  0
LINE
  5
2BD
100
AcDbEntity
  8
02___PRT_ALL_AXES
100
AcDbLine
 62
7
  6
CONTINUOUS
 10
198.4349285918
 20
131.9133247885
 11
198.89908933
 21
122.6752429615
  0
LINE
  5
2BE
100
AcDbEntity
  8
02___PRT_ALL_AXES
100
AcDbLine
 62
7
  6
CONTINUOUS
 10
199.289620506
 20
122.6530619409
 11
198.8254597677
 21
131.891143768
  0
LINE
  5
2BF
100
AcDbEntity
  8
02___PRT_ALL_AXES
100
AcDbLine
 62
7
  6
CONTINUOUS
 10
199.0527148572
 20
131.8782363483
 11
199.5168755954
 21
122.6401545212
  0
LINE
  5
2C0
100
AcDbEntity
  8
02___PRT_ALL_AXES
100
AcDbLine
 62
7
  6
CONTINUOUS
 10
178.3794589975
 20
118.9541207664
 11
177.6974630279
 21
117.6188152933
  0
LINE
  5
2C1
100
AcDbEntity
  8
02___PRT_ALL_AXES
100
AcDbLine
 62
7
  6
CONTINUOUS
 10
199.9074067714
 20
122.6179735007
 11
199.4432460331
 21
131.8560553278
  0
LINE
  5
2C2
100
AcDbEntity
  8
02___PRT_ALL_AXES
100
AcDbLine
 62
7
  6
CONTINUOUS
 10
200.1346618608
 20
122.605066081
 11
199.6705011226
 21
131.843147908
  0
LINE
  5
2C3
100
AcDbEntity
  8
02___PRT_ALL_AXES
100
AcDbLine
 62
7
  6
CONTINUOUS
 10
200.0610322985
 20
131.8209668875
 11
200.5251930368
 21
122.5828850604
  0
LINE
  5
2C4
100
AcDbEntity
  8
02___PRT_ALL_AXES
100
AcDbLine
 62
7
  6
CONTINUOUS
 10
200.7524481262
 20
122.5699776407
 11
200.288287388
 21
131.8080594678
  0
LINE
  5
2C5
100
AcDbEntity
  8
02___PRT_ALL_AXES
100
AcDbLine
 62
7
  6
CONTINUOUS
 10
200.6788185639
 20
131.7858784472
 11
201.1429793022
 21
122.5477966202
  0
LINE
  5
2C6
100
AcDbEntity
  8
02___PRT_ALL_AXES
100
AcDbLine
 62
7
  6
CONTINUOUS
 10
201.3702343917
 20
122.5348892004
 11
200.9060736534
 21
131.7729710275
  0
LINE
  5
2C7
100
AcDbEntity
  8
02___PRT_ALL_AXES
100
AcDbLine
 62
7
  6
CONTINUOUS
 10
201.2966048293
 20
131.750790007
 11
201.7607655676
 21
122.5127081799
  0
LINE
  5
2C8
100
AcDbEntity
  8
02___PRT_ALL_AXES
100
AcDbLine
 62
7
  6
CONTINUOUS
 10
201.5238599188
 20
131.7378825873
 11
201.9880206571
 21
122.4998007602
  0
LINE
  5
2C9
100
AcDbEntity
  8
02___PRT_ALL_AXES
100
AcDbLine
 62
7
  6
CONTINUOUS
 10
202.378551833
 20
122.4776197397
 11
201.9143910947
 21
131.7157015667
  0
LINE
  5
2CA
100
AcDbEntity
  8
02___PRT_ALL_AXES
100
AcDbLine
 62
7
  6
CONTINUOUS
 10
202.1416461842
 20
131.702794147
 11
202.6058069225
 21
122.4647123199
  0
LINE
  5
2CB
100
AcDbEntity
  8
02___PRT_ALL_AXES
100
AcDbLine
 62
7
  6
CONTINUOUS
 10
202.9963380984
 20
122.4425312994
 11
202.5321773601
 21
131.6806131265
  0
LINE
  5
2CC
100
AcDbEntity
  8
02___PRT_ALL_AXES
100
AcDbLine
 62
7
  6
CONTINUOUS
 10
202.7594324496
 20
131.6677057067
 11
203.2235931879
 21
122.4296238797
  0
LINE
  5
2CD
100
AcDbEntity
  8
02___PRT_ALL_AXES
100
AcDbLine
 62
7
  6
CONTINUOUS
 10
203.6141243638
 20
122.4074428591
 11
203.1499636255
 21
131.6455246862
  0
LINE
  5
2CE
100
AcDbEntity
  8
02___PRT_ALL_AXES
100
AcDbLine
 62
7
  6
CONTINUOUS
 10
203.8413794533
 20
122.3945354394
 11
203.377218715
 21
131.6326172665
  0
LINE
  5
2CF
100
AcDbEntity
  8
02___PRT_ALL_AXES
100
AcDbLine
 62
7
  6
CONTINUOUS
 10
203.7677498909
 20
131.610436246
 11
204.2319106292
 21
122.3723544189
  0
LINE
  5
2D0
100
AcDbEntity
  8
02___PRT_ALL_AXES
100
AcDbLine
 62
7
  6
CONTINUOUS
 10
204.4591657187
 20
122.3594469992
 11
203.9950049804
 21
131.5975288262
  0
LINE
  5
2D1
100
AcDbEntity
  8
02___PRT_ALL_AXES
100
AcDbLine
 62
7
  6
CONTINUOUS
 10
188.8637210266
 20
140.6277948996
 11
184.3473329033
 21
135.1006646155
  0
LINE
  5
2D2
100
AcDbEntity
  8
02___PRT_ALL_AXES
100
AcDbLine
 62
7
  6
CONTINUOUS
 10
204.3855361563
 20
131.5753478057
 11
204.8496968946
 21
122.3372659786
  0
LINE
  5
2D3
100
AcDbEntity
  8
02___PRT_ALL_AXES
100
AcDbLine
 62
7
  6
CONTINUOUS
 10
205.0769519841
 20
122.3243585589
 11
204.6127912458
 21
131.562440386
  0
LINE
  5
2D4
100
AcDbEntity
  8
02___PRT_ALL_AXES
100
AcDbLine
 62
7
  6
CONTINUOUS
 10
205.0033224217
 20
131.5402593654
 11
205.46748316
 21
122.3021775384
  0
LINE
  5
2D5
100
AcDbEntity
  8
02___PRT_ALL_AXES
100
AcDbLine
 62
7
  6
CONTINUOUS
 10
205.2305775112
 20
131.5273519457
 11
205.6947382495
 21
122.2892701186
  0
LINE
  5
2D6
100
AcDbEntity
  8
02___PRT_ALL_AXES
100
AcDbLine
 62
7
  6
CONTINUOUS
 10
206.0852694254
 20
122.2670890981
 11
205.6211086871
 21
131.5051709252
  0
LINE
  5
2D7
100
AcDbEntity
  8
02___PRT_ALL_AXES
100
AcDbLine
 62
7
  6
CONTINUOUS
 10
205.8483637766
 20
131.4922635054
 11
206.3125245149
 21
122.2541816784
  0
LINE
  5
2D8
100
AcDbEntity
  8
02___PRT_ALL_AXES
100
AcDbLine
 62
7
  6
CONTINUOUS
 10
206.7030556908
 20
122.2320006579
 11
206.2388949525
 21
131.4700824849
  0
LINE
  5
2D9
100
AcDbEntity
  8
02___PRT_ALL_AXES
100
AcDbLine
 62
7
  6
CONTINUOUS
 10
206.466150042
 20
131.4571750652
 11
206.9303107803
 21
122.2190932381
  0
LINE
  5
2DA
100
AcDbEntity
  8
02___PRT_ALL_AXES
100
AcDbLine
 62
7
  6
CONTINUOUS
 10
207.3208419562
 20
122.1969122176
 11
206.8566812179
 21
131.4349940447
  0
LINE
  5
2DB
100
AcDbEntity
  8
02___PRT_ALL_AXES
100
AcDbLine
 62
7
  6
CONTINUOUS
 10
207.5480970457
 20
122.1840047979
 11
207.0839363074
 21
131.4220866249
  0
LINE
  5
2DC
100
AcDbEntity
  8
02___PRT_ALL_AXES
100
AcDbLine
 62
7
  6
CONTINUOUS
 10
207.4744674833
 20
131.3999056044
 11
207.9386282216
 21
122.1618237773
  0
LINE
  5
2DD
100
AcDbEntity
  8
02___PRT_ALL_AXES
100
AcDbLine
 62
7
  6
CONTINUOUS
 10
208.1658833111
 20
122.1489163576
 11
207.7017225728
 21
131.3869981847
  0
LINE
  5
2DE
100
AcDbEntity
  8
02___PRT_ALL_AXES
100
AcDbLine
 62
7
  6
CONTINUOUS
 10
208.0922537487
 20
131.3648171641
 11
208.556414487
 21
122.1267353371
  0
LINE
  5
2DF
100
AcDbEntity
  8
02___PRT_ALL_AXES
100
AcDbLine
 62
7
  6
CONTINUOUS
 10
208.7836695765
 20
122.1138279173
 11
208.3195088382
 21
131.3519097444
  0
LINE
  5
2E0
100
AcDbEntity
  8
02___PRT_ALL_AXES
100
AcDbLine
 62
7
  6
CONTINUOUS
 10
208.7100400142
 20
131.3297287239
 11
209.1742007524
 21
122.0916468968
  0
LINE
  5
2E1
100
AcDbEntity
  8
02___PRT_ALL_AXES
100
AcDbLine
 62
7
  6
CONTINUOUS
 10
208.9372951036
 20
131.3168213042
 11
209.4014558419
 21
122.0787394771
  0
LINE
  5
2E2
100
AcDbEntity
  8
02___PRT_ALL_AXES
100
AcDbLine
 62
7
  6
CONTINUOUS
 10
230.8971153502
 20
177.9417686087
 11
229.6405943713
 21
177.1270190091
  0
LINE
  5
2E3
100
AcDbEntity
  8
0
100
AcDbLine
 62
7
  6
CONTINUOUS
 10
248.4245957841
 20
111.1609038857
 11
252.9076824037
 21
111.3885505725
  0
LINE
  5
2E4
100
AcDbEntity
  8
02___PRT_ALL_AXES
100
AcDbLine
 62
7
  6
CONTINUOUS
 10
209.7919870178
 20
122.0565584566
 11
209.3278262796
 21
131.2946402836
  0
LINE
  5
2E5
100
AcDbEntity
  8
02___PRT_ALL_AXES
100
AcDbLine
 62
7
  6
CONTINUOUS
 10
209.555081369
 20
131.2817328639
 11
210.0192421073
 21
122.0436510368
  0
LINE
  5
2E6
100
AcDbEntity
  8
02___PRT_ALL_AXES
100
AcDbLine
 62
7
  6
CONTINUOUS
 10
210.4097732832
 20
122.0214700163
 11
209.945612545
 21
131.2595518434
  0
LINE
  5
2E7
100
AcDbEntity
  8
02___PRT_ALL_AXES
100
AcDbLine
 62
7
  6
CONTINUOUS
 10
210.1728676344
 20
131.2466444236
 11
210.6370283727
 21
122.0085625966
  0
LINE
  5
2E8
100
AcDbEntity
  8
02___PRT_ALL_AXES
100
AcDbLine
 62
7
  6
CONTINUOUS
 10
211.0275595486
 20
121.986381576
 11
210.5633988104
 21
131.2244634031
  0
LINE
  5
2E9
100
AcDbEntity
  8
02___PRT_ALL_AXES
100
AcDbLine
 62
7
  6
CONTINUOUS
 10
211.2548146381
 20
121.9734741563
 11
210.7906538998
 21
131.2115559834
  0
LINE
  5
2EA
100
AcDbEntity
  8
02___PRT_ALL_AXES
100
AcDbLine
 62
7
  6
CONTINUOUS
 10
211.1811850758
 20
131.1893749629
 11
211.645345814
 21
121.9512931358
  0
LINE
  5
2EB
100
AcDbEntity
  8
02___PRT_ALL_AXES
100
AcDbLine
 62
7
  6
CONTINUOUS
 10
211.8726009035
 20
121.9383857161
 11
211.4084401652
 21
131.1764675431
  0
LINE
  5
2EC
100
AcDbEntity
  8
02___PRT_ALL_AXES
100
AcDbLine
 62
7
  6
CONTINUOUS
 10
211.7989713412
 20
131.1542865226
 11
212.2631320794
 21
121.9162046955
  0
LINE
  5
2ED
100
AcDbEntity
  8
02___PRT_ALL_AXES
100
AcDbLine
 62
7
  6
CONTINUOUS
 10
212.4903871689
 20
121.9032972758
 11
212.0262264307
 21
131.1413791029
  0
LINE
  5
2EE
100
AcDbEntity
  8
02___PRT_ALL_AXES
100
AcDbLine
 62
7
  6
CONTINUOUS
 10
212.4167576066
 20
131.1191980823
 11
212.8809183448
 21
121.8811162553
  0
LINE
  5
2EF
100
AcDbEntity
  8
02___PRT_ALL_AXES
100
AcDbLine
 62
7
  6
CONTINUOUS
 10
212.6440126961
 20
131.1062906626
 11
213.1081734343
 21
121.8682088355
  0
LINE
  5
2F0
100
AcDbEntity
  8
02___PRT_ALL_AXES
100
AcDbLine
 62
7
  6
CONTINUOUS
 10
213.4987046102
 20
121.846027815
 11
213.034543872
 21
131.0841096421
  0
LINE
  5
2F1
100
AcDbEntity
  8
02___PRT_ALL_AXES
100
AcDbLine
 62
7
  6
CONTINUOUS
 10
213.2617989615
 20
131.0712022224
 11
213.7259596997
 21
121.8331203953
  0
LINE
  5
2F2
100
AcDbEntity
  8
02___PRT_ALL_AXES
100
AcDbLine
 62
7
  6
CONTINUOUS
 10
214.1164908756
 20
121.8109393748
 11
213.6523301374
 21
131.0490212018
  0
LINE
  5
2F3
100
AcDbEntity
  8
02___PRT_ALL_AXES
100
AcDbLine
 62
7
  6
CONTINUOUS
 10
224.4147036002
 20
177.2923776569
 11
222.3954566756
 21
174.0668856832
  0
LINE
  5
2F4
100
AcDbEntity
  8
02___PRT_ALL_AXES
100
AcDbLine
 62
7
  6
CONTINUOUS
 10
183.1361098581
 20
126.9406836325
 11
180.8550051981
 21
124.4106564128
  0
LINE
  5
2F5
100
AcDbEntity
  8
0
100
AcDbLine
 62
7
  6
CONTINUOUS
 10
177.8204511665
 20
115.1710113436
 11
248.4245957841
 21
111.1609038857
  0
LINE
  5
2F6
100
AcDbEntity
  8
0
100
AcDbLine
 62
7
  6
CONTINUOUS
 10
252.9076824037
 20
111.3885505725
 11
182.3035377862
 21
115.3986580305
  0
LINE
  5
2F7
100
AcDbEntity
  8
02___PRT_ALL_AXES
100
AcDbLine
 62
7
  6
CONTINUOUS
 10
213.8795852269
 20
131.0361137821
 11
214.3437459651
 21
121.798031955
  0
LINE
  5
2F8
100
AcDbEntity
  8
02___PRT_ALL_AXES
100
AcDbLine
 62
7
  6
CONTINUOUS
 10
214.7342771411
 20
121.7758509345
 11
214.2701164028
 21
131.0139327616
  0
LINE
  5
2F9
100
AcDbEntity
  8
02___PRT_ALL_AXES
100
AcDbLine
 62
7
  6
CONTINUOUS
 10
214.9615322305
 20
121.7629435148
 11
214.4973714923
 21
131.0010253418
  0
LINE
  5
2FA
100
AcDbEntity
  8
02___PRT_ALL_AXES
100
AcDbLine
 62
7
  6
CONTINUOUS
 10
214.8879026682
 20
130.9788443213
 11
215.3520634065
 21
121.7407624942
  0
LINE
  5
2FB
100
AcDbEntity
  8
02___PRT_ALL_AXES
100
AcDbLine
 62
7
  6
CONTINUOUS
 10
215.5793184959
 20
121.7278550745
 11
215.1151577577
 21
130.9659369016
  0
LINE
  5
2FC
100
AcDbEntity
  8
02___PRT_ALL_AXES
100
AcDbLine
 62
7
  6
CONTINUOUS
 10
215.5056889336
 20
130.9437558811
 11
215.9698496719
 21
121.705674054
  0
LINE
  5
2FD
100
AcDbEntity
  8
02___PRT_ALL_AXES
100
AcDbLine
 62
7
  6
CONTINUOUS
 10
216.1971047613
 20
121.6927666343
 11
215.7329440231
 21
130.9308484613
  0
LINE
  5
2FE
100
AcDbEntity
  8
02___PRT_ALL_AXES
100
AcDbLine
 62
7
  6
CONTINUOUS
 10
216.123475199
 20
130.9086674408
 11
216.5876359373
 21
121.6705856137
  0
LINE
  5
2FF
100
AcDbEntity
  8
02___PRT_ALL_AXES
100
AcDbLine
 62
7
  6
CONTINUOUS
 10
216.3507302885
 20
130.8957600211
 11
216.8148910267
 21
121.657678194
  0
LINE
  5
300
100
AcDbEntity
  8
02___PRT_ALL_AXES
100
AcDbLine
 62
7
  6
CONTINUOUS
 10
217.2054222027
 20
121.6354971735
 11
216.7412614644
 21
130.8735790005
  0
LINE
  5
301
100
AcDbEntity
  8
02___PRT_ALL_AXES
100
AcDbLine
 62
7
  6
CONTINUOUS
 10
216.9685165539
 20
130.8606715808
 11
217.4326772921
 21
121.6225897537
  0
LINE
  5
302
100
AcDbEntity
  8
02___PRT_ALL_AXES
100
AcDbLine
 62
7
  6
CONTINUOUS
 10
217.8232084681
 20
121.6004087332
 11
217.3590477298
 21
130.8384905603
  0
LINE
  5
303
100
AcDbEntity
  8
02___PRT_ALL_AXES
100
AcDbLine
 62
7
  6
CONTINUOUS
 10
217.5863028193
 20
130.8255831406
 11
218.0504635576
 21
121.5875013135
  0
LINE
  5
304
100
AcDbEntity
  8
02___PRT_ALL_AXES
100
AcDbLine
 62
7
  6
CONTINUOUS
 10
218.4409947335
 20
121.565320293
 11
217.9768339952
 21
130.80340212
  0
LINE
  5
305
100
AcDbEntity
  8
02___PRT_ALL_AXES
100
AcDbLine
 62
7
  6
CONTINUOUS
 10
218.668249823
 20
121.5524128732
 11
218.2040890847
 21
130.7904947003
  0
LINE
  5
306
100
AcDbEntity
  8
02___PRT_ALL_AXES
100
AcDbLine
 62
7
  6
CONTINUOUS
 10
218.5946202606
 20
130.7683136798
 11
219.0587809989
 21
121.5302318527
  0
LINE
  5
307
100
AcDbEntity
  8
02___PRT_ALL_AXES
100
AcDbLine
 62
7
  6
CONTINUOUS
 10
177.8204511665
 20
115.1710113436
 11
182.3035377862
 21
115.3986580305
  0
LINE
  5
308
100
AcDbEntity
  8
02___PRT_ALL_AXES
100
AcDbLine
 62
7
  6
CONTINUOUS
 10
259.4421433396
 20
119.2365758162
 11
259.2161028485
 21
119.225247547
  0
LINE
  5
309
100
AcDbEntity
  8
0
100
AcDbLine
 62
7
  6
CONTINUOUS
 10
258.5983165831
 20
119.2603359872
 11
258.8243570742
 21
119.2716642565
  0
LINE
  5
30A
100
AcDbEntity
  8
0
100
AcDbLine
 62
7
  6
CONTINUOUS
 10
257.9805303177
 20
119.2954244275
 11
258.2065708088
 21
119.3067526968
  0
LINE
  5
30B
100
AcDbEntity
  8
0
100
AcDbLine
 62
7
  6
CONTINUOUS
 10
257.3627440523
 20
119.3305128678
 11
257.5887845434
 21
119.341841137
  0
LINE
  5
30C
100
AcDbEntity
  8
02___PRT_ALL_AXES
100
AcDbLine
 62
7
  6
CONTINUOUS
 10
256.970998278
 20
119.3769295773
 11
256.7449577869
 21
119.365601308
  0
LINE
  5
30D
100
AcDbEntity
  8
02___PRT_ALL_AXES
100
AcDbLine
 62
7
  6
CONTINUOUS
 10
256.3532120126
 20
119.4120180175
 11
256.1271715215
 21
119.4006897483
  0
LINE
  5
30E
100
AcDbEntity
  8
02___PRT_ALL_AXES
100
AcDbLine
 62
7
  6
CONTINUOUS
 10
255.7354257472
 20
119.4471064578
 11
255.5093852561
 21
119.4357781885
  0
LINE
  5
30F
100
AcDbEntity
  8
02___PRT_ALL_AXES
100
AcDbLine
 62
7
  6
CONTINUOUS
 10
254.8915989907
 20
119.4708666288
 11
255.1176394818
 21
119.482194898
  0
LINE
  5
310
100
AcDbEntity
  8
02___PRT_ALL_AXES
100
AcDbLine
 62
7
  6
CONTINUOUS
 10
254.2738127253
 20
119.505955069
 11
254.4998532164
 21
119.5172833383
  0
LINE
  5
311
100
AcDbEntity
  8
02___PRT_ALL_AXES
100
AcDbLine
 62
7
  6
CONTINUOUS
 10
253.6560264598
 20
119.5410435093
 11
253.882066951
 21
119.5523717786
  0
LINE
  5
312
100
AcDbEntity
  8
02___PRT_ALL_AXES
100
AcDbLine
 62
7
  6
CONTINUOUS
 10
253.2642806856
 20
119.5874602188
 11
253.0382401944
 21
119.5761319496
  0
LINE
  5
313
100
AcDbEntity
  8
02___PRT_ALL_AXES
100
AcDbLine
 62
7
  6
CONTINUOUS
 10
252.6464944202
 20
119.6225486591
 11
252.420453929
 21
119.6112203898
  0
LINE
  5
314
100
AcDbEntity
  8
02___PRT_ALL_AXES
100
AcDbLine
 62
7
  6
CONTINUOUS
 10
252.0287081548
 20
119.6576370993
 11
251.8026676636
 21
119.6463088301
  0
LINE
  5
315
100
AcDbEntity
  8
02___PRT_ALL_AXES
100
AcDbLine
 62
7
  6
CONTINUOUS
 10
251.1848813982
 20
119.6813972703
 11
251.4109218894
 21
119.6927255396
  0
LINE
  5
316
100
AcDbEntity
  8
02___PRT_ALL_AXES
100
AcDbLine
 62
7
  6
CONTINUOUS
 10
250.5670951328
 20
119.7164857106
 11
250.7931356239
 21
119.7278139798
  0
LINE
  5
317
100
AcDbEntity
  8
02___PRT_ALL_AXES
100
AcDbLine
 62
7
  6
CONTINUOUS
 10
249.9493088674
 20
119.7515741508
 11
250.1753493585
 21
119.7629024201
  0
LINE
  5
318
100
AcDbEntity
  8
02___PRT_ALL_AXES
100
AcDbLine
 62
7
  6
CONTINUOUS
 10
249.5575630931
 20
119.7979908604
 11
249.331522602
 21
119.7866625911
  0
LINE
  5
319
100
AcDbEntity
  8
02___PRT_ALL_AXES
100
AcDbLine
 62
7
  6
CONTINUOUS
 10
248.9397768277
 20
119.8330793006
 11
248.7137363366
 21
119.8217510314
  0
LINE
  5
31A
100
AcDbEntity
  8
02___PRT_ALL_AXES
100
AcDbLine
 62
7
  6
CONTINUOUS
 10
248.3219905623
 20
119.8681677409
 11
248.0959500712
 21
119.8568394716
  0
LINE
  5
31B
100
AcDbEntity
  8
02___PRT_ALL_AXES
100
AcDbLine
 62
7
  6
CONTINUOUS
 10
247.4781638058
 20
119.8919279119
 11
247.7042042969
 21
119.9032561811
  0
LINE
  5
31C
100
AcDbEntity
  8
02___PRT_ALL_AXES
100
AcDbLine
 62
7
  6
CONTINUOUS
 10
246.8603775404
 20
119.9270163521
 11
247.0864180315
 21
119.9383446214
  0
LINE
  5
31D
100
AcDbEntity
  8
02___PRT_ALL_AXES
100
AcDbLine
 62
7
  6
CONTINUOUS
 10
246.242591275
 20
119.9621047924
 11
246.4686317661
 21
119.9734330616
  0
LINE
  5
31E
100
AcDbEntity
  8
02___PRT_ALL_AXES
100
AcDbLine
 62
7
  6
CONTINUOUS
 10
245.8508455007
 20
120.0085215019
 11
245.6248050096
 21
119.9971932326
  0
LINE
  5
31F
100
AcDbEntity
  8
02___PRT_ALL_AXES
100
AcDbLine
 62
7
  6
CONTINUOUS
 10
245.2330592353
 20
120.0436099422
 11
245.0070187442
 21
120.0322816729
  0
LINE
  5
320
100
AcDbEntity
  8
02___PRT_ALL_AXES
100
AcDbLine
 62
7
  6
CONTINUOUS
 10
244.6152729699
 20
120.0786983824
 11
244.3892324788
 21
120.0673701132
  0
LINE
  5
321
100
AcDbEntity
  8
02___PRT_ALL_AXES
100
AcDbLine
 62
7
  6
CONTINUOUS
 10
243.7714462134
 20
120.1024585534
 11
243.9974867045
 21
120.1137868227
  0
LINE
  5
322
100
AcDbEntity
  8
02___PRT_ALL_AXES
100
AcDbLine
 62
7
  6
CONTINUOUS
 10
243.153659948
 20
120.1375469937
 11
243.3797004391
 21
120.1488752629
  0
LINE
  5
323
100
AcDbEntity
  8
02___PRT_ALL_AXES
100
AcDbLine
 62
7
  6
CONTINUOUS
 10
242.5358736826
 20
120.1726354339
 11
242.7619141737
 21
120.1839637032
  0
LINE
  5
324
100
AcDbEntity
  8
02___PRT_ALL_AXES
100
AcDbLine
 62
7
  6
CONTINUOUS
 10
242.1441279083
 20
120.2190521435
 11
241.9180874172
 21
120.2077238742
  0
LINE
  5
325
100
AcDbEntity
  8
02___PRT_ALL_AXES
100
AcDbLine
 62
7
  6
CONTINUOUS
 10
241.5263416429
 20
120.2541405837
 11
241.3003011518
 21
120.2428123144
  0
LINE
  5
326
100
AcDbEntity
  8
02___PRT_ALL_AXES
100
AcDbLine
 62
7
  6
CONTINUOUS
 10
240.9085553775
 20
120.289229024
 11
240.6825148864
 21
120.2779007547
  0
LINE
  5
327
100
AcDbEntity
  8
02___PRT_ALL_AXES
100
AcDbLine
 62
7
  6
CONTINUOUS
 10
240.064728621
 20
120.312989195
 11
240.2907691121
 21
120.3243174642
  0
LINE
  5
328
100
AcDbEntity
  8
02___PRT_ALL_AXES
100
AcDbLine
 62
7
  6
CONTINUOUS
 10
239.4469423556
 20
120.3480776352
 11
239.6729828467
 21
120.3594059045
  0
LINE
  5
329
100
AcDbEntity
  8
02___PRT_ALL_AXES
100
AcDbLine
 62
7
  6
CONTINUOUS
 10
238.8291560902
 20
120.3831660755
 11
239.0551965813
 21
120.3944943447
  0
LINE
  5
32A
100
AcDbEntity
  8
02___PRT_ALL_AXES
100
AcDbLine
 62
7
  6
CONTINUOUS
 10
238.4374103159
 20
120.429582785
 11
238.2113698248
 21
120.4182545157
  0
LINE
  5
32B
100
AcDbEntity
  8
02___PRT_ALL_AXES
100
AcDbLine
 62
7
  6
CONTINUOUS
 10
237.8196240505
 20
120.4646712253
 11
237.5935835594
 21
120.453342956
  0
LINE
  5
32C
100
AcDbEntity
  8
02___PRT_ALL_AXES
100
AcDbLine
 62
7
  6
CONTINUOUS
 10
237.2018377851
 20
120.4997596655
 11
236.9757972939
 21
120.4884313962
  0
LINE
  5
32D
100
AcDbEntity
  8
02___PRT_ALL_AXES
100
AcDbLine
 62
7
  6
CONTINUOUS
 10
236.3580110285
 20
120.5235198365
 11
236.5840515197
 21
120.5348481058
  0
LINE
  5
32E
100
AcDbEntity
  8
02___PRT_ALL_AXES
100
AcDbLine
 62
7
  6
CONTINUOUS
 10
235.7402247631
 20
120.5586082768
 11
235.9662652543
 21
120.569936546
  0
LINE
  5
32F
100
AcDbEntity
  8
02___PRT_ALL_AXES
100
AcDbLine
 62
7
  6
CONTINUOUS
 10
235.1224384977
 20
120.593696717
 11
235.3484789889
 21
120.6050249863
  0
LINE
  5
330
100
AcDbEntity
  8
02___PRT_ALL_AXES
100
AcDbLine
 62
7
  6
CONTINUOUS
 10
234.7306927235
 20
120.6401134265
 11
234.5046522323
 21
120.6287851573
  0
LINE
  5
331
100
AcDbEntity
  8
02___PRT_ALL_AXES
100
AcDbLine
 62
7
  6
CONTINUOUS
 10
234.112906458
 20
120.6752018668
 11
233.8868659669
 21
120.6638735975
  0
LINE
  5
332
100
AcDbEntity
  8
02___PRT_ALL_AXES
100
AcDbLine
 62
7
  6
CONTINUOUS
 10
233.4951201926
 20
120.7102903071
 11
233.2690797015
 21
120.6989620378
  0
LINE
  5
333
100
AcDbEntity
  8
02___PRT_ALL_AXES
100
AcDbLine
 62
7
  6
CONTINUOUS
 10
232.6512934361
 20
120.734050478
 11
232.8773339272
 21
120.7453787473
  0
LINE
  5
334
100
AcDbEntity
  8
0
100
AcDbLine
 62
7
  6
CONTINUOUS
 10
257.139871327
 20
116.6097550037
 11
186.5357267094
 21
120.6198624617
  0
LINE
  5
335
100
AcDbEntity
  8
0
100
AcDbLine
 62
7
  6
CONTINUOUS
 10
259.2148882501
 20
119.249483236
 11
258.8243570742
 21
119.2716642565
  0
LINE
  5
336
100
AcDbEntity
  8
0
100
AcDbLine
 62
7
  6
CONTINUOUS
 10
258.5971019847
 20
119.2845716762
 11
258.2065708088
 21
119.3067526968
  0
LINE
  5
337
100
AcDbEntity
  8
0
100
AcDbLine
 62
7
  6
CONTINUOUS
 10
257.9793157193
 20
119.3196601165
 11
257.5887845434
 21
119.341841137
  0
LINE
  5
338
100
AcDbEntity
  8
02___PRT_ALL_AXES
100
AcDbLine
 62
7
  6
CONTINUOUS
 10
255.5081706577
 20
119.4600138775
 11
255.1176394818
 21
119.482194898
  0
LINE
  5
339
100
AcDbEntity
  8
02___PRT_ALL_AXES
100
AcDbLine
 62
7
  6
CONTINUOUS
 10
254.8903843923
 20
119.4951023178
 11
254.4998532164
 21
119.5172833383
  0
LINE
  5
33A
100
AcDbEntity
  8
02___PRT_ALL_AXES
100
AcDbLine
 62
7
  6
CONTINUOUS
 10
254.2725981269
 20
119.530190758
 11
253.882066951
 21
119.5523717786
  0
LINE
  5
33B
100
AcDbEntity
  8
02___PRT_ALL_AXES
100
AcDbLine
 62
7
  6
CONTINUOUS
 10
251.8014530653
 20
119.6705445191
 11
251.4109218894
 21
119.6927255396
  0
LINE
  5
33C
100
AcDbEntity
  8
02___PRT_ALL_AXES
100
AcDbLine
 62
7
  6
CONTINUOUS
 10
251.1836667999
 20
119.7056329593
 11
250.7931356239
 21
119.7278139798
  0
LINE
  5
33D
100
AcDbEntity
  8
02___PRT_ALL_AXES
100
AcDbLine
 62
7
  6
CONTINUOUS
 10
250.5658805345
 20
119.7407213996
 11
250.1753493585
 21
119.7629024201
  0
LINE
  5
33E
100
AcDbEntity
  8
02___PRT_ALL_AXES
100
AcDbLine
 62
7
  6
CONTINUOUS
 10
248.0947354729
 20
119.8810751606
 11
247.7042042969
 21
119.9032561811
  0
LINE
  5
33F
100
AcDbEntity
  8
02___PRT_ALL_AXES
100
AcDbLine
 62
7
  6
CONTINUOUS
 10
247.4769492074
 20
119.9161636009
 11
247.0864180315
 21
119.9383446214
  0
LINE
  5
340
100
AcDbEntity
  8
02___PRT_ALL_AXES
100
AcDbLine
 62
7
  6
CONTINUOUS
 10
246.859162942
 20
119.9512520411
 11
246.4686317661
 21
119.9734330616
  0
LINE
  5
341
100
AcDbEntity
  8
02___PRT_ALL_AXES
100
AcDbLine
 62
7
  6
CONTINUOUS
 10
244.3880178804
 20
120.0916058022
 11
243.9974867045
 21
120.1137868227
  0
LINE
  5
342
100
AcDbEntity
  8
02___PRT_ALL_AXES
100
AcDbLine
 62
7
  6
CONTINUOUS
 10
243.770231615
 20
120.1266942424
 11
243.3797004391
 21
120.1488752629
  0
LINE
  5
343
100
AcDbEntity
  8
02___PRT_ALL_AXES
100
AcDbLine
 62
7
  6
CONTINUOUS
 10
243.1524453496
 20
120.1617826827
 11
242.7619141737
 21
120.1839637032
  0
LINE
  5
344
100
AcDbEntity
  8
02___PRT_ALL_AXES
100
AcDbLine
 62
7
  6
CONTINUOUS
 10
240.681300288
 20
120.3021364437
 11
240.2907691121
 21
120.3243174642
  0
LINE
  5
345
100
AcDbEntity
  8
02___PRT_ALL_AXES
100
AcDbLine
 62
7
  6
CONTINUOUS
 10
240.0635140226
 20
120.337224884
 11
239.6729828467
 21
120.3594059045
  0
LINE
  5
346
100
AcDbEntity
  8
02___PRT_ALL_AXES
100
AcDbLine
 62
7
  6
CONTINUOUS
 10
239.4457277572
 20
120.3723133242
 11
239.0551965813
 21
120.3944943447
  0
LINE
  5
347
100
AcDbEntity
  8
02___PRT_ALL_AXES
100
AcDbLine
 62
7
  6
CONTINUOUS
 10
236.9745826956
 20
120.5126670852
 11
236.5840515197
 21
120.5348481058
  0
LINE
  5
348
100
AcDbEntity
  8
02___PRT_ALL_AXES
100
AcDbLine
 62
7
  6
CONTINUOUS
 10
236.3567964302
 20
120.5477555255
 11
235.9662652543
 21
120.569936546
  0
LINE
  5
349
100
AcDbEntity
  8
02___PRT_ALL_AXES
100
AcDbLine
 62
7
  6
CONTINUOUS
 10
235.7390101648
 20
120.5828439658
 11
235.3484789889
 21
120.6050249863
  0
LINE
  5
34A
100
AcDbEntity
  8
02___PRT_ALL_AXES
100
AcDbLine
 62
7
  6
CONTINUOUS
 10
233.2678651032
 20
120.7231977268
 11
232.8773339272
 21
120.7453787473
  0
LINE
  5
34B
100
AcDbEntity
  8
02___PRT_ALL_AXES
100
AcDbLine
 62
7
  6
CONTINUOUS
 10
232.6500788378
 20
120.758286167
 11
232.2595476618
 21
120.7804671876
  0
LINE
  5
34C
100
AcDbEntity
  8
02___PRT_ALL_AXES
100
AcDbLine
 62
7
  6
CONTINUOUS
 10
232.0322925724
 20
120.7933746073
 11
231.6417613964
 21
120.8155556278
  0
LINE
  5
34D
100
AcDbEntity
  8
02___PRT_ALL_AXES
100
AcDbLine
 62
7
  6
CONTINUOUS
 10
229.5611475107
 20
120.9337283683
 11
229.1706163348
 21
120.9559093889
  0
LINE
  5
34E
100
AcDbEntity
  8
02___PRT_ALL_AXES
100
AcDbLine
 62
7
  6
CONTINUOUS
 10
228.9433612453
 20
120.9688168086
 11
228.5528300694
 21
120.9909978291
  0
LINE
  5
34F
100
AcDbEntity
  8
02___PRT_ALL_AXES
100
AcDbLine
 62
7
  6
CONTINUOUS
 10
228.3255749799
 20
121.0039052488
 11
227.935043804
 21
121.0260862694
  0
LINE
  5
350
100
AcDbEntity
  8
02___PRT_ALL_AXES
100
AcDbLine
 62
7
  6
CONTINUOUS
 10
225.8544299183
 20
121.1442590099
 11
225.4638987424
 21
121.1664400304
  0
LINE
  5
351
100
AcDbEntity
  8
02___PRT_ALL_AXES
100
AcDbLine
 62
7
  6
CONTINUOUS
 10
225.2366436529
 20
121.1793474501
 11
224.846112477
 21
121.2015284707
  0
LINE
  5
352
100
AcDbEntity
  8
02___PRT_ALL_AXES
100
AcDbLine
 62
7
  6
CONTINUOUS
 10
224.6188573875
 20
121.2144358904
 11
224.2283262116
 21
121.2366169109
  0
LINE
  5
353
100
AcDbEntity
  8
02___PRT_ALL_AXES
100
AcDbLine
 62
7
  6
CONTINUOUS
 10
222.1477123259
 20
121.3547896514
 11
221.75718115
 21
121.3769706719
  0
LINE
  5
354
100
AcDbEntity
  8
02___PRT_ALL_AXES
100
AcDbLine
 62
7
  6
CONTINUOUS
 10
221.5299260605
 20
121.3898780917
 11
221.1393948846
 21
121.4120591122
  0
LINE
  5
355
100
AcDbEntity
  8
02___PRT_ALL_AXES
100
AcDbLine
 62
7
  6
CONTINUOUS
 10
220.9121397951
 20
121.4249665319
 11
220.5216086192
 21
121.4471475525
  0
LINE
  5
356
100
AcDbEntity
  8
02___PRT_ALL_AXES
100
AcDbLine
 62
7
  6
CONTINUOUS
 10
218.4409947335
 20
121.565320293
 11
218.0504635576
 21
121.5875013135
  0
LINE
  5
357
100
AcDbEntity
  8
02___PRT_ALL_AXES
100
AcDbLine
 62
7
  6
CONTINUOUS
 10
217.8232084681
 20
121.6004087332
 11
217.4326772921
 21
121.6225897537
  0
LINE
  5
358
100
AcDbEntity
  8
02___PRT_ALL_AXES
100
AcDbLine
 62
7
  6
CONTINUOUS
 10
217.2054222027
 20
121.6354971735
 11
216.8148910267
 21
121.657678194
  0
LINE
  5
359
100
AcDbEntity
  8
02___PRT_ALL_AXES
100
AcDbLine
 62
7
  6
CONTINUOUS
 10
214.734277141
 20
121.7758509345
 11
214.3437459651
 21
121.798031955
  0
LINE
  5
35A
100
AcDbEntity
  8
02___PRT_ALL_AXES
100
AcDbLine
 62
7
  6
CONTINUOUS
 10
214.1164908756
 20
121.8109393748
 11
213.7259596997
 21
121.8331203953
  0
LINE
  5
35B
100
AcDbEntity
  8
02___PRT_ALL_AXES
100
AcDbLine
 62
7
  6
CONTINUOUS
 10
213.4987046102
 20
121.846027815
 11
213.1081734343
 21
121.8682088355
  0
LINE
  5
35C
100
AcDbEntity
  8
02___PRT_ALL_AXES
100
AcDbLine
 62
7
  6
CONTINUOUS
 10
211.0275595486
 20
121.986381576
 11
210.6370283727
 21
122.0085625966
  0
LINE
  5
35D
100
AcDbEntity
  8
02___PRT_ALL_AXES
100
AcDbLine
 62
7
  6
CONTINUOUS
 10
210.4097732832
 20
122.0214700163
 11
210.0192421073
 21
122.0436510368
  0
LINE
  5
35E
100
AcDbEntity
  8
02___PRT_ALL_AXES
100
AcDbLine
 62
7
  6
CONTINUOUS
 10
209.7919870178
 20
122.0565584566
 11
209.4014558419
 21
122.0787394771
  0
LINE
  5
35F
100
AcDbEntity
  8
02___PRT_ALL_AXES
100
AcDbLine
 62
7
  6
CONTINUOUS
 10
207.3208419562
 20
122.1969122176
 11
206.9303107803
 21
122.2190932381
  0
LINE
  5
360
100
AcDbEntity
  8
02___PRT_ALL_AXES
100
AcDbLine
 62
7
  6
CONTINUOUS
 10
206.7030556908
 20
122.2320006579
 11
206.3125245149
 21
122.2541816784
  0
LINE
  5
361
100
AcDbEntity
  8
02___PRT_ALL_AXES
100
AcDbLine
 62
7
  6
CONTINUOUS
 10
206.0852694254
 20
122.2670890981
 11
205.6947382495
 21
122.2892701186
  0
LINE
  5
362
100
AcDbEntity
  8
02___PRT_ALL_AXES
100
AcDbLine
 62
7
  6
CONTINUOUS
 10
203.6141243638
 20
122.4074428591
 11
203.2235931879
 21
122.4296238797
  0
LINE
  5
363
100
AcDbEntity
  8
02___PRT_ALL_AXES
100
AcDbLine
 62
7
  6
CONTINUOUS
 10
202.9963380984
 20
122.4425312994
 11
202.6058069225
 21
122.4647123199
  0
LINE
  5
364
100
AcDbEntity
  8
02___PRT_ALL_AXES
100
AcDbLine
 62
7
  6
CONTINUOUS
 10
202.378551833
 20
122.4776197397
 11
201.9880206571
 21
122.4998007602
  0
LINE
  5
365
100
AcDbEntity
  8
02___PRT_ALL_AXES
100
AcDbLine
 62
7
  6
CONTINUOUS
 10
199.9074067714
 20
122.6179735007
 11
199.5168755954
 21
122.6401545212
  0
LINE
  5
366
100
AcDbEntity
  8
02___PRT_ALL_AXES
100
AcDbLine
 62
7
  6
CONTINUOUS
 10
199.289620506
 20
122.6530619409
 11
198.89908933
 21
122.6752429615
  0
LINE
  5
367
100
AcDbEntity
  8
02___PRT_ALL_AXES
100
AcDbLine
 62
7
  6
CONTINUOUS
 10
198.6718342406
 20
122.6881503812
 11
198.2813030646
 21
122.7103314017
  0
LINE
  5
368
100
AcDbEntity
  8
02___PRT_ALL_AXES
100
AcDbLine
 62
7
  6
CONTINUOUS
 10
196.2006891789
 20
122.8285041422
 11
195.810158003
 21
122.8506851628
  0
LINE
  5
369
100
AcDbEntity
  8
02___PRT_ALL_AXES
100
AcDbLine
 62
7
  6
CONTINUOUS
 10
195.5829029135
 20
122.8635925825
 11
195.1923717376
 21
122.885773603
  0
LINE
  5
36A
100
AcDbEntity
  8
02___PRT_ALL_AXES
100
AcDbLine
 62
7
  6
CONTINUOUS
 10
194.9651166481
 20
122.8986810227
 11
194.5745854722
 21
122.9208620433
  0
LINE
  5
36B
100
AcDbEntity
  8
02___PRT_ALL_AXES
100
AcDbLine
 62
7
  6
CONTINUOUS
 10
192.4939715865
 20
123.0390347838
 11
192.1034404106
 21
123.0612158043
  0
LINE
  5
36C
100
AcDbEntity
  8
02___PRT_ALL_AXES
100
AcDbLine
 62
7
  6
CONTINUOUS
 10
191.8761853211
 20
123.074123224
 11
191.4856541452
 21
123.0963042446
  0
LINE
  5
36D
100
AcDbEntity
  8
02___PRT_ALL_AXES
100
AcDbLine
 62
7
  6
CONTINUOUS
 10
191.2583990557
 20
123.1092116643
 11
190.8678678798
 21
123.1313926848
  0
LINE
  5
36E
100
AcDbEntity
  8
02___PRT_ALL_AXES
100
AcDbLine
 62
7
  6
CONTINUOUS
 10
189.0145090836
 20
123.2366580056
 11
189.4050402595
 21
123.2144769851
  0
LINE
  5
36F
100
AcDbEntity
  8
02___PRT_ALL_AXES
100
AcDbLine
 62
7
  6
CONTINUOUS
 10
189.632295349
 20
123.2015695653
 11
190.0228265249
 21
123.1793885448
  0
LINE
  5
370
100
AcDbEntity
  8
02___PRT_ALL_AXES
100
AcDbLine
 62
7
  6
CONTINUOUS
 10
190.2500816144
 20
123.1664811251
 11
190.6406127903
 21
123.1443001045
  0
LINE
  5
371
100
AcDbEntity
  8
02___PRT_ALL_AXES
100
AcDbLine
 62
7
  6
CONTINUOUS
 10
192.721226676
 20
123.026127364
 11
193.1117578519
 21
123.0039463435
  0
LINE
  5
372
100
AcDbEntity
  8
02___PRT_ALL_AXES
100
AcDbLine
 62
7
  6
CONTINUOUS
 10
193.3390129414
 20
122.9910389238
 11
193.7295441173
 21
122.9688579033
  0
LINE
  5
373
100
AcDbEntity
  8
02___PRT_ALL_AXES
100
AcDbLine
 62
7
  6
CONTINUOUS
 10
193.9567992068
 20
122.9559504835
 11
194.3473303827
 21
122.933769463
  0
LINE
  5
374
100
AcDbEntity
  8
02___PRT_ALL_AXES
100
AcDbLine
 62
7
  6
CONTINUOUS
 10
196.4279442684
 20
122.8155967225
 11
196.8184754443
 21
122.793415702
  0
LINE
  5
375
100
AcDbEntity
  8
02___PRT_ALL_AXES
100
AcDbLine
 62
7
  6
CONTINUOUS
 10
197.0457305338
 20
122.7805082822
 11
197.4362617097
 21
122.7583272617
  0
LINE
  5
376
100
AcDbEntity
  8
02___PRT_ALL_AXES
100
AcDbLine
 62
7
  6
CONTINUOUS
 10
197.6635167992
 20
122.745419842
 11
198.0540479751
 21
122.7232388215
  0
LINE
  5
377
100
AcDbEntity
  8
02___PRT_ALL_AXES
100
AcDbLine
 62
7
  6
CONTINUOUS
 10
200.1346618608
 20
122.605066081
 11
200.5251930368
 21
122.5828850604
  0
LINE
  5
378
100
AcDbEntity
  8
02___PRT_ALL_AXES
100
AcDbLine
 62
7
  6
CONTINUOUS
 10
200.7524481262
 20
122.5699776407
 11
201.1429793022
 21
122.5477966202
  0
LINE
  5
379
100
AcDbEntity
  8
02___PRT_ALL_AXES
100
AcDbLine
 62
7
  6
CONTINUOUS
 10
201.3702343917
 20
122.5348892004
 11
201.7607655676
 21
122.5127081799
  0
LINE
  5
37A
100
AcDbEntity
  8
02___PRT_ALL_AXES
100
AcDbLine
 62
7
  6
CONTINUOUS
 10
203.8413794533
 20
122.3945354394
 11
204.2319106292
 21
122.3723544189
  0
LINE
  5
37B
100
AcDbEntity
  8
02___PRT_ALL_AXES
100
AcDbLine
 62
7
  6
CONTINUOUS
 10
204.4591657187
 20
122.3594469992
 11
204.8496968946
 21
122.3372659786
  0
LINE
  5
37C
100
AcDbEntity
  8
02___PRT_ALL_AXES
100
AcDbLine
 62
7
  6
CONTINUOUS
 10
205.0769519841
 20
122.3243585589
 11
205.46748316
 21
122.3021775384
  0
LINE
  5
37D
100
AcDbEntity
  8
02___PRT_ALL_AXES
100
AcDbLine
 62
7
  6
CONTINUOUS
 10
207.5480970457
 20
122.1840047979
 11
207.9386282216
 21
122.1618237773
  0
LINE
  5
37E
100
AcDbEntity
  8
02___PRT_ALL_AXES
100
AcDbLine
 62
7
  6
CONTINUOUS
 10
208.1658833111
 20
122.1489163576
 11
208.556414487
 21
122.1267353371
  0
LINE
  5
37F
100
AcDbEntity
  8
02___PRT_ALL_AXES
100
AcDbLine
 62
7
  6
CONTINUOUS
 10
208.7836695765
 20
122.1138279173
 11
209.1742007524
 21
122.0916468968
  0
LINE
  5
380
100
AcDbEntity
  8
02___PRT_ALL_AXES
100
AcDbLine
 62
7
  6
CONTINUOUS
 10
211.2548146381
 20
121.9734741563
 11
211.645345814
 21
121.9512931358
  0
LINE
  5
381
100
AcDbEntity
  8
02___PRT_ALL_AXES
100
AcDbLine
 62
7
  6
CONTINUOUS
 10
211.8726009035
 20
121.9383857161
 11
212.2631320794
 21
121.9162046955
  0
LINE
  5
382
100
AcDbEntity
  8
02___PRT_ALL_AXES
100
AcDbLine
 62
7
  6
CONTINUOUS
 10
212.4903871689
 20
121.9032972758
 11
212.8809183448
 21
121.8811162553
  0
LINE
  5
383
100
AcDbEntity
  8
02___PRT_ALL_AXES
100
AcDbLine
 62
7
  6
CONTINUOUS
 10
214.9615322305
 20
121.7629435148
 11
215.3520634065
 21
121.7407624942
  0
LINE
  5
384
100
AcDbEntity
  8
02___PRT_ALL_AXES
100
AcDbLine
 62
7
  6
CONTINUOUS
 10
215.5793184959
 20
121.7278550745
 11
215.9698496719
 21
121.705674054
  0
LINE
  5
385
100
AcDbEntity
  8
02___PRT_ALL_AXES
100
AcDbLine
 62
7
  6
CONTINUOUS
 10
216.1971047613
 20
121.6927666343
 11
216.5876359373
 21
121.6705856137
  0
LINE
  5
386
100
AcDbEntity
  8
02___PRT_ALL_AXES
100
AcDbLine
 62
7
  6
CONTINUOUS
 10
218.668249823
 20
121.5524128732
 11
219.0587809989
 21
121.5302318527
  0
LINE
  5
387
100
AcDbEntity
  8
02___PRT_ALL_AXES
100
AcDbLine
 62
7
  6
CONTINUOUS
 10
219.2860360884
 20
121.517324433
 11
219.6765672643
 21
121.4951434124
  0
LINE
  5
388
100
AcDbEntity
  8
02___PRT_ALL_AXES
100
AcDbLine
 62
7
  6
CONTINUOUS
 10
219.9038223538
 20
121.4822359927
 11
220.2943535297
 21
121.4600549722
  0
LINE
  5
389
100
AcDbEntity
  8
02___PRT_ALL_AXES
100
AcDbLine
 62
7
  6
CONTINUOUS
 10
222.3749674154
 20
121.3418822317
 11
222.7654985913
 21
121.3197012112
  0
LINE
  5
38A
100
AcDbEntity
  8
02___PRT_ALL_AXES
100
AcDbLine
 62
7
  6
CONTINUOUS
 10
222.9927536808
 20
121.3067937914
 11
223.3832848567
 21
121.2846127709
  0
LINE
  5
38B
100
AcDbEntity
  8
02___PRT_ALL_AXES
100
AcDbLine
 62
7
  6
CONTINUOUS
 10
223.6105399462
 20
121.2717053512
 11
224.0010711221
 21
121.2495243306
  0
LINE
  5
38C
100
AcDbEntity
  8
02___PRT_ALL_AXES
100
AcDbLine
 62
7
  6
CONTINUOUS
 10
226.0816850078
 20
121.1313515901
 11
226.4722161837
 21
121.1091705696
  0
LINE
  5
38D
100
AcDbEntity
  8
02___PRT_ALL_AXES
100
AcDbLine
 62
7
  6
CONTINUOUS
 10
226.6994712732
 20
121.0962631499
 11
227.0900024491
 21
121.0740821294
  0
LINE
  5
38E
100
AcDbEntity
  8
02___PRT_ALL_AXES
100
AcDbLine
 62
7
  6
CONTINUOUS
 10
227.3172575386
 20
121.0611747096
 11
227.7077887145
 21
121.0389936891
  0
LINE
  5
38F
100
AcDbEntity
  8
02___PRT_ALL_AXES
100
AcDbLine
 62
7
  6
CONTINUOUS
 10
229.7884026002
 20
120.9208209486
 11
230.1789337761
 21
120.8986399281
  0
LINE
  5
390
100
AcDbEntity
  8
02___PRT_ALL_AXES
100
AcDbLine
 62
7
  6
CONTINUOUS
 10
230.4061888656
 20
120.8857325083
 11
230.7967200415
 21
120.8635514878
  0
LINE
  5
391
100
AcDbEntity
  8
02___PRT_ALL_AXES
100
AcDbLine
 62
7
  6
CONTINUOUS
 10
231.023975131
 20
120.8506440681
 11
231.414506307
 21
120.8284630476
  0
LINE
  5
392
100
AcDbEntity
  8
02___PRT_ALL_AXES
100
AcDbLine
 62
7
  6
CONTINUOUS
 10
233.4951201926
 20
120.7102903071
 11
233.8856513686
 21
120.6881092865
  0
LINE
  5
393
100
AcDbEntity
  8
02___PRT_ALL_AXES
100
AcDbLine
 62
7
  6
CONTINUOUS
 10
234.112906458
 20
120.6752018668
 11
234.503437634
 21
120.6530208463
  0
LINE
  5
394
100
AcDbEntity
  8
02___PRT_ALL_AXES
100
AcDbLine
 62
7
  6
CONTINUOUS
 10
234.7306927235
 20
120.6401134265
 11
235.1212238994
 21
120.617932406
  0
LINE
  5
395
100
AcDbEntity
  8
02___PRT_ALL_AXES
100
AcDbLine
 62
7
  6
CONTINUOUS
 10
237.2018377851
 20
120.4997596655
 11
237.592368961
 21
120.477578645
  0
LINE
  5
396
100
AcDbEntity
  8
02___PRT_ALL_AXES
100
AcDbLine
 62
7
  6
CONTINUOUS
 10
237.8196240505
 20
120.4646712253
 11
238.2101552264
 21
120.4424902047
  0
LINE
  5
397
100
AcDbEntity
  8
02___PRT_ALL_AXES
100
AcDbLine
 62
7
  6
CONTINUOUS
 10
238.4374103159
 20
120.429582785
 11
238.8279414918
 21
120.4074017645
  0
LINE
  5
398
100
AcDbEntity
  8
02___PRT_ALL_AXES
100
AcDbLine
 62
7
  6
CONTINUOUS
 10
240.9085553775
 20
120.289229024
 11
241.2990865534
 21
120.2670480034
  0
LINE
  5
399
100
AcDbEntity
  8
02___PRT_ALL_AXES
100
AcDbLine
 62
7
  6
CONTINUOUS
 10
241.5263416429
 20
120.2541405837
 11
241.9168728188
 21
120.2319595632
  0
LINE
  5
39A
100
AcDbEntity
  8
02___PRT_ALL_AXES
100
AcDbLine
 62
7
  6
CONTINUOUS
 10
242.1441279083
 20
120.2190521435
 11
242.5346590842
 21
120.1968711229
  0
LINE
  5
39B
100
AcDbEntity
  8
02___PRT_ALL_AXES
100
AcDbLine
 62
7
  6
CONTINUOUS
 10
244.6152729699
 20
120.0786983824
 11
245.0058041458
 21
120.0565173619
  0
LINE
  5
39C
100
AcDbEntity
  8
02___PRT_ALL_AXES
100
AcDbLine
 62
7
  6
CONTINUOUS
 10
245.2330592353
 20
120.0436099422
 11
245.6235904112
 21
120.0214289216
  0
LINE
  5
39D
100
AcDbEntity
  8
02___PRT_ALL_AXES
100
AcDbLine
 62
7
  6
CONTINUOUS
 10
245.8508455007
 20
120.0085215019
 11
246.2413766766
 21
119.9863404814
  0
LINE
  5
39E
100
AcDbEntity
  8
02___PRT_ALL_AXES
100
AcDbLine
 62
7
  6
CONTINUOUS
 10
248.3219905623
 20
119.8681677409
 11
248.7125217383
 21
119.8459867203
  0
LINE
  5
39F
100
AcDbEntity
  8
02___PRT_ALL_AXES
100
AcDbLine
 62
7
  6
CONTINUOUS
 10
248.9397768277
 20
119.8330793006
 11
249.3303080037
 21
119.8108982801
  0
LINE
  5
3A0
100
AcDbEntity
  8
02___PRT_ALL_AXES
100
AcDbLine
 62
7
  6
CONTINUOUS
 10
249.5575630931
 20
119.7979908604
 11
249.9480942691
 21
119.7758098398
  0
LINE
  5
3A1
100
AcDbEntity
  8
02___PRT_ALL_AXES
100
AcDbLine
 62
7
  6
CONTINUOUS
 10
252.0287081548
 20
119.6576370993
 11
252.4192393307
 21
119.6354560788
  0
LINE
  5
3A2
100
AcDbEntity
  8
02___PRT_ALL_AXES
100
AcDbLine
 62
7
  6
CONTINUOUS
 10
252.6464944202
 20
119.6225486591
 11
253.0370255961
 21
119.6003676385
  0
LINE
  5
3A3
100
AcDbEntity
  8
02___PRT_ALL_AXES
100
AcDbLine
 62
7
  6
CONTINUOUS
 10
253.2642806856
 20
119.5874602188
 11
253.6548118615
 21
119.5652791983
  0
LINE
  5
3A4
100
AcDbEntity
  8
02___PRT_ALL_AXES
100
AcDbLine
 62
7
  6
CONTINUOUS
 10
255.7354257472
 20
119.4471064578
 11
256.1259569231
 21
119.4249254373
  0
LINE
  5
3A5
100
AcDbEntity
  8
02___PRT_ALL_AXES
100
AcDbLine
 62
7
  6
CONTINUOUS
 10
256.3532120126
 20
119.4120180175
 11
256.7437431885
 21
119.389836997
  0
LINE
  5
3A6
100
AcDbEntity
  8
02___PRT_ALL_AXES
100
AcDbLine
 62
7
  6
CONTINUOUS
 10
256.970998278
 20
119.3769295773
 11
257.3615294539
 21
119.3547485567
  0
LINE
  5
3A7
100
AcDbEntity
  8
0
100
AcDbLine
 62
7
  6
CONTINUOUS
 10
259.4421433396
 20
119.2365758162
 11
259.5050261564
 21
119.2330042575
  0
LINE
  5
3A8
100
AcDbEntity
  8
02___PRT_ALL_AXES
100
AcDbLine
 62
7
  6
CONTINUOUS
 10
219.2860360884
 20
121.517324433
 11
218.8218753501
 21
130.75540626
  0
LINE
  5
3A9
100
AcDbEntity
  8
02___PRT_ALL_AXES
100
AcDbLine
 62
7
  6
CONTINUOUS
 10
219.212406526
 20
130.7332252395
 11
219.6765672643
 21
121.4951434124
  0
LINE
  5
3AA
100
AcDbEntity
  8
02___PRT_ALL_AXES
100
AcDbLine
 62
7
  6
CONTINUOUS
 10
219.9038223538
 20
121.4822359927
 11
219.4396616155
 21
130.7203178198
  0
LINE
  5
3AB
100
AcDbEntity
  8
02___PRT_ALL_AXES
100
AcDbLine
 62
7
  6
CONTINUOUS
 10
219.8301927914
 20
130.6981367993
 11
220.2943535297
 21
121.4600549722
  0
LINE
  5
3AC
100
AcDbEntity
  8
02___PRT_ALL_AXES
100
AcDbLine
 62
7
  6
CONTINUOUS
 10
220.0574478809
 20
130.6852293795
 11
220.5216086192
 21
121.4471475525
  0
LINE
  5
3AD
100
AcDbEntity
  8
02___PRT_ALL_AXES
100
AcDbLine
 62
7
  6
CONTINUOUS
 10
220.9121397951
 20
121.4249665319
 11
220.4479790568
 21
130.663048359
  0
LINE
  5
3AE
100
AcDbEntity
  8
02___PRT_ALL_AXES
100
AcDbLine
 62
7
  6
CONTINUOUS
 10
220.6752341463
 20
130.6501409393
 11
221.1393948846
 21
121.4120591122
  0
LINE
  5
3AF
100
AcDbEntity
  8
02___PRT_ALL_AXES
100
AcDbLine
 62
7
  6
CONTINUOUS
 10
221.5299260605
 20
121.3898780917
 11
221.0657653222
 21
130.6279599187
  0
LINE
  5
3B0
100
AcDbEntity
  8
02___PRT_ALL_AXES
100
AcDbLine
 62
7
  6
CONTINUOUS
 10
221.2930204117
 20
130.615052499
 11
221.75718115
 21
121.3769706719
  0
LINE
  5
3B1
100
AcDbEntity
  8
02___PRT_ALL_AXES
100
AcDbLine
 62
7
  6
CONTINUOUS
 10
222.1477123259
 20
121.3547896514
 11
221.6835515876
 21
130.5928714785
  0
LINE
  5
3B2
100
AcDbEntity
  8
02___PRT_ALL_AXES
100
AcDbLine
 62
7
  6
CONTINUOUS
 10
222.3749674154
 20
121.3418822317
 11
221.9108066771
 21
130.5799640588
  0
LINE
  5
3B3
100
AcDbEntity
  8
02___PRT_ALL_AXES
100
AcDbLine
 62
7
  6
CONTINUOUS
 10
222.301337853
 20
130.5577830382
 11
222.7654985913
 21
121.3197012112
  0
LINE
  5
3B4
100
AcDbEntity
  8
02___PRT_ALL_AXES
100
AcDbLine
 62
7
  6
CONTINUOUS
 10
222.9927536808
 20
121.3067937914
 11
222.5285929425
 21
130.5448756185
  0
LINE
  5
3B5
100
AcDbEntity
  8
02___PRT_ALL_AXES
100
AcDbLine
 62
7
  6
CONTINUOUS
 10
222.9191241184
 20
130.522694598
 11
223.3832848567
 21
121.2846127709
  0
LINE
  5
3B6
100
AcDbEntity
  8
02___PRT_ALL_AXES
100
AcDbLine
 62
7
  6
CONTINUOUS
 10
223.6105399462
 20
121.2717053512
 11
223.1463792079
 21
130.5097871782
  0
LINE
  5
3B7
100
AcDbEntity
  8
02___PRT_ALL_AXES
100
AcDbLine
 62
7
  6
CONTINUOUS
 10
232.0335071707
 20
120.7691389183
 11
232.2595476618
 21
120.7804671876
  0
LINE
  5
3B8
100
AcDbEntity
  8
02___PRT_ALL_AXES
100
AcDbLine
 62
7
  6
CONTINUOUS
 10
231.4157209053
 20
120.8042273586
 11
231.6417613964
 21
120.8155556278
  0
LINE
  5
3B9
100
AcDbEntity
  8
02___PRT_ALL_AXES
100
AcDbLine
 62
7
  6
CONTINUOUS
 10
231.023975131
 20
120.8506440681
 11
230.7979346399
 21
120.8393157988
  0
LINE
  5
3BA
100
AcDbEntity
  8
02___PRT_ALL_AXES
100
AcDbLine
 62
7
  6
CONTINUOUS
 10
230.4061888656
 20
120.8857325083
 11
230.1801483745
 21
120.8744042391
  0
LINE
  5
3BB
100
AcDbEntity
  8
02___PRT_ALL_AXES
100
AcDbLine
 62
7
  6
CONTINUOUS
 10
229.7884026002
 20
120.9208209486
 11
229.5623621091
 21
120.9094926793
  0
LINE
  5
3BC
100
AcDbEntity
  8
02___PRT_ALL_AXES
100
AcDbLine
 62
7
  6
CONTINUOUS
 10
228.9445758437
 20
120.9445811196
 11
229.1706163348
 21
120.9559093889
  0
LINE
  5
3BD
100
AcDbEntity
  8
02___PRT_ALL_AXES
100
AcDbLine
 62
7
  6
CONTINUOUS
 10
228.3267895783
 20
120.9796695599
 11
228.5528300694
 21
120.9909978291
  0
LINE
  5
3BE
100
AcDbEntity
  8
02___PRT_ALL_AXES
100
AcDbLine
 62
7
  6
CONTINUOUS
 10
227.7090033129
 20
121.0147580001
 11
227.935043804
 21
121.0260862694
  0
LINE
  5
3BF
100
AcDbEntity
  8
02___PRT_ALL_AXES
100
AcDbLine
 62
7
  6
CONTINUOUS
 10
227.3172575386
 20
121.0611747096
 11
227.0912170475
 21
121.0498464404
  0
LINE
  5
3C0
100
AcDbEntity
  8
02___PRT_ALL_AXES
100
AcDbLine
 62
7
  6
CONTINUOUS
 10
226.6994712732
 20
121.0962631499
 11
226.4734307821
 21
121.0849348806
  0
LINE
  5
3C1
100
AcDbEntity
  8
02___PRT_ALL_AXES
100
AcDbLine
 62
7
  6
CONTINUOUS
 10
226.0816850078
 20
121.1313515901
 11
225.8556445167
 21
121.1200233209
  0
LINE
  5
3C2
100
AcDbEntity
  8
02___PRT_ALL_AXES
100
AcDbLine
 62
7
  6
CONTINUOUS
 10
225.2378582513
 20
121.1551117611
 11
225.4638987424
 21
121.1664400304
  0
LINE
  5
3C3
100
AcDbEntity
  8
02___PRT_ALL_AXES
100
AcDbLine
 62
7
  6
CONTINUOUS
 10
224.6200719859
 20
121.1902002014
 11
224.846112477
 21
121.2015284707
  0
LINE
  5
3C4
100
AcDbEntity
  8
02___PRT_ALL_AXES
100
AcDbLine
 62
7
  6
CONTINUOUS
 10
224.0022857205
 20
121.2252886417
 11
224.2283262116
 21
121.2366169109
  0
LINE
  5
3C5
100
AcDbEntity
  8
02___PRT_ALL_AXES
100
AcDbLine
 62
7
  6
CONTINUOUS
 10
223.6105399462
 20
121.2717053512
 11
223.3844994551
 21
121.2603770819
  0
LINE
  5
3C6
100
AcDbEntity
  8
02___PRT_ALL_AXES
100
AcDbLine
 62
7
  6
CONTINUOUS
 10
222.9927536808
 20
121.3067937914
 11
222.7667131897
 21
121.2954655222
  0
LINE
  5
3C7
100
AcDbEntity
  8
02___PRT_ALL_AXES
100
AcDbLine
 62
7
  6
CONTINUOUS
 10
222.3749674154
 20
121.3418822317
 11
222.1489269243
 21
121.3305539624
  0
LINE
  5
3C8
100
AcDbEntity
  8
02___PRT_ALL_AXES
100
AcDbLine
 62
7
  6
CONTINUOUS
 10
221.5311406589
 20
121.3656424027
 11
221.75718115
 21
121.3769706719
  0
LINE
  5
3C9
100
AcDbEntity
  8
02___PRT_ALL_AXES
100
AcDbLine
 62
7
  6
CONTINUOUS
 10
220.9133543935
 20
121.4007308429
 11
221.1393948846
 21
121.4120591122
  0
LINE
  5
3CA
100
AcDbEntity
  8
02___PRT_ALL_AXES
100
AcDbLine
 62
7
  6
CONTINUOUS
 10
220.295568128
 20
121.4358192832
 11
220.5216086192
 21
121.4471475525
  0
LINE
  5
3CB
100
AcDbEntity
  8
02___PRT_ALL_AXES
100
AcDbLine
 62
7
  6
CONTINUOUS
 10
219.9038223538
 20
121.4822359927
 11
219.6777818626
 21
121.4709077235
  0
LINE
  5
3CC
100
AcDbEntity
  8
02___PRT_ALL_AXES
100
AcDbLine
 62
7
  6
CONTINUOUS
 10
219.2860360884
 20
121.517324433
 11
219.0599955972
 21
121.5059961637
  0
LINE
  5
3CD
100
AcDbEntity
  8
02___PRT_ALL_AXES
100
AcDbLine
 62
7
  6
CONTINUOUS
 10
218.668249823
 20
121.5524128732
 11
218.4422093318
 21
121.541084604
  0
LINE
  5
3CE
100
AcDbEntity
  8
02___PRT_ALL_AXES
100
AcDbLine
 62
7
  6
CONTINUOUS
 10
217.8244230664
 20
121.5761730442
 11
218.0504635576
 21
121.5875013135
  0
LINE
  5
3CF
100
AcDbEntity
  8
02___PRT_ALL_AXES
100
AcDbLine
 62
7
  6
CONTINUOUS
 10
217.206636801
 20
121.6112614845
 11
217.4326772921
 21
121.6225897537
  0
LINE
  5
3D0
100
AcDbEntity
  8
02___PRT_ALL_AXES
100
AcDbLine
 62
7
  6
CONTINUOUS
 10
216.5888505356
 20
121.6463499247
 11
216.8148910267
 21
121.657678194
  0
LINE
  5
3D1
100
AcDbEntity
  8
02___PRT_ALL_AXES
100
AcDbLine
 62
7
  6
CONTINUOUS
 10
216.1971047613
 20
121.6927666343
 11
215.9710642702
 21
121.681438365
  0
LINE
  5
3D2
100
AcDbEntity
  8
02___PRT_ALL_AXES
100
AcDbLine
 62
7
  6
CONTINUOUS
 10
215.5793184959
 20
121.7278550745
 11
215.3532780048
 21
121.7165268053
  0
LINE
  5
3D3
100
AcDbEntity
  8
02___PRT_ALL_AXES
100
AcDbLine
 62
7
  6
CONTINUOUS
 10
214.9615322305
 20
121.7629435148
 11
214.7354917394
 21
121.7516152455
  0
LINE
  5
3D4
100
AcDbEntity
  8
02___PRT_ALL_AXES
100
AcDbLine
 62
7
  6
CONTINUOUS
 10
214.117705474
 20
121.7867036858
 11
214.3437459651
 21
121.798031955
  0
LINE
  5
3D5
100
AcDbEntity
  8
02___PRT_ALL_AXES
100
AcDbLine
 62
7
  6
CONTINUOUS
 10
213.4999192086
 20
121.821792126
 11
213.7259596997
 21
121.8331203953
  0
LINE
  5
3D6
100
AcDbEntity
  8
02___PRT_ALL_AXES
100
AcDbLine
 62
7
  6
CONTINUOUS
 10
212.8821329432
 20
121.8568805663
 11
213.1081734343
 21
121.8682088355
  0
LINE
  5
3D7
100
AcDbEntity
  8
02___PRT_ALL_AXES
100
AcDbLine
 62
7
  6
CONTINUOUS
 10
212.4903871689
 20
121.9032972758
 11
212.2643466778
 21
121.8919690065
  0
LINE
  5
3D8
100
AcDbEntity
  8
02___PRT_ALL_AXES
100
AcDbLine
 62
7
  6
CONTINUOUS
 10
211.8726009035
 20
121.9383857161
 11
211.6465604124
 21
121.9270574468
  0
LINE
  5
3D9
100
AcDbEntity
  8
02___PRT_ALL_AXES
100
AcDbLine
 62
7
  6
CONTINUOUS
 10
211.2548146381
 20
121.9734741563
 11
211.028774147
 21
121.9621458871
  0
LINE
  5
3DA
100
AcDbEntity
  8
02___PRT_ALL_AXES
100
AcDbLine
 62
7
  6
CONTINUOUS
 10
210.4109878816
 20
121.9972343273
 11
210.6370283727
 21
122.0085625966
  0
LINE
  5
3DB
100
AcDbEntity
  8
02___PRT_ALL_AXES
100
AcDbLine
 62
7
  6
CONTINUOUS
 10
209.7932016162
 20
122.0323227676
 11
210.0192421073
 21
122.0436510368
  0
LINE
  5
3DC
100
AcDbEntity
  8
02___PRT_ALL_AXES
100
AcDbLine
 62
7
  6
CONTINUOUS
 10
209.1754153508
 20
122.0674112078
 11
209.4014558419
 21
122.0787394771
  0
LINE
  5
3DD
100
AcDbEntity
  8
02___PRT_ALL_AXES
100
AcDbLine
 62
7
  6
CONTINUOUS
 10
208.7836695765
 20
122.1138279173
 11
208.5576290854
 21
122.1024996481
  0
LINE
  5
3DE
100
AcDbEntity
  8
02___PRT_ALL_AXES
100
AcDbLine
 62
7
  6
CONTINUOUS
 10
208.1658833111
 20
122.1489163576
 11
207.93984282
 21
122.1375880883
  0
LINE
  5
3DF
100
AcDbEntity
  8
02___PRT_ALL_AXES
100
AcDbLine
 62
7
  6
CONTINUOUS
 10
207.5480970457
 20
122.1840047979
 11
207.3220565546
 21
122.1726765286
  0
LINE
  5
3E0
100
AcDbEntity
  8
02___PRT_ALL_AXES
100
AcDbLine
 62
7
  6
CONTINUOUS
 10
206.7042702892
 20
122.2077649689
 11
206.9303107803
 21
122.2190932381
  0
LINE
  5
3E1
100
AcDbEntity
  8
02___PRT_ALL_AXES
100
AcDbLine
 62
7
  6
CONTINUOUS
 10
206.0864840238
 20
122.2428534091
 11
206.3125245149
 21
122.2541816784
  0
LINE
  5
3E2
100
AcDbEntity
  8
02___PRT_ALL_AXES
100
AcDbLine
 62
7
  6
CONTINUOUS
 10
205.4686977584
 20
122.2779418494
 11
205.6947382495
 21
122.2892701186
  0
LINE
  5
3E3
100
AcDbEntity
  8
02___PRT_ALL_AXES
100
AcDbLine
 62
7
  6
CONTINUOUS
 10
205.0769519841
 20
122.3243585589
 11
204.850911493
 21
122.3130302896
  0
LINE
  5
3E4
100
AcDbEntity
  8
02___PRT_ALL_AXES
100
AcDbLine
 62
7
  6
CONTINUOUS
 10
204.4591657187
 20
122.3594469992
 11
204.2331252276
 21
122.3481187299
  0
LINE
  5
3E5
100
AcDbEntity
  8
02___PRT_ALL_AXES
100
AcDbLine
 62
7
  6
CONTINUOUS
 10
203.8413794533
 20
122.3945354394
 11
203.6153389621
 21
122.3832071701
  0
LINE
  5
3E6
100
AcDbEntity
  8
02___PRT_ALL_AXES
100
AcDbLine
 62
7
  6
CONTINUOUS
 10
202.9975526967
 20
122.4182956104
 11
203.2235931879
 21
122.4296238797
  0
LINE
  5
3E7
100
AcDbEntity
  8
02___PRT_ALL_AXES
100
AcDbLine
 62
7
  6
CONTINUOUS
 10
202.3797664313
 20
122.4533840507
 11
202.6058069225
 21
122.4647123199
  0
LINE
  5
3E8
100
AcDbEntity
  8
02___PRT_ALL_AXES
100
AcDbLine
 62
7
  6
CONTINUOUS
 10
201.7619801659
 20
122.4884724909
 11
201.9880206571
 21
122.4998007602
  0
LINE
  5
3E9
100
AcDbEntity
  8
02___PRT_ALL_AXES
100
AcDbLine
 62
7
  6
CONTINUOUS
 10
201.3702343917
 20
122.5348892004
 11
201.1441939005
 21
122.5235609312
  0
LINE
  5
3EA
100
AcDbEntity
  8
02___PRT_ALL_AXES
100
AcDbLine
 62
7
  6
CONTINUOUS
 10
200.7524481262
 20
122.5699776407
 11
200.5264076351
 21
122.5586493714
  0
LINE
  5
3EB
100
AcDbEntity
  8
02___PRT_ALL_AXES
100
AcDbLine
 62
7
  6
CONTINUOUS
 10
200.1346618608
 20
122.605066081
 11
199.9086213697
 21
122.5937378117
  0
LINE
  5
3EC
100
AcDbEntity
  8
02___PRT_ALL_AXES
100
AcDbLine
 62
7
  6
CONTINUOUS
 10
199.2908351043
 20
122.6288262519
 11
199.5168755954
 21
122.6401545212
  0
LINE
  5
3ED
100
AcDbEntity
  8
02___PRT_ALL_AXES
100
AcDbLine
 62
7
  6
CONTINUOUS
 10
198.6730488389
 20
122.6639146922
 11
198.89908933
 21
122.6752429615
  0
LINE
  5
3EE
100
AcDbEntity
  8
02___PRT_ALL_AXES
100
AcDbLine
 62
7
  6
CONTINUOUS
 10
198.0552625735
 20
122.6990031325
 11
198.2813030646
 21
122.7103314017
  0
LINE
  5
3EF
100
AcDbEntity
  8
02___PRT_ALL_AXES
100
AcDbLine
 62
7
  6
CONTINUOUS
 10
197.6635167992
 20
122.745419842
 11
197.4374763081
 21
122.7340915727
  0
LINE
  5
3F0
100
AcDbEntity
  8
02___PRT_ALL_AXES
100
AcDbLine
 62
7
  6
CONTINUOUS
 10
197.0457305338
 20
122.7805082822
 11
196.8196900427
 21
122.769180013
  0
LINE
  5
3F1
100
AcDbEntity
  8
02___PRT_ALL_AXES
100
AcDbLine
 62
7
  6
CONTINUOUS
 10
196.4279442684
 20
122.8155967225
 11
196.2019037773
 21
122.8042684532
  0
LINE
  5
3F2
100
AcDbEntity
  8
02___PRT_ALL_AXES
100
AcDbLine
 62
7
  6
CONTINUOUS
 10
195.5841175119
 20
122.8393568935
 11
195.810158003
 21
122.8506851628
  0
LINE
  5
3F3
100
AcDbEntity
  8
02___PRT_ALL_AXES
100
AcDbLine
 62
7
  6
CONTINUOUS
 10
194.9663312465
 20
122.8744453337
 11
195.1923717376
 21
122.885773603
  0
LINE
  5
3F4
100
AcDbEntity
  8
02___PRT_ALL_AXES
100
AcDbLine
 62
7
  6
CONTINUOUS
 10
194.3485449811
 20
122.909533774
 11
194.5745854722
 21
122.9208620433
  0
LINE
  5
3F5
100
AcDbEntity
  8
02___PRT_ALL_AXES
100
AcDbLine
 62
7
  6
CONTINUOUS
 10
193.9567992068
 20
122.9559504835
 11
193.7307587157
 21
122.9446222143
  0
LINE
  5
3F6
100
AcDbEntity
  8
02___PRT_ALL_AXES
100
AcDbLine
 62
7
  6
CONTINUOUS
 10
193.3390129414
 20
122.9910389238
 11
193.1129724503
 21
122.9797106545
  0
LINE
  5
3F7
100
AcDbEntity
  8
02___PRT_ALL_AXES
100
AcDbLine
 62
7
  6
CONTINUOUS
 10
192.721226676
 20
123.026127364
 11
192.4951861849
 21
123.0147990948
  0
LINE
  5
3F8
100
AcDbEntity
  8
02___PRT_ALL_AXES
100
AcDbLine
 62
7
  6
CONTINUOUS
 10
191.8773999195
 20
123.049887535
 11
192.1034404106
 21
123.0612158043
  0
LINE
  5
3F9
100
AcDbEntity
  8
02___PRT_ALL_AXES
100
AcDbLine
 62
7
  6
CONTINUOUS
 10
191.2596136541
 20
123.0849759753
 11
191.4856541452
 21
123.0963042446
  0
LINE
  5
3FA
100
AcDbEntity
  8
02___PRT_ALL_AXES
100
AcDbLine
 62
7
  6
CONTINUOUS
 10
190.6418273887
 20
123.1200644155
 11
190.8678678798
 21
123.1313926848
  0
LINE
  5
3FB
100
AcDbEntity
  8
02___PRT_ALL_AXES
100
AcDbLine
 62
7
  6
CONTINUOUS
 10
190.2500816144
 20
123.1664811251
 11
190.0240411233
 21
123.1551528558
  0
LINE
  5
3FC
100
AcDbEntity
  8
02___PRT_ALL_AXES
100
AcDbLine
 62
7
  6
CONTINUOUS
 10
189.632295349
 20
123.2015695653
 11
189.4062548579
 21
123.1902412961
  0
LINE
  5
3FD
100
AcDbEntity
  8
02___PRT_ALL_AXES
100
AcDbLine
 62
7
  6
CONTINUOUS
 10
189.0145090836
 20
123.2366580056
 11
186.5084627504
 21
123.1110647214
  0
LINE
  5
3FE
100
AcDbEntity
  8
02___PRT_ALL_AXES
100
AcDbLine
 62
7
  6
CONTINUOUS
 10
223.5369103838
 20
130.4876061577
 11
224.0010711221
 21
121.2495243306
  0
LINE
  5
3FF
100
AcDbEntity
  8
02___PRT_ALL_AXES
100
AcDbLine
 62
7
  6
CONTINUOUS
 10
223.7641654733
 20
130.474698738
 11
224.2283262116
 21
121.2366169109
  0
LINE
  5
400
100
AcDbEntity
  8
02___PRT_ALL_AXES
100
AcDbLine
 62
7
  6
CONTINUOUS
 10
224.6188573875
 20
121.2144358904
 11
224.1546966492
 21
130.4525177175
  0
LINE
  5
401
100
AcDbEntity
  8
02___PRT_ALL_AXES
100
AcDbLine
 62
7
  6
CONTINUOUS
 10
224.3819517387
 20
130.4396102977
 11
224.846112477
 21
121.2015284707
  0
LINE
  5
402
100
AcDbEntity
  8
02___PRT_ALL_AXES
100
AcDbLine
 62
7
  6
CONTINUOUS
 10
225.2366436529
 20
121.1793474501
 11
224.7724829146
 21
130.4174292772
  0
LINE
  5
403
100
AcDbEntity
  8
02___PRT_ALL_AXES
100
AcDbLine
 62
7
  6
CONTINUOUS
 10
224.9997380041
 20
130.4045218575
 11
225.4638987424
 21
121.1664400304
  0
LINE
  5
404
100
AcDbEntity
  8
02___PRT_ALL_AXES
100
AcDbLine
 62
7
  6
CONTINUOUS
 10
225.8544299183
 20
121.1442590099
 11
225.3902691801
 21
130.3823408369
  0
LINE
  5
405
100
AcDbEntity
  8
02___PRT_ALL_AXES
100
AcDbLine
 62
7
  6
CONTINUOUS
 10
226.0816850078
 20
121.1313515901
 11
225.6175242695
 21
130.3694334172
  0
LINE
  5
406
100
AcDbEntity
  8
02___PRT_ALL_AXES
100
AcDbLine
 62
7
  6
CONTINUOUS
 10
226.0080554455
 20
130.3472523967
 11
226.4722161837
 21
121.1091705696
  0
LINE
  5
407
100
AcDbEntity
  8
02___PRT_ALL_AXES
100
AcDbLine
 62
7
  6
CONTINUOUS
 10
226.6994712732
 20
121.0962631499
 11
226.2353105349
 21
130.334344977
  0
LINE
  5
408
100
AcDbEntity
  8
02___PRT_ALL_AXES
100
AcDbLine
 62
7
  6
CONTINUOUS
 10
226.6258417109
 20
130.3121639564
 11
227.0900024491
 21
121.0740821294
  0
LINE
  5
409
100
AcDbEntity
  8
02___PRT_ALL_AXES
100
AcDbLine
 62
7
  6
CONTINUOUS
 10
227.3172575386
 20
121.0611747096
 11
226.8530968003
 21
130.2992565367
  0
LINE
  5
40A
100
AcDbEntity
  8
02___PRT_ALL_AXES
100
AcDbLine
 62
7
  6
CONTINUOUS
 10
227.2436279763
 20
130.2770755162
 11
227.7077887145
 21
121.0389936891
  0
LINE
  5
40B
100
AcDbEntity
  8
02___PRT_ALL_AXES
100
AcDbLine
 62
7
  6
CONTINUOUS
 10
227.4708830657
 20
130.2641680964
 11
227.935043804
 21
121.0260862694
  0
LINE
  5
40C
100
AcDbEntity
  8
02___PRT_ALL_AXES
100
AcDbLine
 62
7
  6
CONTINUOUS
 10
225.5825208464
 20
168.4404368232
 11
225.5112735036
 21
169.8584559027
  0
LINE
  5
40D
100
AcDbEntity
  8
02___PRT_ALL_AXES
100
AcDbLine
 62
7
  6
CONTINUOUS
 10
228.3255749799
 20
121.0039052488
 11
227.8614142417
 21
130.2419870759
  0
LINE
  5
40E
100
AcDbEntity
  8
02___PRT_ALL_AXES
100
AcDbLine
 62
7
  6
CONTINUOUS
 10
228.0886693311
 20
130.2290796562
 11
228.5528300694
 21
120.9909978291
  0
LINE
  5
40F
100
AcDbEntity
  8
02___PRT_ALL_AXES
100
AcDbLine
 62
7
  6
CONTINUOUS
 10
186.3224636675
 20
124.8643865444
 11
187.5677655063
 21
124.9276217352
  0
LINE
  5
410
100
AcDbEntity
  8
0
100
AcDbLine
 62
7
  6
CONTINUOUS
 10
261.3683855931
 20
131.843369
 11
264.8552307417
 21
132.0204275342
  0
LINE
  5
411
100
AcDbEntity
  8
02___PRT_ALL_AXES
100
AcDbLine
 62
7
  6
CONTINUOUS
 10
258.9779826013
 20
128.4746576433
 11
258.7519421102
 21
128.4633293741
  0
LINE
  5
412
100
AcDbEntity
  8
0
100
AcDbLine
 62
7
  6
CONTINUOUS
 10
258.1341558448
 20
128.4984178143
 11
258.3601963359
 21
128.5097460836
  0
LINE
  5
413
100
AcDbEntity
  8
0
100
AcDbLine
 62
7
  6
CONTINUOUS
 10
257.5163695794
 20
128.5335062546
 11
257.7424100705
 21
128.5448345238
  0
LINE
  5
414
100
AcDbEntity
  8
0
100
AcDbLine
 62
7
  6
CONTINUOUS
 10
256.898583314
 20
128.5685946948
 11
257.1246238051
 21
128.5799229641
  0
LINE
  5
415
100
AcDbEntity
  8
02___PRT_ALL_AXES
100
AcDbLine
 62
7
  6
CONTINUOUS
 10
256.5068375397
 20
128.6150114043
 11
256.2807970486
 21
128.6036831351
  0
LINE
  5
416
100
AcDbEntity
  8
02___PRT_ALL_AXES
100
AcDbLine
 62
7
  6
CONTINUOUS
 10
255.8890512743
 20
128.6500998446
 11
255.6630107832
 21
128.6387715753
  0
LINE
  5
417
100
AcDbEntity
  8
02___PRT_ALL_AXES
100
AcDbLine
 62
7
  6
CONTINUOUS
 10
255.2712650089
 20
128.6851882849
 11
255.0452245178
 21
128.6738600156
  0
LINE
  5
418
100
AcDbEntity
  8
02___PRT_ALL_AXES
100
AcDbLine
 62
7
  6
CONTINUOUS
 10
254.4274382524
 20
128.7089484559
 11
254.6534787435
 21
128.7202767251
  0
LINE
  5
419
100
AcDbEntity
  8
02___PRT_ALL_AXES
100
AcDbLine
 62
7
  6
CONTINUOUS
 10
253.809651987
 20
128.7440368961
 11
254.0356924781
 21
128.7553651654
  0
LINE
  5
41A
100
AcDbEntity
  8
02___PRT_ALL_AXES
100
AcDbLine
 62
7
  6
CONTINUOUS
 10
253.1918657216
 20
128.7791253364
 11
253.4179062127
 21
128.7904536056
  0
LINE
  5
41B
100
AcDbEntity
  8
02___PRT_ALL_AXES
100
AcDbLine
 62
7
  6
CONTINUOUS
 10
252.8001199473
 20
128.8255420459
 11
252.5740794562
 21
128.8142137766
  0
LINE
  5
41C
100
AcDbEntity
  8
02___PRT_ALL_AXES
100
AcDbLine
 62
7
  6
CONTINUOUS
 10
252.1823336819
 20
128.8606304861
 11
251.9562931908
 21
128.8493022169
  0
LINE
  5
41D
100
AcDbEntity
  8
02___PRT_ALL_AXES
100
AcDbLine
 62
7
  6
CONTINUOUS
 10
251.5645474165
 20
128.8957189264
 11
251.3385069254
 21
128.8843906571
  0
LINE
  5
41E
100
AcDbEntity
  8
02___PRT_ALL_AXES
100
AcDbLine
 62
7
  6
CONTINUOUS
 10
250.72072066
 20
128.9194790974
 11
250.9467611511
 21
128.9308073667
  0
LINE
  5
41F
100
AcDbEntity
  8
02___PRT_ALL_AXES
100
AcDbLine
 62
7
  6
CONTINUOUS
 10
250.1029343946
 20
128.9545675377
 11
250.3289748857
 21
128.9658958069
  0
LINE
  5
420
100
AcDbEntity
  8
02___PRT_ALL_AXES
100
AcDbLine
 62
7
  6
CONTINUOUS
 10
249.4851481292
 20
128.9896559779
 11
249.7111886203
 21
129.0009842472
  0
LINE
  5
421
100
AcDbEntity
  8
02___PRT_ALL_AXES
100
AcDbLine
 62
7
  6
CONTINUOUS
 10
249.0934023549
 20
129.0360726874
 11
248.8673618638
 21
129.0247444182
  0
LINE
  5
422
100
AcDbEntity
  8
02___PRT_ALL_AXES
100
AcDbLine
 62
7
  6
CONTINUOUS
 10
248.4756160895
 20
129.0711611277
 11
248.2495755984
 21
129.0598328584
  0
LINE
  5
423
100
AcDbEntity
  8
02___PRT_ALL_AXES
100
AcDbLine
 62
7
  6
CONTINUOUS
 10
247.8578298241
 20
129.1062495679
 11
247.631789333
 21
129.0949212987
  0
LINE
  5
424
100
AcDbEntity
  8
02___PRT_ALL_AXES
100
AcDbLine
 62
7
  6
CONTINUOUS
 10
247.0140030675
 20
129.1300097389
 11
247.2400435587
 21
129.1413380082
  0
LINE
  5
425
100
AcDbEntity
  8
02___PRT_ALL_AXES
100
AcDbLine
 62
7
  6
CONTINUOUS
 10
246.3962168021
 20
129.1650981792
 11
246.6222572933
 21
129.1764264485
  0
LINE
  5
426
100
AcDbEntity
  8
02___PRT_ALL_AXES
100
AcDbLine
 62
7
  6
CONTINUOUS
 10
245.7784305367
 20
129.2001866195
 11
246.0044710279
 21
129.2115148887
  0
LINE
  5
427
100
AcDbEntity
  8
02___PRT_ALL_AXES
100
AcDbLine
 62
7
  6
CONTINUOUS
 10
245.3866847625
 20
129.246603329
 11
245.1606442713
 21
129.2352750597
  0
LINE
  5
428
100
AcDbEntity
  8
02___PRT_ALL_AXES
100
AcDbLine
 62
7
  6
CONTINUOUS
 10
244.7688984971
 20
129.2816917692
 11
244.5428580059
 21
129.2703635
  0
LINE
  5
429
100
AcDbEntity
  8
02___PRT_ALL_AXES
100
AcDbLine
 62
7
  6
CONTINUOUS
 10
244.1511122316
 20
129.3167802095
 11
243.9250717405
 21
129.3054519402
  0
LINE
  5
42A
100
AcDbEntity
  8
02___PRT_ALL_AXES
100
AcDbLine
 62
7
  6
CONTINUOUS
 10
243.3072854751
 20
129.3405403805
 11
243.5333259662
 21
129.3518686497
  0
LINE
  5
42B
100
AcDbEntity
  8
02___PRT_ALL_AXES
100
AcDbLine
 62
7
  6
CONTINUOUS
 10
242.6894992097
 20
129.3756288207
 11
242.9155397008
 21
129.38695709
  0
LINE
  5
42C
100
AcDbEntity
  8
02___PRT_ALL_AXES
100
AcDbLine
 62
7
  6
CONTINUOUS
 10
242.0717129443
 20
129.410717261
 11
242.2977534354
 21
129.4220455303
  0
LINE
  5
42D
100
AcDbEntity
  8
02___PRT_ALL_AXES
100
AcDbLine
 62
7
  6
CONTINUOUS
 10
241.67996717
 20
129.4571339705
 11
241.4539266789
 21
129.4458057013
  0
LINE
  5
42E
100
AcDbEntity
  8
02___PRT_ALL_AXES
100
AcDbLine
 62
7
  6
CONTINUOUS
 10
241.0621809046
 20
129.4922224108
 11
240.8361404135
 21
129.4808941415
  0
LINE
  5
42F
100
AcDbEntity
  8
02___PRT_ALL_AXES
100
AcDbLine
 62
7
  6
CONTINUOUS
 10
240.4443946392
 20
129.527310851
 11
240.2183541481
 21
129.5159825818
  0
LINE
  5
430
100
AcDbEntity
  8
02___PRT_ALL_AXES
100
AcDbLine
 62
7
  6
CONTINUOUS
 10
239.6005678827
 20
129.551071022
 11
239.8266083738
 21
129.5623992913
  0
LINE
  5
431
100
AcDbEntity
  8
02___PRT_ALL_AXES
100
AcDbLine
 62
7
  6
CONTINUOUS
 10
238.9827816173
 20
129.5861594623
 11
239.2088221084
 21
129.5974877316
  0
LINE
  5
432
100
AcDbEntity
  8
02___PRT_ALL_AXES
100
AcDbLine
 62
7
  6
CONTINUOUS
 10
238.3649953519
 20
129.6212479025
 11
238.591035843
 21
129.6325761718
  0
LINE
  5
433
100
AcDbEntity
  8
02___PRT_ALL_AXES
100
AcDbLine
 62
7
  6
CONTINUOUS
 10
237.9732495776
 20
129.6676646121
 11
237.7472090865
 21
129.6563363428
  0
LINE
  5
434
100
AcDbEntity
  8
02___PRT_ALL_AXES
100
AcDbLine
 62
7
  6
CONTINUOUS
 10
237.3554633122
 20
129.7027530523
 11
237.1294228211
 21
129.6914247831
  0
LINE
  5
435
100
AcDbEntity
  8
02___PRT_ALL_AXES
100
AcDbLine
 62
7
  6
CONTINUOUS
 10
236.7376770468
 20
129.7378414926
 11
236.5116365557
 21
129.7265132233
  0
LINE
  5
436
100
AcDbEntity
  8
02___PRT_ALL_AXES
100
AcDbLine
 62
7
  6
CONTINUOUS
 10
235.8938502903
 20
129.7616016636
 11
236.1198907814
 21
129.7729299328
  0
LINE
  5
437
100
AcDbEntity
  8
02___PRT_ALL_AXES
100
AcDbLine
 62
7
  6
CONTINUOUS
 10
235.2760640249
 20
129.7966901038
 11
235.502104516
 21
129.8080183731
  0
LINE
  5
438
100
AcDbEntity
  8
02___PRT_ALL_AXES
100
AcDbLine
 62
7
  6
CONTINUOUS
 10
234.6582777595
 20
129.8317785441
 11
234.8843182506
 21
129.8431068134
  0
LINE
  5
439
100
AcDbEntity
  8
02___PRT_ALL_AXES
100
AcDbLine
 62
7
  6
CONTINUOUS
 10
234.2665319852
 20
129.8781952536
 11
234.0404914941
 21
129.8668669843
  0
LINE
  5
43A
100
AcDbEntity
  8
02___PRT_ALL_AXES
100
AcDbLine
 62
7
  6
CONTINUOUS
 10
233.6487457198
 20
129.9132836939
 11
233.4227052287
 21
129.9019554246
  0
LINE
  5
43B
100
AcDbEntity
  8
02___PRT_ALL_AXES
100
AcDbLine
 62
7
  6
CONTINUOUS
 10
233.0309594544
 20
129.9483721341
 11
232.8049189633
 21
129.9370438649
  0
LINE
  5
43C
100
AcDbEntity
  8
02___PRT_ALL_AXES
100
AcDbLine
 62
7
  6
CONTINUOUS
 10
232.1871326979
 20
129.9721323051
 11
232.413173189
 21
129.9834605744
  0
LINE
  5
43D
100
AcDbEntity
  8
02___PRT_ALL_AXES
100
AcDbLine
 62
7
  6
CONTINUOUS
 10
231.5693464325
 20
130.0072207454
 11
231.7953869236
 21
130.0185490146
  0
LINE
  5
43E
100
AcDbEntity
  8
02___PRT_ALL_AXES
100
AcDbLine
 62
7
  6
CONTINUOUS
 10
230.951560167
 20
130.0423091856
 11
231.1776006582
 21
130.0536374549
  0
LINE
  5
43F
100
AcDbEntity
  8
02___PRT_ALL_AXES
100
AcDbLine
 62
7
  6
CONTINUOUS
 10
230.5598143928
 20
130.0887258952
 11
230.3337739016
 21
130.0773976259
  0
LINE
  5
440
100
AcDbEntity
  8
02___PRT_ALL_AXES
100
AcDbLine
 62
7
  6
CONTINUOUS
 10
229.9420281274
 20
130.1238143354
 11
229.7159876362
 21
130.1124860661
  0
LINE
  5
441
100
AcDbEntity
  8
02___PRT_ALL_AXES
100
AcDbLine
 62
7
  6
CONTINUOUS
 10
229.324241862
 20
130.1589027757
 11
229.0982013708
 21
130.1475745064
  0
LINE
  5
442
100
AcDbEntity
  8
02___PRT_ALL_AXES
100
AcDbLine
 62
7
  6
CONTINUOUS
 10
228.4804151054
 20
130.1826629467
 11
228.7064555966
 21
130.1939912159
  0
LINE
  5
443
100
AcDbEntity
  8
0
100
AcDbLine
 62
7
  6
CONTINUOUS
 10
258.7507275119
 20
128.487565063
 11
258.3601963359
 21
128.5097460836
  0
LINE
  5
444
100
AcDbEntity
  8
0
100
AcDbLine
 62
7
  6
CONTINUOUS
 10
258.1329412465
 20
128.5226535033
 11
257.7424100705
 21
128.5448345238
  0
LINE
  5
445
100
AcDbEntity
  8
0
100
AcDbLine
 62
7
  6
CONTINUOUS
 10
257.515154981
 20
128.5577419436
 11
257.1246238051
 21
128.5799229641
  0
LINE
  5
446
100
AcDbEntity
  8
02___PRT_ALL_AXES
100
AcDbLine
 62
7
  6
CONTINUOUS
 10
255.0440099194
 20
128.6980957046
 11
254.6534787435
 21
128.7202767251
  0
LINE
  5
447
100
AcDbEntity
  8
02___PRT_ALL_AXES
100
AcDbLine
 62
7
  6
CONTINUOUS
 10
254.426223654
 20
128.7331841448
 11
254.0356924781
 21
128.7553651654
  0
LINE
  5
448
100
AcDbEntity
  8
02___PRT_ALL_AXES
100
AcDbLine
 62
7
  6
CONTINUOUS
 10
253.8084373886
 20
128.7682725851
 11
253.4179062127
 21
128.7904536056
  0
LINE
  5
449
100
AcDbEntity
  8
02___PRT_ALL_AXES
100
AcDbLine
 62
7
  6
CONTINUOUS
 10
251.337292327
 20
128.9086263461
 11
250.9467611511
 21
128.9308073667
  0
LINE
  5
44A
100
AcDbEntity
  8
02___PRT_ALL_AXES
100
AcDbLine
 62
7
  6
CONTINUOUS
 10
250.7195060616
 20
128.9437147864
 11
250.3289748857
 21
128.9658958069
  0
LINE
  5
44B
100
AcDbEntity
  8
02___PRT_ALL_AXES
100
AcDbLine
 62
7
  6
CONTINUOUS
 10
250.1017197962
 20
128.9788032266
 11
249.7111886203
 21
129.0009842472
  0
LINE
  5
44C
100
AcDbEntity
  8
02___PRT_ALL_AXES
100
AcDbLine
 62
7
  6
CONTINUOUS
 10
247.6305747346
 20
129.1191569877
 11
247.2400435587
 21
129.1413380082
  0
LINE
  5
44D
100
AcDbEntity
  8
02___PRT_ALL_AXES
100
AcDbLine
 62
7
  6
CONTINUOUS
 10
247.0127884692
 20
129.1542454279
 11
246.6222572933
 21
129.1764264485
  0
LINE
  5
44E
100
AcDbEntity
  8
02___PRT_ALL_AXES
100
AcDbLine
 62
7
  6
CONTINUOUS
 10
246.3950022038
 20
129.1893338682
 11
246.0044710279
 21
129.2115148887
  0
LINE
  5
44F
100
AcDbEntity
  8
02___PRT_ALL_AXES
100
AcDbLine
 62
7
  6
CONTINUOUS
 10
243.9238571422
 20
129.3296876292
 11
243.5333259662
 21
129.3518686498
  0
LINE
  5
450
100
AcDbEntity
  8
02___PRT_ALL_AXES
100
AcDbLine
 62
7
  6
CONTINUOUS
 10
243.3060708768
 20
129.3647760695
 11
242.9155397008
 21
129.38695709
  0
LINE
  5
451
100
AcDbEntity
  8
02___PRT_ALL_AXES
100
AcDbLine
 62
7
  6
CONTINUOUS
 10
242.6882846114
 20
129.3998645097
 11
242.2977534354
 21
129.4220455303
  0
LINE
  5
452
100
AcDbEntity
  8
02___PRT_ALL_AXES
100
AcDbLine
 62
7
  6
CONTINUOUS
 10
240.2171395497
 20
129.5402182708
 11
239.8266083738
 21
129.5623992913
  0
LINE
  5
453
100
AcDbEntity
  8
02___PRT_ALL_AXES
100
AcDbLine
 62
7
  6
CONTINUOUS
 10
239.5993532843
 20
129.575306711
 11
239.2088221084
 21
129.5974877316
  0
LINE
  5
454
100
AcDbEntity
  8
02___PRT_ALL_AXES
100
AcDbLine
 62
7
  6
CONTINUOUS
 10
238.9815670189
 20
129.6103951513
 11
238.591035843
 21
129.6325761718
  0
LINE
  5
455
100
AcDbEntity
  8
02___PRT_ALL_AXES
100
AcDbLine
 62
7
  6
CONTINUOUS
 10
236.5104219573
 20
129.7507489123
 11
236.1198907814
 21
129.7729299328
  0
LINE
  5
456
100
AcDbEntity
  8
02___PRT_ALL_AXES
100
AcDbLine
 62
7
  6
CONTINUOUS
 10
235.8926356919
 20
129.7858373526
 11
235.502104516
 21
129.8080183731
  0
LINE
  5
457
100
AcDbEntity
  8
02___PRT_ALL_AXES
100
AcDbLine
 62
7
  6
CONTINUOUS
 10
235.2748494265
 20
129.8209257928
 11
234.8843182506
 21
129.8431068134
  0
LINE
  5
458
100
AcDbEntity
  8
02___PRT_ALL_AXES
100
AcDbLine
 62
7
  6
CONTINUOUS
 10
232.8037043649
 20
129.9612795539
 11
232.413173189
 21
129.9834605744
  0
LINE
  5
459
100
AcDbEntity
  8
02___PRT_ALL_AXES
100
AcDbLine
 62
7
  6
CONTINUOUS
 10
232.1859180995
 20
129.9963679941
 11
231.7953869236
 21
130.0185490146
  0
LINE
  5
45A
100
AcDbEntity
  8
02___PRT_ALL_AXES
100
AcDbLine
 62
7
  6
CONTINUOUS
 10
231.5681318341
 20
130.0314564344
 11
231.1776006582
 21
130.0536374549
  0
LINE
  5
45B
100
AcDbEntity
  8
02___PRT_ALL_AXES
100
AcDbLine
 62
7
  6
CONTINUOUS
 10
229.0969867725
 20
130.1718101954
 11
228.7064555966
 21
130.1939912159
  0
LINE
  5
45C
100
AcDbEntity
  8
02___PRT_ALL_AXES
100
AcDbLine
 62
7
  6
CONTINUOUS
 10
228.4792005071
 20
130.2068986357
 11
228.0886693311
 21
130.2290796562
  0
LINE
  5
45D
100
AcDbEntity
  8
02___PRT_ALL_AXES
100
AcDbLine
 62
7
  6
CONTINUOUS
 10
227.8614142417
 20
130.2419870759
 11
227.4708830657
 21
130.2641680964
  0
LINE
  5
45E
100
AcDbEntity
  8
02___PRT_ALL_AXES
100
AcDbLine
 62
7
  6
CONTINUOUS
 10
225.3902691801
 20
130.3823408369
 11
224.9997380041
 21
130.4045218575
  0
LINE
  5
45F
100
AcDbEntity
  8
02___PRT_ALL_AXES
100
AcDbLine
 62
7
  6
CONTINUOUS
 10
224.7724829146
 20
130.4174292772
 11
224.3819517387
 21
130.4396102977
  0
LINE
  5
460
100
AcDbEntity
  8
02___PRT_ALL_AXES
100
AcDbLine
 62
7
  6
CONTINUOUS
 10
224.1546966492
 20
130.4525177175
 11
223.7641654733
 21
130.474698738
  0
LINE
  5
461
100
AcDbEntity
  8
02___PRT_ALL_AXES
100
AcDbLine
 62
7
  6
CONTINUOUS
 10
221.6835515876
 20
130.5928714785
 11
221.2930204117
 21
130.615052499
  0
LINE
  5
462
100
AcDbEntity
  8
02___PRT_ALL_AXES
100
AcDbLine
 62
7
  6
CONTINUOUS
 10
221.0657653222
 20
130.6279599187
 11
220.6752341463
 21
130.6501409393
  0
LINE
  5
463
100
AcDbEntity
  8
02___PRT_ALL_AXES
100
AcDbLine
 62
7
  6
CONTINUOUS
 10
220.4479790568
 20
130.663048359
 11
220.0574478809
 21
130.6852293795
  0
LINE
  5
464
100
AcDbEntity
  8
02___PRT_ALL_AXES
100
AcDbLine
 62
7
  6
CONTINUOUS
 10
217.9768339952
 20
130.80340212
 11
217.5863028193
 21
130.8255831406
  0
LINE
  5
465
100
AcDbEntity
  8
02___PRT_ALL_AXES
100
AcDbLine
 62
7
  6
CONTINUOUS
 10
217.3590477298
 20
130.8384905603
 11
216.9685165539
 21
130.8606715808
  0
LINE
  5
466
100
AcDbEntity
  8
02___PRT_ALL_AXES
100
AcDbLine
 62
7
  6
CONTINUOUS
 10
216.7412614644
 20
130.8735790005
 11
216.3507302885
 21
130.8957600211
  0
LINE
  5
467
100
AcDbEntity
  8
02___PRT_ALL_AXES
100
AcDbLine
 62
7
  6
CONTINUOUS
 10
214.2701164028
 20
131.0139327616
 11
213.8795852269
 21
131.0361137821
  0
LINE
  5
468
100
AcDbEntity
  8
02___PRT_ALL_AXES
100
AcDbLine
 62
7
  6
CONTINUOUS
 10
213.6523301374
 20
131.0490212018
 11
213.2617989615
 21
131.0712022224
  0
LINE
  5
469
100
AcDbEntity
  8
02___PRT_ALL_AXES
100
AcDbLine
 62
7
  6
CONTINUOUS
 10
213.034543872
 20
131.0841096421
 11
212.6440126961
 21
131.1062906626
  0
LINE
  5
46A
100
AcDbEntity
  8
02___PRT_ALL_AXES
100
AcDbLine
 62
7
  6
CONTINUOUS
 10
210.5633988104
 20
131.2244634031
 11
210.1728676344
 21
131.2466444236
  0
LINE
  5
46B
100
AcDbEntity
  8
02___PRT_ALL_AXES
100
AcDbLine
 62
7
  6
CONTINUOUS
 10
209.945612545
 20
131.2595518434
 11
209.555081369
 21
131.2817328639
  0
LINE
  5
46C
100
AcDbEntity
  8
02___PRT_ALL_AXES
100
AcDbLine
 62
7
  6
CONTINUOUS
 10
209.3278262796
 20
131.2946402836
 11
208.9372951036
 21
131.3168213042
  0
LINE
  5
46D
100
AcDbEntity
  8
02___PRT_ALL_AXES
100
AcDbLine
 62
7
  6
CONTINUOUS
 10
206.8566812179
 20
131.4349940447
 11
206.466150042
 21
131.4571750652
  0
LINE
  5
46E
100
AcDbEntity
  8
02___PRT_ALL_AXES
100
AcDbLine
 62
7
  6
CONTINUOUS
 10
206.2388949525
 20
131.4700824849
 11
205.8483637766
 21
131.4922635054
  0
LINE
  5
46F
100
AcDbEntity
  8
02___PRT_ALL_AXES
100
AcDbLine
 62
7
  6
CONTINUOUS
 10
205.6211086871
 20
131.5051709252
 11
205.2305775112
 21
131.5273519457
  0
LINE
  5
470
100
AcDbEntity
  8
02___PRT_ALL_AXES
100
AcDbLine
 62
7
  6
CONTINUOUS
 10
203.1499636255
 20
131.6455246862
 11
202.7594324496
 21
131.6677057067
  0
LINE
  5
471
100
AcDbEntity
  8
02___PRT_ALL_AXES
100
AcDbLine
 62
7
  6
CONTINUOUS
 10
202.5321773601
 20
131.6806131265
 11
202.1416461842
 21
131.702794147
  0
LINE
  5
472
100
AcDbEntity
  8
02___PRT_ALL_AXES
100
AcDbLine
 62
7
  6
CONTINUOUS
 10
201.9143910947
 20
131.7157015667
 11
201.5238599188
 21
131.7378825873
  0
LINE
  5
473
100
AcDbEntity
  8
02___PRT_ALL_AXES
100
AcDbLine
 62
7
  6
CONTINUOUS
 10
199.4432460331
 20
131.8560553278
 11
199.0527148572
 21
131.8782363483
  0
LINE
  5
474
100
AcDbEntity
  8
02___PRT_ALL_AXES
100
AcDbLine
 62
7
  6
CONTINUOUS
 10
198.8254597677
 20
131.891143768
 11
198.4349285918
 21
131.9133247885
  0
LINE
  5
475
100
AcDbEntity
  8
02___PRT_ALL_AXES
100
AcDbLine
 62
7
  6
CONTINUOUS
 10
198.2076735023
 20
131.9262322083
 11
197.8171423264
 21
131.9484132288
  0
LINE
  5
476
100
AcDbEntity
  8
02___PRT_ALL_AXES
100
AcDbLine
 62
7
  6
CONTINUOUS
 10
195.7365284407
 20
132.0665859693
 11
195.3459972648
 21
132.0887669898
  0
LINE
  5
477
100
AcDbEntity
  8
02___PRT_ALL_AXES
100
AcDbLine
 62
7
  6
CONTINUOUS
 10
195.1187421753
 20
132.1016744096
 11
194.7282109993
 21
132.1238554301
  0
LINE
  5
478
100
AcDbEntity
  8
02___PRT_ALL_AXES
100
AcDbLine
 62
7
  6
CONTINUOUS
 10
194.5009559099
 20
132.1367628498
 11
194.1104247339
 21
132.1589438703
  0
LINE
  5
479
100
AcDbEntity
  8
02___PRT_ALL_AXES
100
AcDbLine
 62
7
  6
CONTINUOUS
 10
192.0298108482
 20
132.2771166108
 11
191.6392796723
 21
132.2992976314
  0
LINE
  5
47A
100
AcDbEntity
  8
02___PRT_ALL_AXES
100
AcDbLine
 62
7
  6
CONTINUOUS
 10
191.4120245828
 20
132.3122050511
 11
191.0214934069
 21
132.3343860716
  0
LINE
  5
47B
100
AcDbEntity
  8
02___PRT_ALL_AXES
100
AcDbLine
 62
7
  6
CONTINUOUS
 10
190.7942383174
 20
132.3472934914
 11
190.4037071415
 21
132.3694745119
  0
LINE
  5
47C
100
AcDbEntity
  8
02___PRT_ALL_AXES
100
AcDbLine
 62
7
  6
CONTINUOUS
 10
189.7859208761
 20
132.4045629521
 11
190.176452052
 21
132.3823819316
  0
LINE
  5
47D
100
AcDbEntity
  8
02___PRT_ALL_AXES
100
AcDbLine
 62
7
  6
CONTINUOUS
 10
192.2570659377
 20
132.2642091911
 11
192.6475971137
 21
132.2420281706
  0
LINE
  5
47E
100
AcDbEntity
  8
02___PRT_ALL_AXES
100
AcDbLine
 62
7
  6
CONTINUOUS
 10
192.8748522031
 20
132.2291207509
 11
193.2653833791
 21
132.2069397303
  0
LINE
  5
47F
100
AcDbEntity
  8
02___PRT_ALL_AXES
100
AcDbLine
 62
7
  6
CONTINUOUS
 10
193.4926384685
 20
132.1940323106
 11
193.8831696445
 21
132.1718512901
  0
LINE
  5
480
100
AcDbEntity
  8
02___PRT_ALL_AXES
100
AcDbLine
 62
7
  6
CONTINUOUS
 10
195.9637835302
 20
132.0536785496
 11
196.3543147061
 21
132.031497529
  0
LINE
  5
481
100
AcDbEntity
  8
02___PRT_ALL_AXES
100
AcDbLine
 62
7
  6
CONTINUOUS
 10
196.5815697956
 20
132.0185901093
 11
196.9721009715
 21
131.9964090888
  0
LINE
  5
482
100
AcDbEntity
  8
02___PRT_ALL_AXES
100
AcDbLine
 62
7
  6
CONTINUOUS
 10
197.199356061
 20
131.9835016691
 11
197.5898872369
 21
131.9613206485
  0
LINE
  5
483
100
AcDbEntity
  8
02___PRT_ALL_AXES
100
AcDbLine
 62
7
  6
CONTINUOUS
 10
199.6705011226
 20
131.843147908
 11
200.0610322985
 21
131.8209668875
  0
LINE
  5
484
100
AcDbEntity
  8
02___PRT_ALL_AXES
100
AcDbLine
 62
7
  6
CONTINUOUS
 10
200.288287388
 20
131.8080594678
 11
200.6788185639
 21
131.7858784472
  0
LINE
  5
485
100
AcDbEntity
  8
02___PRT_ALL_AXES
100
AcDbLine
 62
7
  6
CONTINUOUS
 10
200.9060736534
 20
131.7729710275
 11
201.2966048293
 21
131.750790007
  0
LINE
  5
486
100
AcDbEntity
  8
02___PRT_ALL_AXES
100
AcDbLine
 62
7
  6
CONTINUOUS
 10
203.377218715
 20
131.6326172665
 11
203.7677498909
 21
131.610436246
  0
LINE
  5
487
100
AcDbEntity
  8
02___PRT_ALL_AXES
100
AcDbLine
 62
7
  6
CONTINUOUS
 10
203.9950049804
 20
131.5975288262
 11
204.3855361563
 21
131.5753478057
  0
LINE
  5
488
100
AcDbEntity
  8
02___PRT_ALL_AXES
100
AcDbLine
 62
7
  6
CONTINUOUS
 10
204.6127912458
 20
131.562440386
 11
205.0033224217
 21
131.5402593654
  0
LINE
  5
489
100
AcDbEntity
  8
02___PRT_ALL_AXES
100
AcDbLine
 62
7
  6
CONTINUOUS
 10
207.0839363074
 20
131.4220866249
 11
207.4744674833
 21
131.3999056044
  0
LINE
  5
48A
100
AcDbEntity
  8
02___PRT_ALL_AXES
100
AcDbLine
 62
7
  6
CONTINUOUS
 10
207.7017225728
 20
131.3869981847
 11
208.0922537487
 21
131.3648171641
  0
LINE
  5
48B
100
AcDbEntity
  8
02___PRT_ALL_AXES
100
AcDbLine
 62
7
  6
CONTINUOUS
 10
208.3195088382
 20
131.3519097444
 11
208.7100400142
 21
131.3297287239
  0
LINE
  5
48C
100
AcDbEntity
  8
02___PRT_ALL_AXES
100
AcDbLine
 62
7
  6
CONTINUOUS
 10
210.7906538998
 20
131.2115559834
 11
211.1811850758
 21
131.1893749629
  0
LINE
  5
48D
100
AcDbEntity
  8
02___PRT_ALL_AXES
100
AcDbLine
 62
7
  6
CONTINUOUS
 10
211.4084401652
 20
131.1764675431
 11
211.7989713412
 21
131.1542865226
  0
LINE
  5
48E
100
AcDbEntity
  8
02___PRT_ALL_AXES
100
AcDbLine
 62
7
  6
CONTINUOUS
 10
212.0262264307
 20
131.1413791029
 11
212.4167576066
 21
131.1191980823
  0
LINE
  5
48F
100
AcDbEntity
  8
02___PRT_ALL_AXES
100
AcDbLine
 62
7
  6
CONTINUOUS
 10
214.4973714923
 20
131.0010253418
 11
214.8879026682
 21
130.9788443213
  0
LINE
  5
490
100
AcDbEntity
  8
02___PRT_ALL_AXES
100
AcDbLine
 62
7
  6
CONTINUOUS
 10
215.1151577577
 20
130.9659369016
 11
215.5056889336
 21
130.9437558811
  0
LINE
  5
491
100
AcDbEntity
  8
02___PRT_ALL_AXES
100
AcDbLine
 62
7
  6
CONTINUOUS
 10
215.7329440231
 20
130.9308484613
 11
216.123475199
 21
130.9086674408
  0
LINE
  5
492
100
AcDbEntity
  8
02___PRT_ALL_AXES
100
AcDbLine
 62
7
  6
CONTINUOUS
 10
218.2040890847
 20
130.7904947003
 11
218.5946202606
 21
130.7683136798
  0
LINE
  5
493
100
AcDbEntity
  8
02___PRT_ALL_AXES
100
AcDbLine
 62
7
  6
CONTINUOUS
 10
218.8218753501
 20
130.75540626
 11
219.212406526
 21
130.7332252395
  0
LINE
  5
494
100
AcDbEntity
  8
02___PRT_ALL_AXES
100
AcDbLine
 62
7
  6
CONTINUOUS
 10
219.4396616155
 20
130.7203178198
 11
219.8301927914
 21
130.6981367993
  0
LINE
  5
495
100
AcDbEntity
  8
02___PRT_ALL_AXES
100
AcDbLine
 62
7
  6
CONTINUOUS
 10
221.9108066771
 20
130.5799640588
 11
222.301337853
 21
130.5577830382
  0
LINE
  5
496
100
AcDbEntity
  8
02___PRT_ALL_AXES
100
AcDbLine
 62
7
  6
CONTINUOUS
 10
222.5285929425
 20
130.5448756185
 11
222.9191241184
 21
130.522694598
  0
LINE
  5
497
100
AcDbEntity
  8
02___PRT_ALL_AXES
100
AcDbLine
 62
7
  6
CONTINUOUS
 10
223.1463792079
 20
130.5097871782
 11
223.5369103838
 21
130.4876061577
  0
LINE
  5
498
100
AcDbEntity
  8
02___PRT_ALL_AXES
100
AcDbLine
 62
7
  6
CONTINUOUS
 10
225.6175242695
 20
130.3694334172
 11
226.0080554455
 21
130.3472523967
  0
LINE
  5
499
100
AcDbEntity
  8
02___PRT_ALL_AXES
100
AcDbLine
 62
7
  6
CONTINUOUS
 10
226.2353105349
 20
130.334344977
 11
226.6258417109
 21
130.3121639564
  0
LINE
  5
49A
100
AcDbEntity
  8
02___PRT_ALL_AXES
100
AcDbLine
 62
7
  6
CONTINUOUS
 10
226.8530968003
 20
130.2992565367
 11
227.2436279763
 21
130.2770755162
  0
LINE
  5
49B
100
AcDbEntity
  8
02___PRT_ALL_AXES
100
AcDbLine
 62
7
  6
CONTINUOUS
 10
229.324241862
 20
130.1589027757
 11
229.7147730379
 21
130.1367217551
  0
LINE
  5
49C
100
AcDbEntity
  8
02___PRT_ALL_AXES
100
AcDbLine
 62
7
  6
CONTINUOUS
 10
229.9420281274
 20
130.1238143354
 11
230.3325593033
 21
130.1016333149
  0
LINE
  5
49D
100
AcDbEntity
  8
02___PRT_ALL_AXES
100
AcDbLine
 62
7
  6
CONTINUOUS
 10
230.5598143928
 20
130.0887258952
 11
230.9503455687
 21
130.0665448746
  0
LINE
  5
49E
100
AcDbEntity
  8
02___PRT_ALL_AXES
100
AcDbLine
 62
7
  6
CONTINUOUS
 10
233.0309594544
 20
129.9483721341
 11
233.4214906303
 21
129.9261911136
  0
LINE
  5
49F
100
AcDbEntity
  8
02___PRT_ALL_AXES
100
AcDbLine
 62
7
  6
CONTINUOUS
 10
233.6487457198
 20
129.9132836939
 11
234.0392768957
 21
129.8911026733
  0
LINE
  5
4A0
100
AcDbEntity
  8
02___PRT_ALL_AXES
100
AcDbLine
 62
7
  6
CONTINUOUS
 10
234.2665319852
 20
129.8781952536
 11
234.6570631611
 21
129.8560142331
  0
LINE
  5
4A1
100
AcDbEntity
  8
02___PRT_ALL_AXES
100
AcDbLine
 62
7
  6
CONTINUOUS
 10
236.7376770468
 20
129.7378414926
 11
237.1282082227
 21
129.7156604721
  0
LINE
  5
4A2
100
AcDbEntity
  8
02___PRT_ALL_AXES
100
AcDbLine
 62
7
  6
CONTINUOUS
 10
237.3554633122
 20
129.7027530523
 11
237.7459944881
 21
129.6805720318
  0
LINE
  5
4A3
100
AcDbEntity
  8
02___PRT_ALL_AXES
100
AcDbLine
 62
7
  6
CONTINUOUS
 10
237.9732495776
 20
129.6676646121
 11
238.3637807535
 21
129.6454835915
  0
LINE
  5
4A4
100
AcDbEntity
  8
02___PRT_ALL_AXES
100
AcDbLine
 62
7
  6
CONTINUOUS
 10
240.4443946392
 20
129.527310851
 11
240.8349258151
 21
129.5051298305
  0
LINE
  5
4A5
100
AcDbEntity
  8
02___PRT_ALL_AXES
100
AcDbLine
 62
7
  6
CONTINUOUS
 10
241.0621809046
 20
129.4922224108
 11
241.4527120805
 21
129.4700413903
  0
LINE
  5
4A6
100
AcDbEntity
  8
02___PRT_ALL_AXES
100
AcDbLine
 62
7
  6
CONTINUOUS
 10
241.67996717
 20
129.4571339705
 11
242.070498346
 21
129.43495295
  0
LINE
  5
4A7
100
AcDbEntity
  8
02___PRT_ALL_AXES
100
AcDbLine
 62
7
  6
CONTINUOUS
 10
244.1511122316
 20
129.3167802095
 11
244.5416434076
 21
129.294599189
  0
LINE
  5
4A8
100
AcDbEntity
  8
02___PRT_ALL_AXES
100
AcDbLine
 62
7
  6
CONTINUOUS
 10
244.7688984971
 20
129.2816917692
 11
245.159429673
 21
129.2595107487
  0
LINE
  5
4A9
100
AcDbEntity
  8
02___PRT_ALL_AXES
100
AcDbLine
 62
7
  6
CONTINUOUS
 10
245.3866847625
 20
129.246603329
 11
245.7772159384
 21
129.2244223084
  0
LINE
  5
4AA
100
AcDbEntity
  8
02___PRT_ALL_AXES
100
AcDbLine
 62
7
  6
CONTINUOUS
 10
247.8578298241
 20
129.1062495679
 11
248.248361
 21
129.0840685474
  0
LINE
  5
4AB
100
AcDbEntity
  8
02___PRT_ALL_AXES
100
AcDbLine
 62
7
  6
CONTINUOUS
 10
248.4756160895
 20
129.0711611277
 11
248.8661472654
 21
129.0489801072
  0
LINE
  5
4AC
100
AcDbEntity
  8
02___PRT_ALL_AXES
100
AcDbLine
 62
7
  6
CONTINUOUS
 10
249.0934023549
 20
129.0360726874
 11
249.4839335308
 21
129.0138916669
  0
LINE
  5
4AD
100
AcDbEntity
  8
02___PRT_ALL_AXES
100
AcDbLine
 62
7
  6
CONTINUOUS
 10
251.5645474165
 20
128.8957189264
 11
251.9550785924
 21
128.8735379059
  0
LINE
  5
4AE
100
AcDbEntity
  8
02___PRT_ALL_AXES
100
AcDbLine
 62
7
  6
CONTINUOUS
 10
252.1823336819
 20
128.8606304861
 11
252.5728648578
 21
128.8384494656
  0
LINE
  5
4AF
100
AcDbEntity
  8
02___PRT_ALL_AXES
100
AcDbLine
 62
7
  6
CONTINUOUS
 10
252.8001199473
 20
128.8255420459
 11
253.1906511232
 21
128.8033610254
  0
LINE
  5
4B0
100
AcDbEntity
  8
02___PRT_ALL_AXES
100
AcDbLine
 62
7
  6
CONTINUOUS
 10
255.2712650089
 20
128.6851882849
 11
255.6617961848
 21
128.6630072643
  0
LINE
  5
4B1
100
AcDbEntity
  8
02___PRT_ALL_AXES
100
AcDbLine
 62
7
  6
CONTINUOUS
 10
255.8890512743
 20
128.6500998446
 11
256.2795824502
 21
128.6279188241
  0
LINE
  5
4B2
100
AcDbEntity
  8
02___PRT_ALL_AXES
100
AcDbLine
 62
7
  6
CONTINUOUS
 10
256.5068375397
 20
128.6150114043
 11
256.8973687156
 21
128.5928303838
  0
LINE
  5
4B3
100
AcDbEntity
  8
0
100
AcDbLine
 62
7
  6
CONTINUOUS
 10
258.9779826013
 20
128.4746576433
 11
259.0408654181
 21
128.4710860845
  0
LINE
  5
4B4
100
AcDbEntity
  8
0
100
AcDbLine
 62
7
  6
CONTINUOUS
 10
261.5314690957
 20
128.5975564661
 11
190.9273244781
 21
132.6076639241
  0
LINE
  5
4B5
100
AcDbEntity
  8
02___PRT_ALL_AXES
100
AcDbLine
 62
7
  6
CONTINUOUS
 10
228.9433612453
 20
120.9688168086
 11
228.4792005071
 21
130.2068986357
  0
LINE
  5
4B6
100
AcDbEntity
  8
02___PRT_ALL_AXES
100
AcDbLine
 62
7
  6
CONTINUOUS
 10
228.7064555966
 20
130.1939912159
 11
229.1706163348
 21
120.9559093889
  0
LINE
  5
4B7
100
AcDbEntity
  8
02___PRT_ALL_AXES
100
AcDbLine
 62
7
  6
CONTINUOUS
 10
229.5611475107
 20
120.9337283683
 11
229.0969867725
 21
130.1718101954
  0
LINE
  5
4B8
100
AcDbEntity
  8
02___PRT_ALL_AXES
100
AcDbLine
 62
7
  6
CONTINUOUS
 10
229.7884026002
 20
120.9208209486
 11
229.324241862
 21
130.1589027757
  0
LINE
  5
4B9
100
AcDbEntity
  8
02___PRT_ALL_AXES
100
AcDbLine
 62
7
  6
CONTINUOUS
 10
229.7147730379
 20
130.1367217551
 11
230.1789337761
 21
120.8986399281
  0
LINE
  5
4BA
100
AcDbEntity
  8
02___PRT_ALL_AXES
100
AcDbLine
 62
7
  6
CONTINUOUS
 10
230.4061888656
 20
120.8857325083
 11
229.9420281274
 21
130.1238143354
  0
LINE
  5
4BB
100
AcDbEntity
  8
02___PRT_ALL_AXES
100
AcDbLine
 62
7
  6
CONTINUOUS
 10
230.3325593033
 20
130.1016333149
 11
230.7967200415
 21
120.8635514878
  0
LINE
  5
4BC
100
AcDbEntity
  8
02___PRT_ALL_AXES
100
AcDbLine
 62
7
  6
CONTINUOUS
 10
231.023975131
 20
120.8506440681
 11
230.5598143928
 21
130.0887258952
  0
LINE
  5
4BD
100
AcDbEntity
  8
02___PRT_ALL_AXES
100
AcDbLine
 62
7
  6
CONTINUOUS
 10
230.9503455687
 20
130.0665448746
 11
231.414506307
 21
120.8284630476
  0
LINE
  5
4BE
100
AcDbEntity
  8
02___PRT_ALL_AXES
100
AcDbLine
 62
7
  6
CONTINUOUS
 10
231.1776006582
 20
130.0536374549
 11
231.6417613964
 21
120.8155556278
  0
LINE
  5
4BF
100
AcDbEntity
  8
02___PRT_ALL_AXES
100
AcDbLine
 62
7
  6
CONTINUOUS
 10
232.0322925724
 20
120.7933746073
 11
231.5681318341
 21
130.0314564344
  0
LINE
  5
4C0
100
AcDbEntity
  8
02___PRT_ALL_AXES
100
AcDbLine
 62
7
  6
CONTINUOUS
 10
231.7953869236
 20
130.0185490146
 11
232.2595476618
 21
120.7804671876
  0
LINE
  5
4C1
100
AcDbEntity
  8
02___PRT_ALL_AXES
100
AcDbLine
 62
7
  6
CONTINUOUS
 10
232.6500788378
 20
120.758286167
 11
232.1859180995
 21
129.9963679941
  0
LINE
  5
4C2
100
AcDbEntity
  8
02___PRT_ALL_AXES
100
AcDbLine
 62
7
  6
CONTINUOUS
 10
232.413173189
 20
129.9834605744
 11
232.8773339272
 21
120.7453787473
  0
LINE
  5
4C3
100
AcDbEntity
  8
02___PRT_ALL_AXES
100
AcDbLine
 62
7
  6
CONTINUOUS
 10
233.2678651032
 20
120.7231977268
 11
232.8037043649
 21
129.9612795539
  0
LINE
  5
4C4
100
AcDbEntity
  8
02___PRT_ALL_AXES
100
AcDbLine
 62
7
  6
CONTINUOUS
 10
233.4951201926
 20
120.7102903071
 11
233.0309594544
 21
129.9483721341
  0
LINE
  5
4C5
100
AcDbEntity
  8
02___PRT_ALL_AXES
100
AcDbLine
 62
7
  6
CONTINUOUS
 10
187.1914189618
 20
132.4179583517
 11
190.9273244781
 21
132.6076639241
  0
LINE
  5
4C6
100
AcDbEntity
  8
02___PRT_ALL_AXES
100
AcDbLine
 62
7
  6
CONTINUOUS
 10
227.86262884
 20
130.2177513869
 11
228.0886693311
 21
130.2290796562
  0
LINE
  5
4C7
100
AcDbEntity
  8
02___PRT_ALL_AXES
100
AcDbLine
 62
7
  6
CONTINUOUS
 10
227.2448425746
 20
130.2528398272
 11
227.4708830657
 21
130.2641680964
  0
LINE
  5
4C8
100
AcDbEntity
  8
02___PRT_ALL_AXES
100
AcDbLine
 62
7
  6
CONTINUOUS
 10
226.8530968003
 20
130.2992565367
 11
226.6270563092
 21
130.2879282674
  0
LINE
  5
4C9
100
AcDbEntity
  8
02___PRT_ALL_AXES
100
AcDbLine
 62
7
  6
CONTINUOUS
 10
226.2353105349
 20
130.334344977
 11
226.0092700438
 21
130.3230167077
  0
LINE
  5
4CA
100
AcDbEntity
  8
02___PRT_ALL_AXES
100
AcDbLine
 62
7
  6
CONTINUOUS
 10
225.6175242695
 20
130.3694334172
 11
225.3914837784
 21
130.358105148
  0
LINE
  5
4CB
100
AcDbEntity
  8
02___PRT_ALL_AXES
100
AcDbLine
 62
7
  6
CONTINUOUS
 10
224.773697513
 20
130.3931935882
 11
224.9997380041
 21
130.4045218575
  0
LINE
  5
4CC
100
AcDbEntity
  8
02___PRT_ALL_AXES
100
AcDbLine
 62
7
  6
CONTINUOUS
 10
224.1559112476
 20
130.4282820285
 11
224.3819517387
 21
130.4396102977
  0
LINE
  5
4CD
100
AcDbEntity
  8
02___PRT_ALL_AXES
100
AcDbLine
 62
7
  6
CONTINUOUS
 10
223.5381249822
 20
130.4633704687
 11
223.7641654733
 21
130.474698738
  0
LINE
  5
4CE
100
AcDbEntity
  8
02___PRT_ALL_AXES
100
AcDbLine
 62
7
  6
CONTINUOUS
 10
223.1463792079
 20
130.5097871782
 11
222.9203387168
 21
130.498458909
  0
LINE
  5
4CF
100
AcDbEntity
  8
02___PRT_ALL_AXES
100
AcDbLine
 62
7
  6
CONTINUOUS
 10
222.5285929425
 20
130.5448756185
 11
222.3025524514
 21
130.5335473492
  0
LINE
  5
4D0
100
AcDbEntity
  8
02___PRT_ALL_AXES
100
AcDbLine
 62
7
  6
CONTINUOUS
 10
221.9108066771
 20
130.5799640588
 11
221.684766186
 21
130.5686357895
  0
LINE
  5
4D1
100
AcDbEntity
  8
02___PRT_ALL_AXES
100
AcDbLine
 62
7
  6
CONTINUOUS
 10
221.0669799206
 20
130.6037242298
 11
221.2930204117
 21
130.615052499
  0
LINE
  5
4D2
100
AcDbEntity
  8
02___PRT_ALL_AXES
100
AcDbLine
 62
7
  6
CONTINUOUS
 10
220.4491936552
 20
130.63881267
 11
220.6752341463
 21
130.6501409393
  0
LINE
  5
4D3
100
AcDbEntity
  8
02___PRT_ALL_AXES
100
AcDbLine
 62
7
  6
CONTINUOUS
 10
219.8314073898
 20
130.6739011103
 11
220.0574478809
 21
130.6852293795
  0
LINE
  5
4D4
100
AcDbEntity
  8
02___PRT_ALL_AXES
100
AcDbLine
 62
7
  6
CONTINUOUS
 10
219.4396616155
 20
130.7203178198
 11
219.2136211244
 21
130.7089895505
  0
LINE
  5
4D5
100
AcDbEntity
  8
02___PRT_ALL_AXES
100
AcDbLine
 62
7
  6
CONTINUOUS
 10
218.8218753501
 20
130.75540626
 11
218.595834859
 21
130.7440779908
  0
LINE
  5
4D6
100
AcDbEntity
  8
02___PRT_ALL_AXES
100
AcDbLine
 62
7
  6
CONTINUOUS
 10
218.2040890847
 20
130.7904947003
 11
217.9780485936
 21
130.779166431
  0
LINE
  5
4D7
100
AcDbEntity
  8
02___PRT_ALL_AXES
100
AcDbLine
 62
7
  6
CONTINUOUS
 10
217.3602623282
 20
130.8142548713
 11
217.5863028193
 21
130.8255831406
  0
LINE
  5
4D8
100
AcDbEntity
  8
02___PRT_ALL_AXES
100
AcDbLine
 62
7
  6
CONTINUOUS
 10
216.7424760628
 20
130.8493433116
 11
216.9685165539
 21
130.8606715808
  0
LINE
  5
4D9
100
AcDbEntity
  8
02___PRT_ALL_AXES
100
AcDbLine
 62
7
  6
CONTINUOUS
 10
216.1246897974
 20
130.8844317518
 11
216.3507302885
 21
130.8957600211
  0
LINE
  5
4DA
100
AcDbEntity
  8
02___PRT_ALL_AXES
100
AcDbLine
 62
7
  6
CONTINUOUS
 10
215.7329440231
 20
130.9308484613
 11
215.506903532
 21
130.9195201921
  0
LINE
  5
4DB
100
AcDbEntity
  8
02___PRT_ALL_AXES
100
AcDbLine
 62
7
  6
CONTINUOUS
 10
215.1151577577
 20
130.9659369016
 11
214.8891172666
 21
130.9546086323
  0
LINE
  5
4DC
100
AcDbEntity
  8
02___PRT_ALL_AXES
100
AcDbLine
 62
7
  6
CONTINUOUS
 10
214.4973714923
 20
131.0010253418
 11
214.2713310011
 21
130.9896970726
  0
LINE
  5
4DD
100
AcDbEntity
  8
02___PRT_ALL_AXES
100
AcDbLine
 62
7
  6
CONTINUOUS
 10
213.6535447357
 20
131.0247855128
 11
213.8795852269
 21
131.0361137821
  0
LINE
  5
4DE
100
AcDbEntity
  8
02___PRT_ALL_AXES
100
AcDbLine
 62
7
  6
CONTINUOUS
 10
213.0357584703
 20
131.0598739531
 11
213.2617989615
 21
131.0712022224
  0
LINE
  5
4DF
100
AcDbEntity
  8
02___PRT_ALL_AXES
100
AcDbLine
 62
7
  6
CONTINUOUS
 10
212.4179722049
 20
131.0949623934
 11
212.6440126961
 21
131.1062906626
  0
LINE
  5
4E0
100
AcDbEntity
  8
02___PRT_ALL_AXES
100
AcDbLine
 62
7
  6
CONTINUOUS
 10
212.0262264307
 20
131.1413791029
 11
211.8001859395
 21
131.1300508336
  0
LINE
  5
4E1
100
AcDbEntity
  8
02___PRT_ALL_AXES
100
AcDbLine
 62
7
  6
CONTINUOUS
 10
211.4084401652
 20
131.1764675431
 11
211.1823996741
 21
131.1651392739
  0
LINE
  5
4E2
100
AcDbEntity
  8
02___PRT_ALL_AXES
100
AcDbLine
 62
7
  6
CONTINUOUS
 10
210.7906538998
 20
131.2115559834
 11
210.5646134087
 21
131.2002277141
  0
LINE
  5
4E3
100
AcDbEntity
  8
02___PRT_ALL_AXES
100
AcDbLine
 62
7
  6
CONTINUOUS
 10
209.9468271433
 20
131.2353161544
 11
210.1728676344
 21
131.2466444236
  0
LINE
  5
4E4
100
AcDbEntity
  8
02___PRT_ALL_AXES
100
AcDbLine
 62
7
  6
CONTINUOUS
 10
209.3290408779
 20
131.2704045946
 11
209.555081369
 21
131.2817328639
  0
LINE
  5
4E5
100
AcDbEntity
  8
02___PRT_ALL_AXES
100
AcDbLine
 62
7
  6
CONTINUOUS
 10
208.7112546125
 20
131.3054930349
 11
208.9372951036
 21
131.3168213042
  0
LINE
  5
4E6
100
AcDbEntity
  8
02___PRT_ALL_AXES
100
AcDbLine
 62
7
  6
CONTINUOUS
 10
208.3195088382
 20
131.3519097444
 11
208.0934683471
 21
131.3405814752
  0
LINE
  5
4E7
100
AcDbEntity
  8
02___PRT_ALL_AXES
100
AcDbLine
 62
7
  6
CONTINUOUS
 10
207.7017225728
 20
131.3869981847
 11
207.4756820817
 21
131.3756699154
  0
LINE
  5
4E8
100
AcDbEntity
  8
02___PRT_ALL_AXES
100
AcDbLine
 62
7
  6
CONTINUOUS
 10
207.0839363074
 20
131.4220866249
 11
206.8578958163
 21
131.4107583557
  0
LINE
  5
4E9
100
AcDbEntity
  8
02___PRT_ALL_AXES
100
AcDbLine
 62
7
  6
CONTINUOUS
 10
206.2401095509
 20
131.4458467959
 11
206.466150042
 21
131.4571750652
  0
LINE
  5
4EA
100
AcDbEntity
  8
02___PRT_ALL_AXES
100
AcDbLine
 62
7
  6
CONTINUOUS
 10
205.6223232855
 20
131.4809352362
 11
205.8483637766
 21
131.4922635054
  0
LINE
  5
4EB
100
AcDbEntity
  8
02___PRT_ALL_AXES
100
AcDbLine
 62
7
  6
CONTINUOUS
 10
205.0045370201
 20
131.5160236764
 11
205.2305775112
 21
131.5273519457
  0
LINE
  5
4EC
100
AcDbEntity
  8
02___PRT_ALL_AXES
100
AcDbLine
 62
7
  6
CONTINUOUS
 10
204.6127912458
 20
131.562440386
 11
204.3867507547
 21
131.5511121167
  0
LINE
  5
4ED
100
AcDbEntity
  8
02___PRT_ALL_AXES
100
AcDbLine
 62
7
  6
CONTINUOUS
 10
203.9950049804
 20
131.5975288262
 11
203.7689644893
 21
131.586200557
  0
LINE
  5
4EE
100
AcDbEntity
  8
02___PRT_ALL_AXES
100
AcDbLine
 62
7
  6
CONTINUOUS
 10
203.377218715
 20
131.6326172665
 11
203.1511782239
 21
131.6212889972
  0
LINE
  5
4EF
100
AcDbEntity
  8
02___PRT_ALL_AXES
100
AcDbLine
 62
7
  6
CONTINUOUS
 10
202.5333919585
 20
131.6563774375
 11
202.7594324496
 21
131.6677057067
  0
LINE
  5
4F0
100
AcDbEntity
  8
02___PRT_ALL_AXES
100
AcDbLine
 62
7
  6
CONTINUOUS
 10
201.9156056931
 20
131.6914658777
 11
202.1416461842
 21
131.702794147
  0
LINE
  5
4F1
100
AcDbEntity
  8
02___PRT_ALL_AXES
100
AcDbLine
 62
7
  6
CONTINUOUS
 10
201.2978194277
 20
131.726554318
 11
201.5238599188
 21
131.7378825873
  0
LINE
  5
4F2
100
AcDbEntity
  8
02___PRT_ALL_AXES
100
AcDbLine
 62
7
  6
CONTINUOUS
 10
200.9060736534
 20
131.7729710275
 11
200.6800331623
 21
131.7616427582
  0
LINE
  5
4F3
100
AcDbEntity
  8
02___PRT_ALL_AXES
100
AcDbLine
 62
7
  6
CONTINUOUS
 10
200.288287388
 20
131.8080594678
 11
200.0622468969
 21
131.7967311985
  0
LINE
  5
4F4
100
AcDbEntity
  8
02___PRT_ALL_AXES
100
AcDbLine
 62
7
  6
CONTINUOUS
 10
199.6705011226
 20
131.843147908
 11
199.4444606315
 21
131.8318196388
  0
LINE
  5
4F5
100
AcDbEntity
  8
02___PRT_ALL_AXES
100
AcDbLine
 62
7
  6
CONTINUOUS
 10
198.8266743661
 20
131.866908079
 11
199.0527148572
 21
131.8782363483
  0
LINE
  5
4F6
100
AcDbEntity
  8
02___PRT_ALL_AXES
100
AcDbLine
 62
7
  6
CONTINUOUS
 10
198.2088881007
 20
131.9019965193
 11
198.4349285918
 21
131.9133247885
  0
LINE
  5
4F7
100
AcDbEntity
  8
02___PRT_ALL_AXES
100
AcDbLine
 62
7
  6
CONTINUOUS
 10
197.5911018352
 20
131.9370849595
 11
197.8171423264
 21
131.9484132288
  0
LINE
  5
4F8
100
AcDbEntity
  8
02___PRT_ALL_AXES
100
AcDbLine
 62
7
  6
CONTINUOUS
 10
197.199356061
 20
131.9835016691
 11
196.9733155698
 21
131.9721733998
  0
LINE
  5
4F9
100
AcDbEntity
  8
02___PRT_ALL_AXES
100
AcDbLine
 62
7
  6
CONTINUOUS
 10
196.5815697956
 20
132.0185901093
 11
196.3555293044
 21
132.00726184
  0
LINE
  5
4FA
100
AcDbEntity
  8
02___PRT_ALL_AXES
100
AcDbLine
 62
7
  6
CONTINUOUS
 10
195.9637835302
 20
132.0536785496
 11
195.737743039
 21
132.0423502803
  0
LINE
  5
4FB
100
AcDbEntity
  8
02___PRT_ALL_AXES
100
AcDbLine
 62
7
  6
CONTINUOUS
 10
195.1199567736
 20
132.0774387206
 11
195.3459972648
 21
132.0887669898
  0
LINE
  5
4FC
100
AcDbEntity
  8
02___PRT_ALL_AXES
100
AcDbLine
 62
7
  6
CONTINUOUS
 10
194.5021705082
 20
132.1125271608
 11
194.7282109993
 21
132.1238554301
  0
LINE
  5
4FD
100
AcDbEntity
  8
02___PRT_ALL_AXES
100
AcDbLine
 62
7
  6
CONTINUOUS
 10
193.8843842428
 20
132.1476156011
 11
194.1104247339
 21
132.1589438703
  0
LINE
  5
4FE
100
AcDbEntity
  8
02___PRT_ALL_AXES
100
AcDbLine
 62
7
  6
CONTINUOUS
 10
193.4926384685
 20
132.1940323106
 11
193.2665979774
 21
132.1827040413
  0
LINE
  5
4FF
100
AcDbEntity
  8
02___PRT_ALL_AXES
100
AcDbLine
 62
7
  6
CONTINUOUS
 10
192.8748522031
 20
132.2291207509
 11
192.648811712
 21
132.2177924816
  0
LINE
  5
500
100
AcDbEntity
  8
02___PRT_ALL_AXES
100
AcDbLine
 62
7
  6
CONTINUOUS
 10
192.2570659377
 20
132.2642091911
 11
192.0310254466
 21
132.2528809218
  0
LINE
  5
501
100
AcDbEntity
  8
02___PRT_ALL_AXES
100
AcDbLine
 62
7
  6
CONTINUOUS
 10
191.4132391812
 20
132.2879693621
 11
191.6392796723
 21
132.2992976314
  0
LINE
  5
502
100
AcDbEntity
  8
02___PRT_ALL_AXES
100
AcDbLine
 62
7
  6
CONTINUOUS
 10
190.7954529158
 20
132.3230578024
 11
191.0214934069
 21
132.3343860716
  0
LINE
  5
503
100
AcDbEntity
  8
02___PRT_ALL_AXES
100
AcDbLine
 62
7
  6
CONTINUOUS
 10
190.1776666504
 20
132.3581462426
 11
190.4037071415
 21
132.3694745119
  0
LINE
  5
504
100
AcDbEntity
  8
0
100
AcDbLine
 62
7
  6
CONTINUOUS
 10
190.7642409755
 20
135.8534764579
 11
261.3683855931
 21
131.843369
  0
LINE
  5
505
100
AcDbEntity
  8
0
100
AcDbLine
 62
7
  6
CONTINUOUS
 10
264.8552307417
 20
132.0204275342
 11
194.2510861241
 21
136.0305349921
  0
LINE
  5
506
100
AcDbEntity
  8
02___PRT_ALL_AXES
100
AcDbLine
 62
7
  6
CONTINUOUS
 10
233.4214906303
 20
129.9261911136
 11
233.8856513686
 21
120.6881092865
  0
LINE
  5
507
100
AcDbEntity
  8
02___PRT_ALL_AXES
100
AcDbLine
 62
7
  6
CONTINUOUS
 10
234.112906458
 20
120.6752018668
 11
233.6487457198
 21
129.9132836939
  0
LINE
  5
508
100
AcDbEntity
  8
02___PRT_ALL_AXES
100
AcDbLine
 62
7
  6
CONTINUOUS
 10
231.8463403553
 20
172.9836712317
 11
231.7710710464
 21
174.481738555
  0
LINE
  5
509
100
AcDbEntity
  8
02___PRT_ALL_AXES
100
AcDbLine
 62
7
  6
CONTINUOUS
 10
234.0392768957
 20
129.8911026733
 11
234.503437634
 21
120.6530208463
  0
LINE
  5
50A
100
AcDbEntity
  8
02___PRT_ALL_AXES
100
AcDbLine
 62
7
  6
CONTINUOUS
 10
234.7306927235
 20
120.6401134265
 11
234.2665319852
 21
129.8781952536
  0
LINE
  5
50B
100
AcDbEntity
  8
02___PRT_ALL_AXES
100
AcDbLine
 62
7
  6
CONTINUOUS
 10
234.6570631611
 20
129.8560142331
 11
235.1212238994
 21
120.617932406
  0
LINE
  5
50C
100
AcDbEntity
  8
02___PRT_ALL_AXES
100
AcDbLine
 62
7
  6
CONTINUOUS
 10
234.8843182506
 20
129.8431068134
 11
235.3484789889
 21
120.6050249863
  0
LINE
  5
50D
100
AcDbEntity
  8
02___PRT_ALL_AXES
100
AcDbLine
 62
7
  6
CONTINUOUS
 10
235.7390101648
 20
120.5828439658
 11
235.2748494265
 21
129.8209257928
  0
LINE
  5
50E
100
AcDbEntity
  8
02___PRT_ALL_AXES
100
AcDbLine
 62
7
  6
CONTINUOUS
 10
235.502104516
 20
129.8080183731
 11
235.9662652543
 21
120.569936546
  0
LINE
  5
50F
100
AcDbEntity
  8
02___PRT_ALL_AXES
100
AcDbLine
 62
7
  6
CONTINUOUS
 10
236.3567964302
 20
120.5477555255
 11
235.8926356919
 21
129.7858373526
  0
LINE
  5
510
100
AcDbEntity
  8
02___PRT_ALL_AXES
100
AcDbLine
 62
7
  6
CONTINUOUS
 10
236.1198907814
 20
129.7729299328
 11
236.5840515197
 21
120.5348481058
  0
LINE
  5
511
100
AcDbEntity
  8
02___PRT_ALL_AXES
100
AcDbLine
 62
7
  6
CONTINUOUS
 10
236.9745826956
 20
120.5126670852
 11
236.5104219573
 21
129.7507489123
  0
LINE
  5
512
100
AcDbEntity
  8
02___PRT_ALL_AXES
100
AcDbLine
 62
7
  6
CONTINUOUS
 10
237.2018377851
 20
120.4997596655
 11
236.7376770468
 21
129.7378414926
  0
LINE
  5
513
100
AcDbEntity
  8
02___PRT_ALL_AXES
100
AcDbLine
 62
7
  6
CONTINUOUS
 10
234.7597954595
 20
174.6335030129
 11
234.584167072
 21
178.1289934339
  0
LINE
  5
514
100
AcDbEntity
  8
02___PRT_ALL_AXES
100
AcDbLine
 62
7
  6
CONTINUOUS
 10
237.1282082227
 20
129.7156604721
 11
237.592368961
 21
120.477578645
  0
LINE
  5
515
100
AcDbEntity
  8
02___PRT_ALL_AXES
100
AcDbLine
 62
7
  6
CONTINUOUS
 10
237.8196240505
 20
120.4646712253
 11
237.3554633122
 21
129.7027530523
  0
LINE
  5
516
100
AcDbEntity
  8
02___PRT_ALL_AXES
100
AcDbLine
 62
7
  6
CONTINUOUS
 10
237.7459944881
 20
129.6805720318
 11
238.2101552264
 21
120.4424902047
  0
LINE
  5
517
100
AcDbEntity
  8
02___PRT_ALL_AXES
100
AcDbLine
 62
7
  6
CONTINUOUS
 10
238.4374103159
 20
120.429582785
 11
237.9732495776
 21
129.6676646121
  0
LINE
  5
518
100
AcDbEntity
  8
02___PRT_ALL_AXES
100
AcDbLine
 62
7
  6
CONTINUOUS
 10
179.7988750014
 20
123.6583907448
 11
177.9267217989
 21
122.8656948376
  0
LINE
  5
519
100
AcDbEntity
  8
02___PRT_ALL_AXES
100
AcDbLine
 62
7
  6
CONTINUOUS
 10
190.7642409755
 20
135.8534764579
 11
194.2510861241
 21
136.0305349921
  0
LINE
  5
51A
100
AcDbEntity
  8
02___PRT_ALL_AXES
100
AcDbLine
 62
7
  6
CONTINUOUS
 10
238.3637807535
 20
129.6454835915
 11
238.8279414918
 21
120.4074017645
  0
LINE
  5
51B
100
AcDbEntity
  8
02___PRT_ALL_AXES
100
AcDbLine
 62
7
  6
CONTINUOUS
 10
238.591035843
 20
129.6325761718
 11
239.0551965813
 21
120.3944943447
  0
LINE
  5
51C
100
AcDbEntity
  8
02___PRT_ALL_AXES
100
AcDbLine
 62
7
  6
CONTINUOUS
 10
239.4457277572
 20
120.3723133242
 11
238.9815670189
 21
129.6103951513
  0
LINE
  5
51D
100
AcDbEntity
  8
02___PRT_ALL_AXES
100
AcDbLine
 62
7
  6
CONTINUOUS
 10
239.2088221084
 20
129.5974877316
 11
239.6729828467
 21
120.3594059045
  0
LINE
  5
51E
100
AcDbEntity
  8
02___PRT_ALL_AXES
100
AcDbLine
 62
7
  6
CONTINUOUS
 10
240.0635140226
 20
120.337224884
 11
239.5993532843
 21
129.575306711
  0
LINE
  5
51F
100
AcDbEntity
  8
02___PRT_ALL_AXES
100
AcDbLine
 62
7
  6
CONTINUOUS
 10
239.8266083738
 20
129.5623992913
 11
240.2907691121
 21
120.3243174642
  0
LINE
  5
520
100
AcDbEntity
  8
02___PRT_ALL_AXES
100
AcDbLine
 62
7
  6
CONTINUOUS
 10
240.681300288
 20
120.3021364437
 11
240.2171395497
 21
129.5402182708
  0
LINE
  5
521
100
AcDbEntity
  8
02___PRT_ALL_AXES
100
AcDbLine
 62
7
  6
CONTINUOUS
 10
240.9085553775
 20
120.289229024
 11
240.4443946392
 21
129.527310851
  0
LINE
  5
522
100
AcDbEntity
  8
02___PRT_ALL_AXES
100
AcDbLine
 62
7
  6
CONTINUOUS
 10
240.8349258151
 20
129.5051298305
 11
241.2990865534
 21
120.2670480034
  0
LINE
  5
523
100
AcDbEntity
  8
02___PRT_ALL_AXES
100
AcDbLine
 62
7
  6
CONTINUOUS
 10
241.5263416429
 20
120.2541405837
 11
241.0621809046
 21
129.4922224108
  0
LINE
  5
524
100
AcDbEntity
  8
02___PRT_ALL_AXES
100
AcDbLine
 62
7
  6
CONTINUOUS
 10
241.4527120805
 20
129.4700413903
 11
241.9168728188
 21
120.2319595632
  0
LINE
  5
525
100
AcDbEntity
  8
02___PRT_ALL_AXES
100
AcDbLine
 62
7
  6
CONTINUOUS
 10
242.1441279083
 20
120.2190521435
 11
241.67996717
 21
129.4571339705
  0
LINE
  5
526
100
AcDbEntity
  8
02___PRT_ALL_AXES
100
AcDbLine
 62
7
  6
CONTINUOUS
 10
242.070498346
 20
129.43495295
 11
242.5346590842
 21
120.1968711229
  0
LINE
  5
527
100
AcDbEntity
  8
02___PRT_ALL_AXES
100
AcDbLine
 62
7
  6
CONTINUOUS
 10
242.2977534354
 20
129.4220455303
 11
242.7619141737
 21
120.1839637032
  0
LINE
  5
528
100
AcDbEntity
  8
02___PRT_ALL_AXES
100
AcDbLine
 62
7
  6
CONTINUOUS
 10
243.1524453496
 20
120.1617826827
 11
242.6882846114
 21
129.3998645097
  0
LINE
  5
529
100
AcDbEntity
  8
02___PRT_ALL_AXES
100
AcDbLine
 62
7
  6
CONTINUOUS
 10
242.9155397008
 20
129.38695709
 11
243.3797004391
 21
120.1488752629
  0
LINE
  5
52A
100
AcDbEntity
  8
02___PRT_ALL_AXES
100
AcDbLine
 62
7
  6
CONTINUOUS
 10
243.770231615
 20
120.1266942424
 11
243.3060708768
 21
129.3647760695
  0
LINE
  5
52B
100
AcDbEntity
  8
02___PRT_ALL_AXES
100
AcDbLine
 62
7
  6
CONTINUOUS
 10
243.5333259662
 20
129.3518686497
 11
243.9974867045
 21
120.1137868227
  0
LINE
  5
52C
100
AcDbEntity
  8
02___PRT_ALL_AXES
100
AcDbLine
 62
7
  6
CONTINUOUS
 10
244.3880178804
 20
120.0916058022
 11
243.9238571422
 21
129.3296876292
  0
LINE
  5
52D
100
AcDbEntity
  8
02___PRT_ALL_AXES
100
AcDbLine
 62
7
  6
CONTINUOUS
 10
244.6152729699
 20
120.0786983824
 11
244.1511122316
 21
129.3167802095
  0
LINE
  5
52E
100
AcDbEntity
  8
02___PRT_ALL_AXES
100
AcDbLine
 62
7
  6
CONTINUOUS
 10
244.5416434076
 20
129.294599189
 11
245.0058041458
 21
120.0565173619
  0
LINE
  5
52F
100
AcDbEntity
  8
02___PRT_ALL_AXES
100
AcDbLine
 62
7
  6
CONTINUOUS
 10
245.2330592353
 20
120.0436099422
 11
244.7688984971
 21
129.2816917692
  0
LINE
  5
530
100
AcDbEntity
  8
02___PRT_ALL_AXES
100
AcDbLine
 62
7
  6
CONTINUOUS
 10
245.159429673
 20
129.2595107487
 11
245.6235904112
 21
120.0214289216
  0
LINE
  5
531
100
AcDbEntity
  8
02___PRT_ALL_AXES
100
AcDbLine
 62
7
  6
CONTINUOUS
 10
245.8508455007
 20
120.0085215019
 11
245.3866847625
 21
129.246603329
  0
LINE
  5
532
100
AcDbEntity
  8
02___PRT_ALL_AXES
100
AcDbLine
 62
7
  6
CONTINUOUS
 10
245.7772159384
 20
129.2244223084
 11
246.2413766766
 21
119.9863404814
  0
LINE
  5
533
100
AcDbEntity
  8
02___PRT_ALL_AXES
100
AcDbLine
 62
7
  6
CONTINUOUS
 10
246.0044710279
 20
129.2115148887
 11
246.4686317661
 21
119.9734330616
  0
LINE
  5
534
100
AcDbEntity
  8
02___PRT_ALL_AXES
100
AcDbLine
 62
7
  6
CONTINUOUS
 10
246.859162942
 20
119.9512520411
 11
246.3950022038
 21
129.1893338682
  0
LINE
  5
535
100
AcDbEntity
  8
02___PRT_ALL_AXES
100
AcDbLine
 62
7
  6
CONTINUOUS
 10
246.6222572933
 20
129.1764264485
 11
247.0864180315
 21
119.9383446214
  0
LINE
  5
536
100
AcDbEntity
  8
02___PRT_ALL_AXES
100
AcDbLine
 62
7
  6
CONTINUOUS
 10
247.4769492074
 20
119.9161636009
 11
247.0127884692
 21
129.1542454279
  0
LINE
  5
537
100
AcDbEntity
  8
02___PRT_ALL_AXES
100
AcDbLine
 62
7
  6
CONTINUOUS
 10
247.2400435587
 20
129.1413380082
 11
247.7042042969
 21
119.9032561811
  0
LINE
  5
538
100
AcDbEntity
  8
02___PRT_ALL_AXES
100
AcDbLine
 62
7
  6
CONTINUOUS
 10
248.0947354729
 20
119.8810751606
 11
247.6305747346
 21
129.1191569877
  0
LINE
  5
539
100
AcDbEntity
  8
02___PRT_ALL_AXES
100
AcDbLine
 62
7
  6
CONTINUOUS
 10
248.3219905623
 20
119.8681677409
 11
247.8578298241
 21
129.1062495679
  0
LINE
  5
53A
100
AcDbEntity
  8
02___PRT_ALL_AXES
100
AcDbLine
 62
7
  6
CONTINUOUS
 10
248.248361
 20
129.0840685474
 11
248.7125217383
 21
119.8459867203
  0
LINE
  5
53B
100
AcDbEntity
  8
02___PRT_ALL_AXES
100
AcDbLine
 62
7
  6
CONTINUOUS
 10
248.9397768277
 20
119.8330793006
 11
248.4756160895
 21
129.0711611277
  0
LINE
  5
53C
100
AcDbEntity
  8
02___PRT_ALL_AXES
100
AcDbLine
 62
7
  6
CONTINUOUS
 10
248.8661472654
 20
129.0489801072
 11
249.3303080037
 21
119.8108982801
  0
LINE
  5
53D
100
AcDbEntity
  8
02___PRT_ALL_AXES
100
AcDbLine
 62
7
  6
CONTINUOUS
 10
249.5575630931
 20
119.7979908604
 11
249.0934023549
 21
129.0360726874
  0
LINE
  5
53E
100
AcDbEntity
  8
02___PRT_ALL_AXES
100
AcDbLine
 62
7
  6
CONTINUOUS
 10
249.4839335308
 20
129.0138916669
 11
249.9480942691
 21
119.7758098398
  0
LINE
  5
53F
100
AcDbEntity
  8
02___PRT_ALL_AXES
100
AcDbLine
 62
7
  6
CONTINUOUS
 10
249.7111886203
 20
129.0009842472
 11
250.1753493585
 21
119.7629024201
  0
LINE
  5
540
100
AcDbEntity
  8
02___PRT_ALL_AXES
100
AcDbLine
 62
7
  6
CONTINUOUS
 10
250.5658805345
 20
119.7407213996
 11
250.1017197962
 21
128.9788032266
  0
LINE
  5
541
100
AcDbEntity
  8
02___PRT_ALL_AXES
100
AcDbLine
 62
7
  6
CONTINUOUS
 10
250.3289748857
 20
128.9658958069
 11
250.7931356239
 21
119.7278139798
  0
LINE
  5
542
100
AcDbEntity
  8
02___PRT_ALL_AXES
100
AcDbLine
 62
7
  6
CONTINUOUS
 10
251.1836667999
 20
119.7056329593
 11
250.7195060616
 21
128.9437147864
  0
LINE
  5
543
100
AcDbEntity
  8
02___PRT_ALL_AXES
100
AcDbLine
 62
7
  6
CONTINUOUS
 10
250.9467611511
 20
128.9308073667
 11
251.4109218894
 21
119.6927255396
  0
LINE
  5
544
100
AcDbEntity
  8
02___PRT_ALL_AXES
100
AcDbLine
 62
7
  6
CONTINUOUS
 10
251.8014530653
 20
119.6705445191
 11
251.337292327
 21
128.9086263461
  0
LINE
  5
545
100
AcDbEntity
  8
02___PRT_ALL_AXES
100
AcDbLine
 62
7
  6
CONTINUOUS
 10
252.0287081548
 20
119.6576370993
 11
251.5645474165
 21
128.8957189264
  0
LINE
  5
546
100
AcDbEntity
  8
02___PRT_ALL_AXES
100
AcDbLine
 62
7
  6
CONTINUOUS
 10
251.9550785924
 20
128.8735379059
 11
252.4192393307
 21
119.6354560788
  0
LINE
  5
547
100
AcDbEntity
  8
02___PRT_ALL_AXES
100
AcDbLine
 62
7
  6
CONTINUOUS
 10
252.6464944202
 20
119.6225486591
 11
252.1823336819
 21
128.8606304861
  0
LINE
  5
548
100
AcDbEntity
  8
02___PRT_ALL_AXES
100
AcDbLine
 62
7
  6
CONTINUOUS
 10
252.5728648578
 20
128.8384494656
 11
253.0370255961
 21
119.6003676385
  0
LINE
  5
549
100
AcDbEntity
  8
02___PRT_ALL_AXES
100
AcDbLine
 62
7
  6
CONTINUOUS
 10
253.2642806856
 20
119.5874602188
 11
252.8001199473
 21
128.8255420459
  0
LINE
  5
54A
100
AcDbEntity
  8
02___PRT_ALL_AXES
100
AcDbLine
 62
7
  6
CONTINUOUS
 10
253.1906511232
 20
128.8033610254
 11
253.6548118615
 21
119.5652791983
  0
LINE
  5
54B
100
AcDbEntity
  8
02___PRT_ALL_AXES
100
AcDbLine
 62
7
  6
CONTINUOUS
 10
253.4179062127
 20
128.7904536056
 11
253.882066951
 21
119.5523717786
  0
LINE
  5
54C
100
AcDbEntity
  8
02___PRT_ALL_AXES
100
AcDbLine
 62
7
  6
CONTINUOUS
 10
254.2725981269
 20
119.530190758
 11
253.8084373886
 21
128.7682725851
  0
LINE
  5
54D
100
AcDbEntity
  8
02___PRT_ALL_AXES
100
AcDbLine
 62
7
  6
CONTINUOUS
 10
254.0356924781
 20
128.7553651654
 11
254.4998532164
 21
119.5172833383
  0
LINE
  5
54E
100
AcDbEntity
  8
02___PRT_ALL_AXES
100
AcDbLine
 62
7
  6
CONTINUOUS
 10
254.8903843923
 20
119.4951023178
 11
254.426223654
 21
128.7331841448
  0
LINE
  5
54F
100
AcDbEntity
  8
02___PRT_ALL_AXES
100
AcDbLine
 62
7
  6
CONTINUOUS
 10
254.6534787435
 20
128.7202767251
 11
255.1176394818
 21
119.482194898
  0
LINE
  5
550
100
AcDbEntity
  8
02___PRT_ALL_AXES
100
AcDbLine
 62
7
  6
CONTINUOUS
 10
255.5081706577
 20
119.4600138775
 11
255.0440099194
 21
128.6980957046
  0
LINE
  5
551
100
AcDbEntity
  8
02___PRT_ALL_AXES
100
AcDbLine
 62
7
  6
CONTINUOUS
 10
255.7354257472
 20
119.4471064578
 11
255.2712650089
 21
128.6851882849
  0
LINE
  5
552
100
AcDbEntity
  8
02___PRT_ALL_AXES
100
AcDbLine
 62
7
  6
CONTINUOUS
 10
255.6617961848
 20
128.6630072643
 11
256.1259569231
 21
119.4249254373
  0
LINE
  5
553
100
AcDbEntity
  8
02___PRT_ALL_AXES
100
AcDbLine
 62
7
  6
CONTINUOUS
 10
256.3532120126
 20
119.4120180175
 11
255.8890512743
 21
128.6500998446
  0
LINE
  5
554
100
AcDbEntity
  8
02___PRT_ALL_AXES
100
AcDbLine
 62
7
  6
CONTINUOUS
 10
256.2795824502
 20
128.6279188241
 11
256.7437431885
 21
119.389836997
  0
LINE
  5
555
100
AcDbEntity
  8
02___PRT_ALL_AXES
100
AcDbLine
 62
7
  6
CONTINUOUS
 10
256.970998278
 20
119.3769295773
 11
256.5068375397
 21
128.6150114043
  0
LINE
  5
556
100
AcDbEntity
  8
0
100
AcDbLine
 62
7
  6
CONTINUOUS
 10
257.139871327
 20
116.6097550037
 11
257.0144224788
 21
119.1065338759
  0
LINE
  5
557
100
AcDbEntity
  8
02___PRT_ALL_AXES
100
AcDbLine
 62
7
  6
CONTINUOUS
 10
256.8973687156
 20
128.5928303838
 11
257.3615294539
 21
119.3547485567
  0
LINE
  5
558
100
AcDbEntity
  8
0
100
AcDbLine
 62
7
  6
CONTINUOUS
 10
257.1246238051
 20
128.5799229641
 11
257.5887845434
 21
119.341841137
  0
LINE
  5
559
100
AcDbEntity
  8
0
100
AcDbLine
 62
7
  6
CONTINUOUS
 10
257.9793157193
 20
119.3196601165
 11
257.515154981
 21
128.5577419436
  0
LINE
  5
55A
100
AcDbEntity
  8
0
100
AcDbLine
 62
7
  6
CONTINUOUS
 10
257.7424100705
 20
128.5448345238
 11
258.2065708088
 21
119.3067526968
  0
LINE
  5
55B
100
AcDbEntity
  8
0
100
AcDbLine
 62
7
  6
CONTINUOUS
 10
258.5971019847
 20
119.2845716762
 11
258.1329412465
 21
128.5226535033
  0
LINE
  5
55C
100
AcDbEntity
  8
0
100
AcDbLine
 62
7
  6
CONTINUOUS
 10
258.3601963359
 20
128.5097460836
 11
258.8243570742
 21
119.2716642565
  0
LINE
  5
55D
100
AcDbEntity
  8
0
100
AcDbLine
 62
7
  6
CONTINUOUS
 10
259.2148882501
 20
119.249483236
 11
258.7507275119
 21
128.487565063
  0
LINE
  5
55E
100
AcDbEntity
  8
02___PRT_ALL_AXES
100
AcDbLine
 62
7
  6
CONTINUOUS
 10
259.4421433396
 20
119.2365758162
 11
258.9779826013
 21
128.4746576433
  0
LINE
  5
55F
100
AcDbEntity
  8
0
100
AcDbLine
 62
7
  6
CONTINUOUS
 10
261.5314690957
 20
128.5975564661
 11
261.3683855931
 21
131.843369
  0
LINE
  5
560
100
AcDbEntity
  8
0
100
AcDbLine
 62
7
  6
CONTINUOUS
 10
302.375215664
 20
170.471631097
 11
305.3639400771
 21
170.6233955549
  0
LINE
  5
561
100
AcDbEntity
  8
02___PRT_ALL_AXES
100
AcDbLine
 62
7
  6
CONTINUOUS
 10
223.3710157264
 20
168.3281387893
 11
225.5825208464
 21
168.4404368232
  0
LINE
  5
562
100
AcDbEntity
  8
0
100
AcDbLine
 62
7
  6
CONTINUOUS
 10
293.9751603439
 20
164.3180313313
 11
223.3710157264
 21
168.3281387893
  0
LINE
  5
563
100
AcDbEntity
  8
0
100
AcDbLine
 62
7
  6
CONTINUOUS
 10
225.5825208464
 20
168.4404368232
 11
296.186665464
 21
164.4303293653
  0
LINE
  5
564
100
AcDbEntity
  8
0
100
AcDbLine
 62
7
  6
CONTINUOUS
 10
296.1154181211
 20
165.8483484447
 11
225.5112735036
 21
169.8584559027
  0
LINE
  5
565
100
AcDbEntity
  8
02___PRT_ALL_AXES
100
AcDbLine
 62
7
  6
CONTINUOUS
 10
229.6405943713
 20
177.1270190091
 11
228.3088040836
 21
177.8103367328
  0
LINE
  5
566
100
AcDbEntity
  8
0
100
AcDbLine
 62
7
  6
CONTINUOUS
 10
302.4504849729
 20
168.9735637737
 11
231.8463403553
 21
172.9836712317
  0
LINE
  5
567
100
AcDbEntity
  8
0
100
AcDbLine
 62
7
  6
CONTINUOUS
 10
302.375215664
 20
170.471631097
 11
231.7710710464
 21
174.481738555
  0
LINE
  5
568
100
AcDbEntity
  8
02___PRT_ALL_AXES
100
AcDbLine
 62
7
  6
CONTINUOUS
 10
231.7710710464
 20
174.481738555
 11
234.7597954595
 21
174.6335030129
  0
LINE
  5
569
100
AcDbEntity
  8
02___PRT_ALL_AXES
100
AcDbLine
 62
7
  6
CONTINUOUS
 10
234.584167072
 20
178.1289934339
 11
230.8971153502
 21
177.9417686087
  0
LINE
  5
56A
100
AcDbEntity
  8
02___PRT_ALL_AXES
100
AcDbLine
 62
7
  6
CONTINUOUS
 10
228.3088040836
 20
177.8103367328
 11
225.0107102249
 21
177.6428628016
  0
LINE
  5
56B
100
AcDbEntity
  8
0
100
AcDbLine
 62
7
  6
CONTINUOUS
 10
234.7597954595
 20
174.6335030129
 11
305.3639400771
 21
170.6233955549
  0
LINE
  5
56C
100
AcDbEntity
  8
0
100
AcDbLine
 62
7
  6
CONTINUOUS
 10
230.5022844203
 20
177.6857535103
 11
228.3088040836
 21
177.8103367328
  0
LINE
  5
56D
100
AcDbEntity
  8
0
100
AcDbLine
 62
7
  6
CONTINUOUS
 10
305.1883116896
 20
174.1188859759
 11
234.584167072
 21
178.1289934339
  0
LINE
  5
56E
100
AcDbEntity
  8
0
100
AcDbLine
 62
7
  6
CONTINUOUS
 10
296.186665464
 20
164.4303293653
 11
296.1154181211
 21
165.8483484447
  0
LINE
  5
56F
100
AcDbEntity
  8
0
100
AcDbLine
 62
7
  6
CONTINUOUS
 10
302.4504849729
 20
168.9735637737
 11
302.375215664
 21
170.471631097
  0
LINE
  5
570
100
AcDbEntity
  8
0
100
AcDbLine
 62
7
  6
CONTINUOUS
 10
305.3639400771
 20
170.6233955549
 11
305.1883116896
 21
174.1188859759
  0
LINE
  5
571
100
AcDbEntity
  8
02___PRT_ALL_AXES
100
AcDbLine
 62
7
  6
CONTINUOUS
 10
27.1167652808
 20
65.9155577344
 11
28.6167652808
 21
63.317481523
  0
LINE
  5
572
100
AcDbEntity
  8
02___PRT_ALL_AXES
100
AcDbLine
 62
7
  6
CONTINUOUS
 10
27.1167652808
 20
69.7671702157
 11
27.1167652808
 21
65.9155577344
  0
LINE
  5
573
100
AcDbEntity
  8
02___PRT_ALL_AXES
100
AcDbLine
 62
7
  6
CONTINUOUS
 10
27.1167652808
 20
60.7194053117
 11
27.1167652808
 21
55.817481523
  0
LINE
  5
574
100
AcDbEntity
  8
02___PRT_ALL_AXES
100
AcDbLine
 62
7
  6
CONTINUOUS
 10
27.1167652808
 20
55.817481523
 11
36.1167652808
 21
55.817481523
  0
LINE
  5
575
100
AcDbEntity
  8
02___PRT_ALL_AXES
100
AcDbLine
 62
7
  6
CONTINUOUS
 10
40.1167652808
 20
89.5894833957
 11
40.1167652808
 21
81.6164713962
  0
LINE
  5
576
100
AcDbEntity
  8
02___PRT_ALL_AXES
100
AcDbLine
 62
7
  6
CONTINUOUS
 10
50.1167652808
 20
70.817481523
 11
45.1167652808
 21
70.817481523
  0
LINE
  5
577
100
AcDbEntity
  8
02___PRT_ALL_AXES
100
AcDbLine
 62
7
  6
CONTINUOUS
 10
45.1167652808
 20
65.817481523
 11
45.1167652808
 21
74.317481523
  0
LINE
  5
578
100
AcDbEntity
  8
02___PRT_ALL_AXES
100
AcDbLine
 62
7
  6
CONTINUOUS
 10
47.6167652808
 20
89.317481523
 11
47.6167652808
 21
74.317481523
  0
LINE
  5
579
100
AcDbEntity
  8
02___PRT_ALL_AXES
100
AcDbLine
 62
7
  6
CONTINUOUS
 10
45.1167652808
 20
74.317481523
 11
47.6167652808
 21
74.317481523
  0
LINE
  5
57A
100
AcDbEntity
  8
02___PRT_ALL_AXES
100
AcDbLine
 62
7
  6
CONTINUOUS
 10
50.1167652808
 20
70.817481523
 11
50.1167652808
 21
89.317481523
  0
LINE
  5
57B
100
AcDbEntity
  8
02___PRT_ALL_AXES
100
AcDbLine
 62
7
  6
CONTINUOUS
 10
55.1167652808
 20
89.317481523
 11
55.1167652808
 21
95.817481523
  0
LINE
  5
57C
100
AcDbEntity
  8
02___PRT_ALL_AXES
100
AcDbLine
 62
7
  6
CONTINUOUS
 10
28.6167652808
 20
63.317481523
 11
27.1167652808
 21
60.7194053117
  0
LINE
  5
57D
100
AcDbEntity
  8
02___PRT_ALL_AXES
100
AcDbLine
 62
7
  6
CONTINUOUS
 10
139.7148414922
 20
175.817481523
 11
137.1167652808
 21
174.317481523
  0
LINE
  5
57E
100
AcDbEntity
  8
02___PRT_ALL_AXES
100
AcDbLine
 62
7
  6
CONTINUOUS
 10
47.6167652808
 20
89.317481523
 11
55.1167652808
 21
89.317481523
  0
LINE
  5
57F
100
AcDbEntity
  8
02___PRT_ALL_AXES
100
AcDbLine
 62
7
  6
CONTINUOUS
 10
51.7914436043
 20
105.5468761363
 11
42.1915732574
 21
94.9646205553
  0
LINE
  5
580
100
AcDbEntity
  8
02___PRT_ALL_AXES
100
AcDbLine
 62
7
  6
CONTINUOUS
 10
55.1167652808
 20
95.817481523
 11
62.1167652808
 21
95.817481523
  0
LINE
  5
581
100
AcDbEntity
  8
02___PRT_ALL_AXES
100
AcDbLine
 62
7
  6
CONTINUOUS
 10
38.9451924056
 20
78.7880442715
 11
34.1228766915
 21
73.9657285574
  0
LINE
  5
582
100
AcDbEntity
  8
02___PRT_ALL_AXES
100
AcDbLine
 62
7
  6
CONTINUOUS
 10
126.6688877902
 20
175.1778461776
 11
122.3009541759
 21
168.9397904927
  0
LINE
  5
583
100
AcDbEntity
  8
02___PRT_ALL_AXES
100
AcDbLine
 62
7
  6
CONTINUOUS
 10
31.9323568643
 20
72.5702135198
 11
28.1037350659
 21
71.1767091469
  0
LINE
  5
584
100
AcDbEntity
  8
02___PRT_ALL_AXES
100
AcDbLine
 62
7
  6
CONTINUOUS
 10
128.1167652808
 20
157.3777845533
 11
128.1167652808
 21
160.217481523
  0
LINE
  5
585
100
AcDbEntity
  8
02___PRT_ALL_AXES
100
AcDbLine
 62
7
  6
CONTINUOUS
 10
123.6770683111
 20
157.3777845533
 11
128.1167652808
 21
157.3777845533
  0
LINE
  5
586
100
AcDbEntity
  8
02___PRT_ALL_AXES
100
AcDbLine
 62
7
  6
CONTINUOUS
 10
141.1167652808
 20
165.817481523
 11
141.1167652808
 21
168.817481523
  0
LINE
  5
587
100
AcDbEntity
  8
02___PRT_ALL_AXES
100
AcDbLine
 62
7
  6
CONTINUOUS
 10
141.1167652808
 20
168.817481523
 11
147.1167652808
 21
168.817481523
  0
LINE
  5
588
100
AcDbEntity
  8
02___PRT_ALL_AXES
100
AcDbLine
 62
7
  6
CONTINUOUS
 10
147.1167652808
 20
168.817481523
 11
147.1167652808
 21
175.817481523
  0
LINE
  5
589
100
AcDbEntity
  8
02___PRT_ALL_AXES
100
AcDbLine
 62
7
  6
CONTINUOUS
 10
147.1167652808
 20
175.817481523
 11
139.7148414922
 21
175.817481523
  0
LINE
  5
58A
100
AcDbEntity
  8
02___PRT_ALL_AXES
100
AcDbLine
 62
7
  6
CONTINUOUS
 10
134.5186890695
 20
175.817481523
 11
127.8976158567
 21
175.817481523
  0
LINE
  5
58B
100
AcDbEntity
  8
02___PRT_ALL_AXES
100
AcDbLine
 62
7
  6
CONTINUOUS
 10
137.1167652808
 20
174.317481523
 11
134.5186890695
 21
175.817481523
  0
LINE
  5
58C
100
AcDbEntity
  8
02___PRT_ALL_AXES
100
AcDbLine
 62
7
  6
CONTINUOUS
 10
171.4904882153
 20
62.7301003007
 11
171.4904882153
 21
91.8520521049
  0
LINE
  5
58D
100
AcDbEntity
  8
02___PRT_ALL_AXES
100
AcDbLine
 62
7
  6
CONTINUOUS
 10
172.8811273859
 20
71.9801003007
 11
172.8811273859
 21
70.2301003007
  0
LINE
  5
58E
100
AcDbEntity
  8
02___PRT_ALL_AXES
100
AcDbLine
 62
7
  6
CONTINUOUS
 10
173.0998490447
 20
70.2301003007
 11
173.0998490447
 21
79.4801003007
  0
LINE
  5
58F
100
AcDbEntity
  8
02___PRT_ALL_AXES
100
AcDbLine
 62
7
  6
CONTINUOUS
 10
178.6311273859
 20
79.4801003007
 11
178.6311273859
 21
70.2301003007
  0
LINE
  5
590
100
AcDbEntity
  8
02___PRT_ALL_AXES
100
AcDbLine
 62
7
  6
CONTINUOUS
 10
178.8498490447
 20
71.9801003007
 11
178.8498490447
 21
70.2301003007
  0
LINE
  5
591
100
AcDbEntity
  8
02___PRT_ALL_AXES
100
AcDbLine
 62
7
  6
CONTINUOUS
 10
181.6311273859
 20
71.9801003007
 11
181.6311273859
 21
70.2301003007
  0
LINE
  5
592
100
AcDbEntity
  8
02___PRT_ALL_AXES
100
AcDbLine
 62
7
  6
CONTINUOUS
 10
181.8498490447
 20
70.2301003007
 11
181.8498490447
 21
79.4801003007
  0
LINE
  5
593
100
AcDbEntity
  8
0
100
AcDbLine
 62
7
  6
CONTINUOUS
 10
224.0226270801
 20
62.7301003007
 11
171.4904882153
 21
62.7301003007
  0
LINE
  5
594
100
AcDbEntity
  8
02___PRT_ALL_AXES
100
AcDbLine
 62
7
  6
CONTINUOUS
 10
187.3811273859
 20
79.4801003007
 11
187.3811273859
 21
70.2301003007
  0
LINE
  5
595
100
AcDbEntity
  8
02___PRT_ALL_AXES
100
AcDbLine
 62
7
  6
CONTINUOUS
 10
187.5998490447
 20
71.9801003007
 11
187.5998490447
 21
70.2301003007
  0
LINE
  5
596
100
AcDbEntity
  8
0
100
AcDbLine
 62
7
  6
CONTINUOUS
 10
224.9197030192
 20
67.7301003007
 11
171.4904882153
 21
67.7301003007
  0
LINE
  5
597
100
AcDbEntity
  8
02___PRT_ALL_AXES
100
AcDbLine
 62
7
  6
CONTINUOUS
 10
190.3811273859
 20
71.9801003007
 11
190.3811273859
 21
70.2301003007
  0
LINE
  5
598
100
AcDbEntity
  8
02___PRT_ALL_AXES
100
AcDbLine
 62
7
  6
CONTINUOUS
 10
190.5998490447
 20
70.2301003007
 11
190.5998490447
 21
79.4801003007
  0
LINE
  5
599
100
AcDbEntity
  8
02___PRT_ALL_AXES
100
AcDbLine
 62
7
  6
CONTINUOUS
 10
222.3811273859
 20
70.2301003007
 11
216.8498490447
 21
70.2301003007
  0
LINE
  5
59A
100
AcDbEntity
  8
02___PRT_ALL_AXES
100
AcDbLine
 62
7
  6
CONTINUOUS
 10
213.6311273859
 20
70.2301003007
 11
208.0998490447
 21
70.2301003007
  0
LINE
  5
59B
100
AcDbEntity
  8
02___PRT_ALL_AXES
100
AcDbLine
 62
7
  6
CONTINUOUS
 10
204.8811273859
 20
70.2301003007
 11
199.3498490447
 21
70.2301003007
  0
LINE
  5
59C
100
AcDbEntity
  8
02___PRT_ALL_AXES
100
AcDbLine
 62
7
  6
CONTINUOUS
 10
173.0998490447
 20
70.2301003007
 11
178.6311273859
 21
70.2301003007
  0
LINE
  5
59D
100
AcDbEntity
  8
02___PRT_ALL_AXES
100
AcDbLine
 62
7
  6
CONTINUOUS
 10
181.8498490447
 20
70.2301003007
 11
187.3811273859
 21
70.2301003007
  0
LINE
  5
59E
100
AcDbEntity
  8
02___PRT_ALL_AXES
100
AcDbLine
 62
7
  6
CONTINUOUS
 10
190.5998490447
 20
70.2301003007
 11
196.1311273859
 21
70.2301003007
  0
LINE
  5
59F
100
AcDbEntity
  8
02___PRT_ALL_AXES
100
AcDbLine
 62
7
  6
CONTINUOUS
 10
224.7551898819
 20
71.9801003007
 11
222.4904882153
 21
71.9801003007
  0
LINE
  5
5A0
100
AcDbEntity
  8
02___PRT_ALL_AXES
100
AcDbLine
 62
7
  6
CONTINUOUS
 10
190.4904882153
 20
71.9801003007
 11
187.4904882153
 21
71.9801003007
  0
LINE
  5
5A1
100
AcDbEntity
  8
02___PRT_ALL_AXES
100
AcDbLine
 62
7
  6
CONTINUOUS
 10
181.7404882153
 20
71.9801003007
 11
178.7404882153
 21
71.9801003007
  0
LINE
  5
5A2
100
AcDbEntity
  8
02___PRT_ALL_AXES
100
AcDbLine
 62
7
  6
CONTINUOUS
 10
172.9904882153
 20
71.9801003007
 11
171.4904882153
 21
71.9801003007
  0
LINE
  5
5A3
100
AcDbEntity
  8
02___PRT_ALL_AXES
100
AcDbLine
 62
7
  6
CONTINUOUS
 10
196.2404882153
 20
71.9801003007
 11
199.2404882153
 21
71.9801003007
  0
LINE
  5
5A4
100
AcDbEntity
  8
02___PRT_ALL_AXES
100
AcDbLine
 62
7
  6
CONTINUOUS
 10
204.9904882153
 20
71.9801003007
 11
207.9904882153
 21
71.9801003007
  0
LINE
  5
5A5
100
AcDbEntity
  8
02___PRT_ALL_AXES
100
AcDbLine
 62
7
  6
CONTINUOUS
 10
213.7404882153
 20
71.9801003007
 11
216.7404882153
 21
71.9801003007
  0
LINE
  5
5A6
100
AcDbEntity
  8
02___PRT_ALL_AXES
100
AcDbLine
 62
7
  6
CONTINUOUS
 10
196.1311273859
 20
79.4801003007
 11
196.1311273859
 21
70.2301003007
  0
LINE
  5
5A7
100
AcDbEntity
  8
02___PRT_ALL_AXES
100
AcDbLine
 62
7
  6
CONTINUOUS
 10
196.3498490447
 20
71.9801003007
 11
196.3498490447
 21
70.2301003007
  0
LINE
  5
5A8
100
AcDbEntity
  8
02___PRT_ALL_AXES
100
AcDbLine
 62
7
  6
CONTINUOUS
 10
199.1311273859
 20
71.9801003007
 11
199.1311273859
 21
70.2301003007
  0
LINE
  5
5A9
100
AcDbEntity
  8
02___PRT_ALL_AXES
100
AcDbLine
 62
7
  6
CONTINUOUS
 10
199.3498490447
 20
79.4801003007
 11
199.3498490447
 21
70.2301003007
  0
LINE
  5
5AA
100
AcDbEntity
  8
0
100
AcDbLine
 62
7
  6
CONTINUOUS
 10
223.319429036
 20
79.4801003007
 11
171.4904882153
 21
79.4801003007
  0
LINE
  5
5AB
100
AcDbEntity
  8
0
100
AcDbLine
 62
7
  6
CONTINUOUS
 10
222.646372857
 20
82.7301003007
 11
171.4904882153
 21
82.7301003007
  0
LINE
  5
5AC
100
AcDbEntity
  8
02___PRT_ALL_AXES
100
AcDbLine
 62
7
  6
CONTINUOUS
 10
204.8811273859
 20
70.2301003007
 11
204.8811273859
 21
79.4801003007
  0
LINE
  5
5AD
100
AcDbEntity
  8
02___PRT_ALL_AXES
100
AcDbLine
 62
7
  6
CONTINUOUS
 10
205.0998490447
 20
71.9801003007
 11
205.0998490447
 21
70.2301003007
  0
LINE
  5
5AE
100
AcDbEntity
  8
02___PRT_ALL_AXES
100
AcDbLine
 62
7
  6
CONTINUOUS
 10
207.8811273859
 20
71.9801003007
 11
207.8811273859
 21
70.2301003007
  0
LINE
  5
5AF
100
AcDbEntity
  8
02___PRT_ALL_AXES
100
AcDbLine
 62
7
  6
CONTINUOUS
 10
208.0998490447
 20
79.4801003007
 11
208.0998490447
 21
70.2301003007
  0
LINE
  5
5B0
100
AcDbEntity
  8
0
100
AcDbLine
 62
7
  6
CONTINUOUS
 10
189.7142304326
 20
91.1401481785
 11
184.5729507492
 21
91.8252477889
  0
LINE
  5
5B1
100
AcDbEntity
  8
0
100
AcDbLine
 62
7
  6
CONTINUOUS
 10
208.0484188917
 20
91.4751063227
 11
200.7159143594
 21
90.6231122009
  0
LINE
  5
5B2
100
AcDbEntity
  8
0
100
AcDbLine
 62
7
  6
CONTINUOUS
 10
214.9141674301
 20
91.7642235396
 11
208.0484188917
 21
91.4751063227
  0
LINE
  5
5B3
100
AcDbEntity
  8
0
100
AcDbLine
 62
7
  6
CONTINUOUS
 10
200.7159143594
 20
90.6231122009
 11
195.0165493661
 21
90.6077545763
  0
LINE
  5
5B4
100
AcDbEntity
  8
0
100
AcDbLine
 62
7
  6
CONTINUOUS
 10
180.2101885315
 20
92.2404528861
 11
177.8753381876
 21
92.3404487551
  0
LINE
  5
5B5
100
AcDbEntity
  8
0
100
AcDbLine
 62
7
  6
CONTINUOUS
 10
182.4248453752
 20
92.0627178522
 11
180.2101885315
 21
92.2404528861
  0
LINE
  5
5B6
100
AcDbEntity
  8
0
100
AcDbLine
 62
7
  6
CONTINUOUS
 10
195.0165493661
 20
90.6077545763
 11
189.7142304326
 21
91.1401481785
  0
LINE
  5
5B7
100
AcDbEntity
  8
0
100
AcDbLine
 62
7
  6
CONTINUOUS
 10
184.5729507492
 20
91.8252477889
 11
182.4248453752
 21
92.0627178522
  0
LINE
  5
5B8
100
AcDbEntity
  8
02___PRT_ALL_AXES
100
AcDbLine
 62
7
  6
CONTINUOUS
 10
213.6311273859
 20
70.2301003007
 11
213.6311273859
 21
79.4801003007
  0
LINE
  5
5B9
100
AcDbEntity
  8
02___PRT_ALL_AXES
100
AcDbLine
 62
7
  6
CONTINUOUS
 10
213.8498490447
 20
71.9801003007
 11
213.8498490447
 21
70.2301003007
  0
LINE
  5
5BA
100
AcDbEntity
  8
0
100
AcDbLine
 62
7
  6
CONTINUOUS
 10
177.8753381876
 20
92.3404487551
 11
173.5709025022
 21
92.2342727012
  0
LINE
  5
5BB
100
AcDbEntity
  8
02___PRT_ALL_AXES
100
AcDbLine
 62
7
  6
CONTINUOUS
 10
216.6311273859
 20
71.9801003007
 11
216.6311273859
 21
70.2301003007
  0
LINE
  5
5BC
100
AcDbEntity
  8
02___PRT_ALL_AXES
100
AcDbLine
 62
7
  6
CONTINUOUS
 10
216.8498490447
 20
79.4801003007
 11
216.8498490447
 21
70.2301003007
  0
LINE
  5
5BD
100
AcDbEntity
  8
0
100
AcDbLine
 62
7
  6
CONTINUOUS
 10
173.5709025022
 20
92.2342727012
 11
171.4904882153
 21
91.8520521049
  0
LINE
  5
5BE
100
AcDbEntity
  8
0
100
AcDbLine
 62
7
  6
CONTINUOUS
 10
219.9500837673
 20
89.5927102683
 11
214.9141674301
 21
91.7642235396
  0
LINE
  5
5BF
100
AcDbEntity
  8
02___PRT_ALL_AXES
100
AcDbLine
 62
7
  6
CONTINUOUS
 10
222.3811273859
 20
70.2301003007
 11
222.3811273859
 21
79.4801003007
  0
LINE
  5
5C0
100
AcDbEntity
  8
02___PRT_ALL_AXES
100
AcDbLine
 62
7
  6
CONTINUOUS
 10
222.5998490447
 20
71.9801003007
 11
222.5998490447
 21
70.2301003007
  0
LINE
  5
5C1
100
AcDbEntity
  8
0
100
AcDbLine
 62
7
  6
CONTINUOUS
 10
224.9303597747
 20
67.2673350627
 11
224.8324670731
 21
71.5182854737
  0
LINE
  5
5C2
100
AcDbEntity
  8
0
100
AcDbLine
 62
7
  6
CONTINUOUS
 10
221.4934741738
 20
86.9419174125
 11
219.9500837673
 21
89.5927102683
  0
LINE
  5
5C3
100
AcDbEntity
  8
0
100
AcDbLine
 62
7
  6
CONTINUOUS
 10
222.4731647327
 20
83.5720611168
 11
221.4934741738
 21
86.9419174125
  0
LINE
  5
5C4
100
AcDbEntity
  8
0
100
AcDbLine
 62
7
  6
CONTINUOUS
 10
224.1383118444
 20
75.6666140017
 11
223.2130232205
 21
79.9756255644
  0
LINE
  5
5C5
100
AcDbEntity
  8
0
100
AcDbLine
 62
7
  6
CONTINUOUS
 10
223.2130232205
 20
79.9756255644
 11
222.4731647327
 21
83.5720611168
  0
LINE
  5
5C6
100
AcDbEntity
  8
0
100
AcDbLine
 62
7
  6
CONTINUOUS
 10
224.8324670731
 20
71.5182854737
 11
224.1383118444
 21
75.6666140017
  0
LINE
  5
5C7
100
AcDbEntity
  8
0
100
AcDbLine
 62
7
  6
CONTINUOUS
 10
224.2581554536
 20
63.3179316255
 11
224.9303597747
 21
67.2673350627
  0
LINE
  5
5C8
100
AcDbEntity
  8
0
100
AcDbLine
 62
7
  6
CONTINUOUS
 10
224.0226270801
 20
62.7301003007
 11
224.2581554536
 21
63.3179316255
  0
ARC
  5
5C9
100
AcDbEntity
  8
02___PRT_ALL_AXES
100
AcDbCircle
 62
7
  6
CONTINUOUS
 10
224.9787395764
 20
137.627846607
 40
35.7465466859
100
AcDbArc
 50
96.5060132377
 51
172.738710734
  0
ARC
  5
5CA
100
AcDbEntity
  8
02___PRT_ALL_AXES
100
AcDbCircle
 62
7
  6
CONTINUOUS
 10
187.2943484053
 20
115.6790810624
 40
4.9986825977
100
AcDbArc
 50
98.7291856998
 51
183.2159464823
  0
ARC
  5
5CB
100
AcDbEntity
  8
0
100
AcDbCircle
 62
7
  6
CONTINUOUS
 10
257.898439125
 20
111.6690172928
 40
4.9986312359
100
AcDbArc
 50
98.7286510622
 51
183.21648112
  0
ARC
  5
5CC
100
AcDbEntity
  8
02___PRT_ALL_AXES
100
AcDbCircle
 62
7
  6
CONTINUOUS
 10
178.2198771811
 20
122.1749412671
 40
0.750386949
100
AcDbArc
 50
112.9963372562
 51
182.9082600963
  0
ARC
  5
5CD
100
AcDbEntity
  8
02___PRT_ALL_AXES
100
AcDbCircle
 62
7
  6
CONTINUOUS
 10
123.6770683111
 20
95.817481523
 40
71.56
100
AcDbArc
 50
93.5303084241
 51
169.7804427301
  0
ARC
  5
5CE
100
AcDbEntity
  8
02___PRT_ALL_AXES
100
AcDbCircle
 62
7
  6
CONTINUOUS
 10
123.6770683111
 20
95.817481523
 40
61.5603030303
100
AcDbArc
 50
90.0
 51
180.0
  0
ARC
  5
5CF
100
AcDbEntity
  8
02___PRT_ALL_AXES
100
AcDbCircle
 62
7
  6
CONTINUOUS
 10
46.1166397144
 20
55.8675945329
 40
10.0
100
AcDbArc
 50
95.7384474104
 51
180.287127598
  0
ARC
  5
5D0
100
AcDbEntity
  8
02___PRT_ALL_AXES
100
AcDbCircle
 62
7
  6
CONTINUOUS
 10
48.1167652808
 20
89.5894833957
 40
8.0
100
AcDbArc
 50
137.7867300419
 51
180.0
  0
ARC
  5
5D1
100
AcDbEntity
  8
02___PRT_ALL_AXES
100
AcDbCircle
 62
7
  6
CONTINUOUS
 10
29.8802360043
 20
78.2083692445
 40
6.0
100
AcDbArc
 50
290.0
 51
315.0
  0
ARC
  5
5D2
100
AcDbEntity
  8
02___PRT_ALL_AXES
100
AcDbCircle
 62
7
  6
CONTINUOUS
 10
47.3475495867
 20
109.578229006
 40
6.0
100
AcDbArc
 50
317.786730042
 51
349.7804427301
  0
ARC
  5
5D3
100
AcDbEntity
  8
02___PRT_ALL_AXES
100
AcDbCircle
 62
7
  6
CONTINUOUS
 10
119.0243459988
 20
171.2340962381
 40
4.0
100
AcDbArc
 50
273.5303084241
 51
325.0
  0
ARC
  5
5D4
100
AcDbEntity
  8
02___PRT_ALL_AXES
100
AcDbCircle
 62
7
  6
CONTINUOUS
 10
36.1167652808
 20
81.6164713962
 40
4.0
100
AcDbArc
 50
315.0
 51
360.0
  0
ARC
  5
5D5
100
AcDbEntity
  8
02___PRT_ALL_AXES
100
AcDbCircle
 62
7
  6
CONTINUOUS
 10
28.6167652808
 20
69.7671702157
 40
1.5
100
AcDbArc
 50
110.0
 51
180.0
  0
ARC
  5
5D6
100
AcDbEntity
  8
02___PRT_ALL_AXES
100
AcDbCircle
 62
7
  6
CONTINUOUS
 10
127.8976158567
 20
174.317481523
 40
1.5
100
AcDbArc
 50
90.0
 51
145.0
  0
SPLINE
  5
5D7
100
AcDbEntity
  8
0
100
AcDbSpline
 62
7
  6
CONTINUOUS
 70
0
 71
3
 72
11
 73
7
 74
0
 42
0.0000001
 43
0.0000001
 44
0.0000000001
 40
0.0
 40
0.0
 40
0.0
 40
0.0
 40
0.249717485
 40
0.4996000918
 40
0.7497169036
 40
1.0
 40
1.0
 40
1.0
 40
1.0
 10
293.9751603439
 20
164.3180313313
 30
0.0
 10
289.98586137
 20
164.1154586908
 30
0.0
 10
281.9984343332
 20
162.10412178
 30
0.0
 10
272.1509990744
 20
154.7429592789
 30
0.0
 10
265.8433062324
 20
144.1803251262
 30
0.0
 10
264.654331892
 20
136.0188700125
 30
0.0
 10
264.8552307417
 20
132.0204275342
 30
0.0
  0
SPLINE
  5
5D8
100
AcDbEntity
  8
0
100
AcDbSpline
 62
7
  6
CONTINUOUS
 70
0
 71
3
 72
9
 73
5
 74
0
 42
0.0000001
 43
0.0000001
 44
0.0000000001
 40
0.0
 40
0.0
 40
0.0
 40
0.0
 40
0.2240599034
 40
1.0
 40
1.0
 40
1.0
 40
1.0
 10
296.1154181211
 20
165.8483484447
 30
0.0
 10
296.225238785
 20
165.8680043142
 30
0.0
 10
296.720507135
 20
165.9224979529
 30
0.0
 10
297.2211996447
 20
165.9386739457
 30
0.0
 10
297.5997008266
 20
166.0162174527
 30
0.0
  0
SPLINE
  5
5D9
100
AcDbEntity
  8
0
100
AcDbSpline
 62
7
  6
CONTINUOUS
 70
0
 71
3
 72
13
 73
9
 74
0
 42
0.0000001
 43
0.0000001
 44
0.0000000001
 40
0.0
 40
0.0
 40
0.0
 40
0.0
 40
0.1271546419
 40
0.2494540103
 40
0.3755727611
 40
0.502515513
 40
0.7500049102
 40
1.0
 40
1.0
 40
1.0
 40
1.0
 10
297.5997008266
 20
166.0162174527
 30
0.0
 10
297.844842008
 20
166.0664395069
 30
0.0
 10
298.3226739196
 20
166.2110870076
 30
0.0
 10
298.9216404117
 20
166.6708491228
 30
0.0
 10
299.3499956307
 20
167.2767292944
 30
0.0
 10
299.9321675895
 20
168.0688956107
 30
0.0
 10
300.9532102869
 20
168.8470329854
 30
0.0
 10
301.9586071114
 20
168.9637616754
 30
0.0
 10
302.4504849729
 20
168.9735637737
 30
0.0
  0
SPLINE
  5
5DA
100
AcDbEntity
  8
02___PRT_ALL_AXES
100
AcDbSpline
 62
7
  6
CONTINUOUS
 70
0
 71
3
 72
8
 73
4
 74
0
 42
0.0000001
 43
0.0000001
 44
0.0000000001
 40
0.0
 40
0.0
 40
0.0
 40
0.0
 40
1.0
 40
1.0
 40
1.0
 40
1.0
 10
183.1361098581
 20
126.9406836325
 30
0.0
 10
183.4777152258
 20
127.3195662387
 30
0.0
 10
183.6743295075
 20
127.8732082437
 30
0.0
 10
183.6487300155
 20
128.3827089036
 30
0.0
  0
SPLINE
  5
5DB
100
AcDbEntity
  8
02___PRT_ALL_AXES
100
AcDbSpline
 62
7
  6
CONTINUOUS
 70
0
 71
3
 72
8
 73
4
 74
0
 42
0.0000001
 43
0.0000001
 44
0.0000000001
 40
0.0
 40
0.0
 40
0.0
 40
0.0
 40
1.0
 40
1.0
 40
1.0
 40
1.0
 10
220.9286054094
 20
173.1422790954
 30
0.0
 10
221.5029319569
 20
173.2071645765
 30
0.0
 10
222.0887658646
 20
173.5769858411
 30
0.0
 10
222.3954566756
 20
174.0668856832
 30
0.0
  0
SPLINE
  5
5DC
100
AcDbEntity
  8
02___PRT_ALL_AXES
100
AcDbSpline
 62
7
  6
CONTINUOUS
 70
0
 71
3
 72
8
 73
4
 74
0
 42
0.0000001
 43
0.0000001
 44
0.0000000001
 40
0.0
 40
0.0
 40
0.0
 40
0.0
 40
1.0
 40
1.0
 40
1.0
 40
1.0
 10
188.8637210266
 20
140.6277948996
 30
0.0
 10
189.2123706749
 20
141.0544703706
 30
0.0
 10
189.4468139902
 20
141.5997316455
 30
0.0
 10
189.5169968316
 20
142.1462505414
 30
0.0
  0
SPLINE
  5
5DD
100
AcDbEntity
  8
02___PRT_ALL_AXES
100
AcDbSpline
 62
7
  6
CONTINUOUS
 70
0
 71
3
 72
8
 73
4
 74
0
 42
0.0000001
 43
0.0000001
 44
0.0000000001
 40
0.0
 40
0.0
 40
0.0
 40
0.0
 40
1.0
 40
1.0
 40
1.0
 40
1.0
 10
179.7988750014
 20
123.6583907448
 30
0.0
 10
180.1968858222
 20
123.8269141051
 30
0.0
 10
180.5655804383
 20
124.089648555
 30
0.0
 10
180.8550051981
 20
124.4106564128
 30
0.0
  0
SPLINE
  5
5DE
100
AcDbEntity
  8
02___PRT_ALL_AXES
100
AcDbSpline
 62
7
  6
CONTINUOUS
 70
0
 71
3
 72
8
 73
4
 74
0
 42
0.0000001
 43
0.0000001
 44
0.0000000001
 40
0.0
 40
0.0
 40
0.0
 40
0.0
 40
1.0
 40
1.0
 40
1.0
 40
1.0
 10
183.4486889811
 20
132.3640784851
 30
0.0
 10
183.4005092492
 20
133.3229883389
 30
0.0
 10
183.7398171841
 20
134.3571903085
 30
0.0
 10
184.3473329033
 20
135.1006646155
 30
0.0
  0
SPLINE
  5
5DF
100
AcDbEntity
  8
02___PRT_ALL_AXES
100
AcDbSpline
 62
7
  6
CONTINUOUS
 70
0
 71
3
 72
8
 73
4
 74
0
 42
0.0000001
 43
0.0000001
 44
0.0000000001
 40
0.0
 40
0.0
 40
0.0
 40
0.0
 40
1.0
 40
1.0
 40
1.0
 40
1.0
 10
224.4147036002
 20
177.2923776569
 30
0.0
 10
224.5369988108
 20
177.4877288126
 30
0.0
 10
224.7805329471
 20
177.631174628
 30
0.0
 10
225.0107102249
 20
177.6428628016
 30
0.0
  0
SPLINE
  5
5E0
100
AcDbEntity
  8
02___PRT_ALL_AXES
100
AcDbSpline
 62
7
  6
CONTINUOUS
 70
0
 71
3
 72
11
 73
7
 74
0
 42
0.0000001
 43
0.0000001
 44
0.0000000001
 40
0.0
 40
0.0
 40
0.0
 40
0.0
 40
0.2496991101
 40
0.4996000931
 40
0.7497353121
 40
1.0
 40
1.0
 40
1.0
 40
1.0
 10
223.3710157264
 20
168.3281387893
 30
0.0
 10
219.3820083753
 20
168.1255809571
 30
0.0
 10
211.39456872
 20
166.1144252474
 30
0.0
 10
201.5467823187
 20
158.7531309319
 30
0.0
 10
195.238995542
 20
148.1901345902
 30
0.0
 10
194.0502019539
 20
140.0286853072
 30
0.0
 10
194.2510861241
 20
136.0305349921
 30
0.0
  0
SPLINE
  5
5E1
100
AcDbEntity
  8
02___PRT_ALL_AXES
100
AcDbSpline
 62
7
  6
CONTINUOUS
 70
0
 71
3
 72
13
 73
9
 74
0
 42
0.0000001
 43
0.0000001
 44
0.0000000001
 40
0.0
 40
0.0
 40
0.0
 40
0.0
 40
0.2520515333
 40
0.3751689769
 40
0.5004965685
 40
0.6270658579
 40
0.7511284833
 40
1.0
 40
1.0
 40
1.0
 40
1.0
 10
225.5112735036
 20
169.8584559027
 30
0.0
 10
226.1226453843
 20
169.9678801721
 30
0.0
 10
227.0776927448
 20
169.907540251
 30
0.0
 10
228.2039568604
 20
170.5201969939
 30
0.0
 10
228.7422771504
 20
171.2854535517
 30
0.0
 10
229.2957339249
 20
172.0272484173
 30
0.0
 10
230.2715164691
 20
172.8157876298
 30
0.0
 10
231.2332109041
 20
172.9714528425
 30
0.0
 10
231.8463403553
 20
172.9836712317
 30
0.0
  0
SPLINE
  5
5E2
100
AcDbEntity
  8
02___PRT_ALL_AXES
100
AcDbSpline
 62
7
  6
CONTINUOUS
 70
0
 71
3
 72
13
 73
9
 74
0
 42
0.0000001
 43
0.0000001
 44
0.0000000001
 40
0.0
 40
0.0
 40
0.0
 40
0.0
 40
0.1847296691
 40
0.3590039812
 40
0.5226035348
 40
0.6967819623
 40
0.8442574954
 40
1.0
 40
1.0
 40
1.0
 40
1.0
 10
128.1167652808
 20
160.217481523
 30
0.0
 10
128.8713428601
 20
160.3131209397
 30
0.0
 10
130.854353753
 20
160.2005341199
 30
0.0
 10
133.4001882556
 20
160.9744673298
 30
0.0
 10
134.9502657803
 20
163.0673224113
 30
0.0
 10
136.5910766038
 20
164.8513401583
 30
0.0
 10
138.8191302786
 20
165.773376247
 30
0.0
 10
140.3845627066
 20
165.8399923664
 30
0.0
 10
141.1167652808
 20
165.817481523
 30
0.0
  0
ENDSEC
  0
SECTION
  2
OBJECTS
  0
DICTIONARY
  5
C
100
AcDbDictionary
280
0
281
1
  3
ACAD_GROUP
350
D
  3
ACAD_MLINESTYLE
350
17
  3
ACAD_LAYOUT
350
1A
  3
ACAD_PLOTSETTINGS
350
19
  3
ACAD_PLOTSTYLENAME
350
E
  3
ACAD_TABLESTYLE
350
       5E3
  0
DICTIONARY
  5
D
102
{ACAD_REACTORS
330
C
102
}
100
AcDbDictionary
280
0
281
1
  0
ACDBDICTIONARYWDFLT
  5
E
102
{ACAD_REACTORS
330
C
102
}
100
AcDbDictionary
281
1
  3
Normal
350
F
100
AcDbDictionaryWithDefault
340
F
  0
DICTIONARY
  5
17
102
{ACAD_REACTORS
330
C
102
}
100
AcDbDictionary
280
0
281
1
  3
Standard
350
18
  0
DICTIONARY
  5
5E3
330
C
100
AcDbDictionary
281
1
  3
Standard
350
       5E6
  3
Standard1
350
       5E7
  0
DICTIONARY
  5
19
102
{ACAD_REACTORS
330
C
102
}
100
AcDbDictionary
281
1
  0
DICTIONARY
  5
1A
102
{ACAD_REACTORS
330
C
102
}
100
AcDbDictionary
281
1
  3
Model
350
5E4
  3
Layout1
350
5E5
  0
ACDBPLACEHOLDER
  5
F
102
{ACAD_REACTORS
330
E
102
}
  0
MLINESTYLE
  5
18
102
{ACAD_REACTORS
330
17
102
}
100
AcDbMlineStyle
  2
STANDARD
 70
0
  3

 62
256
 51
90.0
 52
90.0
 71
2
 49
0.5
 62
256
  6
BYLAYER
 49
-0.5
 62
256
  6
BYLAYER
  0
LAYOUT
  5
5E4
102
{ACAD_REACTORS
330
1A
102
}
100
AcDbPlotSettings
  1

  2
none_device
  4
ISO_A4_(297.00_x_210.00_MM)
  6

 40
0.0
 41
0.0
 42
0.0
 43
0.0
 44
297.0
 45
210.0
 46
0.0
 47
0.0
 48
0.0
 49
0.0
140
0.0
141
0.0
142
1.0
143
1.0
 70
1024
 72
1
 73
0
 74
0
  7

 75
0
147
1.0
148
0.0
149
0.0
100
AcDbLayout
  1
Model
 70
0
 71
0
 10
0.0
 20
0.0
 11
297.0
 21
210.0
 12
0.0
 22
0.0
 32
0.0
 14
0.0
 24
0.0
 34
0.0
 15
0.0
 25
0.0
 35
0.0
146
0.0
 13
0.0
 23
0.0
 33
0.0
 16
1.0
 26
0.0
 36
0.0
 17
0.0
 27
1.0
 37
0.0
 76
0
330
20C
345
0
346
0
  0
LAYOUT
  5
5E5
102
{ACAD_REACTORS
330
1A
102
}
100
AcDbPlotSettings
  1

  2
none_device
  4
ISO_A4_(297.00_x_210.00_MM)
  6

 40
0.0
 41
0.0
 42
0.0
 43
0.0
 44
297.0
 45
210.0
 46
0.0
 47
0.0
 48
0.0
 49
0.0
140
0.0
141
0.0
142
1.0
143
1.0
 70
0
 72
1
 73
0
 74
0
  7

 75
0
147
1.0
148
0.0
149
0.0
100
AcDbLayout
  1
Layout1
 70
0
 71
1
 10
0.0
 20
0.0
 11
297.0
 21
210.0
 12
0.0
 22
0.0
 32
0.0
 14
0.0
 24
0.0
 34
0.0
 15
0.0
 25
0.0
 35
0.0
146
0.0
 13
0.0
 23
0.0
 33
0.0
 16
1.0
 26
0.0
 36
0.0
 17
0.0
 27
1.0
 37
0.0
 76
0
330
20D
345
0
346
0
  0
TABLESTYLE
  5
5E6
102
{ACAD_REACTORS
330
5E3
330
288
102
}
330
5E3
100
AcDbTableStyle
  3
Standard
 70
0
 71
0
 40
0.06
 41
0.06
280
1
281
1
  7
Standard
140
0.18
170
1
 62
0
 63
7
283
0
  7
Standard
140
0.18
170
1
 62
0
 63
7
283
0
  7
Standard
140
0.18
170
1
 62
0
 63
7
283
0
  0
TABLESTYLE
  5
5E7
102
{ACAD_REACTORS
330
5E3
102
}
330
5E3
100
AcDbTableStyle
  3
Standard1
 70
1
 71
0
 40
0.06
 41
0.06
280
1
281
1
  7
Standard
140
0.18
170
1
 62
0
 63
7
283
0
  7
Standard
140
0.18
170
1
 62
0
 63
7
283
0
  7
Standard
140
0.18
170
1
 62
0
 63
7
283
0
  0
ENDSEC
  0
EOF
