999
DXF file: O:\ORAC_PRODUCTEN\ORAC_XPS\CX\CX106\cx106_xps-prod-mm.dxf
999
Pro/ENGINEER 2013050 by Parametric Technology Corporation
  0
SECTION
  2
HEADER
  9
$ACADVER
  1
AC1024
  9
$DWGCODEPAGE
  3
ANSI_1252
  9
$EXTMAX
 10
297.0
 20
210.0
 30
0.0
  9
$EXTMIN
 10
0.0
 20
0.0
 30
0.0
  9
$LIMMIN
 10
0.0
 20
0.0
  9
$LIMMAX
 10
297.0
 20
210.0
  9
$VIEWCTR
 10
148.5
 20
105.0
  9
$VIEWSIZE
 40
210.0
  9
$CLAYER
  8
0
  9
$LTSCALE
 40
16.335
  9
$CELTYPE
  6
BYLAYER
  9
$DIMSCALE
 40
1.0
  9
$DIMASZ
 40
3.5
  9
$DIMEXO
 40
1.0
  9
$DIMDLI
 40
11.286
  9
$DIMEXE
 40
1.5
  9
$DIMCEN
 40
2.673
  9
$DIMLFAC
 40
1.0
  9
$DIMBLK
  1
_FILLED
  9
$DIMTXT
 40
2.5
  9
$DIMTOL
 70
1
  9
$DIMLIM
 70
0
  9
$DIMTFAC
 40
1.0
  9
$DIMTP
 40
0.001
  9
$DIMTM
 40
0.001
  9
$DIMGAP
 40
0.625
  9
$DIMDSEP
 70
44
  9
$PDMODE
 70
3
  9
$PDSIZE
 40
8.0
  9
$HANDSEED
  5
2D8
  9
$TILEMODE
 70
1
  9
$MEASUREMENT
 70
1
  9
$INSUNITS
 70
4
  0
ENDSEC
  0
SECTION
  2
CLASSES
  0
CLASS
  1
ACDBDICTIONARYWDFLT
  2
AcDbDictionaryWithDefault
  3
AutoCAD 2000
 90
0
 91
1
280
0
281
0
  0
CLASS
  1
ACDBPLACEHOLDER
  2
AcDbPlaceHolder
  3
AutoCAD 2000
 90
0
 91
1
280
0
281
0
  0
CLASS
  1
LAYOUT
  2
AcDbLayout
  3
AutoCAD 2000
 90
0
 91
0
280
0
281
0
  0
CLASS
  1
TABLESTYLE
  2
AcDbTableStyle
  3
ObjectDBX Classes
 90
2047
 91
1
280
0
281
0
  0
CLASS
  1
ACAD_TABLE
  2
AcDbTable
  3
ObjectDBX Classes
 90
1025
 91
1
280
0
281
1
  0
ENDSEC
  0
SECTION
  2
TABLES
  0
TABLE
  2
VPORT
  5
8
100
AcDbSymbolTable
 70
2
  0
VPORT
  5
1F4
100
AcDbSymbolTableRecord
100
AcDbViewportTableRecord
  2
*ACTIVE
 70
0
 10
0.0
 20
0.0
 11
1.0
 21
1.0
 12
148.5
 22
105.0
 13
0.0
 23
0.0
 14
1.0
 24
1.0
 15
0.0
 25
0.0
 16
0.0
 26
0.0
 36
1.0
 17
0.0
 27
0.0
 37
0.0
 40
210.0
 41
1.4142857143
 42
50.0
 43
0.0
 44
0.0
 50
0.0
 51
0.0
 71
0
 72
100
 73
1
 74
1
 75
0
 76
0
 77
0
 78
0
  0
ENDTAB
  0
TABLE
  2
LTYPE
  5
5
100
AcDbSymbolTable
 70
6
  0
LTYPE
  5
14
100
AcDbSymbolTableRecord
100
AcDbLinetypeTableRecord
  2
BYBLOCK
 70
0
  3

 72
65
 73
0
 40
0.0
  0
LTYPE
  5
15
100
AcDbSymbolTableRecord
100
AcDbLinetypeTableRecord
  2
BYLAYER
 70
0
  3

 72
65
 73
0
 40
0.0
  0
LTYPE
  5
16
100
AcDbSymbolTableRecord
100
AcDbLinetypeTableRecord
  2
CONTINUOUS
 70
64
  3
Solid line
 72
65
 73
0
 40
0.0
  0
LTYPE
  5
1F5
100
AcDbSymbolTableRecord
100
AcDbLinetypeTableRecord
  2
CENTER
 70
64
  3
____ _ ____ _ ____ _ ____ _ ____ _ ____ _ ____
 72
65
 73
4
 40
0.6
 49
0.375
 74
0
 49
-0.075
 74
0
 49
0.075
 74
0
 49
-0.075
 74
0
  0
LTYPE
  5
1F6
100
AcDbSymbolTableRecord
100
AcDbLinetypeTableRecord
  2
HIDDEN
 70
64
  3
- - - - - - - - - - - - - - - - - - - -
 72
65
 73
2
 40
0.2
 49
0.1
 74
0
 49
-0.1
 74
0
  0
LTYPE
  5
1F7
100
AcDbSymbolTableRecord
100
AcDbLinetypeTableRecord
  2
PHANTOM
 70
64
  3
_____ _ _ _____ _ _ _____ _ _ _____
 72
65
 73
6
 40
0.8
 49
0.45
 74
0
 49
-0.05
 74
0
 49
0.1
 74
0
 49
-0.05
 74
0
 49
0.1
 74
0
 49
-0.05
 74
0
  0
LTYPE
  5
1F8
100
AcDbSymbolTableRecord
100
AcDbLinetypeTableRecord
  2
DOT
 70
64
  3
. . . . . . . . . . . . . . . . . . . .
 72
65
 73
2
 40
0.2
 49
0.1
 74
0
 49
-0.1
 74
0
  0
LTYPE
  5
1F9
100
AcDbSymbolTableRecord
100
AcDbLinetypeTableRecord
  2
DASHED
 70
64
  3
- - - - - - - - - - - - - - - - - - - -
 72
65
 73
2
 40
0.2
 49
0.1
 74
0
 49
-0.1
 74
0
  0
ENDTAB
  0
TABLE
  2
LAYER
  5
2
100
AcDbSymbolTable
 70
36
  0
LAYER
  5
10
100
AcDbSymbolTableRecord
100
AcDbLayerTableRecord
  2
0
 70
0
 62
7
  6
CONTINUOUS
370
-3
390
F
  0
LAYER
  5
1FA
100
AcDbSymbolTableRecord
100
AcDbLayerTableRecord
  2
DEFAULT_1
 70
0
 62
7
  6
CENTER
370
-3
390
F
  0
LAYER
  5
1FB
100
AcDbSymbolTableRecord
100
AcDbLayerTableRecord
  2
DEFAULT_2
 70
0
 62
8
  6
HIDDEN
370
-3
390
F
  0
LAYER
  5
1FC
100
AcDbSymbolTableRecord
100
AcDbLayerTableRecord
  2
DEFAULT_3
 70
0
 62
7
  6
PHANTOM
370
-3
390
F
  0
LAYER
  5
1FD
100
AcDbSymbolTableRecord
100
AcDbLayerTableRecord
  2
01___PRT_ALL_DTM_PLN
 70
0
 62
7
  6
CONTINUOUS
370
-3
390
F
  0
LAYER
  5
1FE
100
AcDbSymbolTableRecord
100
AcDbLayerTableRecord
  2
01___PRT_DEF_DTM_PLN
 70
0
 62
7
  6
CONTINUOUS
370
-3
390
F
  0
LAYER
  5
1FF
100
AcDbSymbolTableRecord
100
AcDbLayerTableRecord
  2
02___PRT_ALL_AXES
 70
0
 62
7
  6
CONTINUOUS
370
-3
390
F
  0
LAYER
  5
200
100
AcDbSymbolTableRecord
100
AcDbLayerTableRecord
  2
03___PRT_ALL_CURVES
 70
0
 62
7
  6
CONTINUOUS
370
-3
390
F
  0
LAYER
  5
201
100
AcDbSymbolTableRecord
100
AcDbLayerTableRecord
  2
04___PRT_ALL_DTM_PNT
 70
0
 62
7
  6
CONTINUOUS
370
-3
390
F
  0
LAYER
  5
202
100
AcDbSymbolTableRecord
100
AcDbLayerTableRecord
  2
05___PRT_ALL_DTM_CSYS
 70
0
 62
7
  6
CONTINUOUS
370
-3
390
F
  0
LAYER
  5
203
100
AcDbSymbolTableRecord
100
AcDbLayerTableRecord
  2
05___PRT_DEF_DTM_CSYS
 70
0
 62
7
  6
CONTINUOUS
370
-3
390
F
  0
LAYER
  5
204
100
AcDbSymbolTableRecord
100
AcDbLayerTableRecord
  2
06___PRT_ALL_SURFS
 70
0
 62
7
  6
CONTINUOUS
370
-3
390
F
  0
LAYER
  5
205
100
AcDbSymbolTableRecord
100
AcDbLayerTableRecord
  2
AXES
 70
0
 62
7
  6
CONTINUOUS
370
-3
390
F
  0
LAYER
  5
206
100
AcDbSymbolTableRecord
100
AcDbLayerTableRecord
  2
DTM_ALL
 70
0
 62
7
  6
CONTINUOUS
370
-3
390
F
  0
LAYER
  5
207
100
AcDbSymbolTableRecord
100
AcDbLayerTableRecord
  2
DTM_AXIS
 70
0
 62
7
  6
CONTINUOUS
370
-3
390
F
  0
LAYER
  5
208
100
AcDbSymbolTableRecord
100
AcDbLayerTableRecord
  2
DTM_CSYS
 70
0
 62
7
  6
CONTINUOUS
370
-3
390
F
  0
LAYER
  5
209
100
AcDbSymbolTableRecord
100
AcDbLayerTableRecord
  2
DTM_CURVE
 70
0
 62
7
  6
CONTINUOUS
370
-3
390
F
  0
LAYER
  5
20A
100
AcDbSymbolTableRecord
100
AcDbLayerTableRecord
  2
DTM_MASTER
 70
0
 62
7
  6
CONTINUOUS
370
-3
390
F
  0
LAYER
  5
20B
100
AcDbSymbolTableRecord
100
AcDbLayerTableRecord
  2
DTM_POINT
 70
0
 62
7
  6
CONTINUOUS
370
-3
390
F
  0
LAYER
  5
20C
100
AcDbSymbolTableRecord
100
AcDbLayerTableRecord
  2
DTM_QUILT
 70
0
 62
7
  6
CONTINUOUS
370
-3
390
F
  0
LAYER
  5
20D
100
AcDbSymbolTableRecord
100
AcDbLayerTableRecord
  2
GTOL
 70
0
 62
7
  6
CONTINUOUS
370
-3
390
F
  0
LAYER
  5
20E
100
AcDbSymbolTableRecord
100
AcDbLayerTableRecord
  2
NOTES
 70
0
 62
7
  6
CONTINUOUS
370
-3
390
F
  0
LAYER
  5
20F
100
AcDbSymbolTableRecord
100
AcDbLayerTableRecord
  2
REF_PLANS
 70
0
 62
7
  6
CONTINUOUS
370
-3
390
F
  0
ENDTAB
  0
TABLE
  2
STYLE
  5
3
100
AcDbSymbolTable
 70
1
  0
STYLE
  5
11
100
AcDbSymbolTableRecord
100
AcDbTextStyleTableRecord
  2
STANDARD
 70
0
 40
0.0
 41
1.0
 50
0.0
 71
0
 42
0.2
  3
cgtime.ttf
  4

  0
STYLE
  5
210
100
AcDbSymbolTableRecord
100
AcDbTextStyleTableRecord
  2
TEXTSTYLE_1
 70
0
 40
0.0
 41
0.8
 50
0.0
 71
0
 42
0.2
  3
gdt
  4

  0
STYLE
  5
211
100
AcDbSymbolTableRecord
100
AcDbTextStyleTableRecord
  2
TEXTSTYLE_2
 70
0
 40
0.0
 41
1.0
 50
0.0
 71
0
 42
0.2
  3
trium.ttf
  4

  0
STYLE
  5
212
100
AcDbSymbolTableRecord
100
AcDbTextStyleTableRecord
  2
TEXTSTYLE_3
 70
0
 40
0.0
 41
1.0
 50
0.0
 71
0
 42
0.2
  3
calibri.ttf
  4

  0
ENDTAB
  0
TABLE
  2
VIEW
  5
6
100
AcDbSymbolTable
 70
0
  0
ENDTAB
  0
TABLE
  2
UCS
  5
7
100
AcDbSymbolTable
 70
0
  0
ENDTAB
  0
TABLE
  2
APPID
  5
9
100
AcDbSymbolTable
 70
1
  0
APPID
  5
213
100
AcDbSymbolTableRecord
100
AcDbRegAppTableRecord
  2
ACAD
 70
0
  0
ENDTAB
  0
TABLE
  2
BLOCK_RECORD
  5
1
100
AcDbSymbolTable
 70
0
  0
BLOCK_RECORD
  5
214
100
AcDbSymbolTableRecord
100
AcDbBlockTableRecord
  2
*Model_Space
  0
BLOCK_RECORD
  5
215
100
AcDbSymbolTableRecord
100
AcDbBlockTableRecord
  2
*Paper_Space
  0
BLOCK_RECORD
  5
216
100
AcDbSymbolTableRecord
100
AcDbBlockTableRecord
  2
_FILLED
  0
BLOCK_RECORD
  5
217
100
AcDbSymbolTableRecord
100
AcDbBlockTableRecord
  2
*D0
  0
BLOCK_RECORD
  5
218
100
AcDbSymbolTableRecord
100
AcDbBlockTableRecord
  2
*D1
  0
BLOCK_RECORD
  5
219
100
AcDbSymbolTableRecord
100
AcDbBlockTableRecord
  2
*D2
  0
BLOCK_RECORD
  5
21A
100
AcDbSymbolTableRecord
100
AcDbBlockTableRecord
  2
*T1
  0
ENDTAB
  0
TABLE
  2
DIMSTYLE
  5
A
100
AcDbSymbolTable
 70
1
100
AcDbDimStyleTable
 71
0
  0
DIMSTYLE
105
21B
100
AcDbSymbolTableRecord
100
AcDbDimStyleTableRecord
  2
STANDARD
 70
0
  3

  4

 40
1.0
 41
3.5
 42
1.0
 43
0.38
 44
1.5
 45
0.0
 46
0.0
 47
0.001
 48
0.001
140
2.5
141
0.09
142
0.0
143
25.4
144
1.0
145
0.0
146
1.0
147
0.625
 71
1.0
 72
0.0
 73
1
 74
1
 75
0
 76
0
 77
0
 78
8
170
0
171
2
172
0
173
0
174
0
175
0
176
0
177
0
178
0
270
2
271
3
272
3
273
2
274
2
275
0
280
0
281
0
282
0
283
1
284
8
285
0
286
0
287
3
288
0
340
11
278
44
341
216
342
216
343
216
344
216
  0
DIMSTYLE
105
21C
100
AcDbSymbolTableRecord
100
AcDbDimStyleTableRecord
  2
DIMSTYLE_1
 70
0
  3

  4

 40
1.0
 41
3.5
 42
1.0
 43
0.38
 44
1.5
 45
0.0
 46
0.0
 47
0.0
 48
0.0
140
2.5
141
0.09
142
0.0
143
25.4
144
1.0
145
0.0
146
1.0
147
1.25
 71
0.0
 72
0.0
 73
1
 74
1
 75
0
 76
0
 77
0
 78
8
170
0
171
2
172
0
173
0
174
0
175
0
176
0
177
0
178
0
270
2
271
1
272
1
273
2
274
2
275
0
280
0
281
0
282
0
283
1
284
8
285
0
286
0
287
3
288
0
340
11
278
44
341
216
342
216
343
216
344
216
  0
DIMSTYLE
105
21D
100
AcDbSymbolTableRecord
100
AcDbDimStyleTableRecord
  2
DIMSTYLE_2
 70
0
  3

  4

 40
1.0
 41
3.5
 42
1.0
 43
0.38
 44
1.5
 45
0.0
 46
0.0
 47
0.0
 48
0.0
140
2.5
141
0.09
142
0.0
143
25.4
144
1.0
145
0.0
146
1.0
147
1.25
 71
0.0
 72
0.0
 73
1
 74
1
 75
0
 76
0
 77
0
 78
8
170
0
171
2
172
0
173
0
174
0
175
0
176
0
177
0
178
0
270
2
271
3
272
3
273
2
274
2
275
0
280
0
281
0
282
0
283
1
284
8
285
0
286
0
287
3
288
0
340
11
278
44
341
216
342
216
343
216
344
216
  0
ENDTAB
  0
ENDSEC
  0
SECTION
  2
BLOCKS
  0
BLOCK
  5
20
100
AcDbEntity
  8
0
100
AcDbBlockBegin
  2
*Model_Space
 70
0
 10
0.0
 20
0.0
 30
0.0
  3
*Model_Space
  1

  0
ENDBLK
  5
21
100
AcDbEntity
  8
0
100
AcDbBlockEnd
  0
BLOCK
  5
1C
100
AcDbEntity
  8
0
100
AcDbBlockBegin
  2
*Paper_Space
 70
0
 10
0.0
 20
0.0
 30
0.0
  3
*Paper_Space
  1

  0
ENDBLK
  5
1D
100
AcDbEntity
  8
0
100
AcDbBlockEnd
  0
BLOCK
  5
21E
100
AcDbEntity
  8
0
100
AcDbBlockBegin
  2
_FILLED
 70
64
 10
0.0
 20
0.0
  3
_FILLED
  1

  0
SOLID
  5
21F
100
AcDbEntity
  8
0
  6
BYBLOCK
 62
0
100
AcDbTrace
 10
0.0
 20
0.0
 11
-1.0
 21
0.2142857143
 12
-1.0
 22
-0.2142857143
 13
-1.0
 23
-0.2142857143
  0
ENDBLK
  5
220
100
AcDbEntity
  8
0
  6
BYBLOCK
 62
0
100
AcDbBlockEnd
  0
BLOCK
  5
221
100
AcDbEntity
  8
0
100
AcDbBlockBegin
 62
2
  6
CONTINUOUS
  2
*D0
 70
65
 10
0.0
 20
0.0
  3
*D0
  1

  0
TEXT
  5
222
100
AcDbEntity
  8
0
100
AcDbText
 62
2
  6
CONTINUOUS
 10
88.2883666965
 20
172.766508328
  7
STANDARD
 40
2.5
  1
118
 72
5
 11
93.7455651401
 21
172.766508328
100
AcDbText
  0
LINE
  5
223
100
AcDbEntity
  8
0
100
AcDbLine
 62
2
  6
CONTINUOUS
 10
32.0369659183
 20
62.4029271639
 11
32.0369659183
 21
175.516508328
  0
LINE
  5
224
100
AcDbEntity
  8
0
100
AcDbLine
 62
2
  6
CONTINUOUS
 10
149.9969659183
 20
166.650383179
 11
149.9969659183
 21
175.516508328
  0
LINE
  5
225
100
AcDbEntity
  8
0
100
AcDbLine
 62
2
  6
CONTINUOUS
 10
32.0369659183
 20
174.016508328
 11
87.0383666965
 21
174.016508328
  0
LINE
  5
226
100
AcDbEntity
  8
0
100
AcDbLine
 62
2
  6
CONTINUOUS
 10
149.9969659183
 20
174.016508328
 11
94.9955651401
 21
174.016508328
  0
INSERT
  5
227
100
AcDbEntity
  8
0
100
AcDbBlockReference
 62
2
  6
CONTINUOUS
  2
_FILLED
 10
32.0369659183
 20
174.016508328
 41
3.5
 42
3.5
 43
3.5
 50
180.0
  0
INSERT
  5
228
100
AcDbEntity
  8
0
100
AcDbBlockReference
 62
2
  6
CONTINUOUS
  2
_FILLED
 10
149.9969659183
 20
174.016508328
 41
3.5
 42
3.5
 43
3.5
  0
ENDBLK
  5
229
100
AcDbEntity
  8
0
  6
BYBLOCK
 62
0
100
AcDbBlockEnd
  0
BLOCK
  5
22A
100
AcDbEntity
  8
0
100
AcDbBlockBegin
 62
2
  6
CONTINUOUS
  2
*D1
 70
65
 10
0.0
 20
0.0
  3
*D1
  1

  0
TEXT
  5
22B
100
AcDbEntity
  8
0
100
AcDbText
 62
2
  6
CONTINUOUS
 10
20.0791987839
 20
105.420383179
  7
STANDARD
 40
2.5
  1
118
 72
5
 11
25.5363972275
 21
105.420383179
100
AcDbText
  0
LINE
  5
22C
100
AcDbEntity
  8
0
100
AcDbLine
 62
2
  6
CONTINUOUS
 10
31.0369659183
 20
47.690383179
 11
21.3077980057
 21
47.690383179
  0
LINE
  5
22D
100
AcDbEntity
  8
0
100
AcDbLine
 62
2
  6
CONTINUOUS
 10
130.1045420344
 20
165.650383179
 11
21.3077980057
 21
165.650383179
  0
LINE
  5
22E
100
AcDbEntity
  8
0
100
AcDbLine
 62
2
  6
CONTINUOUS
 10
22.8077980057
 20
47.690383179
 11
22.8077980057
 21
104.170383179
  0
LINE
  5
22F
100
AcDbEntity
  8
0
100
AcDbLine
 62
2
  6
CONTINUOUS
 10
22.8077980057
 20
165.650383179
 11
22.8077980057
 21
109.170383179
  0
INSERT
  5
230
100
AcDbEntity
  8
0
100
AcDbBlockReference
 62
2
  6
CONTINUOUS
  2
_FILLED
 10
22.8077980057
 20
47.690383179
 41
3.5
 42
3.5
 43
3.5
 50
270.0
  0
INSERT
  5
231
100
AcDbEntity
  8
0
100
AcDbBlockReference
 62
2
  6
CONTINUOUS
  2
_FILLED
 10
22.8077980057
 20
165.650383179
 41
3.5
 42
3.5
 43
3.5
 50
90.0
  0
ENDBLK
  5
232
100
AcDbEntity
  8
0
  6
BYBLOCK
 62
0
100
AcDbBlockEnd
  0
BLOCK
  5
233
100
AcDbEntity
  8
0
100
AcDbBlockBegin
 62
2
  6
CONTINUOUS
  2
*D2
 70
65
 10
0.0
 20
0.0
  3
*D2
  1

  0
TEXT
  5
234
100
AcDbEntity
  8
0
100
AcDbText
 62
2
  6
CONTINUOUS
 10
101.310405986
 20
92.3983438896
  7
STANDARD
 40
2.5
  1
163
 72
5
 11
106.7676044296
 21
92.3983438896
100
AcDbText
  0
LINE
  5
235
100
AcDbEntity
  8
0
100
AcDbLine
 62
2
  6
CONTINUOUS
 10
32.7440726995
 20
46.9832763978
 11
46.1196653796
 21
33.6076837178
  0
LINE
  5
236
100
AcDbEntity
  8
0
100
AcDbLine
 62
2
  6
CONTINUOUS
 10
150.7040726995
 20
164.9432763978
 11
164.0796653796
 21
151.5676837178
  0
LINE
  5
237
100
AcDbEntity
  8
0
100
AcDbLine
 62
2
  6
CONTINUOUS
 10
45.0590052078
 20
34.6683438896
 11
101.5390052078
 21
91.1483438896
  0
LINE
  5
238
100
AcDbEntity
  8
0
100
AcDbLine
 62
2
  6
CONTINUOUS
 10
163.0190052078
 20
152.6283438896
 11
106.5390052078
 21
96.1483438896
  0
INSERT
  5
239
100
AcDbEntity
  8
0
100
AcDbBlockReference
 62
2
  6
CONTINUOUS
  2
_FILLED
 10
45.0590052078
 20
34.6683438896
 41
3.5
 42
3.5
 43
3.5
 50
225.0
  0
INSERT
  5
23A
100
AcDbEntity
  8
0
100
AcDbBlockReference
 62
2
  6
CONTINUOUS
  2
_FILLED
 10
163.0190052078
 20
152.6283438896
 41
3.5
 42
3.5
 43
3.5
 50
45.0
  0
ENDBLK
  5
23B
100
AcDbEntity
  8
0
  6
BYBLOCK
 62
0
100
AcDbBlockEnd
  0
BLOCK
  5
23C
100
AcDbEntity
  8
0
100
AcDbBlockBegin
  2
*T1
 70
1
 10
0.0
 20
0.0
  3
*T1
  1

  0
LINE
  5
23D
100
AcDbEntity
  8
0
100
AcDbLine
 62
7
  6
CONTINUOUS
 10
0.0
 20
0.0
 11
148.0
 21
0.0
  0
LINE
  5
23E
100
AcDbEntity
  8
0
100
AcDbLine
 62
7
  6
CONTINUOUS
 10
0.0
 20
0.0
 11
0.0
 21
-43.0
  0
LINE
  5
23F
100
AcDbEntity
  8
0
100
AcDbLine
 62
7
  6
CONTINUOUS
 10
45.0
 20
-23.0
 11
148.0
 21
-23.0
  0
LINE
  5
240
100
AcDbEntity
  8
0
100
AcDbLine
 62
7
  6
CONTINUOUS
 10
45.0
 20
-28.0
 11
148.0
 21
-28.0
  0
LINE
  5
241
100
AcDbEntity
  8
0
100
AcDbLine
 62
7
  6
CONTINUOUS
 10
0.0
 20
-43.0
 11
148.0
 21
-43.0
  0
LINE
  5
242
100
AcDbEntity
  8
0
100
AcDbLine
 62
7
  6
CONTINUOUS
 10
45.0
 20
0.0
 11
45.0
 21
-43.0
  0
LINE
  5
243
100
AcDbEntity
  8
0
100
AcDbLine
 62
7
  6
CONTINUOUS
 10
143.0
 20
0.0
 11
143.0
 21
-23.0
  0
LINE
  5
244
100
AcDbEntity
  8
0
100
AcDbLine
 62
7
  6
CONTINUOUS
 10
148.0
 20
0.0
 11
148.0
 21
-43.0
  0
TEXT
  5
245
100
AcDbEntity
  8
0
100
AcDbText
 62
7
  6
CONTINUOUS
 10
8.9659749243
 20
-10.675
  7
STANDARD
 40
8.0
  1
O
 72
5
 11
17.370644185
 21
-10.675
100
AcDbText
  0
TEXT
  5
246
100
AcDbEntity
  8
0
100
AcDbText
 62
7
  6
CONTINUOUS
 10
17.370644185
 20
-10.675
  7
STANDARD
 40
5.5
  1
RAC
 72
5
 11
33.9562472979
 21
-10.675
100
AcDbText
  0
TEXT
  5
247
100
AcDbEntity
  8
0
100
AcDbText
 62
7
  6
CONTINUOUS
 10
33.9562472979
 20
-5.925
  7
TEXTSTYLE_2
 40
3.0
  1
®
 72
5
 11
36.0340250757
 21
-5.925
100
AcDbText
  0
TEXT
  5
248
100
AcDbEntity
  8
0
100
AcDbText
 62
7
  6
CONTINUOUS
 10
9.5323389537
 20
-15.325
  7
TEXTSTYLE_2
 40
3.0
  1
D  E  C  O  R
 72
5
 11
34.3878945093
 21
-15.325
100
AcDbText
  0
TEXT
  5
249
100
AcDbEntity
  8
0
100
AcDbText
 62
7
  6
CONTINUOUS
 10
34.3878945093
 20
-15.325
  7
STANDARD
 40
2.5
  1
 
 72
5
 11
35.4676610463
 21
-15.325
100
AcDbText
  0
TEXT
  5
24A
100
AcDbEntity
  8
0
100
AcDbText
 62
7
  6
CONTINUOUS
 10
52.5257352941
 20
-6.0
  7
TEXTSTYLE_3
 40
2.75
  1
Part name:
 72
5
 11
71.9375
 21
-6.0
100
AcDbText
  0
TEXT
  5
24B
100
AcDbEntity
  8
0
100
AcDbText
 62
7
  6
CONTINUOUS
 10
49.2788865546
 20
-12.875
  7
TEXTSTYLE_3
 40
2.75
  1
Designed by:
 72
5
 11
71.9375
 21
-12.875
100
AcDbText
  0
TEXT
  5
24C
100
AcDbEntity
  8
0
100
AcDbText
 62
7
  6
CONTINUOUS
 10
48.9553571429
 20
-19.75
  7
TEXTSTYLE_3
 40
2.75
  1
Designed on:
 72
5
 11
71.9375
 21
-19.75
100
AcDbText
  0
TEXT
  5
24D
100
AcDbEntity
  8
0
100
AcDbText
 62
2
  6
CONTINUOUS
 10
74.0625
 20
-6.0
  7
TEXTSTYLE_3
 40
2.75
  1
CX106
 72
5
 11
85.212710084
 21
-6.0
100
AcDbText
  0
TEXT
  5
24E
100
AcDbEntity
  8
0
100
AcDbText
 62
2
  6
CONTINUOUS
 10
74.0625
 20
-12.875
  7
TEXTSTYLE_3
 40
2.75
  1
ORAC
 72
5
 11
84.1034663866
 21
-12.875
100
AcDbText
  0
TEXT
  5
24F
100
AcDbEntity
  8
0
100
AcDbText
 62
2
  6
CONTINUOUS
 10
74.0625
 20
-19.75
  7
TEXTSTYLE_3
 40
2.75
  1
29-Jul-1999
 72
5
 11
94.5488445378
 21
-19.75
100
AcDbText
  0
TEXT
  5
250
100
AcDbEntity
  8
0
100
AcDbText
 62
2
  6
CONTINUOUS
 10
94.5488445378
 20
-19.75
  7
TEXTSTYLE_3
 40
2.75
  1
 
 72
5
 11
95.530987395
 21
-19.75
100
AcDbText
  0
TEXT
  5
251
100
AcDbEntity
  8
0
100
AcDbText
 62
2
  6
CONTINUOUS
 10
146.5625
 20
-17.5
  7
TEXTSTYLE_3
 40
1.5
  1
Version: 
 50
90.0
 72
5
 11
146.5625
 21
-9.0294117647
100
AcDbText
  0
TEXT
  5
252
100
AcDbEntity
  8
0
100
AcDbText
 62
2
  6
CONTINUOUS
 10
146.5625
 20
-9.0294117647
  7
TEXTSTYLE_3
 40
1.5
  1
1.0
 50
90.0
 72
5
 11
146.5625
 21
-6.0357142857
100
AcDbText
  0
TEXT
  5
253
100
AcDbEntity
  8
0
100
AcDbText
 62
2
  6
CONTINUOUS
 10
146.5625
 20
-6.0357142857
  7
TEXTSTYLE_3
 40
1.5
  1
 
 50
90.0
 72
5
 11
146.5625
 21
-5.5
100
AcDbText
  0
TEXT
  5
254
100
AcDbEntity
  8
0
100
AcDbText
 62
7
  6
CONTINUOUS
 10
9.6586134454
 20
-24.25
  7
TEXTSTYLE_3
 40
2.5
  1
Biekorfstraat 32
 72
5
 11
35.3413865546
 21
-24.25
100
AcDbText
  0
TEXT
  5
255
100
AcDbEntity
  8
0
100
AcDbText
 62
7
  6
CONTINUOUS
 10
2.2584033613
 20
-28.0
  7
TEXTSTYLE_3
 40
2.5
  1
8400 Oostende - Belgium
 72
5
 11
42.7415966387
 21
-28.0
100
AcDbText
  0
TEXT
  5
256
100
AcDbEntity
  8
0
100
AcDbText
 62
7
  6
CONTINUOUS
 10
4.2699579832
 20
-31.75
  7
TEXTSTYLE_3
 40
2.5
  1
Tel  +32 (0)59 80 32 52
 72
5
 11
40.7300420168
 21
-31.75
100
AcDbText
  0
TEXT
  5
257
100
AcDbEntity
  8
0
100
AcDbText
 62
7
  6
CONTINUOUS
 10
5.7405462185
 20
-35.5
  7
TEXTSTYLE_3
 40
2.5
  1
www.oracdecor.com
 72
5
 11
39.2594537815
 21
-35.5
100
AcDbText
  0
TEXT
  5
258
100
AcDbEntity
  8
0
100
AcDbText
 62
7
  6
CONTINUOUS
 10
5.5777310924
 20
-39.25
  7
TEXTSTYLE_3
 40
2.5
  1
info@oracdecor.com
 72
5
 11
39.4222689076
 21
-39.25
100
AcDbText
  0
TEXT
  5
259
100
AcDbEntity
  8
0
100
AcDbText
 62
7
  6
CONTINUOUS
 10
46.0625
 20
-26.75
  7
TEXTSTYLE_3
 40
2.5
  1
All dimensions are in mm unless otherwise specified   
 72
5
 11
132.3019957983
 21
-26.75
100
AcDbText
  0
TEXT
  5
25A
100
AcDbEntity
  8
0
100
AcDbText
 62
7
  6
CONTINUOUS
 10
46.0625
 20
-31.7075
  7
TEXTSTYLE_3
 40
1.85
  1
All information in this document is Orac's exclusive property.  It may in no case 
 72
5
 11
140.0471638655
 21
-31.7075
100
AcDbText
  0
TEXT
  5
25B
100
AcDbEntity
  8
0
100
AcDbText
 62
7
  6
CONTINUOUS
 10
46.0625
 20
-34.8525
  7
TEXTSTYLE_3
 40
1.85
  1
be reproduced, even partly, be communicated to a third party or used for any 
 72
5
 11
138.8345588235
 21
-34.8525
100
AcDbText
  0
TEXT
  5
25C
100
AcDbEntity
  8
0
100
AcDbText
 62
7
  6
CONTINUOUS
 10
46.0625
 20
-37.9975
  7
TEXTSTYLE_3
 40
1.85
  1
possible purpose without ORAC's express written permission. 
 72
5
 11
119.4484243697
 21
-37.9975
100
AcDbText
  0
TEXT
  5
25D
100
AcDbEntity
  8
0
100
AcDbText
 62
7
  6
CONTINUOUS
 10
46.0625
 20
-41.1425
  7
TEXTSTYLE_3
 40
1.85
  1
Further legal information can be found at http://www.oracdecor.be/nl/disclaimer 
 72
5
 11
143.7316176471
 21
-41.1425
100
AcDbText
  0
ENDBLK
  5
25E
100
AcDbEntity
  8
0
  6
BYBLOCK
 62
0
100
AcDbBlockEnd
  0
ENDSEC
  0
SECTION
  2
ENTITIES
  0
DIMENSION
  5
25F
100
AcDbEntity
  8
0
100
AcDbDimension
 62
2
  6
CONTINUOUS
  2
*D0
 10
149.9969659183
 20
174.016508328
 11
91.0169659183
 21
174.016508328
 70
160
 71
2
 42
117.96
  3
DIMSTYLE_1
100
AcDbAlignedDimension
 13
32.0369659183
 23
61.4029271639
 14
149.9969659183
 24
165.650383179
100
AcDbRotatedDimension
  0
DIMENSION
  5
260
100
AcDbEntity
  8
0
100
AcDbDimension
 62
2
  6
CONTINUOUS
  2
*D1
 10
22.8077980057
 20
165.650383179
 11
22.8077980057
 21
106.670383179
 70
160
 71
2
 42
117.96
  3
DIMSTYLE_1
100
AcDbAlignedDimension
 13
32.0369659183
 23
47.690383179
 14
131.1045420344
 24
165.650383179
 50
90.0
100
AcDbRotatedDimension
  0
DIMENSION
  5
261
100
AcDbEntity
  8
0
100
AcDbDimension
 62
2
  6
CONTINUOUS
  2
*D2
 10
163.0190052078
 20
152.6283438896
 11
104.0390052078
 21
93.6483438896
 70
160
 71
2
 42
166.8206318175
  3
DIMSTYLE_2
100
AcDbAlignedDimension
 13
32.0369659183
 23
47.690383179
 14
149.9969659183
 24
165.650383179
 50
45.0
100
AcDbRotatedDimension
  0
ACAD_TABLE
  5
262
100
AcDbEntity
  8
0
 62
2
  6
CONTINUOUS
100
AcDbBlockReference
  2
*T1
 10
143.9999958937
 20
47.9999925619
 30
0.0
100
AcDbTable
342
       2D6
343
21A
 11
1.0
 21
0.0
 31
0.0
 90
22
 91
4
 92
4
 93
0
 94
0
 95
0
 96
0
141
18.0
141
5.0
141
5.0
141
15.0
142
45.0
142
28.0
142
70.0
142
5.0
171
1
172
0
173
0
174
0
175
1
176
1
 91
41
178
0
145
0.0
301
CELL_VALUE
 90
4
  1
O\H5.5;RAC\P\Ftrium.ttf;\H3.0;®\PD  E  C  O  R\Fcgtime.ttf;\H2.5; 
304
ACVALUE_END
170
5
140
8.0
 64
7
171
1
172
0
173
0
174
0
175
1
176
2
 91
41
178
0
145
0.0
301
CELL_VALUE
 90
4
  1
Part name:\PDesigned by:\PDesigned on:
304
ACVALUE_END
170
6
140
2.75
 64
7
171
1
172
0
173
0
174
0
175
1
176
2
 91
33
178
0
145
0.0
301
CELL_VALUE
 90
4
  1
CX106\PORAC\P29-Jul-1999 
304
ACVALUE_END
170
4
140
2.75
171
1
172
0
173
0
174
0
175
1
176
2
 91
33
178
0
145
0.0
301
CELL_VALUE
 90
4
  1
Version: 1.0 
304
ACVALUE_END
170
6
140
1.5
171
1
172
0
173
0
174
0
175
1
176
3
 91
41
178
0
145
0.0
301
CELL_VALUE
 90
4
  1
Biekorfstraat 32\P8400 Oostende - Belgium\PTel  +32 (0)59 80 32 52\Pwww.oracdecor.com\Pinfo@oracdecor.com
304
ACVALUE_END
170
5
140
2.5
 64
7
171
1
172
0
173
1
174
0
175
1
176
1
 91
1
178
0
145
0.0
170
1
171
1
172
0
173
1
174
0
175
1
176
1
 91
1
178
0
145
0.0
170
1
171
1
172
0
173
1
174
0
175
1
176
1
 91
1
178
0
145
0.0
170
1
171
1
172
0
173
1
174
0
175
1
176
1
 91
1
178
0
145
0.0
170
1
171
1
172
0
173
0
174
0
175
3
176
1
 91
41
178
0
145
0.0
301
CELL_VALUE
 90
4
  1
All dimensions are in mm unless otherwise specified   
304
ACVALUE_END
170
1
140
2.5
 64
7
171
1
172
0
173
1
174
0
175
1
176
1
 91
1
178
0
145
0.0
170
1
171
1
172
0
173
1
174
0
175
1
176
1
 91
1
178
0
145
0.0
170
1
171
1
172
0
173
1
174
0
175
1
176
1
 91
1
178
0
145
0.0
170
1
171
1
172
0
173
0
174
0
175
3
176
1
 91
41
178
0
145
0.0
301
CELL_VALUE
 90
4
  2
All information in this document is Orac's exclusive property.  It may in no case \Pbe reproduced, even partly, be communicated to a third party or used for any \Ppossible purpose without ORAC's express written permission. \PFurther legal information
  1
 can be found at http://www.oracdecor.be/nl/disclaimer 
304
ACVALUE_END
170
4
140
1.85
 64
7
171
1
172
0
173
1
174
0
175
1
176
1
 91
1
178
0
145
0.0
170
1
171
1
172
0
173
1
174
0
175
1
176
1
 91
1
178
0
145
0.0
170
1
  0
LINE
  5
263
100
AcDbEntity
  8
0
100
AcDbLine
 62
5
  6
CONTINUOUS
 10
0.0
 20
0.0
 11
0.0
 21
210.0
  0
LINE
  5
264
100
AcDbEntity
  8
0
100
AcDbLine
 62
7
  6
CONTINUOUS
 10
5.0
 20
5.0
 11
5.0
 21
195.0
  0
LINE
  5
265
100
AcDbEntity
  8
0
100
AcDbLine
 62
5
  6
CONTINUOUS
 10
0.0
 20
0.0
 11
297.0
 21
0.0
  0
LINE
  5
266
100
AcDbEntity
  8
0
100
AcDbLine
 62
7
  6
CONTINUOUS
 10
5.0
 20
5.0
 11
292.0
 21
5.0
  0
LINE
  5
267
100
AcDbEntity
  8
0
100
AcDbLine
 62
4
  6
CONTINUOUS
 10
148.5
 20
195.0
 11
148.5
 21
205.0
  0
LINE
  5
268
100
AcDbEntity
  8
0
100
AcDbLine
 62
7
  6
CONTINUOUS
 10
5.0
 20
195.0
 11
292.0
 21
195.0
  0
LINE
  5
269
100
AcDbEntity
  8
0
100
AcDbLine
 62
5
  6
CONTINUOUS
 10
0.0
 20
210.0
 11
297.0
 21
210.0
  0
LINE
  5
26A
100
AcDbEntity
  8
0
100
AcDbLine
 62
7
  6
CONTINUOUS
 10
292.0
 20
5.0
 11
292.0
 21
195.0
  0
LINE
  5
26B
100
AcDbEntity
  8
0
100
AcDbLine
 62
5
  6
CONTINUOUS
 10
297.0
 20
0.0
 11
297.0
 21
210.0
  0
LINE
  5
26C
100
AcDbEntity
  8
DTM_AXIS
100
AcDbLine
 62
7
  6
CONTINUOUS
 10
177.5125055807
 20
112.139022749
 11
177.5544874749
 21
110.247371722
  0
LINE
  5
26D
100
AcDbEntity
  8
DTM_AXIS
100
AcDbLine
 62
7
  6
CONTINUOUS
 10
177.6111246164
 20
107.6953737953
 11
177.6645547178
 21
105.2878810337
  0
LINE
  5
26E
100
AcDbEntity
  8
DTM_AXIS
100
AcDbLine
 62
7
  6
CONTINUOUS
 10
219.200360389
 20
75.0792107778
 11
223.6188208883
 21
75.1830981199
  0
LINE
  5
26F
100
AcDbEntity
  8
DTM_AXIS
100
AcDbLine
 62
7
  6
CONTINUOUS
 10
177.5544874749
 20
110.247371722
 11
178.3192161288
 21
108.9886873156
  0
LINE
  5
270
100
AcDbEntity
  8
DTM_AXIS
100
AcDbLine
 62
7
  6
CONTINUOUS
 10
183.6726967289
 20
122.2934538502
 11
183.7655710169
 21
118.1086559557
  0
LINE
  5
271
100
AcDbEntity
  8
DTM_AXIS
100
AcDbLine
 62
7
  6
CONTINUOUS
 10
186.3924774868
 20
110.4069780178
 11
186.337978372
 21
112.8626391677
  0
LINE
  5
272
100
AcDbEntity
  8
DTM_AXIS
100
AcDbLine
 62
7
  6
CONTINUOUS
 10
177.6645547178
 20
105.2878810337
 11
219.200360389
 21
75.0792107778
  0
LINE
  5
273
100
AcDbEntity
  8
DTM_AXIS
100
AcDbLine
 62
7
  6
CONTINUOUS
 10
188.7926786494
 20
112.9203543577
 11
188.5883069689
 21
122.12908367
  0
LINE
  5
274
100
AcDbEntity
  8
DTM_AXIS
100
AcDbLine
 62
7
  6
CONTINUOUS
 10
191.0430072463
 20
122.1867988601
 11
190.9748833528
 21
125.2563752975
  0
LINE
  5
275
100
AcDbEntity
  8
DTM_AXIS
100
AcDbLine
 62
7
  6
CONTINUOUS
 10
178.3192161288
 20
108.9886873156
 11
177.6111246164
 21
107.6953737953
  0
LINE
  5
276
100
AcDbEntity
  8
DTM_AXIS
100
AcDbLine
 62
7
  6
CONTINUOUS
 10
231.6354817446
 20
165.5234725058
 11
230.3763317997
 21
164.7567844683
  0
LINE
  5
277
100
AcDbEntity
  8
DTM_AXIS
100
AcDbLine
 62
7
  6
CONTINUOUS
 10
227.8737840432
 20
82.6539689118
 11
230.3284843206
 21
82.7116841019
  0
LINE
  5
278
100
AcDbEntity
  8
DTM_AXIS
100
AcDbLine
 62
7
  6
CONTINUOUS
 10
223.6188208883
 20
75.1830981199
 11
182.0830152171
 21
105.3917683758
  0
LINE
  5
279
100
AcDbEntity
  8
DTM_AXIS
100
AcDbLine
 62
7
  6
CONTINUOUS
 10
189.1293864161
 20
129.7416173085
 11
184.7412139597
 21
125.0774871287
  0
LINE
  5
27A
100
AcDbEntity
  8
DTM_AXIS
100
AcDbLine
 62
7
  6
CONTINUOUS
 10
227.928283158
 20
80.1983077619
 11
186.3924774868
 21
110.4069780178
  0
LINE
  5
27B
100
AcDbEntity
  8
DTM_AXIS
100
AcDbLine
 62
7
  6
CONTINUOUS
 10
225.2376724224
 20
165.0587370327
 11
223.1612725541
 21
161.9446076097
  0
LINE
  5
27C
100
AcDbEntity
  8
DTM_AXIS
100
AcDbLine
 62
7
  6
CONTINUOUS
 10
183.2212283194
 20
116.7060007244
 11
180.9063227627
 21
114.2819418804
  0
LINE
  5
27D
100
AcDbEntity
  8
DTM_AXIS
100
AcDbLine
 62
7
  6
CONTINUOUS
 10
230.1241126401
 20
91.9204134141
 11
232.5788129175
 21
91.9781286042
  0
LINE
  5
27E
100
AcDbEntity
  8
DTM_AXIS
100
AcDbLine
 62
7
  6
CONTINUOUS
 10
227.8737840432
 20
82.6539689118
 11
186.337978372
 21
112.8626391677
  0
LINE
  5
27F
100
AcDbEntity
  8
DTM_AXIS
100
AcDbLine
 62
7
  6
CONTINUOUS
 10
230.3284843206
 20
82.7116841019
 11
188.7926786494
 21
112.9203543577
  0
LINE
  5
280
100
AcDbEntity
  8
DTM_AXIS
100
AcDbLine
 62
7
  6
CONTINUOUS
 10
232.510689024
 20
95.0477050416
 11
235.9472694124
 21
95.1285063077
  0
LINE
  5
281
100
AcDbEntity
  8
DTM_AXIS
100
AcDbLine
 62
7
  6
CONTINUOUS
 10
230.1241126401
 20
91.9204134141
 11
188.5883069689
 21
122.12908367
  0
LINE
  5
282
100
AcDbEntity
  8
DTM_AXIS
100
AcDbLine
 62
7
  6
CONTINUOUS
 10
232.5788129175
 20
91.9781286042
 11
191.0430072463
 21
122.1867988601
  0
LINE
  5
283
100
AcDbEntity
  8
DTM_AXIS
100
AcDbLine
 62
7
  6
CONTINUOUS
 10
190.9748833528
 20
125.2563752975
 11
232.510689024
 21
95.0477050416
  0
LINE
  5
284
100
AcDbEntity
  8
DTM_AXIS
100
AcDbLine
 62
7
  6
CONTINUOUS
 10
177.6645547178
 20
105.2878810337
 11
182.0830152171
 21
105.3917683758
  0
LINE
  5
285
100
AcDbEntity
  8
DTM_AXIS
100
AcDbLine
 62
7
  6
CONTINUOUS
 10
235.9472694124
 20
95.1285063077
 11
194.4114637412
 21
125.3371765636
  0
LINE
  5
286
100
AcDbEntity
  8
DTM_AXIS
100
AcDbLine
 62
7
  6
CONTINUOUS
 10
179.8461197041
 20
113.5712742144
 11
177.9816848569
 21
112.8426853773
  0
LINE
  5
287
100
AcDbEntity
  8
DTM_AXIS
100
AcDbLine
 62
7
  6
CONTINUOUS
 10
186.337978372
 20
112.8626391677
 11
188.7926786494
 21
112.9203543577
  0
LINE
  5
288
100
AcDbEntity
  8
DTM_AXIS
100
AcDbLine
 62
7
  6
CONTINUOUS
 10
226.1425109983
 20
156.3332659782
 11
226.1115588041
 21
157.7279326834
  0
LINE
  5
289
100
AcDbEntity
  8
DTM_AXIS
100
AcDbLine
 62
7
  6
CONTINUOUS
 10
227.928283158
 20
80.1983077619
 11
227.8737840432
 21
82.6539689118
  0
LINE
  5
28A
100
AcDbEntity
  8
DTM_AXIS
100
AcDbLine
 62
7
  6
CONTINUOUS
 10
230.3284843206
 20
82.7116841019
 11
230.1241126401
 21
91.9204134141
  0
LINE
  5
28B
100
AcDbEntity
  8
DTM_AXIS
100
AcDbLine
 62
7
  6
CONTINUOUS
 10
232.5788129175
 20
91.9781286042
 11
232.510689024
 21
95.0477050416
  0
LINE
  5
28C
100
AcDbEntity
  8
DTM_AXIS
100
AcDbLine
 62
7
  6
CONTINUOUS
 10
188.5883069689
 20
122.12908367
 11
191.0430072463
 21
122.1867988601
  0
LINE
  5
28D
100
AcDbEntity
  8
DTM_AXIS
100
AcDbLine
 62
7
  6
CONTINUOUS
 10
265.4986915929
 20
126.0733481315
 11
267.6783166695
 21
126.1245957223
  0
LINE
  5
28E
100
AcDbEntity
  8
DTM_AXIS
100
AcDbLine
 62
7
  6
CONTINUOUS
 10
232.4327405167
 20
160.6283326655
 11
232.4000410478
 21
162.1017293554
  0
LINE
  5
28F
100
AcDbEntity
  8
DTM_AXIS
100
AcDbLine
 62
7
  6
CONTINUOUS
 10
235.3456813807
 20
162.1709875835
 11
235.26938262
 21
165.6089131934
  0
LINE
  5
290
100
AcDbEntity
  8
DTM_AXIS
100
AcDbLine
 62
7
  6
CONTINUOUS
 10
190.9748833528
 20
125.2563752975
 11
194.4114637412
 21
125.3371765636
  0
LINE
  5
291
100
AcDbEntity
  8
DTM_AXIS
100
AcDbLine
 62
7
  6
CONTINUOUS
 10
273.9358467191
 20
131.8930590996
 11
276.8814870519
 21
131.9623173276
  0
LINE
  5
292
100
AcDbEntity
  8
DTM_AXIS
100
AcDbLine
 62
7
  6
CONTINUOUS
 10
265.4986915929
 20
126.0733481315
 11
223.9628859217
 21
156.2820183873
  0
LINE
  5
293
100
AcDbEntity
  8
DTM_AXIS
100
AcDbLine
 62
7
  6
CONTINUOUS
 10
226.1425109983
 20
156.3332659782
 11
267.6783166695
 21
126.1245957223
  0
LINE
  5
294
100
AcDbEntity
  8
DTM_AXIS
100
AcDbLine
 62
7
  6
CONTINUOUS
 10
267.6473644753
 20
127.5192624275
 11
226.1115588041
 21
157.7279326834
  0
LINE
  5
295
100
AcDbEntity
  8
DTM_AXIS
100
AcDbLine
 62
7
  6
CONTINUOUS
 10
223.9628859217
 20
156.2820183873
 11
226.1425109983
 21
156.3332659782
  0
LINE
  5
296
100
AcDbEntity
  8
DTM_AXIS
100
AcDbLine
 62
7
  6
CONTINUOUS
 10
273.9685461879
 20
130.4196624096
 11
232.4327405167
 21
160.6283326655
  0
LINE
  5
297
100
AcDbEntity
  8
DTM_AXIS
100
AcDbLine
 62
7
  6
CONTINUOUS
 10
267.6783166695
 20
126.1245957223
 11
267.6473644753
 21
127.5192624275
  0
LINE
  5
298
100
AcDbEntity
  8
DTM_AXIS
100
AcDbLine
 62
7
  6
CONTINUOUS
 10
230.3763317997
 20
164.7567844683
 11
229.0844823859
 21
165.4634931209
  0
LINE
  5
299
100
AcDbEntity
  8
DTM_AXIS
100
AcDbLine
 62
7
  6
CONTINUOUS
 10
273.9358467191
 20
131.8930590996
 11
232.4000410478
 21
162.1017293554
  0
LINE
  5
29A
100
AcDbEntity
  8
DTM_AXIS
100
AcDbLine
 62
7
  6
CONTINUOUS
 10
235.3456813807
 20
162.1709875835
 11
276.8814870519
 21
131.9623173276
  0
LINE
  5
29B
100
AcDbEntity
  8
DTM_AXIS
100
AcDbLine
 62
7
  6
CONTINUOUS
 10
232.4000410478
 20
162.1017293554
 11
235.3456813807
 21
162.1709875835
  0
LINE
  5
29C
100
AcDbEntity
  8
DTM_AXIS
100
AcDbLine
 62
7
  6
CONTINUOUS
 10
235.26938262
 20
165.6089131934
 11
231.6354817446
 21
165.5234725058
  0
LINE
  5
29D
100
AcDbEntity
  8
DTM_AXIS
100
AcDbLine
 62
7
  6
CONTINUOUS
 10
229.0844823859
 20
165.4634931209
 11
225.8339323355
 21
165.3870658211
  0
LINE
  5
29E
100
AcDbEntity
  8
DTM_AXIS
100
AcDbLine
 62
7
  6
CONTINUOUS
 10
276.8051882912
 20
135.4002429375
 11
235.26938262
 21
165.6089131934
  0
LINE
  5
29F
100
AcDbEntity
  8
DTM_AXIS
100
AcDbLine
 62
7
  6
CONTINUOUS
 10
273.9685461879
 20
130.4196624096
 11
273.9358467191
 21
131.8930590996
  0
LINE
  5
2A0
100
AcDbEntity
  8
DTM_AXIS
100
AcDbLine
 62
7
  6
CONTINUOUS
 10
276.8814870519
 20
131.9623173276
 11
276.8051882912
 21
135.4002429375
  0
LINE
  5
2A1
100
AcDbEntity
  8
DTM_AXIS
100
AcDbLine
 62
7
  6
CONTINUOUS
 10
32.0369659183
 20
57.6167920948
 11
33.5114659183
 21
55.062883179
  0
LINE
  5
2A2
100
AcDbEntity
  8
DTM_AXIS
100
AcDbLine
 62
7
  6
CONTINUOUS
 10
32.0369659183
 20
61.4029271639
 11
32.0369659183
 21
57.6167920948
  0
LINE
  5
2A3
100
AcDbEntity
  8
DTM_AXIS
100
AcDbLine
 62
7
  6
CONTINUOUS
 10
32.0369659183
 20
52.5089742633
 11
32.0369659183
 21
47.690383179
  0
LINE
  5
2A4
100
AcDbEntity
  8
DTM_AXIS
100
AcDbLine
 62
7
  6
CONTINUOUS
 10
32.0369659183
 20
47.690383179
 11
40.8839659183
 21
47.690383179
  0
LINE
  5
2A5
100
AcDbEntity
  8
DTM_AXIS
100
AcDbLine
 62
7
  6
CONTINUOUS
 10
44.8159659183
 20
81.4266533405
 11
44.8159659183
 21
73.0507902244
  0
LINE
  5
2A6
100
AcDbEntity
  8
DTM_AXIS
100
AcDbLine
 62
7
  6
CONTINUOUS
 10
49.7309659183
 20
62.435383179
 11
54.6459659183
 21
62.435383179
  0
LINE
  5
2A7
100
AcDbEntity
  8
DTM_AXIS
100
AcDbLine
 62
7
  6
CONTINUOUS
 10
49.7309659183
 20
57.520383179
 11
49.7309659183
 21
62.435383179
  0
LINE
  5
2A8
100
AcDbEntity
  8
DTM_AXIS
100
AcDbLine
 62
7
  6
CONTINUOUS
 10
54.6459659183
 20
62.435383179
 11
54.6459659183
 21
80.866633179
  0
LINE
  5
2A9
100
AcDbEntity
  8
DTM_AXIS
100
AcDbLine
 62
7
  6
CONTINUOUS
 10
59.5609659183
 20
80.866633179
 11
59.5609659183
 21
87.010383179
  0
LINE
  5
2AA
100
AcDbEntity
  8
DTM_AXIS
100
AcDbLine
 62
7
  6
CONTINUOUS
 10
33.5114659183
 20
55.062883179
 11
32.0369659183
 21
52.5089742633
  0
LINE
  5
2AB
100
AcDbEntity
  8
DTM_AXIS
100
AcDbLine
 62
7
  6
CONTINUOUS
 10
142.7208748341
 20
165.650383179
 11
140.1669659183
 21
164.175883179
  0
LINE
  5
2AC
100
AcDbEntity
  8
DTM_AXIS
100
AcDbLine
 62
7
  6
CONTINUOUS
 10
54.6459659183
 20
80.866633179
 11
59.5609659183
 21
80.866633179
  0
LINE
  5
2AD
100
AcDbEntity
  8
DTM_AXIS
100
AcDbLine
 62
7
  6
CONTINUOUS
 10
56.0668968103
 20
96.0697052875
 11
47.0779719139
 21
86.9457256516
  0
LINE
  5
2AE
100
AcDbEntity
  8
DTM_AXIS
100
AcDbLine
 62
7
  6
CONTINUOUS
 10
59.5609659183
 20
87.010383179
 11
66.4419659183
 21
87.010383179
  0
LINE
  5
2AF
100
AcDbEntity
  8
DTM_AXIS
100
AcDbLine
 62
7
  6
CONTINUOUS
 10
43.6643097819
 20
70.2704463608
 11
38.923973435
 21
65.5301100138
  0
LINE
  5
2B0
100
AcDbEntity
  8
DTM_AXIS
100
AcDbLine
 62
7
  6
CONTINUOUS
 10
129.8967023451
 20
165.0216216344
 11
125.6030236022
 21
158.8896128962
  0
LINE
  5
2B1
100
AcDbEntity
  8
DTM_AXIS
100
AcDbLine
 62
7
  6
CONTINUOUS
 10
36.7706924449
 20
64.1583187319
 11
33.007157217
 21
62.7885039333
  0
LINE
  5
2B2
100
AcDbEntity
  8
DTM_AXIS
100
AcDbLine
 62
7
  6
CONTINUOUS
 10
131.3199659183
 20
147.5241610578
 11
131.3199659183
 21
150.315583179
  0
LINE
  5
2B3
100
AcDbEntity
  8
DTM_AXIS
100
AcDbLine
 62
7
  6
CONTINUOUS
 10
126.9557437971
 20
147.5241610578
 11
131.3199659183
 21
147.5241610578
  0
LINE
  5
2B4
100
AcDbEntity
  8
DTM_AXIS
100
AcDbLine
 62
7
  6
CONTINUOUS
 10
144.0989659183
 20
155.820383179
 11
144.0989659183
 21
158.769383179
  0
LINE
  5
2B5
100
AcDbEntity
  8
DTM_AXIS
100
AcDbLine
 62
7
  6
CONTINUOUS
 10
144.0989659183
 20
158.769383179
 11
149.9969659183
 21
158.769383179
  0
LINE
  5
2B6
100
AcDbEntity
  8
DTM_AXIS
100
AcDbLine
 62
7
  6
CONTINUOUS
 10
149.9969659183
 20
158.769383179
 11
149.9969659183
 21
165.650383179
  0
LINE
  5
2B7
100
AcDbEntity
  8
DTM_AXIS
100
AcDbLine
 62
7
  6
CONTINUOUS
 10
149.9969659183
 20
165.650383179
 11
142.7208748341
 21
165.650383179
  0
LINE
  5
2B8
100
AcDbEntity
  8
DTM_AXIS
100
AcDbLine
 62
7
  6
CONTINUOUS
 10
137.6130570026
 20
165.650383179
 11
131.1045420344
 21
165.650383179
  0
LINE
  5
2B9
100
AcDbEntity
  8
DTM_AXIS
100
AcDbLine
 62
7
  6
CONTINUOUS
 10
140.1669659183
 20
164.175883179
 11
137.6130570026
 21
165.650383179
  0
ARC
  5
2BA
100
AcDbEntity
  8
DTM_AXIS
100
AcDbCircle
 62
7
  6
CONTINUOUS
 10
228.5368965657
 20
75.3163224242
 40
4.9198690279
100
AcDbArc
 50
97.106124932
 51
181.5516890368
  0
ARC
  5
2BB
100
AcDbEntity
  8
DTM_AXIS
100
AcDbCircle
 62
7
  6
CONTINUOUS
 10
187.0010881059
 20
105.5249950762
 40
4.919866143
100
AcDbArc
 50
97.1060961569
 51
181.5517178114
  0
ARC
  5
2BC
100
AcDbEntity
  8
DTM_AXIS
100
AcDbCircle
 62
7
  6
CONTINUOUS
 10
187.6076712793
 20
122.3802361112
 40
3.9359449301
100
AcDbArc
 50
136.7419711947
 51
181.2634011535
  0
ARC
  5
2BD
100
AcDbEntity
  8
DTM_AXIS
100
AcDbCircle
 62
7
  6
CONTINUOUS
 10
186.9790594203
 20
131.764814991
 40
2.95249641
100
AcDbArc
 50
316.7447414512
 51
351.3047366999
  0
ARC
  5
2BE
100
AcDbEntity
  8
DTM_AXIS
100
AcDbCircle
 62
7
  6
CONTINUOUS
 10
178.7716998861
 20
116.3202985463
 40
2.9515271848
100
AcDbArc
 50
291.3473862358
 51
316.3215184519
  0
ARC
  5
2BF
100
AcDbEntity
  8
DTM_AXIS
100
AcDbCircle
 62
7
  6
CONTINUOUS
 10
181.798065538
 20
118.0652539178
 40
1.9679841327
100
AcDbArc
 50
316.3158010679
 51
1.2637069488
  0
ARC
  5
2C0
100
AcDbEntity
  8
DTM_AXIS
100
AcDbCircle
 62
7
  6
CONTINUOUS
 10
221.5243241258
 20
163.0356898042
 40
1.9672352166
100
AcDbArc
 50
274.8920151847
 51
326.3151852374
  0
ARC
  5
2C1
100
AcDbEntity
  8
DTM_AXIS
100
AcDbCircle
 62
7
  6
CONTINUOUS
 10
178.2503954642
 20
112.155267027
 40
0.7380723565
100
AcDbArc
 50
111.350439792
 51
181.2611343259
  0
ARC
  5
2C2
100
AcDbEntity
  8
DTM_AXIS
100
AcDbCircle
 62
7
  6
CONTINUOUS
 10
225.8514697675
 20
164.649635188
 40
0.7376391396
100
AcDbArc
 50
91.3623402977
 51
146.3161617699
  0
ARC
  5
2C3
100
AcDbEntity
  8
DTM_AXIS
100
AcDbCircle
 62
7
  6
CONTINUOUS
 10
126.9557437971
 20
87.010383179
 40
70.34348
100
AcDbArc
 50
93.5303084241
 51
170.0309556424
  0
ARC
  5
2C4
100
AcDbEntity
  8
DTM_AXIS
100
AcDbCircle
 62
7
  6
CONTINUOUS
 10
126.9557437971
 20
87.010383179
 40
60.5137778788
100
AcDbArc
 50
90.0
 51
180.0
  0
ARC
  5
2C5
100
AcDbEntity
  8
DTM_AXIS
100
AcDbCircle
 62
7
  6
CONTINUOUS
 10
50.7138424865
 20
47.7396442677
 40
9.83
100
AcDbArc
 50
95.7384474104
 51
180.287127598
  0
ARC
  5
2C6
100
AcDbEntity
  8
DTM_AXIS
100
AcDbCircle
 62
7
  6
CONTINUOUS
 10
52.6799659183
 20
81.4266533405
 40
7.864
100
AcDbArc
 50
135.4272049891
 51
180.0
  0
ARC
  5
2C7
100
AcDbEntity
  8
DTM_AXIS
100
AcDbCircle
 62
7
  6
CONTINUOUS
 10
34.7534576395
 20
69.7006258092
 40
5.898
100
AcDbArc
 50
290.0
 51
315.0
  0
ARC
  5
2C8
100
AcDbEntity
  8
DTM_AXIS
100
AcDbCircle
 62
7
  6
CONTINUOUS
 10
51.865401307
 20
100.2090095208
 40
5.898
100
AcDbArc
 50
315.4272049891
 51
350.0309556424
  0
ARC
  5
2C9
100
AcDbEntity
  8
DTM_AXIS
100
AcDbCircle
 62
7
  6
CONTINUOUS
 10
122.3821177641
 20
161.144915444
 40
3.932
100
AcDbArc
 50
273.5303084241
 51
325.0
  0
ARC
  5
2CA
100
AcDbEntity
  8
DTM_AXIS
100
AcDbCircle
 62
7
  6
CONTINUOUS
 10
40.8839659183
 20
73.0507902244
 40
3.932
100
AcDbArc
 50
315.0
 51
360.0
  0
ARC
  5
2CB
100
AcDbEntity
  8
DTM_AXIS
100
AcDbCircle
 62
7
  6
CONTINUOUS
 10
33.5114659183
 20
61.4029271639
 40
1.4745
100
AcDbArc
 50
110.0
 51
180.0
  0
ARC
  5
2CC
100
AcDbEntity
  8
DTM_AXIS
100
AcDbCircle
 62
7
  6
CONTINUOUS
 10
131.1045420344
 20
164.175883179
 40
1.4745
100
AcDbArc
 50
90.0
 51
145.0
  0
SPLINE
  5
2CD
100
AcDbEntity
  8
DTM_AXIS
100
AcDbSpline
 62
7
  6
CONTINUOUS
 70
0
 71
3
 72
15
 73
11
 74
0
 42
0.0000001
 43
0.0000001
 44
0.0000000001
 40
0.0
 40
0.0
 40
0.0
 40
0.0
 40
0.1249854555
 40
0.2499971964
 40
0.3750254322
 40
0.5000578206
 40
0.6250814091
 40
0.7500845824
 40
0.8750588077
 40
1.0
 40
1.0
 40
1.0
 40
1.0
 10
235.9472694124
 20
95.1285063077
 30
0.0
 10
235.903417827
 20
97.1044032556
 30
0.0
 10
236.2052446133
 20
101.0761891592
 30
0.0
 10
237.8095564246
 20
106.8230677815
 30
0.0
 10
240.5035464425
 20
112.1501630496
 30
0.0
 10
244.1838208709
 20
116.849858631
 30
0.0
 10
248.7087645804
 20
120.7423914599
 30
0.0
 10
253.9053570119
 20
123.6779961154
 30
0.0
 10
259.5709878105
 20
125.5438237807
 30
0.0
 10
263.5235539016
 20
126.0269084711
 30
0.0
 10
265.4986915929
 20
126.0733481315
 30
0.0
  0
SPLINE
  5
2CE
100
AcDbEntity
  8
DTM_AXIS
100
AcDbSpline
 62
7
  6
CONTINUOUS
 70
0
 71
3
 72
25
 73
21
 74
0
 42
0.0000001
 43
0.0000001
 44
0.0000000001
 40
0.0
 40
0.0
 40
0.0
 40
0.0
 40
0.0568792745
 40
0.1208011999
 40
0.1869092244
 40
0.2515177116
 40
0.3138681119
 40
0.3444484559
 40
0.3749106849
 40
0.4055901388
 40
0.4366715239
 40
0.499848335
 40
0.5632348869
 40
0.6258797946
 40
0.6877783374
 40
0.7497874202
 40
0.8124631289
 40
0.8757661936
 40
0.9389161808
 40
1.0
 40
1.0
 40
1.0
 40
1.0
 10
267.6473644753
 20
127.5192624275
 30
0.0
 10
267.7843766474
 20
127.5399144809
 30
0.0
 10
268.0785521992
 20
127.5600176509
 30
0.0
 10
268.5332269224
 20
127.5778974932
 30
0.0
 10
269.0063858315
 20
127.6173902659
 30
0.0
 10
269.4681841156
 20
127.7143384908
 30
0.0
 10
269.8281718447
 20
127.8544027255
 30
0.0
 10
270.0880599111
 20
128.0066534215
 30
0.0
 10
270.2663274725
 20
128.1422691271
 30
0.0
 10
270.4292051514
 20
128.2974826216
 30
0.0
 10
270.6327430502
 20
128.5240543712
 30
0.0
 10
270.8668330739
 20
128.8287393394
 30
0.0
 10
271.1505698495
 20
129.1920319965
 30
0.0
 10
271.4576864513
 20
129.5323451844
 30
0.0
 10
271.7999438275
 20
129.8337981148
 30
0.0
 10
272.1886219903
 20
130.0736662184
 30
0.0
 10
272.6133499745
 20
130.2497390738
 30
0.0
 10
273.0622131673
 20
130.3603723596
 30
0.0
 10
273.5169013661
 20
130.4128322281
 30
0.0
 10
273.8197477815
 20
130.4207395599
 30
0.0
 10
273.9685461879
 20
130.4196624096
 30
0.0
  0
SPLINE
  5
2CF
100
AcDbEntity
  8
DTM_AXIS
100
AcDbSpline
 62
7
  6
CONTINUOUS
 70
0
 71
3
 72
15
 73
11
 74
0
 42
0.0000001
 43
0.0000001
 44
0.0000000001
 40
0.0
 40
0.0
 40
0.0
 40
0.0
 40
0.12494393
 40
0.2499157201
 40
0.374912073
 40
0.4999269848
 40
0.6249524087
 40
0.7499791399
 40
0.8749978263
 40
1.0
 40
1.0
 40
1.0
 40
1.0
 10
221.6920849162
 20
161.0756352532
 30
0.0
 10
219.7460301374
 20
160.9095457804
 30
0.0
 10
215.8735216114
 20
160.2506008726
 30
0.0
 10
210.3151758512
 20
158.3123417269
 30
0.0
 10
205.1531253262
 20
155.4773593444
 30
0.0
 10
200.5329085602
 20
151.8245929373
 30
0.0
 10
196.5823408992
 20
147.4556534563
 30
0.0
 10
193.4112479929
 20
142.4913835135
 30
0.0
 10
191.1080202972
 20
137.0718088682
 30
0.0
 10
190.1929167607
 20
133.2500577183
 30
0.0
 10
189.8976209831
 20
131.3184592411
 30
0.0
  0
SPLINE
  5
2D0
100
AcDbEntity
  8
DTM_AXIS
100
AcDbSpline
 62
7
  6
CONTINUOUS
 70
0
 71
3
 72
15
 73
11
 74
0
 42
0.0000001
 43
0.0000001
 44
0.0000000001
 40
0.0
 40
0.0
 40
0.0
 40
0.0
 40
0.1249854449
 40
0.2499971942
 40
0.3750254283
 40
0.5000578206
 40
0.6250814131
 40
0.7500845845
 40
0.8750588183
 40
1.0
 40
1.0
 40
1.0
 40
1.0
 10
194.4114637412
 20
125.3371765636
 30
0.0
 10
194.3676121587
 20
127.3130733789
 30
0.0
 10
194.6694390216
 20
131.2848592835
 30
0.0
 10
196.2737501315
 20
137.0317381331
 30
0.0
 10
198.9677399212
 20
142.3588338442
 30
0.0
 10
202.6480142359
 20
147.0585298077
 30
0.0
 10
207.1729583322
 20
150.9510625406
 30
0.0
 10
212.3695512167
 20
153.8866669884
 30
0.0
 10
218.0351822744
 20
155.7524939632
 30
0.0
 10
221.987748363
 20
156.2355787301
 30
0.0
 10
223.9628859217
 20
156.2820183873
 30
0.0
  0
SPLINE
  5
2D1
100
AcDbEntity
  8
DTM_AXIS
100
AcDbSpline
 62
7
  6
CONTINUOUS
 70
0
 71
3
 72
25
 73
21
 74
0
 42
0.0000001
 43
0.0000001
 44
0.0000000001
 40
0.0
 40
0.0
 40
0.0
 40
0.0
 40
0.0568792745
 40
0.1208011999
 40
0.1869092244
 40
0.2515177116
 40
0.3138681119
 40
0.3444484559
 40
0.3749106849
 40
0.4055901388
 40
0.4366715239
 40
0.499848335
 40
0.5632348869
 40
0.6258797946
 40
0.6877783374
 40
0.7497874202
 40
0.8124631289
 40
0.8757661936
 40
0.9389161808
 40
1.0
 40
1.0
 40
1.0
 40
1.0
 10
226.1115588041
 20
157.7279326834
 30
0.0
 10
226.2485709762
 20
157.7485847368
 30
0.0
 10
226.542746528
 20
157.7686879068
 30
0.0
 10
226.9974212512
 20
157.7865677491
 30
0.0
 10
227.4705801603
 20
157.8260605218
 30
0.0
 10
227.9323784443
 20
157.9230087467
 30
0.0
 10
228.2923661735
 20
158.0630729814
 30
0.0
 10
228.5522542399
 20
158.2153236774
 30
0.0
 10
228.7305218013
 20
158.350939383
 30
0.0
 10
228.8933994802
 20
158.5061528775
 30
0.0
 10
229.096937379
 20
158.7327246271
 30
0.0
 10
229.3310274027
 20
159.0374095953
 30
0.0
 10
229.6147641782
 20
159.4007022524
 30
0.0
 10
229.9218807801
 20
159.7410154403
 30
0.0
 10
230.2641381563
 20
160.0424683707
 30
0.0
 10
230.6528163191
 20
160.2823364743
 30
0.0
 10
231.0775443033
 20
160.4584093297
 30
0.0
 10
231.5264074961
 20
160.5690426155
 30
0.0
 10
231.9810956949
 20
160.621502484
 30
0.0
 10
232.2839421103
 20
160.6294098158
 30
0.0
 10
232.4327405167
 20
160.6283326655
 30
0.0
  0
SPLINE
  5
2D2
100
AcDbEntity
  8
DTM_AXIS
100
AcDbSpline
 62
7
  6
CONTINUOUS
 70
0
 71
3
 72
13
 73
9
 74
0
 42
0.0000001
 43
0.0000001
 44
0.0000000001
 40
0.0
 40
0.0
 40
0.0
 40
0.0
 40
0.1847296691
 40
0.3590039812
 40
0.5226035348
 40
0.6967819623
 40
0.8442574954
 40
1.0
 40
1.0
 40
1.0
 40
1.0
 10
131.3199659183
 20
150.315583179
 30
0.0
 10
132.0617156788
 20
150.4095967256
 30
0.0
 10
134.0110153864
 20
150.2989238818
 30
0.0
 10
136.5135707025
 20
151.059700227
 30
0.0
 10
138.0372969093
 20
153.1169767722
 30
0.0
 10
139.6502139487
 20
154.8706662175
 30
0.0
 10
141.8403907111
 20
155.7770276927
 30
0.0
 10
143.3792107879
 20
155.8425113381
 30
0.0
 10
144.0989659183
 20
155.820383179
 30
0.0
  0
ENDSEC
  0
SECTION
  2
OBJECTS
  0
DICTIONARY
  5
C
100
AcDbDictionary
280
0
281
1
  3
ACAD_GROUP
350
D
  3
ACAD_MLINESTYLE
350
17
  3
ACAD_LAYOUT
350
1A
  3
ACAD_PLOTSETTINGS
350
19
  3
ACAD_PLOTSTYLENAME
350
E
  3
ACAD_TABLESTYLE
350
       2D3
  0
DICTIONARY
  5
D
102
{ACAD_REACTORS
330
C
102
}
100
AcDbDictionary
280
0
281
1
  0
ACDBDICTIONARYWDFLT
  5
E
102
{ACAD_REACTORS
330
C
102
}
100
AcDbDictionary
281
1
  3
Normal
350
F
100
AcDbDictionaryWithDefault
340
F
  0
DICTIONARY
  5
17
102
{ACAD_REACTORS
330
C
102
}
100
AcDbDictionary
280
0
281
1
  3
Standard
350
18
  0
DICTIONARY
  5
2D3
330
C
100
AcDbDictionary
281
1
  3
Standard
350
       2D6
  3
Standard1
350
       2D7
  0
DICTIONARY
  5
19
102
{ACAD_REACTORS
330
C
102
}
100
AcDbDictionary
281
1
  0
DICTIONARY
  5
1A
102
{ACAD_REACTORS
330
C
102
}
100
AcDbDictionary
281
1
  3
Model
350
2D4
  3
Layout1
350
2D5
  0
ACDBPLACEHOLDER
  5
F
102
{ACAD_REACTORS
330
E
102
}
  0
MLINESTYLE
  5
18
102
{ACAD_REACTORS
330
17
102
}
100
AcDbMlineStyle
  2
STANDARD
 70
0
  3

 62
256
 51
90.0
 52
90.0
 71
2
 49
0.5
 62
256
  6
BYLAYER
 49
-0.5
 62
256
  6
BYLAYER
  0
LAYOUT
  5
2D4
102
{ACAD_REACTORS
330
1A
102
}
100
AcDbPlotSettings
  1

  2
none_device
  4
ISO_A4_(297.00_x_210.00_MM)
  6

 40
0.0
 41
0.0
 42
0.0
 43
0.0
 44
297.0
 45
210.0
 46
0.0
 47
0.0
 48
0.0
 49
0.0
140
0.0
141
0.0
142
1.0
143
1.0
 70
1024
 72
1
 73
0
 74
0
  7

 75
0
147
1.0
148
0.0
149
0.0
100
AcDbLayout
  1
Model
 70
0
 71
0
 10
0.0
 20
0.0
 11
297.0
 21
210.0
 12
0.0
 22
0.0
 32
0.0
 14
0.0
 24
0.0
 34
0.0
 15
0.0
 25
0.0
 35
0.0
146
0.0
 13
0.0
 23
0.0
 33
0.0
 16
1.0
 26
0.0
 36
0.0
 17
0.0
 27
1.0
 37
0.0
 76
0
330
214
345
0
346
0
  0
LAYOUT
  5
2D5
102
{ACAD_REACTORS
330
1A
102
}
100
AcDbPlotSettings
  1

  2
none_device
  4
ISO_A4_(297.00_x_210.00_MM)
  6

 40
0.0
 41
0.0
 42
0.0
 43
0.0
 44
297.0
 45
210.0
 46
0.0
 47
0.0
 48
0.0
 49
0.0
140
0.0
141
0.0
142
1.0
143
1.0
 70
0
 72
1
 73
0
 74
0
  7

 75
0
147
1.0
148
0.0
149
0.0
100
AcDbLayout
  1
Layout1
 70
0
 71
1
 10
0.0
 20
0.0
 11
297.0
 21
210.0
 12
0.0
 22
0.0
 32
0.0
 14
0.0
 24
0.0
 34
0.0
 15
0.0
 25
0.0
 35
0.0
146
0.0
 13
0.0
 23
0.0
 33
0.0
 16
1.0
 26
0.0
 36
0.0
 17
0.0
 27
1.0
 37
0.0
 76
0
330
215
345
0
346
0
  0
TABLESTYLE
  5
2D6
102
{ACAD_REACTORS
330
2D3
330
262
102
}
330
2D3
100
AcDbTableStyle
  3
Standard
 70
0
 71
0
 40
0.06
 41
0.06
280
1
281
1
  7
Standard
140
0.18
170
1
 62
0
 63
7
283
0
  7
Standard
140
0.18
170
1
 62
0
 63
7
283
0
  7
Standard
140
0.18
170
1
 62
0
 63
7
283
0
  0
TABLESTYLE
  5
2D7
102
{ACAD_REACTORS
330
2D3
102
}
330
2D3
100
AcDbTableStyle
  3
Standard1
 70
1
 71
0
 40
0.06
 41
0.06
280
1
281
1
  7
Standard
140
0.18
170
1
 62
0
 63
7
283
0
  7
Standard
140
0.18
170
1
 62
0
 63
7
283
0
  7
Standard
140
0.18
170
1
 62
0
 63
7
283
0
  0
ENDSEC
  0
EOF
