999
DXF file: O:\ORAC_PRODUCTEN\ORAC_LIJN6\C-Type\C991\c991-prod-mm.dxf
999
Pro/ENGINEER 2013050 by Parametric Technology Corporation
  0
SECTION
  2
HEADER
  9
$ACADVER
  1
AC1024
  9
$DWGCODEPAGE
  3
ANSI_1252
  9
$EXTMAX
 10
297.0
 20
210.0
 30
0.0
  9
$EXTMIN
 10
0.0
 20
0.0
 30
0.0
  9
$LIMMIN
 10
0.0
 20
0.0
  9
$LIMMAX
 10
297.0
 20
210.0
  9
$VIEWCTR
 10
148.5
 20
105.0
  9
$VIEWSIZE
 40
210.0
  9
$CLAYER
  8
0
  9
$LTSCALE
 40
16.335
  9
$CELTYPE
  6
BYLAYER
  9
$DIMSCALE
 40
1.0
  9
$DIMASZ
 40
3.5
  9
$DIMEXO
 40
1.0
  9
$DIMDLI
 40
11.286
  9
$DIMEXE
 40
1.5
  9
$DIMCEN
 40
2.673
  9
$DIMLFAC
 40
1.0
  9
$DIMBLK
  1
_FILLED
  9
$DIMTXT
 40
2.5
  9
$DIMTOL
 70
1
  9
$DIMLIM
 70
0
  9
$DIMTFAC
 40
1.0
  9
$DIMTP
 40
0.001
  9
$DIMTM
 40
0.001
  9
$DIMGAP
 40
0.625
  9
$DIMDSEP
 70
44
  9
$PDMODE
 70
3
  9
$PDSIZE
 40
8.0
  9
$HANDSEED
  5
28C
  9
$TILEMODE
 70
1
  9
$MEASUREMENT
 70
1
  9
$INSUNITS
 70
4
  0
ENDSEC
  0
SECTION
  2
CLASSES
  0
CLASS
  1
ACDBDICTIONARYWDFLT
  2
AcDbDictionaryWithDefault
  3
AutoCAD 2000
 90
0
 91
1
280
0
281
0
  0
CLASS
  1
ACDBPLACEHOLDER
  2
AcDbPlaceHolder
  3
AutoCAD 2000
 90
0
 91
1
280
0
281
0
  0
CLASS
  1
LAYOUT
  2
AcDbLayout
  3
AutoCAD 2000
 90
0
 91
0
280
0
281
0
  0
CLASS
  1
TABLESTYLE
  2
AcDbTableStyle
  3
ObjectDBX Classes
 90
2047
 91
1
280
0
281
0
  0
CLASS
  1
ACAD_TABLE
  2
AcDbTable
  3
ObjectDBX Classes
 90
1025
 91
1
280
0
281
1
  0
ENDSEC
  0
SECTION
  2
TABLES
  0
TABLE
  2
VPORT
  5
8
100
AcDbSymbolTable
 70
2
  0
VPORT
  5
1F4
100
AcDbSymbolTableRecord
100
AcDbViewportTableRecord
  2
*ACTIVE
 70
0
 10
0.0
 20
0.0
 11
1.0
 21
1.0
 12
148.5
 22
105.0
 13
0.0
 23
0.0
 14
1.0
 24
1.0
 15
0.0
 25
0.0
 16
0.0
 26
0.0
 36
1.0
 17
0.0
 27
0.0
 37
0.0
 40
210.0
 41
1.4142857143
 42
50.0
 43
0.0
 44
0.0
 50
0.0
 51
0.0
 71
0
 72
100
 73
1
 74
1
 75
0
 76
0
 77
0
 78
0
  0
ENDTAB
  0
TABLE
  2
LTYPE
  5
5
100
AcDbSymbolTable
 70
6
  0
LTYPE
  5
14
100
AcDbSymbolTableRecord
100
AcDbLinetypeTableRecord
  2
BYBLOCK
 70
0
  3

 72
65
 73
0
 40
0.0
  0
LTYPE
  5
15
100
AcDbSymbolTableRecord
100
AcDbLinetypeTableRecord
  2
BYLAYER
 70
0
  3

 72
65
 73
0
 40
0.0
  0
LTYPE
  5
16
100
AcDbSymbolTableRecord
100
AcDbLinetypeTableRecord
  2
CONTINUOUS
 70
64
  3
Solid line
 72
65
 73
0
 40
0.0
  0
LTYPE
  5
1F5
100
AcDbSymbolTableRecord
100
AcDbLinetypeTableRecord
  2
CENTER
 70
64
  3
____ _ ____ _ ____ _ ____ _ ____ _ ____ _ ____
 72
65
 73
4
 40
0.6
 49
0.375
 74
0
 49
-0.075
 74
0
 49
0.075
 74
0
 49
-0.075
 74
0
  0
LTYPE
  5
1F6
100
AcDbSymbolTableRecord
100
AcDbLinetypeTableRecord
  2
HIDDEN
 70
64
  3
- - - - - - - - - - - - - - - - - - - -
 72
65
 73
2
 40
0.2
 49
0.1
 74
0
 49
-0.1
 74
0
  0
LTYPE
  5
1F7
100
AcDbSymbolTableRecord
100
AcDbLinetypeTableRecord
  2
PHANTOM
 70
64
  3
_____ _ _ _____ _ _ _____ _ _ _____
 72
65
 73
6
 40
0.8
 49
0.45
 74
0
 49
-0.05
 74
0
 49
0.1
 74
0
 49
-0.05
 74
0
 49
0.1
 74
0
 49
-0.05
 74
0
  0
LTYPE
  5
1F8
100
AcDbSymbolTableRecord
100
AcDbLinetypeTableRecord
  2
DOT
 70
64
  3
. . . . . . . . . . . . . . . . . . . .
 72
65
 73
2
 40
0.2
 49
0.1
 74
0
 49
-0.1
 74
0
  0
LTYPE
  5
1F9
100
AcDbSymbolTableRecord
100
AcDbLinetypeTableRecord
  2
DASHED
 70
64
  3
- - - - - - - - - - - - - - - - - - - -
 72
65
 73
2
 40
0.2
 49
0.1
 74
0
 49
-0.1
 74
0
  0
ENDTAB
  0
TABLE
  2
LAYER
  5
2
100
AcDbSymbolTable
 70
36
  0
LAYER
  5
10
100
AcDbSymbolTableRecord
100
AcDbLayerTableRecord
  2
0
 70
0
 62
7
  6
CONTINUOUS
370
-3
390
F
  0
LAYER
  5
1FA
100
AcDbSymbolTableRecord
100
AcDbLayerTableRecord
  2
DEFAULT_1
 70
0
 62
7
  6
CENTER
370
-3
390
F
  0
LAYER
  5
1FB
100
AcDbSymbolTableRecord
100
AcDbLayerTableRecord
  2
DEFAULT_2
 70
0
 62
8
  6
HIDDEN
370
-3
390
F
  0
LAYER
  5
1FC
100
AcDbSymbolTableRecord
100
AcDbLayerTableRecord
  2
DEFAULT_3
 70
0
 62
7
  6
PHANTOM
370
-3
390
F
  0
LAYER
  5
1FD
100
AcDbSymbolTableRecord
100
AcDbLayerTableRecord
  2
DTM_ALL
 70
0
 62
7
  6
CONTINUOUS
370
-3
390
F
  0
LAYER
  5
1FE
100
AcDbSymbolTableRecord
100
AcDbLayerTableRecord
  2
DTM_AXIS
 70
0
 62
7
  6
CONTINUOUS
370
-3
390
F
  0
LAYER
  5
1FF
100
AcDbSymbolTableRecord
100
AcDbLayerTableRecord
  2
DTM_CSYS
 70
0
 62
7
  6
CONTINUOUS
370
-3
390
F
  0
LAYER
  5
200
100
AcDbSymbolTableRecord
100
AcDbLayerTableRecord
  2
DTM_CURVE
 70
0
 62
7
  6
CONTINUOUS
370
-3
390
F
  0
LAYER
  5
201
100
AcDbSymbolTableRecord
100
AcDbLayerTableRecord
  2
DTM_MASTER
 70
0
 62
7
  6
CONTINUOUS
370
-3
390
F
  0
LAYER
  5
202
100
AcDbSymbolTableRecord
100
AcDbLayerTableRecord
  2
DTM_POINT
 70
0
 62
7
  6
CONTINUOUS
370
-3
390
F
  0
LAYER
  5
203
100
AcDbSymbolTableRecord
100
AcDbLayerTableRecord
  2
DTM_QUILT
 70
0
 62
7
  6
CONTINUOUS
370
-3
390
F
  0
LAYER
  5
204
100
AcDbSymbolTableRecord
100
AcDbLayerTableRecord
  2
GTOL
 70
0
 62
7
  6
CONTINUOUS
370
-3
390
F
  0
LAYER
  5
205
100
AcDbSymbolTableRecord
100
AcDbLayerTableRecord
  2
NOTES
 70
0
 62
7
  6
CONTINUOUS
370
-3
390
F
  0
ENDTAB
  0
TABLE
  2
STYLE
  5
3
100
AcDbSymbolTable
 70
1
  0
STYLE
  5
11
100
AcDbSymbolTableRecord
100
AcDbTextStyleTableRecord
  2
STANDARD
 70
0
 40
0.0
 41
1.0
 50
0.0
 71
0
 42
0.2
  3
cgtime.ttf
  4

  0
STYLE
  5
206
100
AcDbSymbolTableRecord
100
AcDbTextStyleTableRecord
  2
TEXTSTYLE_1
 70
0
 40
0.0
 41
0.8
 50
0.0
 71
0
 42
0.2
  3
gdt
  4

  0
STYLE
  5
207
100
AcDbSymbolTableRecord
100
AcDbTextStyleTableRecord
  2
TEXTSTYLE_2
 70
0
 40
0.0
 41
1.0
 50
0.0
 71
0
 42
0.2
  3
trium.ttf
  4

  0
STYLE
  5
208
100
AcDbSymbolTableRecord
100
AcDbTextStyleTableRecord
  2
TEXTSTYLE_3
 70
0
 40
0.0
 41
1.0
 50
0.0
 71
0
 42
0.2
  3
calibri.ttf
  4

  0
ENDTAB
  0
TABLE
  2
VIEW
  5
6
100
AcDbSymbolTable
 70
0
  0
ENDTAB
  0
TABLE
  2
UCS
  5
7
100
AcDbSymbolTable
 70
0
  0
ENDTAB
  0
TABLE
  2
APPID
  5
9
100
AcDbSymbolTable
 70
1
  0
APPID
  5
209
100
AcDbSymbolTableRecord
100
AcDbRegAppTableRecord
  2
ACAD
 70
0
  0
ENDTAB
  0
TABLE
  2
BLOCK_RECORD
  5
1
100
AcDbSymbolTable
 70
0
  0
BLOCK_RECORD
  5
20A
100
AcDbSymbolTableRecord
100
AcDbBlockTableRecord
  2
*Model_Space
  0
BLOCK_RECORD
  5
20B
100
AcDbSymbolTableRecord
100
AcDbBlockTableRecord
  2
*Paper_Space
  0
BLOCK_RECORD
  5
20C
100
AcDbSymbolTableRecord
100
AcDbBlockTableRecord
  2
_FILLED
  0
BLOCK_RECORD
  5
20D
100
AcDbSymbolTableRecord
100
AcDbBlockTableRecord
  2
*D0
  0
BLOCK_RECORD
  5
20E
100
AcDbSymbolTableRecord
100
AcDbBlockTableRecord
  2
*D1
  0
BLOCK_RECORD
  5
20F
100
AcDbSymbolTableRecord
100
AcDbBlockTableRecord
  2
*D2
  0
BLOCK_RECORD
  5
210
100
AcDbSymbolTableRecord
100
AcDbBlockTableRecord
  2
*T1
  0
ENDTAB
  0
TABLE
  2
DIMSTYLE
  5
A
100
AcDbSymbolTable
 70
1
100
AcDbDimStyleTable
 71
0
  0
DIMSTYLE
105
211
100
AcDbSymbolTableRecord
100
AcDbDimStyleTableRecord
  2
STANDARD
 70
0
  3

  4

 40
1.0
 41
3.5
 42
1.0
 43
0.38
 44
1.5
 45
0.0
 46
0.0
 47
0.001
 48
0.001
140
2.5
141
0.09
142
0.0
143
25.4
144
1.0
145
0.0
146
1.0
147
0.625
 71
1.0
 72
0.0
 73
1
 74
1
 75
0
 76
0
 77
0
 78
8
170
0
171
2
172
0
173
0
174
0
175
0
176
0
177
0
178
0
270
2
271
3
272
3
273
2
274
2
275
0
280
0
281
0
282
0
283
1
284
8
285
0
286
0
287
3
288
0
340
11
278
44
341
20C
342
20C
343
20C
344
20C
  0
DIMSTYLE
105
212
100
AcDbSymbolTableRecord
100
AcDbDimStyleTableRecord
  2
DIMSTYLE_1
 70
0
  3

  4

 40
1.0
 41
3.5
 42
1.0
 43
0.38
 44
1.5
 45
0.0
 46
0.0
 47
0.0
 48
0.0
140
2.5
141
0.09
142
0.0
143
25.4
144
1.0
145
0.0
146
1.0
147
1.25
 71
0.0
 72
0.0
 73
1
 74
1
 75
0
 76
0
 77
0
 78
8
170
0
171
2
172
0
173
0
174
0
175
0
176
0
177
0
178
0
270
2
271
0
272
0
273
2
274
2
275
0
280
0
281
0
282
0
283
1
284
8
285
0
286
0
287
3
288
0
340
11
278
44
341
20C
342
20C
343
20C
344
20C
  0
ENDTAB
  0
ENDSEC
  0
SECTION
  2
BLOCKS
  0
BLOCK
  5
20
100
AcDbEntity
  8
0
100
AcDbBlockBegin
  2
*Model_Space
 70
0
 10
0.0
 20
0.0
 30
0.0
  3
*Model_Space
  1

  0
ENDBLK
  5
21
100
AcDbEntity
  8
0
100
AcDbBlockEnd
  0
BLOCK
  5
1C
100
AcDbEntity
  8
0
100
AcDbBlockBegin
  2
*Paper_Space
 70
0
 10
0.0
 20
0.0
 30
0.0
  3
*Paper_Space
  1

  0
ENDBLK
  5
1D
100
AcDbEntity
  8
0
100
AcDbBlockEnd
  0
BLOCK
  5
213
100
AcDbEntity
  8
0
100
AcDbBlockBegin
  2
_FILLED
 70
64
 10
0.0
 20
0.0
  3
_FILLED
  1

  0
SOLID
  5
214
100
AcDbEntity
  8
0
  6
BYBLOCK
 62
0
100
AcDbTrace
 10
0.0
 20
0.0
 11
-1.0
 21
0.2142857143
 12
-1.0
 22
-0.2142857143
 13
-1.0
 23
-0.2142857143
  0
ENDBLK
  5
215
100
AcDbEntity
  8
0
  6
BYBLOCK
 62
0
100
AcDbBlockEnd
  0
BLOCK
  5
216
100
AcDbEntity
  8
0
100
AcDbBlockBegin
 62
2
  6
CONTINUOUS
  2
*D0
 70
65
 10
0.0
 20
0.0
  3
*D0
  1

  0
TEXT
  5
217
100
AcDbEntity
  8
0
100
AcDbText
 62
2
  6
CONTINUOUS
 10
12.9130984881
 20
103.2890391398
  7
STANDARD
 40
2.5
  1
111
 72
5
 11
18.3702969317
 21
103.2890391398
100
AcDbText
  0
LINE
  5
218
100
AcDbEntity
  8
0
100
AcDbLine
 62
2
  6
CONTINUOUS
 10
32.0843847623
 20
49.1390391398
 11
14.1416977099
 21
49.1390391398
  0
LINE
  5
219
100
AcDbEntity
  8
0
100
AcDbLine
 62
2
  6
CONTINUOUS
 10
40.2401470979
 20
159.9390391398
 11
14.1416977099
 21
159.9390391398
  0
LINE
  5
21A
100
AcDbEntity
  8
0
100
AcDbLine
 62
2
  6
CONTINUOUS
 10
15.6416977099
 20
49.1390391398
 11
15.6416977099
 21
102.0390391398
  0
LINE
  5
21B
100
AcDbEntity
  8
0
100
AcDbLine
 62
2
  6
CONTINUOUS
 10
15.6416977099
 20
159.9390391398
 11
15.6416977099
 21
107.0390391398
  0
INSERT
  5
21C
100
AcDbEntity
  8
0
100
AcDbBlockReference
 62
2
  6
CONTINUOUS
  2
_FILLED
 10
15.6416977099
 20
49.1390391398
 41
3.5
 42
3.5
 43
3.5
 50
270.0
  0
INSERT
  5
21D
100
AcDbEntity
  8
0
100
AcDbBlockReference
 62
2
  6
CONTINUOUS
  2
_FILLED
 10
15.6416977099
 20
159.9390391398
 41
3.5
 42
3.5
 43
3.5
 50
90.0
  0
ENDBLK
  5
21E
100
AcDbEntity
  8
0
  6
BYBLOCK
 62
0
100
AcDbBlockEnd
  0
BLOCK
  5
21F
100
AcDbEntity
  8
0
100
AcDbBlockBegin
 62
2
  6
CONTINUOUS
  2
*D1
 70
65
 10
0.0
 20
0.0
  3
*D1
  1

  0
TEXT
  5
220
100
AcDbEntity
  8
0
100
AcDbText
 62
2
  6
CONTINUOUS
 10
100.7557855405
 20
171.9240488168
  7
STANDARD
 40
2.5
  1
141
 72
5
 11
106.2129839841
 21
171.9240488168
100
AcDbText
  0
LINE
  5
221
100
AcDbEntity
  8
0
100
AcDbLine
 62
2
  6
CONTINUOUS
 10
33.0843847623
 20
80.8366212601
 11
33.0843847623
 21
174.6740488168
  0
LINE
  5
222
100
AcDbEntity
  8
0
100
AcDbLine
 62
2
  6
CONTINUOUS
 10
173.8843847623
 20
160.9390391398
 11
173.8843847623
 21
174.6740488168
  0
LINE
  5
223
100
AcDbEntity
  8
0
100
AcDbLine
 62
2
  6
CONTINUOUS
 10
33.0843847623
 20
173.1740488168
 11
99.5057855405
 21
173.1740488168
  0
LINE
  5
224
100
AcDbEntity
  8
0
100
AcDbLine
 62
2
  6
CONTINUOUS
 10
173.8843847623
 20
173.1740488168
 11
107.4629839841
 21
173.1740488168
  0
INSERT
  5
225
100
AcDbEntity
  8
0
100
AcDbBlockReference
 62
2
  6
CONTINUOUS
  2
_FILLED
 10
33.0843847623
 20
173.1740488168
 41
3.5
 42
3.5
 43
3.5
 50
180.0
  0
INSERT
  5
226
100
AcDbEntity
  8
0
100
AcDbBlockReference
 62
2
  6
CONTINUOUS
  2
_FILLED
 10
173.8843847623
 20
173.1740488168
 41
3.5
 42
3.5
 43
3.5
  0
ENDBLK
  5
227
100
AcDbEntity
  8
0
  6
BYBLOCK
 62
0
100
AcDbBlockEnd
  0
BLOCK
  5
228
100
AcDbEntity
  8
0
100
AcDbBlockBegin
 62
2
  6
CONTINUOUS
  2
*D2
 70
65
 10
0.0
 20
0.0
  3
*D2
  1

  0
TEXT
  5
229
100
AcDbEntity
  8
0
100
AcDbText
 62
2
  6
CONTINUOUS
 10
109.7162668492
 20
88.3734603945
  7
STANDARD
 40
2.5
  1
176
 72
5
 11
115.1734652928
 21
88.3734603945
100
AcDbText
  0
LINE
  5
22A
100
AcDbEntity
  8
0
100
AcDbLine
 62
2
  6
CONTINUOUS
 10
174.4821962398
 20
153.3374024157
 11
183.7415832872
 21
140.9210053083
  0
LINE
  5
22B
100
AcDbEntity
  8
0
100
AcDbLine
 62
2
  6
CONTINUOUS
 10
33.6821962398
 20
48.3374024157
 11
42.9415832872
 21
35.9210053083
  0
LINE
  5
22C
100
AcDbEntity
  8
0
100
AcDbLine
 62
2
  6
CONTINUOUS
 10
182.844866071
 20
142.1234603945
 11
115.7972470234
 21
92.1234603945
  0
LINE
  5
22D
100
AcDbEntity
  8
0
100
AcDbLine
 62
2
  6
CONTINUOUS
 10
42.044866071
 20
37.1234603945
 11
109.0924851186
 21
87.1234603945
  0
INSERT
  5
22E
100
AcDbEntity
  8
0
100
AcDbBlockReference
 62
2
  6
CONTINUOUS
  2
_FILLED
 10
182.844866071
 20
142.1234603945
 41
3.5
 42
3.5
 43
3.5
 50
36.7133165385
  0
INSERT
  5
22F
100
AcDbEntity
  8
0
100
AcDbBlockReference
 62
2
  6
CONTINUOUS
  2
_FILLED
 10
42.044866071
 20
37.1234603945
 41
3.5
 42
3.5
 43
3.5
 50
216.7133165385
  0
ENDBLK
  5
230
100
AcDbEntity
  8
0
  6
BYBLOCK
 62
0
100
AcDbBlockEnd
  0
BLOCK
  5
231
100
AcDbEntity
  8
0
100
AcDbBlockBegin
  2
*T1
 70
1
 10
0.0
 20
0.0
  3
*T1
  1

  0
LINE
  5
232
100
AcDbEntity
  8
0
100
AcDbLine
 62
7
  6
CONTINUOUS
 10
0.0
 20
0.0
 11
148.0
 21
0.0
  0
LINE
  5
233
100
AcDbEntity
  8
0
100
AcDbLine
 62
7
  6
CONTINUOUS
 10
0.0
 20
0.0
 11
0.0
 21
-43.0
  0
LINE
  5
234
100
AcDbEntity
  8
0
100
AcDbLine
 62
7
  6
CONTINUOUS
 10
45.0
 20
-23.0
 11
148.0
 21
-23.0
  0
LINE
  5
235
100
AcDbEntity
  8
0
100
AcDbLine
 62
7
  6
CONTINUOUS
 10
45.0
 20
-28.0
 11
148.0
 21
-28.0
  0
LINE
  5
236
100
AcDbEntity
  8
0
100
AcDbLine
 62
7
  6
CONTINUOUS
 10
0.0
 20
-43.0
 11
148.0
 21
-43.0
  0
LINE
  5
237
100
AcDbEntity
  8
0
100
AcDbLine
 62
7
  6
CONTINUOUS
 10
45.0
 20
0.0
 11
45.0
 21
-43.0
  0
LINE
  5
238
100
AcDbEntity
  8
0
100
AcDbLine
 62
7
  6
CONTINUOUS
 10
143.0
 20
0.0
 11
143.0
 21
-23.0
  0
LINE
  5
239
100
AcDbEntity
  8
0
100
AcDbLine
 62
7
  6
CONTINUOUS
 10
148.0
 20
0.0
 11
148.0
 21
-43.0
  0
TEXT
  5
23A
100
AcDbEntity
  8
0
100
AcDbText
 62
7
  6
CONTINUOUS
 10
8.9659749243
 20
-10.675
  7
STANDARD
 40
8.0
  1
O
 72
5
 11
17.370644185
 21
-10.675
100
AcDbText
  0
TEXT
  5
23B
100
AcDbEntity
  8
0
100
AcDbText
 62
7
  6
CONTINUOUS
 10
17.370644185
 20
-10.675
  7
STANDARD
 40
5.5
  1
RAC
 72
5
 11
33.9562472979
 21
-10.675
100
AcDbText
  0
TEXT
  5
23C
100
AcDbEntity
  8
0
100
AcDbText
 62
7
  6
CONTINUOUS
 10
33.9562472979
 20
-5.925
  7
TEXTSTYLE_2
 40
3.0
  1
®
 72
5
 11
36.0340250757
 21
-5.925
100
AcDbText
  0
TEXT
  5
23D
100
AcDbEntity
  8
0
100
AcDbText
 62
7
  6
CONTINUOUS
 10
9.5323389537
 20
-15.325
  7
TEXTSTYLE_2
 40
3.0
  1
D  E  C  O  R
 72
5
 11
34.3878945093
 21
-15.325
100
AcDbText
  0
TEXT
  5
23E
100
AcDbEntity
  8
0
100
AcDbText
 62
7
  6
CONTINUOUS
 10
34.3878945093
 20
-15.325
  7
STANDARD
 40
2.5
  1
 
 72
5
 11
35.4676610463
 21
-15.325
100
AcDbText
  0
TEXT
  5
23F
100
AcDbEntity
  8
0
100
AcDbText
 62
7
  6
CONTINUOUS
 10
52.5257352941
 20
-6.0
  7
TEXTSTYLE_3
 40
2.75
  1
Part name:
 72
5
 11
71.9375
 21
-6.0
100
AcDbText
  0
TEXT
  5
240
100
AcDbEntity
  8
0
100
AcDbText
 62
7
  6
CONTINUOUS
 10
49.2788865546
 20
-12.875
  7
TEXTSTYLE_3
 40
2.75
  1
Designed by:
 72
5
 11
71.9375
 21
-12.875
100
AcDbText
  0
TEXT
  5
241
100
AcDbEntity
  8
0
100
AcDbText
 62
7
  6
CONTINUOUS
 10
48.9553571429
 20
-19.75
  7
TEXTSTYLE_3
 40
2.75
  1
Designed on:
 72
5
 11
71.9375
 21
-19.75
100
AcDbText
  0
TEXT
  5
242
100
AcDbEntity
  8
0
100
AcDbText
 62
2
  6
CONTINUOUS
 10
74.0625
 20
-6.0
  7
TEXTSTYLE_3
 40
2.75
  1
C991
 72
5
 11
82.9595588235
 21
-6.0
100
AcDbText
  0
TEXT
  5
243
100
AcDbEntity
  8
0
100
AcDbText
 62
2
  6
CONTINUOUS
 10
74.0625
 20
-12.875
  7
TEXTSTYLE_3
 40
2.75
  1
Ulf Moritz
 72
5
 11
91.8103991597
 21
-12.875
100
AcDbText
  0
TEXT
  5
244
100
AcDbEntity
  8
0
100
AcDbText
 62
2
  6
CONTINUOUS
 10
74.0625
 20
-19.75
  7
TEXTSTYLE_3
 40
2.75
  1
25-Aug-2014
 72
5
 11
96.7211134454
 21
-19.75
100
AcDbText
  0
TEXT
  5
245
100
AcDbEntity
  8
0
100
AcDbText
 62
2
  6
CONTINUOUS
 10
96.7211134454
 20
-19.75
  7
TEXTSTYLE_3
 40
2.75
  1
 
 72
5
 11
97.7032563025
 21
-19.75
100
AcDbText
  0
TEXT
  5
246
100
AcDbEntity
  8
0
100
AcDbText
 62
2
  6
CONTINUOUS
 10
146.5625
 20
-17.5
  7
TEXTSTYLE_3
 40
1.5
  1
Version: 
 50
90.0
 72
5
 11
146.5625
 21
-9.0294117647
100
AcDbText
  0
TEXT
  5
247
100
AcDbEntity
  8
0
100
AcDbText
 62
2
  6
CONTINUOUS
 10
146.5625
 20
-9.0294117647
  7
TEXTSTYLE_3
 40
1.5
  1
1.0
 50
90.0
 72
5
 11
146.5625
 21
-6.0357142857
100
AcDbText
  0
TEXT
  5
248
100
AcDbEntity
  8
0
100
AcDbText
 62
2
  6
CONTINUOUS
 10
146.5625
 20
-6.0357142857
  7
TEXTSTYLE_3
 40
1.5
  1
 
 50
90.0
 72
5
 11
146.5625
 21
-5.5
100
AcDbText
  0
TEXT
  5
249
100
AcDbEntity
  8
0
100
AcDbText
 62
7
  6
CONTINUOUS
 10
9.6586134454
 20
-24.25
  7
TEXTSTYLE_3
 40
2.5
  1
Biekorfstraat 32
 72
5
 11
35.3413865546
 21
-24.25
100
AcDbText
  0
TEXT
  5
24A
100
AcDbEntity
  8
0
100
AcDbText
 62
7
  6
CONTINUOUS
 10
2.2584033613
 20
-28.0
  7
TEXTSTYLE_3
 40
2.5
  1
8400 Oostende - Belgium
 72
5
 11
42.7415966387
 21
-28.0
100
AcDbText
  0
TEXT
  5
24B
100
AcDbEntity
  8
0
100
AcDbText
 62
7
  6
CONTINUOUS
 10
4.2699579832
 20
-31.75
  7
TEXTSTYLE_3
 40
2.5
  1
Tel  +32 (0)59 80 32 52
 72
5
 11
40.7300420168
 21
-31.75
100
AcDbText
  0
TEXT
  5
24C
100
AcDbEntity
  8
0
100
AcDbText
 62
7
  6
CONTINUOUS
 10
5.7405462185
 20
-35.5
  7
TEXTSTYLE_3
 40
2.5
  1
www.oracdecor.com
 72
5
 11
39.2594537815
 21
-35.5
100
AcDbText
  0
TEXT
  5
24D
100
AcDbEntity
  8
0
100
AcDbText
 62
7
  6
CONTINUOUS
 10
5.5777310924
 20
-39.25
  7
TEXTSTYLE_3
 40
2.5
  1
info@oracdecor.com
 72
5
 11
39.4222689076
 21
-39.25
100
AcDbText
  0
TEXT
  5
24E
100
AcDbEntity
  8
0
100
AcDbText
 62
7
  6
CONTINUOUS
 10
46.0625
 20
-26.75
  7
TEXTSTYLE_3
 40
2.5
  1
All dimensions are in mm unless otherwise specified   
 72
5
 11
132.3019957983
 21
-26.75
100
AcDbText
  0
TEXT
  5
24F
100
AcDbEntity
  8
0
100
AcDbText
 62
7
  6
CONTINUOUS
 10
46.0625
 20
-31.7075
  7
TEXTSTYLE_3
 40
1.85
  1
All information in this document is Orac's exclusive property.  It may in no case 
 72
5
 11
140.0471638655
 21
-31.7075
100
AcDbText
  0
TEXT
  5
250
100
AcDbEntity
  8
0
100
AcDbText
 62
7
  6
CONTINUOUS
 10
46.0625
 20
-34.8525
  7
TEXTSTYLE_3
 40
1.85
  1
be reproduced, even partly, be communicated to a third party or used for any 
 72
5
 11
138.8345588235
 21
-34.8525
100
AcDbText
  0
TEXT
  5
251
100
AcDbEntity
  8
0
100
AcDbText
 62
7
  6
CONTINUOUS
 10
46.0625
 20
-37.9975
  7
TEXTSTYLE_3
 40
1.85
  1
possible purpose without ORAC's express written permission. 
 72
5
 11
119.4484243697
 21
-37.9975
100
AcDbText
  0
TEXT
  5
252
100
AcDbEntity
  8
0
100
AcDbText
 62
7
  6
CONTINUOUS
 10
46.0625
 20
-41.1425
  7
TEXTSTYLE_3
 40
1.85
  1
Further legal information can be found at http://www.oracdecor.be/nl/disclaimer 
 72
5
 11
143.7316176471
 21
-41.1425
100
AcDbText
  0
ENDBLK
  5
253
100
AcDbEntity
  8
0
  6
BYBLOCK
 62
0
100
AcDbBlockEnd
  0
ENDSEC
  0
SECTION
  2
ENTITIES
  0
DIMENSION
  5
254
100
AcDbEntity
  8
0
100
AcDbDimension
 62
2
  6
CONTINUOUS
  2
*D0
 10
15.6416977099
 20
159.9390391398
 11
15.6416977099
 21
104.5390391398
 70
160
 71
2
 42
110.8
  3
DIMSTYLE_1
100
AcDbAlignedDimension
 13
33.0843847623
 23
49.1390391398
 14
41.2401470979
 24
159.9390391398
 50
90.0
100
AcDbRotatedDimension
  0
DIMENSION
  5
255
100
AcDbEntity
  8
0
100
AcDbDimension
 62
2
  6
CONTINUOUS
  2
*D1
 10
173.8843847623
 20
173.1740488168
 11
103.4843847623
 21
173.1740488168
 70
160
 71
2
 42
140.8
  3
DIMSTYLE_1
100
AcDbAlignedDimension
 13
33.0843847623
 23
79.8366212601
 14
173.8843847623
 24
159.9390391398
100
AcDbRotatedDimension
  0
DIMENSION
  5
256
100
AcDbEntity
  8
0
100
AcDbDimension
 62
2
  6
CONTINUOUS
  2
*D2
 10
42.044866071
 20
37.1234603945
 11
112.444866071
 21
89.6234603945
 70
160
 71
2
 42
175.6406558858
  3
DIMSTYLE_1
100
AcDbAlignedDimension
 13
173.8843847623
 23
154.1390391398
 14
33.0843847623
 24
49.1390391398
 50
216.7133165385
100
AcDbRotatedDimension
  0
ACAD_TABLE
  5
257
100
AcDbEntity
  8
0
 62
2
  6
CONTINUOUS
100
AcDbBlockReference
  2
*T1
 10
143.9999958937
 20
47.9999925619
 30
0.0
100
AcDbTable
342
       28A
343
210
 11
1.0
 21
0.0
 31
0.0
 90
22
 91
4
 92
4
 93
0
 94
0
 95
0
 96
0
141
18.0
141
5.0
141
5.0
141
15.0
142
45.0
142
28.0
142
70.0
142
5.0
171
1
172
0
173
0
174
0
175
1
176
1
 91
41
178
0
145
0.0
301
CELL_VALUE
 90
4
  1
O\H5.5;RAC\P\Ftrium.ttf;\H3.0;®\PD  E  C  O  R\Fcgtime.ttf;\H2.5; 
304
ACVALUE_END
170
5
140
8.0
 64
7
171
1
172
0
173
0
174
0
175
1
176
2
 91
41
178
0
145
0.0
301
CELL_VALUE
 90
4
  1
Part name:\PDesigned by:\PDesigned on:
304
ACVALUE_END
170
6
140
2.75
 64
7
171
1
172
0
173
0
174
0
175
1
176
2
 91
33
178
0
145
0.0
301
CELL_VALUE
 90
4
  1
C991\PUlf Moritz\P25-Aug-2014 
304
ACVALUE_END
170
4
140
2.75
171
1
172
0
173
0
174
0
175
1
176
2
 91
33
178
0
145
0.0
301
CELL_VALUE
 90
4
  1
Version: 1.0 
304
ACVALUE_END
170
6
140
1.5
171
1
172
0
173
0
174
0
175
1
176
3
 91
41
178
0
145
0.0
301
CELL_VALUE
 90
4
  1
Biekorfstraat 32\P8400 Oostende - Belgium\PTel  +32 (0)59 80 32 52\Pwww.oracdecor.com\Pinfo@oracdecor.com
304
ACVALUE_END
170
5
140
2.5
 64
7
171
1
172
0
173
1
174
0
175
1
176
1
 91
1
178
0
145
0.0
170
1
171
1
172
0
173
1
174
0
175
1
176
1
 91
1
178
0
145
0.0
170
1
171
1
172
0
173
1
174
0
175
1
176
1
 91
1
178
0
145
0.0
170
1
171
1
172
0
173
1
174
0
175
1
176
1
 91
1
178
0
145
0.0
170
1
171
1
172
0
173
0
174
0
175
3
176
1
 91
41
178
0
145
0.0
301
CELL_VALUE
 90
4
  1
All dimensions are in mm unless otherwise specified   
304
ACVALUE_END
170
1
140
2.5
 64
7
171
1
172
0
173
1
174
0
175
1
176
1
 91
1
178
0
145
0.0
170
1
171
1
172
0
173
1
174
0
175
1
176
1
 91
1
178
0
145
0.0
170
1
171
1
172
0
173
1
174
0
175
1
176
1
 91
1
178
0
145
0.0
170
1
171
1
172
0
173
0
174
0
175
3
176
1
 91
41
178
0
145
0.0
301
CELL_VALUE
 90
4
  2
All information in this document is Orac's exclusive property.  It may in no case \Pbe reproduced, even partly, be communicated to a third party or used for any \Ppossible purpose without ORAC's express written permission. \PFurther legal information
  1
 can be found at http://www.oracdecor.be/nl/disclaimer 
304
ACVALUE_END
170
4
140
1.85
 64
7
171
1
172
0
173
1
174
0
175
1
176
1
 91
1
178
0
145
0.0
170
1
171
1
172
0
173
1
174
0
175
1
176
1
 91
1
178
0
145
0.0
170
1
  0
LINE
  5
258
100
AcDbEntity
  8
0
100
AcDbLine
 62
5
  6
CONTINUOUS
 10
0.0
 20
0.0
 11
0.0
 21
210.0
  0
LINE
  5
259
100
AcDbEntity
  8
0
100
AcDbLine
 62
7
  6
CONTINUOUS
 10
5.0
 20
5.0
 11
5.0
 21
195.0
  0
LINE
  5
25A
100
AcDbEntity
  8
0
100
AcDbLine
 62
5
  6
CONTINUOUS
 10
0.0
 20
0.0
 11
297.0
 21
0.0
  0
LINE
  5
25B
100
AcDbEntity
  8
0
100
AcDbLine
 62
7
  6
CONTINUOUS
 10
5.0
 20
5.0
 11
292.0
 21
5.0
  0
LINE
  5
25C
100
AcDbEntity
  8
0
100
AcDbLine
 62
4
  6
CONTINUOUS
 10
148.5
 20
195.0
 11
148.5
 21
205.0
  0
LINE
  5
25D
100
AcDbEntity
  8
0
100
AcDbLine
 62
7
  6
CONTINUOUS
 10
5.0
 20
195.0
 11
292.0
 21
195.0
  0
LINE
  5
25E
100
AcDbEntity
  8
0
100
AcDbLine
 62
5
  6
CONTINUOUS
 10
0.0
 20
210.0
 11
297.0
 21
210.0
  0
LINE
  5
25F
100
AcDbEntity
  8
0
100
AcDbLine
 62
7
  6
CONTINUOUS
 10
292.0
 20
5.0
 11
292.0
 21
195.0
  0
LINE
  5
260
100
AcDbEntity
  8
0
100
AcDbLine
 62
5
  6
CONTINUOUS
 10
297.0
 20
0.0
 11
297.0
 21
210.0
  0
LINE
  5
261
100
AcDbEntity
  8
0
100
AcDbLine
 62
7
  6
CONTINUOUS
 10
182.1546975606
 20
77.3730569908
 11
182.1127104637
 21
92.7199149398
  0
LINE
  5
262
100
AcDbEntity
  8
0
100
AcDbLine
 62
7
  6
CONTINUOUS
 10
182.1546975606
 20
77.3730569908
 11
217.2938196541
 21
61.8457237354
  0
LINE
  5
263
100
AcDbEntity
  8
0
100
AcDbLine
 62
7
  6
CONTINUOUS
 10
220.1920178448
 20
61.8552439807
 11
185.0528957513
 21
77.3825772361
  0
LINE
  5
264
100
AcDbEntity
  8
0
100
AcDbLine
 62
7
  6
CONTINUOUS
 10
217.2938196541
 20
61.8457237354
 11
220.1920178448
 21
61.8552439807
  0
LINE
  5
265
100
AcDbEntity
  8
0
100
AcDbLine
 62
7
  6
CONTINUOUS
 10
182.1546975606
 20
77.3730569908
 11
185.0528957513
 21
77.3825772361
  0
LINE
  5
266
100
AcDbEntity
  8
0
100
AcDbLine
 62
7
  6
CONTINUOUS
 10
186.0195916452
 20
130.3661419809
 11
194.2007650329
 21
118.9911751815
  0
LINE
  5
267
100
AcDbEntity
  8
0
100
AcDbLine
 62
7
  6
CONTINUOUS
 10
198.8025143932
 20
122.5495644412
 11
190.4879575136
 21
132.3068273655
  0
LINE
  5
268
100
AcDbEntity
  8
0
100
AcDbLine
 62
7
  6
CONTINUOUS
 10
198.8025143932
 20
122.5495644412
 11
200.7842532139
 21
121.6738704209
  0
LINE
  5
269
100
AcDbEntity
  8
0
100
AcDbLine
 62
7
  6
CONTINUOUS
 10
190.4879575136
 20
132.3068273655
 11
207.0938941795
 21
124.9689686694
  0
LINE
  5
26A
100
AcDbEntity
  8
0
100
AcDbLine
 62
7
  6
CONTINUOUS
 10
189.9818617952
 20
132.7922887569
 11
207.3697511414
 21
125.10889952
  0
LINE
  5
26B
100
AcDbEntity
  8
0
100
AcDbLine
 62
7
  6
CONTINUOUS
 10
252.3673416998
 20
130.097557014
 11
252.3594086593
 21
132.997191772
  0
LINE
  5
26C
100
AcDbEntity
  8
0
100
AcDbLine
 62
7
  6
CONTINUOUS
 10
186.078496657
 20
132.7794666546
 11
189.9818617952
 21
132.7922887569
  0
LINE
  5
26D
100
AcDbEntity
  8
0
100
AcDbLine
 62
7
  6
CONTINUOUS
 10
230.8374489633
 20
132.9264946277
 11
252.3594086593
 21
132.997191772
  0
LINE
  5
26E
100
AcDbEntity
  8
0
100
AcDbLine
 62
7
  6
CONTINUOUS
 10
287.5064637933
 20
114.5702237586
 11
252.3673416998
 21
130.097557014
  0
LINE
  5
26F
100
AcDbEntity
  8
0
100
AcDbLine
 62
7
  6
CONTINUOUS
 10
287.4985307528
 20
117.4698585166
 11
252.3594086593
 21
132.997191772
  0
LINE
  5
270
100
AcDbEntity
  8
0
100
AcDbLine
 62
7
  6
CONTINUOUS
 10
287.5064637933
 20
114.5702237586
 11
287.4985307528
 21
117.4698585166
  0
LINE
  5
271
100
AcDbEntity
  8
0
100
AcDbLine
 62
7
  6
CONTINUOUS
 10
33.0843847623
 20
49.1390391398
 11
33.0843847623
 21
79.8366212601
  0
LINE
  5
272
100
AcDbEntity
  8
0
100
AcDbLine
 62
7
  6
CONTINUOUS
 10
33.0843847623
 20
49.1390391398
 11
38.8843847623
 21
49.1390391398
  0
LINE
  5
273
100
AcDbEntity
  8
0
100
AcDbLine
 62
7
  6
CONTINUOUS
 10
41.1090516874
 20
155.1122122409
 11
57.4191446637
 21
132.305862807
  0
LINE
  5
274
100
AcDbEntity
  8
0
100
AcDbLine
 62
7
  6
CONTINUOUS
 10
66.6477649865
 20
139.3932378359
 11
50.0618844793
 21
158.9646774645
  0
LINE
  5
275
100
AcDbEntity
  8
0
100
AcDbLine
 62
7
  6
CONTINUOUS
 10
41.2401470979
 20
159.9390391398
 11
49.051730817
 21
159.9390391398
  0
LINE
  5
276
100
AcDbEntity
  8
0
100
AcDbLine
 62
7
  6
CONTINUOUS
 10
130.8137049741
 20
159.9390391398
 11
173.8843847623
 21
159.9390391398
  0
LINE
  5
277
100
AcDbEntity
  8
0
100
AcDbLine
 62
7
  6
CONTINUOUS
 10
173.8843847623
 20
154.1390391398
 11
173.8843847623
 21
159.9390391398
  0
ARC
  5
278
100
AcDbEntity
  8
0
100
AcDbCircle
 62
7
  6
CONTINUOUS
 10
187.8210867535
 20
130.0331366589
 40
3.5045497687
100
AcDbArc
 50
40.449873511
 51
51.934435422
  0
ARC
  5
279
100
AcDbEntity
  8
0
100
AcDbCircle
 62
7
  6
CONTINUOUS
 10
192.1700325856
 20
117.5315352149
 40
2.5009189372
100
AcDbArc
 50
314.0323346679
 51
35.7076405505
  0
ARC
  5
27A
100
AcDbEntity
  8
0
100
AcDbCircle
 62
7
  6
CONTINUOUS
 10
200.7028180152
 20
124.1688294787
 40
2.4966323553
100
AcDbArc
 50
220.4346019392
 51
302.5090853969
  0
ARC
  5
27B
100
AcDbEntity
  8
0
100
AcDbCircle
 62
7
  6
CONTINUOUS
 10
187.6440497351
 20
131.5338388706
 40
2.00061894
100
AcDbArc
 50
141.4925894692
 51
215.7094271354
  0
ARC
  5
27C
100
AcDbEntity
  8
0
100
AcDbCircle
 62
7
  6
CONTINUOUS
 10
44.7216037981
 20
154.4390391398
 40
7.0
100
AcDbArc
 50
40.2797177652
 51
51.7867892983
  0
ARC
  5
27D
100
AcDbEntity
  8
0
100
AcDbCircle
 62
7
  6
CONTINUOUS
 10
70.4622511874
 20
142.6258366392
 40
5.0
100
AcDbArc
 50
220.2797177652
 51
302.3073683519
  0
ARC
  5
27E
100
AcDbEntity
  8
0
100
AcDbCircle
 62
7
  6
CONTINUOUS
 10
53.3521516516
 20
129.3973291834
 40
5.0
100
AcDbArc
 50
313.8516220648
 51
35.5706743126
  0
ARC
  5
27F
100
AcDbEntity
  8
0
100
AcDbCircle
 62
7
  6
CONTINUOUS
 10
44.3626460971
 20
157.4390391398
 40
4.0
100
AcDbArc
 50
141.3178125465
 51
215.5706743126
  0
SPLINE
  5
280
100
AcDbEntity
  8
0
100
AcDbSpline
 62
7
  6
CONTINUOUS
 70
0
 71
3
 72
38
 73
34
 74
0
 42
0.0000001
 43
0.0000001
 44
0.0000000001
 40
0.0
 40
0.0
 40
0.0
 40
0.0
 40
0.0696557884
 40
0.1036050957
 40
0.1369653006
 40
0.169750839
 40
0.1859382383
 40
0.2019937287
 40
0.233665943
 40
0.264652804
 40
0.2948196928
 40
0.3240204657
 40
0.3520991701
 40
0.3789914331
 40
0.4049459237
 40
0.430280864
 40
0.4553229377
 40
0.4804056742
 40
0.5058667237
 40
0.5319235823
 40
0.5584577249
 40
0.5853165284
 40
0.6123826042
 40
0.639582403
 40
0.6670078628
 40
0.6950615681
 40
0.7242183623
 40
0.754973093
 40
0.8232206491
 40
0.861719836
 40
0.9037318889
 40
0.9496880682
 40
1.0
 40
1.0
 40
1.0
 40
1.0
 10
287.5064637933
 20
114.5702237586
 30
0.0
 10
285.2510430185
 20
114.5007896485
 30
0.0
 10
281.8965821422
 20
114.377215895
 30
0.0
 10
277.4681845228
 20
114.0965354508
 30
0.0
 10
274.2375242345
 20
113.8146853345
 30
0.0
 10
271.5880870423
 20
113.5028188434
 30
0.0
 10
269.503459678
 20
113.1985579687
 30
0.0
 10
267.4610290059
 20
112.8578976347
 30
0.0
 10
264.9585884746
 20
112.3645365879
 30
0.0
 10
262.0305340395
 20
111.6771579809
 30
0.0
 10
259.2040505317
 20
110.9147253895
 30
0.0
 10
256.492086013
 20
110.0947835106
 30
0.0
 10
253.9044016413
 20
109.2342138038
 30
0.0
 10
251.4384270113
 20
108.3435196162
 30
0.0
 10
249.083731947
 20
107.4095530194
 30
0.0
 10
246.8184274508
 20
106.4167211324
 30
0.0
 10
244.618886392
 20
105.348607574
 30
0.0
 10
242.4615456398
 20
104.1888763642
 30
0.0
 10
240.3260242349
 20
102.9237291488
 30
0.0
 10
238.2045741544
 20
101.5465149427
 30
0.0
 10
236.1139864684
 20
100.0433643412
 30
0.0
 10
234.0825899639
 20
98.4079090969
 30
0.0
 10
232.140549636
 20
96.6344754723
 30
0.0
 10
230.3155746
 20
94.7145540155
 30
0.0
 10
228.6291945664
 20
92.6297610785
 30
0.0
 10
227.090660206
 20
90.3562596894
 30
0.0
 10
225.7016327191
 20
87.864035252
 30
0.0
 10
223.9900676079
 20
84.0769091476
 30
0.0
 10
222.6572111902
 20
79.8077300715
 30
0.0
 10
221.6424995552
 20
75.0956742497
 30
0.0
 10
220.9991809444
 20
71.0474323548
 30
0.0
 10
220.5035089258
 20
66.5941545242
 30
0.0
 10
220.2817992687
 20
63.4826170957
 30
0.0
 10
220.1920178448
 20
61.8552439807
 30
0.0
  0
SPLINE
  5
281
100
AcDbEntity
  8
0
100
AcDbSpline
 62
7
  6
CONTINUOUS
 70
0
 71
3
 72
13
 73
9
 74
0
 42
0.0000001
 43
0.0000001
 44
0.0000000001
 40
0.0
 40
0.0
 40
0.0
 40
0.0
 40
0.2847142402
 40
0.5394332684
 40
0.6591121912
 40
0.7752080107
 40
0.8886128258
 40
1.0
 40
1.0
 40
1.0
 40
1.0
 10
182.1127104637
 20
92.7199149398
 30
0.0
 10
182.6113657938
 20
95.1627775005
 30
0.0
 10
183.797656833
 20
99.7494466351
 30
0.0
 10
186.0341816572
 20
105.098258136
 30
0.0
 10
188.1873500023
 20
108.8203614061
 30
0.0
 10
189.9373603301
 20
111.3322003462
 30
0.0
 10
191.8390724995
 20
113.6371459378
 30
0.0
 10
193.2071532377
 20
115.0554315473
 30
0.0
 10
193.9083487328
 20
115.7334879371
 30
0.0
  0
SPLINE
  5
282
100
AcDbEntity
  8
0
100
AcDbSpline
 62
7
  6
CONTINUOUS
 70
0
 71
3
 72
16
 73
12
 74
0
 42
0.0000001
 43
0.0000001
 44
0.0000000001
 40
0.0
 40
0.0
 40
0.0
 40
0.0
 40
0.1183026802
 40
0.2343381065
 40
0.3505336413
 40
0.4687851428
 40
0.529483855
 40
0.5918293358
 40
0.7217334425
 40
0.8580374747
 40
1.0
 40
1.0
 40
1.0
 40
1.0
 10
202.0452536391
 20
122.0635911889
 30
0.0
 10
203.0743979269
 20
122.7192124701
 30
0.0
 10
205.1496906512
 20
123.9613401953
 30
0.0
 10
208.3541943401
 20
125.6397232119
 30
0.0
 10
211.6462816802
 20
127.1374393703
 30
0.0
 10
214.4773507353
 20
128.2596849799
 30
0.0
 10
216.8182682576
 20
129.1052800609
 30
0.0
 10
219.2876361897
 20
129.9478400154
 30
0.0
 10
222.5245195442
 20
130.9544264702
 30
0.0
 10
226.5936096337
 20
132.0395461034
 30
0.0
 10
229.3992701471
 20
132.6512710195
 30
0.0
 10
230.8374489633
 20
132.9264946277
 30
0.0
  0
SPLINE
  5
283
100
AcDbEntity
  8
0
100
AcDbSpline
 62
7
  6
CONTINUOUS
 70
0
 71
3
 72
38
 73
34
 74
0
 42
0.0000001
 43
0.0000001
 44
0.0000000001
 40
0.0
 40
0.0
 40
0.0
 40
0.0
 40
0.0696557884
 40
0.1036050957
 40
0.1369653006
 40
0.169750839
 40
0.1859382383
 40
0.2019937287
 40
0.233665943
 40
0.264652804
 40
0.2948196928
 40
0.3240204657
 40
0.3520991701
 40
0.3789914331
 40
0.4049459237
 40
0.430280864
 40
0.4553229377
 40
0.4804056742
 40
0.5058667237
 40
0.5319235823
 40
0.5584577249
 40
0.5853165284
 40
0.6123826042
 40
0.639582403
 40
0.6670078628
 40
0.6950615681
 40
0.7242183623
 40
0.754973093
 40
0.8232206491
 40
0.861719836
 40
0.9037318889
 40
0.9496880682
 40
1.0
 40
1.0
 40
1.0
 40
1.0
 10
252.3673416998
 20
130.097557014
 30
0.0
 10
250.111920925
 20
130.0281229039
 30
0.0
 10
246.7574600487
 20
129.9045491504
 30
0.0
 10
242.3290624293
 20
129.6238687062
 30
0.0
 10
239.0984021411
 20
129.3420185899
 30
0.0
 10
236.4489649489
 20
129.0301520988
 30
0.0
 10
234.3643375845
 20
128.7258912241
 30
0.0
 10
232.3219069124
 20
128.3852308901
 30
0.0
 10
229.8194663811
 20
127.8918698433
 30
0.0
 10
226.891411946
 20
127.2044912363
 30
0.0
 10
224.0649284382
 20
126.4420586449
 30
0.0
 10
221.3529639195
 20
125.622116766
 30
0.0
 10
218.7652795478
 20
124.7615470592
 30
0.0
 10
216.2993049178
 20
123.8708528716
 30
0.0
 10
213.9446098535
 20
122.9368862748
 30
0.0
 10
211.6793053573
 20
121.9440543878
 30
0.0
 10
209.4797642985
 20
120.8759408294
 30
0.0
 10
207.3224235464
 20
119.7162096196
 30
0.0
 10
205.1869021414
 20
118.4510624042
 30
0.0
 10
203.0654520609
 20
117.0738481981
 30
0.0
 10
200.9748643749
 20
115.5706975966
 30
0.0
 10
198.9434678704
 20
113.9352423523
 30
0.0
 10
197.0014275425
 20
112.1618087277
 30
0.0
 10
195.1764525065
 20
110.2418872709
 30
0.0
 10
193.4900724729
 20
108.1570943339
 30
0.0
 10
191.9515381125
 20
105.8835929448
 30
0.0
 10
190.5625106256
 20
103.3913685074
 30
0.0
 10
188.8509455144
 20
99.604242403
 30
0.0
 10
187.5180890967
 20
95.3350633269
 30
0.0
 10
186.5033774617
 20
90.6230075051
 30
0.0
 10
185.860058851
 20
86.5747656102
 30
0.0
 10
185.3643868324
 20
82.1214877796
 30
0.0
 10
185.1426771752
 20
79.0099503511
 30
0.0
 10
185.0528957513
 20
77.3825772361
 30
0.0
  0
SPLINE
  5
284
100
AcDbEntity
  8
0
100
AcDbSpline
 62
7
  6
CONTINUOUS
 70
0
 71
3
 72
13
 73
9
 74
0
 42
0.0000001
 43
0.0000001
 44
0.0000000001
 40
0.0
 40
0.0
 40
0.0
 40
0.0
 40
0.1738860511
 40
0.3411969631
 40
0.5277105516
 40
0.6815778359
 40
0.8507349704
 40
1.0
 40
1.0
 40
1.0
 40
1.0
 10
173.8843847623
 20
154.1390391398
 30
0.0
 10
161.1183330961
 20
153.7881691691
 30
0.0
 10
137.1896732358
 20
152.6866066528
 30
0.0
 10
104.4371731101
 20
143.6882536343
 30
0.0
 10
81.4562643555
 20
133.5287186895
 30
0.0
 10
58.1790344262
 20
116.176634482
 30
0.0
 10
44.2019883653
 20
92.4436676273
 30
0.0
 10
39.8265612733
 20
65.3989878234
 30
0.0
 10
38.8843847623
 20
49.1390391398
 30
0.0
  0
SPLINE
  5
285
100
AcDbEntity
  8
0
100
AcDbSpline
 62
7
  6
CONTINUOUS
 70
0
 71
3
 72
11
 73
7
 74
0
 42
0.0000001
 43
0.0000001
 44
0.0000000001
 40
0.0
 40
0.0
 40
0.0
 40
0.0
 40
0.1919220349
 40
0.5379971551
 40
0.8840722753
 40
1.0
 40
1.0
 40
1.0
 40
1.0
 10
33.0843847623
 20
79.8366212601
 30
0.0
 10
33.9131101178
 20
83.8381006024
 30
0.0
 10
36.5919821802
 20
94.3546770207
 30
0.0
 10
42.7392295725
 20
108.8586983803
 30
0.0
 10
50.4819102283
 20
119.3892159908
 30
0.0
 10
55.5219395121
 20
124.5483351533
 30
0.0
 10
56.8161175555
 20
125.7916475257
 30
0.0
  0
SPLINE
  5
286
100
AcDbEntity
  8
0
100
AcDbSpline
 62
7
  6
CONTINUOUS
 70
0
 71
3
 72
15
 73
11
 74
0
 42
0.0000001
 43
0.0000001
 44
0.0000000001
 40
0.0
 40
0.0
 40
0.0
 40
0.0
 40
0.0369212383
 40
0.1734332642
 40
0.30994529
 40
0.4464573158
 40
0.5829693416
 40
0.8278839532
 40
0.9503412589
 40
1.0
 40
1.0
 40
1.0
 40
1.0
 10
73.134556424
 20
138.399871102
 30
0.0
 10
73.7547123965
 20
138.7920290688
 30
0.0
 10
76.667465629
 20
140.598375409
 30
0.0
 10
81.8582358445
 20
143.5438180382
 30
0.0
 10
88.8787716785
 20
146.974258652
 30
0.0
 10
96.1580597416
 20
150.0249295679
 30
0.0
 10
105.8102045886
 20
153.5271712791
 30
0.0
 10
116.2581420799
 20
156.7197689834
 30
0.0
 10
125.6470817389
 20
158.9251855566
 30
0.0
 10
129.6499828435
 20
159.7203837905
 30
0.0
 10
130.8137049741
 20
159.9390391398
 30
0.0
  0
ENDSEC
  0
SECTION
  2
OBJECTS
  0
DICTIONARY
  5
C
100
AcDbDictionary
280
0
281
1
  3
ACAD_GROUP
350
D
  3
ACAD_MLINESTYLE
350
17
  3
ACAD_LAYOUT
350
1A
  3
ACAD_PLOTSETTINGS
350
19
  3
ACAD_PLOTSTYLENAME
350
E
  3
ACAD_TABLESTYLE
350
       287
  0
DICTIONARY
  5
D
102
{ACAD_REACTORS
330
C
102
}
100
AcDbDictionary
280
0
281
1
  0
ACDBDICTIONARYWDFLT
  5
E
102
{ACAD_REACTORS
330
C
102
}
100
AcDbDictionary
281
1
  3
Normal
350
F
100
AcDbDictionaryWithDefault
340
F
  0
DICTIONARY
  5
17
102
{ACAD_REACTORS
330
C
102
}
100
AcDbDictionary
280
0
281
1
  3
Standard
350
18
  0
DICTIONARY
  5
287
330
C
100
AcDbDictionary
281
1
  3
Standard
350
       28A
  3
Standard1
350
       28B
  0
DICTIONARY
  5
19
102
{ACAD_REACTORS
330
C
102
}
100
AcDbDictionary
281
1
  0
DICTIONARY
  5
1A
102
{ACAD_REACTORS
330
C
102
}
100
AcDbDictionary
281
1
  3
Model
350
288
  3
Layout1
350
289
  0
ACDBPLACEHOLDER
  5
F
102
{ACAD_REACTORS
330
E
102
}
  0
MLINESTYLE
  5
18
102
{ACAD_REACTORS
330
17
102
}
100
AcDbMlineStyle
  2
STANDARD
 70
0
  3

 62
256
 51
90.0
 52
90.0
 71
2
 49
0.5
 62
256
  6
BYLAYER
 49
-0.5
 62
256
  6
BYLAYER
  0
LAYOUT
  5
288
102
{ACAD_REACTORS
330
1A
102
}
100
AcDbPlotSettings
  1

  2
none_device
  4
ISO_A4_(297.00_x_210.00_MM)
  6

 40
0.0
 41
0.0
 42
0.0
 43
0.0
 44
297.0
 45
210.0
 46
0.0
 47
0.0
 48
0.0
 49
0.0
140
0.0
141
0.0
142
1.0
143
1.0
 70
1024
 72
1
 73
0
 74
0
  7

 75
0
147
1.0
148
0.0
149
0.0
100
AcDbLayout
  1
Model
 70
0
 71
0
 10
0.0
 20
0.0
 11
297.0
 21
210.0
 12
0.0
 22
0.0
 32
0.0
 14
0.0
 24
0.0
 34
0.0
 15
0.0
 25
0.0
 35
0.0
146
0.0
 13
0.0
 23
0.0
 33
0.0
 16
1.0
 26
0.0
 36
0.0
 17
0.0
 27
1.0
 37
0.0
 76
0
330
20A
345
0
346
0
  0
LAYOUT
  5
289
102
{ACAD_REACTORS
330
1A
102
}
100
AcDbPlotSettings
  1

  2
none_device
  4
ISO_A4_(297.00_x_210.00_MM)
  6

 40
0.0
 41
0.0
 42
0.0
 43
0.0
 44
297.0
 45
210.0
 46
0.0
 47
0.0
 48
0.0
 49
0.0
140
0.0
141
0.0
142
1.0
143
1.0
 70
0
 72
1
 73
0
 74
0
  7

 75
0
147
1.0
148
0.0
149
0.0
100
AcDbLayout
  1
Layout1
 70
0
 71
1
 10
0.0
 20
0.0
 11
297.0
 21
210.0
 12
0.0
 22
0.0
 32
0.0
 14
0.0
 24
0.0
 34
0.0
 15
0.0
 25
0.0
 35
0.0
146
0.0
 13
0.0
 23
0.0
 33
0.0
 16
1.0
 26
0.0
 36
0.0
 17
0.0
 27
1.0
 37
0.0
 76
0
330
20B
345
0
346
0
  0
TABLESTYLE
  5
28A
102
{ACAD_REACTORS
330
287
330
257
102
}
330
287
100
AcDbTableStyle
  3
Standard
 70
0
 71
0
 40
0.06
 41
0.06
280
1
281
1
  7
Standard
140
0.18
170
1
 62
0
 63
7
283
0
  7
Standard
140
0.18
170
1
 62
0
 63
7
283
0
  7
Standard
140
0.18
170
1
 62
0
 63
7
283
0
  0
TABLESTYLE
  5
28B
102
{ACAD_REACTORS
330
287
102
}
330
287
100
AcDbTableStyle
  3
Standard1
 70
1
 71
0
 40
0.06
 41
0.06
280
1
281
1
  7
Standard
140
0.18
170
1
 62
0
 63
7
283
0
  7
Standard
140
0.18
170
1
 62
0
 63
7
283
0
  7
Standard
140
0.18
170
1
 62
0
 63
7
283
0
  0
ENDSEC
  0
EOF
