999
DXF file: O:\ORAC_PRODUCTEN\ORAC_LIJN6\C-Type\C902\c902-prod-mm.dxf
999
Pro/ENGINEER 2013050 by Parametric Technology Corporation
  0
SECTION
  2
HEADER
  9
$ACADVER
  1
AC1024
  9
$DWGCODEPAGE
  3
ANSI_1252
  9
$EXTMAX
 10
297.0
 20
210.0
 30
0.0
  9
$EXTMIN
 10
0.0
 20
0.0
 30
0.0
  9
$LIMMIN
 10
0.0
 20
0.0
  9
$LIMMAX
 10
297.0
 20
210.0
  9
$VIEWCTR
 10
148.5
 20
105.0
  9
$VIEWSIZE
 40
210.0
  9
$CLAYER
  8
0
  9
$LTSCALE
 40
16.335
  9
$CELTYPE
  6
BYLAYER
  9
$DIMSCALE
 40
1.0
  9
$DIMASZ
 40
3.5
  9
$DIMEXO
 40
1.0
  9
$DIMDLI
 40
11.286
  9
$DIMEXE
 40
1.5
  9
$DIMCEN
 40
2.673
  9
$DIMLFAC
 40
1.0
  9
$DIMBLK
  1
_FILLED
  9
$DIMTXT
 40
2.5
  9
$DIMTOL
 70
1
  9
$DIMLIM
 70
0
  9
$DIMTFAC
 40
1.0
  9
$DIMTP
 40
0.001
  9
$DIMTM
 40
0.001
  9
$DIMGAP
 40
0.625
  9
$DIMDSEP
 70
44
  9
$PDMODE
 70
3
  9
$PDSIZE
 40
8.0
  9
$HANDSEED
  5
2DB
  9
$TILEMODE
 70
1
  9
$MEASUREMENT
 70
1
  9
$INSUNITS
 70
4
  0
ENDSEC
  0
SECTION
  2
CLASSES
  0
CLASS
  1
ACDBDICTIONARYWDFLT
  2
AcDbDictionaryWithDefault
  3
AutoCAD 2000
 90
0
 91
1
280
0
281
0
  0
CLASS
  1
ACDBPLACEHOLDER
  2
AcDbPlaceHolder
  3
AutoCAD 2000
 90
0
 91
1
280
0
281
0
  0
CLASS
  1
LAYOUT
  2
AcDbLayout
  3
AutoCAD 2000
 90
0
 91
0
280
0
281
0
  0
CLASS
  1
TABLESTYLE
  2
AcDbTableStyle
  3
ObjectDBX Classes
 90
2047
 91
1
280
0
281
0
  0
CLASS
  1
ACAD_TABLE
  2
AcDbTable
  3
ObjectDBX Classes
 90
1025
 91
1
280
0
281
1
  0
ENDSEC
  0
SECTION
  2
TABLES
  0
TABLE
  2
VPORT
  5
8
100
AcDbSymbolTable
 70
2
  0
VPORT
  5
1F4
100
AcDbSymbolTableRecord
100
AcDbViewportTableRecord
  2
*ACTIVE
 70
0
 10
0.0
 20
0.0
 11
1.0
 21
1.0
 12
148.5
 22
105.0
 13
0.0
 23
0.0
 14
1.0
 24
1.0
 15
0.0
 25
0.0
 16
0.0
 26
0.0
 36
1.0
 17
0.0
 27
0.0
 37
0.0
 40
210.0
 41
1.4142857143
 42
50.0
 43
0.0
 44
0.0
 50
0.0
 51
0.0
 71
0
 72
100
 73
1
 74
1
 75
0
 76
0
 77
0
 78
0
  0
ENDTAB
  0
TABLE
  2
LTYPE
  5
5
100
AcDbSymbolTable
 70
6
  0
LTYPE
  5
14
100
AcDbSymbolTableRecord
100
AcDbLinetypeTableRecord
  2
BYBLOCK
 70
0
  3

 72
65
 73
0
 40
0.0
  0
LTYPE
  5
15
100
AcDbSymbolTableRecord
100
AcDbLinetypeTableRecord
  2
BYLAYER
 70
0
  3

 72
65
 73
0
 40
0.0
  0
LTYPE
  5
16
100
AcDbSymbolTableRecord
100
AcDbLinetypeTableRecord
  2
CONTINUOUS
 70
64
  3
Solid line
 72
65
 73
0
 40
0.0
  0
LTYPE
  5
1F5
100
AcDbSymbolTableRecord
100
AcDbLinetypeTableRecord
  2
CENTER
 70
64
  3
____ _ ____ _ ____ _ ____ _ ____ _ ____ _ ____
 72
65
 73
4
 40
0.6
 49
0.375
 74
0
 49
-0.075
 74
0
 49
0.075
 74
0
 49
-0.075
 74
0
  0
LTYPE
  5
1F6
100
AcDbSymbolTableRecord
100
AcDbLinetypeTableRecord
  2
HIDDEN
 70
64
  3
- - - - - - - - - - - - - - - - - - - -
 72
65
 73
2
 40
0.2
 49
0.1
 74
0
 49
-0.1
 74
0
  0
LTYPE
  5
1F7
100
AcDbSymbolTableRecord
100
AcDbLinetypeTableRecord
  2
PHANTOM
 70
64
  3
_____ _ _ _____ _ _ _____ _ _ _____
 72
65
 73
6
 40
0.8
 49
0.45
 74
0
 49
-0.05
 74
0
 49
0.1
 74
0
 49
-0.05
 74
0
 49
0.1
 74
0
 49
-0.05
 74
0
  0
LTYPE
  5
1F8
100
AcDbSymbolTableRecord
100
AcDbLinetypeTableRecord
  2
DOT
 70
64
  3
. . . . . . . . . . . . . . . . . . . .
 72
65
 73
2
 40
0.2
 49
0.1
 74
0
 49
-0.1
 74
0
  0
LTYPE
  5
1F9
100
AcDbSymbolTableRecord
100
AcDbLinetypeTableRecord
  2
DASHED
 70
64
  3
- - - - - - - - - - - - - - - - - - - -
 72
65
 73
2
 40
0.2
 49
0.1
 74
0
 49
-0.1
 74
0
  0
ENDTAB
  0
TABLE
  2
LAYER
  5
2
100
AcDbSymbolTable
 70
36
  0
LAYER
  5
10
100
AcDbSymbolTableRecord
100
AcDbLayerTableRecord
  2
0
 70
0
 62
7
  6
CONTINUOUS
370
-3
390
F
  0
LAYER
  5
1FA
100
AcDbSymbolTableRecord
100
AcDbLayerTableRecord
  2
DEFAULT_1
 70
0
 62
7
  6
CENTER
370
-3
390
F
  0
LAYER
  5
1FB
100
AcDbSymbolTableRecord
100
AcDbLayerTableRecord
  2
DEFAULT_2
 70
0
 62
8
  6
HIDDEN
370
-3
390
F
  0
LAYER
  5
1FC
100
AcDbSymbolTableRecord
100
AcDbLayerTableRecord
  2
DEFAULT_3
 70
0
 62
7
  6
PHANTOM
370
-3
390
F
  0
LAYER
  5
1FD
100
AcDbSymbolTableRecord
100
AcDbLayerTableRecord
  2
CURVES
 70
0
 62
7
  6
CONTINUOUS
370
-3
390
F
  0
LAYER
  5
1FE
100
AcDbSymbolTableRecord
100
AcDbLayerTableRecord
  2
DTM_ALL
 70
0
 62
7
  6
CONTINUOUS
370
-3
390
F
  0
LAYER
  5
1FF
100
AcDbSymbolTableRecord
100
AcDbLayerTableRecord
  2
DTM_AXIS
 70
0
 62
7
  6
CONTINUOUS
370
-3
390
F
  0
LAYER
  5
200
100
AcDbSymbolTableRecord
100
AcDbLayerTableRecord
  2
DTM_CSYS
 70
0
 62
7
  6
CONTINUOUS
370
-3
390
F
  0
LAYER
  5
201
100
AcDbSymbolTableRecord
100
AcDbLayerTableRecord
  2
DTM_CURVE
 70
0
 62
7
  6
CONTINUOUS
370
-3
390
F
  0
LAYER
  5
202
100
AcDbSymbolTableRecord
100
AcDbLayerTableRecord
  2
DTM_MASTER
 70
0
 62
7
  6
CONTINUOUS
370
-3
390
F
  0
LAYER
  5
203
100
AcDbSymbolTableRecord
100
AcDbLayerTableRecord
  2
DTM_POINT
 70
0
 62
7
  6
CONTINUOUS
370
-3
390
F
  0
LAYER
  5
204
100
AcDbSymbolTableRecord
100
AcDbLayerTableRecord
  2
DTM_QUILT
 70
0
 62
7
  6
CONTINUOUS
370
-3
390
F
  0
LAYER
  5
205
100
AcDbSymbolTableRecord
100
AcDbLayerTableRecord
  2
GTOL
 70
0
 62
7
  6
CONTINUOUS
370
-3
390
F
  0
LAYER
  5
206
100
AcDbSymbolTableRecord
100
AcDbLayerTableRecord
  2
NOTES
 70
0
 62
7
  6
CONTINUOUS
370
-3
390
F
  0
LAYER
  5
207
100
AcDbSymbolTableRecord
100
AcDbLayerTableRecord
  2
SURFACES
 70
0
 62
7
  6
CONTINUOUS
370
-3
390
F
  0
ENDTAB
  0
TABLE
  2
STYLE
  5
3
100
AcDbSymbolTable
 70
1
  0
STYLE
  5
11
100
AcDbSymbolTableRecord
100
AcDbTextStyleTableRecord
  2
STANDARD
 70
0
 40
0.0
 41
1.0
 50
0.0
 71
0
 42
0.2
  3
cgtime.ttf
  4

  0
STYLE
  5
208
100
AcDbSymbolTableRecord
100
AcDbTextStyleTableRecord
  2
TEXTSTYLE_1
 70
0
 40
0.0
 41
0.8
 50
0.0
 71
0
 42
0.2
  3
gdt
  4

  0
STYLE
  5
209
100
AcDbSymbolTableRecord
100
AcDbTextStyleTableRecord
  2
TEXTSTYLE_2
 70
0
 40
0.0
 41
1.0
 50
0.0
 71
0
 42
0.2
  3
trium.ttf
  4

  0
STYLE
  5
20A
100
AcDbSymbolTableRecord
100
AcDbTextStyleTableRecord
  2
TEXTSTYLE_3
 70
0
 40
0.0
 41
1.0
 50
0.0
 71
0
 42
0.2
  3
calibri.ttf
  4

  0
ENDTAB
  0
TABLE
  2
VIEW
  5
6
100
AcDbSymbolTable
 70
0
  0
ENDTAB
  0
TABLE
  2
UCS
  5
7
100
AcDbSymbolTable
 70
0
  0
ENDTAB
  0
TABLE
  2
APPID
  5
9
100
AcDbSymbolTable
 70
1
  0
APPID
  5
20B
100
AcDbSymbolTableRecord
100
AcDbRegAppTableRecord
  2
ACAD
 70
0
  0
ENDTAB
  0
TABLE
  2
BLOCK_RECORD
  5
1
100
AcDbSymbolTable
 70
0
  0
BLOCK_RECORD
  5
20C
100
AcDbSymbolTableRecord
100
AcDbBlockTableRecord
  2
*Model_Space
  0
BLOCK_RECORD
  5
20D
100
AcDbSymbolTableRecord
100
AcDbBlockTableRecord
  2
*Paper_Space
  0
BLOCK_RECORD
  5
20E
100
AcDbSymbolTableRecord
100
AcDbBlockTableRecord
  2
_FILLED
  0
BLOCK_RECORD
  5
20F
100
AcDbSymbolTableRecord
100
AcDbBlockTableRecord
  2
*D0
  0
BLOCK_RECORD
  5
210
100
AcDbSymbolTableRecord
100
AcDbBlockTableRecord
  2
*D1
  0
BLOCK_RECORD
  5
211
100
AcDbSymbolTableRecord
100
AcDbBlockTableRecord
  2
*D2
  0
BLOCK_RECORD
  5
212
100
AcDbSymbolTableRecord
100
AcDbBlockTableRecord
  2
*T1
  0
ENDTAB
  0
TABLE
  2
DIMSTYLE
  5
A
100
AcDbSymbolTable
 70
1
100
AcDbDimStyleTable
 71
0
  0
DIMSTYLE
105
213
100
AcDbSymbolTableRecord
100
AcDbDimStyleTableRecord
  2
STANDARD
 70
0
  3

  4

 40
1.0
 41
3.5
 42
1.0
 43
0.38
 44
1.5
 45
0.0
 46
0.0
 47
0.001
 48
0.001
140
2.5
141
0.09
142
0.0
143
25.4
144
1.0
145
0.0
146
1.0
147
0.625
 71
1.0
 72
0.0
 73
1
 74
1
 75
0
 76
0
 77
0
 78
8
170
0
171
2
172
0
173
0
174
0
175
0
176
0
177
0
178
0
270
2
271
3
272
3
273
2
274
2
275
0
280
0
281
0
282
0
283
1
284
8
285
0
286
0
287
3
288
0
340
11
278
44
341
20E
342
20E
343
20E
344
20E
  0
DIMSTYLE
105
214
100
AcDbSymbolTableRecord
100
AcDbDimStyleTableRecord
  2
DIMSTYLE_1
 70
0
  3

  4

 40
1.0
 41
3.5
 42
1.0
 43
0.38
 44
1.5
 45
0.0
 46
0.0
 47
0.0
 48
0.0
140
2.5
141
0.09
142
0.0
143
25.4
144
1.0
145
0.0
146
1.0
147
1.25
 71
0.0
 72
0.0
 73
1
 74
1
 75
0
 76
0
 77
0
 78
8
170
0
171
2
172
0
173
0
174
0
175
0
176
0
177
0
178
0
270
2
271
3
272
3
273
2
274
2
275
0
280
0
281
0
282
0
283
1
284
8
285
0
286
0
287
3
288
0
340
11
278
44
341
20E
342
20E
343
20E
344
20E
  0
ENDTAB
  0
ENDSEC
  0
SECTION
  2
BLOCKS
  0
BLOCK
  5
20
100
AcDbEntity
  8
0
100
AcDbBlockBegin
  2
*Model_Space
 70
0
 10
0.0
 20
0.0
 30
0.0
  3
*Model_Space
  1

  0
ENDBLK
  5
21
100
AcDbEntity
  8
0
100
AcDbBlockEnd
  0
BLOCK
  5
1C
100
AcDbEntity
  8
0
100
AcDbBlockBegin
  2
*Paper_Space
 70
0
 10
0.0
 20
0.0
 30
0.0
  3
*Paper_Space
  1

  0
ENDBLK
  5
1D
100
AcDbEntity
  8
0
100
AcDbBlockEnd
  0
BLOCK
  5
215
100
AcDbEntity
  8
0
100
AcDbBlockBegin
  2
_FILLED
 70
64
 10
0.0
 20
0.0
  3
_FILLED
  1

  0
SOLID
  5
216
100
AcDbEntity
  8
0
  6
BYBLOCK
 62
0
100
AcDbTrace
 10
0.0
 20
0.0
 11
-1.0
 21
0.2142857143
 12
-1.0
 22
-0.2142857143
 13
-1.0
 23
-0.2142857143
  0
ENDBLK
  5
217
100
AcDbEntity
  8
0
  6
BYBLOCK
 62
0
100
AcDbBlockEnd
  0
BLOCK
  5
218
100
AcDbEntity
  8
0
100
AcDbBlockBegin
 62
2
  6
CONTINUOUS
  2
*D0
 70
65
 10
0.0
 20
0.0
  3
*D0
  1

  0
TEXT
  5
219
100
AcDbEntity
  8
0
100
AcDbText
 62
2
  6
CONTINUOUS
 10
19.8083016615
 20
102.0600744913
  7
STANDARD
 40
2.5
  1
103
 72
5
 11
25.2655001051
 21
102.0600744913
100
AcDbText
  0
LINE
  5
21A
100
AcDbEntity
  8
0
100
AcDbLine
 62
2
  6
CONTINUOUS
 10
118.5829761595
 20
154.8100744913
 11
21.0369008833
 21
154.8100744913
  0
LINE
  5
21B
100
AcDbEntity
  8
0
100
AcDbLine
 62
2
  6
CONTINUOUS
 10
35.5829761595
 20
51.8100744913
 11
21.0369008833
 21
51.8100744913
  0
LINE
  5
21C
100
AcDbEntity
  8
0
100
AcDbLine
 62
2
  6
CONTINUOUS
 10
22.5369008833
 20
154.8100744913
 11
22.5369008833
 21
105.8100744913
  0
LINE
  5
21D
100
AcDbEntity
  8
0
100
AcDbLine
 62
2
  6
CONTINUOUS
 10
22.5369008833
 20
51.8100744913
 11
22.5369008833
 21
100.8100744913
  0
INSERT
  5
21E
100
AcDbEntity
  8
0
100
AcDbBlockReference
 62
2
  6
CONTINUOUS
  2
_FILLED
 10
22.5369008833
 20
154.8100744913
 41
3.5
 42
3.5
 43
3.5
 50
90.0
  0
INSERT
  5
21F
100
AcDbEntity
  8
0
100
AcDbBlockReference
 62
2
  6
CONTINUOUS
  2
_FILLED
 10
22.5369008833
 20
51.8100744913
 41
3.5
 42
3.5
 43
3.5
 50
270.0
  0
ENDBLK
  5
220
100
AcDbEntity
  8
0
  6
BYBLOCK
 62
0
100
AcDbBlockEnd
  0
BLOCK
  5
221
100
AcDbEntity
  8
0
100
AcDbBlockBegin
 62
2
  6
CONTINUOUS
  2
*D1
 70
65
 10
0.0
 20
0.0
  3
*D1
  1

  0
TEXT
  5
222
100
AcDbEntity
  8
0
100
AcDbText
 62
2
  6
CONTINUOUS
 10
85.3543769377
 20
167.6884077699
  7
STANDARD
 40
2.5
  1
103
 72
5
 11
90.8115753813
 21
167.6884077699
100
AcDbText
  0
LINE
  5
223
100
AcDbEntity
  8
0
100
AcDbLine
 62
2
  6
CONTINUOUS
 10
139.5829761595
 20
155.8100744913
 11
139.5829761595
 21
170.4384077699
  0
LINE
  5
224
100
AcDbEntity
  8
0
100
AcDbLine
 62
2
  6
CONTINUOUS
 10
36.5829761595
 20
107.5315929746
 11
36.5829761595
 21
170.4384077699
  0
LINE
  5
225
100
AcDbEntity
  8
0
100
AcDbLine
 62
2
  6
CONTINUOUS
 10
139.5829761595
 20
168.9384077699
 11
92.0615753813
 21
168.9384077699
  0
LINE
  5
226
100
AcDbEntity
  8
0
100
AcDbLine
 62
2
  6
CONTINUOUS
 10
36.5829761595
 20
168.9384077699
 11
84.1043769377
 21
168.9384077699
  0
INSERT
  5
227
100
AcDbEntity
  8
0
100
AcDbBlockReference
 62
2
  6
CONTINUOUS
  2
_FILLED
 10
139.5829761595
 20
168.9384077699
 41
3.5
 42
3.5
 43
3.5
  0
INSERT
  5
228
100
AcDbEntity
  8
0
100
AcDbBlockReference
 62
2
  6
CONTINUOUS
  2
_FILLED
 10
36.5829761595
 20
168.9384077699
 41
3.5
 42
3.5
 43
3.5
 50
180.0
  0
ENDBLK
  5
229
100
AcDbEntity
  8
0
  6
BYBLOCK
 62
0
100
AcDbBlockEnd
  0
BLOCK
  5
22A
100
AcDbEntity
  8
0
100
AcDbBlockBegin
 62
2
  6
CONTINUOUS
  2
*D2
 70
65
 10
0.0
 20
0.0
  3
*D2
  1

  0
TEXT
  5
22B
100
AcDbEntity
  8
0
100
AcDbText
 62
2
  6
CONTINUOUS
 10
105.4917343004
 20
81.9227171286
  7
STANDARD
 40
2.5
  1
142
 72
5
 11
110.948932744
 21
81.9227171286
100
AcDbText
  0
LINE
  5
22C
100
AcDbEntity
  8
0
100
AcDbLine
 62
2
  6
CONTINUOUS
 10
140.2900829407
 20
154.1029677101
 11
160.780993694
 21
133.6120569568
  0
LINE
  5
22D
100
AcDbEntity
  8
0
100
AcDbLine
 62
2
  6
CONTINUOUS
 10
37.2900829407
 20
51.1029677101
 11
57.780993694
 21
30.6120569568
  0
LINE
  5
22E
100
AcDbEntity
  8
0
100
AcDbLine
 62
2
  6
CONTINUOUS
 10
159.7203335222
 20
134.6727171286
 11
110.7203335222
 21
85.6727171286
  0
LINE
  5
22F
100
AcDbEntity
  8
0
100
AcDbLine
 62
2
  6
CONTINUOUS
 10
56.7203335222
 20
31.6727171286
 11
105.7203335222
 21
80.6727171286
  0
INSERT
  5
230
100
AcDbEntity
  8
0
100
AcDbBlockReference
 62
2
  6
CONTINUOUS
  2
_FILLED
 10
159.7203335222
 20
134.6727171286
 41
3.5
 42
3.5
 43
3.5
 50
45.0
  0
INSERT
  5
231
100
AcDbEntity
  8
0
100
AcDbBlockReference
 62
2
  6
CONTINUOUS
  2
_FILLED
 10
56.7203335222
 20
31.6727171286
 41
3.5
 42
3.5
 43
3.5
 50
225.0
  0
ENDBLK
  5
232
100
AcDbEntity
  8
0
  6
BYBLOCK
 62
0
100
AcDbBlockEnd
  0
BLOCK
  5
233
100
AcDbEntity
  8
0
100
AcDbBlockBegin
  2
*T1
 70
1
 10
0.0
 20
0.0
  3
*T1
  1

  0
LINE
  5
234
100
AcDbEntity
  8
0
100
AcDbLine
 62
7
  6
CONTINUOUS
 10
0.0
 20
0.0
 11
148.0
 21
0.0
  0
LINE
  5
235
100
AcDbEntity
  8
0
100
AcDbLine
 62
7
  6
CONTINUOUS
 10
0.0
 20
0.0
 11
0.0
 21
-43.0
  0
LINE
  5
236
100
AcDbEntity
  8
0
100
AcDbLine
 62
7
  6
CONTINUOUS
 10
45.0
 20
-23.0
 11
148.0
 21
-23.0
  0
LINE
  5
237
100
AcDbEntity
  8
0
100
AcDbLine
 62
7
  6
CONTINUOUS
 10
45.0
 20
-28.0
 11
148.0
 21
-28.0
  0
LINE
  5
238
100
AcDbEntity
  8
0
100
AcDbLine
 62
7
  6
CONTINUOUS
 10
0.0
 20
-43.0
 11
148.0
 21
-43.0
  0
LINE
  5
239
100
AcDbEntity
  8
0
100
AcDbLine
 62
7
  6
CONTINUOUS
 10
45.0
 20
0.0
 11
45.0
 21
-43.0
  0
LINE
  5
23A
100
AcDbEntity
  8
0
100
AcDbLine
 62
7
  6
CONTINUOUS
 10
143.0
 20
0.0
 11
143.0
 21
-23.0
  0
LINE
  5
23B
100
AcDbEntity
  8
0
100
AcDbLine
 62
7
  6
CONTINUOUS
 10
148.0
 20
0.0
 11
148.0
 21
-43.0
  0
TEXT
  5
23C
100
AcDbEntity
  8
0
100
AcDbText
 62
7
  6
CONTINUOUS
 10
8.9659749243
 20
-10.675
  7
STANDARD
 40
8.0
  1
O
 72
5
 11
17.370644185
 21
-10.675
100
AcDbText
  0
TEXT
  5
23D
100
AcDbEntity
  8
0
100
AcDbText
 62
7
  6
CONTINUOUS
 10
17.370644185
 20
-10.675
  7
STANDARD
 40
5.5
  1
RAC
 72
5
 11
33.9562472979
 21
-10.675
100
AcDbText
  0
TEXT
  5
23E
100
AcDbEntity
  8
0
100
AcDbText
 62
7
  6
CONTINUOUS
 10
33.9562472979
 20
-5.925
  7
TEXTSTYLE_2
 40
3.0
  1
®
 72
5
 11
36.0340250757
 21
-5.925
100
AcDbText
  0
TEXT
  5
23F
100
AcDbEntity
  8
0
100
AcDbText
 62
7
  6
CONTINUOUS
 10
9.5323389537
 20
-15.325
  7
TEXTSTYLE_2
 40
3.0
  1
D  E  C  O  R
 72
5
 11
34.3878945093
 21
-15.325
100
AcDbText
  0
TEXT
  5
240
100
AcDbEntity
  8
0
100
AcDbText
 62
7
  6
CONTINUOUS
 10
34.3878945093
 20
-15.325
  7
STANDARD
 40
2.5
  1
 
 72
5
 11
35.4676610463
 21
-15.325
100
AcDbText
  0
TEXT
  5
241
100
AcDbEntity
  8
0
100
AcDbText
 62
7
  6
CONTINUOUS
 10
52.5257352941
 20
-6.0
  7
TEXTSTYLE_3
 40
2.75
  1
Part name:
 72
5
 11
71.9375
 21
-6.0
100
AcDbText
  0
TEXT
  5
242
100
AcDbEntity
  8
0
100
AcDbText
 62
7
  6
CONTINUOUS
 10
49.2788865546
 20
-12.875
  7
TEXTSTYLE_3
 40
2.75
  1
Designed by:
 72
5
 11
71.9375
 21
-12.875
100
AcDbText
  0
TEXT
  5
243
100
AcDbEntity
  8
0
100
AcDbText
 62
7
  6
CONTINUOUS
 10
48.9553571429
 20
-19.75
  7
TEXTSTYLE_3
 40
2.75
  1
Designed on:
 72
5
 11
71.9375
 21
-19.75
100
AcDbText
  0
TEXT
  5
244
100
AcDbEntity
  8
0
100
AcDbText
 62
2
  6
CONTINUOUS
 10
74.0625
 20
-6.0
  7
TEXTSTYLE_3
 40
2.75
  1
C902
 72
5
 11
82.9595588235
 21
-6.0
100
AcDbText
  0
TEXT
  5
245
100
AcDbEntity
  8
0
100
AcDbText
 62
2
  6
CONTINUOUS
 10
74.0625
 20
-12.875
  7
TEXTSTYLE_3
 40
2.75
  1
ORAC
 72
5
 11
84.1034663866
 21
-12.875
100
AcDbText
  0
TEXT
  5
246
100
AcDbEntity
  8
0
100
AcDbText
 62
2
  6
CONTINUOUS
 10
74.0625
 20
-19.75
  7
TEXTSTYLE_3
 40
2.75
  1
29-Jul-2004
 72
5
 11
94.5488445378
 21
-19.75
100
AcDbText
  0
TEXT
  5
247
100
AcDbEntity
  8
0
100
AcDbText
 62
2
  6
CONTINUOUS
 10
94.5488445378
 20
-19.75
  7
TEXTSTYLE_3
 40
2.75
  1
 
 72
5
 11
95.530987395
 21
-19.75
100
AcDbText
  0
TEXT
  5
248
100
AcDbEntity
  8
0
100
AcDbText
 62
2
  6
CONTINUOUS
 10
146.5625
 20
-17.5
  7
TEXTSTYLE_3
 40
1.5
  1
Version: 
 50
90.0
 72
5
 11
146.5625
 21
-9.0294117647
100
AcDbText
  0
TEXT
  5
249
100
AcDbEntity
  8
0
100
AcDbText
 62
2
  6
CONTINUOUS
 10
146.5625
 20
-9.0294117647
  7
TEXTSTYLE_3
 40
1.5
  1
1.0
 50
90.0
 72
5
 11
146.5625
 21
-6.0357142857
100
AcDbText
  0
TEXT
  5
24A
100
AcDbEntity
  8
0
100
AcDbText
 62
2
  6
CONTINUOUS
 10
146.5625
 20
-6.0357142857
  7
TEXTSTYLE_3
 40
1.5
  1
 
 50
90.0
 72
5
 11
146.5625
 21
-5.5
100
AcDbText
  0
TEXT
  5
24B
100
AcDbEntity
  8
0
100
AcDbText
 62
7
  6
CONTINUOUS
 10
9.6586134454
 20
-24.25
  7
TEXTSTYLE_3
 40
2.5
  1
Biekorfstraat 32
 72
5
 11
35.3413865546
 21
-24.25
100
AcDbText
  0
TEXT
  5
24C
100
AcDbEntity
  8
0
100
AcDbText
 62
7
  6
CONTINUOUS
 10
2.2584033613
 20
-28.0
  7
TEXTSTYLE_3
 40
2.5
  1
8400 Oostende - Belgium
 72
5
 11
42.7415966387
 21
-28.0
100
AcDbText
  0
TEXT
  5
24D
100
AcDbEntity
  8
0
100
AcDbText
 62
7
  6
CONTINUOUS
 10
4.2699579832
 20
-31.75
  7
TEXTSTYLE_3
 40
2.5
  1
Tel  +32 (0)59 80 32 52
 72
5
 11
40.7300420168
 21
-31.75
100
AcDbText
  0
TEXT
  5
24E
100
AcDbEntity
  8
0
100
AcDbText
 62
7
  6
CONTINUOUS
 10
5.7405462185
 20
-35.5
  7
TEXTSTYLE_3
 40
2.5
  1
www.oracdecor.com
 72
5
 11
39.2594537815
 21
-35.5
100
AcDbText
  0
TEXT
  5
24F
100
AcDbEntity
  8
0
100
AcDbText
 62
7
  6
CONTINUOUS
 10
5.5777310924
 20
-39.25
  7
TEXTSTYLE_3
 40
2.5
  1
info@oracdecor.com
 72
5
 11
39.4222689076
 21
-39.25
100
AcDbText
  0
TEXT
  5
250
100
AcDbEntity
  8
0
100
AcDbText
 62
7
  6
CONTINUOUS
 10
46.0625
 20
-26.75
  7
TEXTSTYLE_3
 40
2.5
  1
All dimensions are in mm unless otherwise specified   
 72
5
 11
132.3019957983
 21
-26.75
100
AcDbText
  0
TEXT
  5
251
100
AcDbEntity
  8
0
100
AcDbText
 62
7
  6
CONTINUOUS
 10
46.0625
 20
-31.7075
  7
TEXTSTYLE_3
 40
1.85
  1
All information in this document is Orac's exclusive property.  It may in no case 
 72
5
 11
140.0471638655
 21
-31.7075
100
AcDbText
  0
TEXT
  5
252
100
AcDbEntity
  8
0
100
AcDbText
 62
7
  6
CONTINUOUS
 10
46.0625
 20
-34.8525
  7
TEXTSTYLE_3
 40
1.85
  1
be reproduced, even partly, be communicated to a third party or used for any 
 72
5
 11
138.8345588235
 21
-34.8525
100
AcDbText
  0
TEXT
  5
253
100
AcDbEntity
  8
0
100
AcDbText
 62
7
  6
CONTINUOUS
 10
46.0625
 20
-37.9975
  7
TEXTSTYLE_3
 40
1.85
  1
possible purpose without ORAC's express written permission. 
 72
5
 11
119.4484243697
 21
-37.9975
100
AcDbText
  0
TEXT
  5
254
100
AcDbEntity
  8
0
100
AcDbText
 62
7
  6
CONTINUOUS
 10
46.0625
 20
-41.1425
  7
TEXTSTYLE_3
 40
1.85
  1
Further legal information can be found at http://www.oracdecor.be/nl/disclaimer 
 72
5
 11
143.7316176471
 21
-41.1425
100
AcDbText
  0
ENDBLK
  5
255
100
AcDbEntity
  8
0
  6
BYBLOCK
 62
0
100
AcDbBlockEnd
  0
ENDSEC
  0
SECTION
  2
ENTITIES
  0
DIMENSION
  5
256
100
AcDbEntity
  8
0
100
AcDbDimension
 62
2
  6
CONTINUOUS
  2
*D0
 10
22.5369008833
 20
51.8100744913
 11
22.5369008833
 21
103.3100744913
 70
160
 71
2
 42
103.0
  3
DIMSTYLE_1
100
AcDbAlignedDimension
 13
119.5829761595
 23
154.8100744913
 14
36.5829761595
 24
51.8100744913
 50
270.0
100
AcDbRotatedDimension
  0
DIMENSION
  5
257
100
AcDbEntity
  8
0
100
AcDbDimension
 62
2
  6
CONTINUOUS
  2
*D1
 10
36.5829761595
 20
168.9384077699
 11
88.0829761595
 21
168.9384077699
 70
160
 71
2
 42
103.0
  3
DIMSTYLE_1
100
AcDbAlignedDimension
 13
139.5829761595
 23
154.8100744913
 14
36.5829761595
 24
106.5315929746
 50
180.0
100
AcDbRotatedDimension
  0
DIMENSION
  5
258
100
AcDbEntity
  8
0
100
AcDbDimension
 62
2
  6
CONTINUOUS
  2
*D2
 10
56.7203335222
 20
31.6727171286
 11
108.2203335222
 21
83.1727171286
 70
160
 71
2
 42
145.6639969244
  3
DIMSTYLE_1
100
AcDbAlignedDimension
 13
139.5829761595
 23
154.8100744913
 14
36.5829761595
 24
51.8100744913
 50
225.0
100
AcDbRotatedDimension
  0
ACAD_TABLE
  5
259
100
AcDbEntity
  8
0
 62
2
  6
CONTINUOUS
100
AcDbBlockReference
  2
*T1
 10
143.9999958937
 20
47.9999925619
 30
0.0
100
AcDbTable
342
       2D9
343
212
 11
1.0
 21
0.0
 31
0.0
 90
22
 91
4
 92
4
 93
0
 94
0
 95
0
 96
0
141
18.0
141
5.0
141
5.0
141
15.0
142
45.0
142
28.0
142
70.0
142
5.0
171
1
172
0
173
0
174
0
175
1
176
1
 91
41
178
0
145
0.0
301
CELL_VALUE
 90
4
  1
O\H5.5;RAC\P\Ftrium.ttf;\H3.0;®\PD  E  C  O  R\Fcgtime.ttf;\H2.5; 
304
ACVALUE_END
170
5
140
8.0
 64
7
171
1
172
0
173
0
174
0
175
1
176
2
 91
41
178
0
145
0.0
301
CELL_VALUE
 90
4
  1
Part name:\PDesigned by:\PDesigned on:
304
ACVALUE_END
170
6
140
2.75
 64
7
171
1
172
0
173
0
174
0
175
1
176
2
 91
33
178
0
145
0.0
301
CELL_VALUE
 90
4
  1
C902\PORAC\P29-Jul-2004 
304
ACVALUE_END
170
4
140
2.75
171
1
172
0
173
0
174
0
175
1
176
2
 91
33
178
0
145
0.0
301
CELL_VALUE
 90
4
  1
Version: 1.0 
304
ACVALUE_END
170
6
140
1.5
171
1
172
0
173
0
174
0
175
1
176
3
 91
41
178
0
145
0.0
301
CELL_VALUE
 90
4
  1
Biekorfstraat 32\P8400 Oostende - Belgium\PTel  +32 (0)59 80 32 52\Pwww.oracdecor.com\Pinfo@oracdecor.com
304
ACVALUE_END
170
5
140
2.5
 64
7
171
1
172
0
173
1
174
0
175
1
176
1
 91
1
178
0
145
0.0
170
1
171
1
172
0
173
1
174
0
175
1
176
1
 91
1
178
0
145
0.0
170
1
171
1
172
0
173
1
174
0
175
1
176
1
 91
1
178
0
145
0.0
170
1
171
1
172
0
173
1
174
0
175
1
176
1
 91
1
178
0
145
0.0
170
1
171
1
172
0
173
0
174
0
175
3
176
1
 91
41
178
0
145
0.0
301
CELL_VALUE
 90
4
  1
All dimensions are in mm unless otherwise specified   
304
ACVALUE_END
170
1
140
2.5
 64
7
171
1
172
0
173
1
174
0
175
1
176
1
 91
1
178
0
145
0.0
170
1
171
1
172
0
173
1
174
0
175
1
176
1
 91
1
178
0
145
0.0
170
1
171
1
172
0
173
1
174
0
175
1
176
1
 91
1
178
0
145
0.0
170
1
171
1
172
0
173
0
174
0
175
3
176
1
 91
41
178
0
145
0.0
301
CELL_VALUE
 90
4
  2
All information in this document is Orac's exclusive property.  It may in no case \Pbe reproduced, even partly, be communicated to a third party or used for any \Ppossible purpose without ORAC's express written permission. \PFurther legal information
  1
 can be found at http://www.oracdecor.be/nl/disclaimer 
304
ACVALUE_END
170
4
140
1.85
 64
7
171
1
172
0
173
1
174
0
175
1
176
1
 91
1
178
0
145
0.0
170
1
171
1
172
0
173
1
174
0
175
1
176
1
 91
1
178
0
145
0.0
170
1
  0
LINE
  5
25A
100
AcDbEntity
  8
0
100
AcDbLine
 62
5
  6
CONTINUOUS
 10
0.0
 20
0.0
 11
0.0
 21
210.0
  0
LINE
  5
25B
100
AcDbEntity
  8
0
100
AcDbLine
 62
7
  6
CONTINUOUS
 10
5.0
 20
5.0
 11
5.0
 21
195.0
  0
LINE
  5
25C
100
AcDbEntity
  8
0
100
AcDbLine
 62
5
  6
CONTINUOUS
 10
0.0
 20
0.0
 11
297.0
 21
0.0
  0
LINE
  5
25D
100
AcDbEntity
  8
0
100
AcDbLine
 62
7
  6
CONTINUOUS
 10
5.0
 20
5.0
 11
292.0
 21
5.0
  0
LINE
  5
25E
100
AcDbEntity
  8
0
100
AcDbLine
 62
4
  6
CONTINUOUS
 10
148.5
 20
195.0
 11
148.5
 21
205.0
  0
LINE
  5
25F
100
AcDbEntity
  8
0
100
AcDbLine
 62
7
  6
CONTINUOUS
 10
5.0
 20
195.0
 11
292.0
 21
195.0
  0
LINE
  5
260
100
AcDbEntity
  8
0
100
AcDbLine
 62
5
  6
CONTINUOUS
 10
0.0
 20
210.0
 11
297.0
 21
210.0
  0
LINE
  5
261
100
AcDbEntity
  8
0
100
AcDbLine
 62
7
  6
CONTINUOUS
 10
292.0
 20
5.0
 11
292.0
 21
195.0
  0
LINE
  5
262
100
AcDbEntity
  8
0
100
AcDbLine
 62
5
  6
CONTINUOUS
 10
297.0
 20
0.0
 11
297.0
 21
210.0
  0
LINE
  5
263
100
AcDbEntity
  8
0
100
AcDbLine
 62
7
  6
CONTINUOUS
 10
189.133534849
 20
116.1776648673
 11
188.9721590808
 21
104.5683674468
  0
LINE
  5
264
100
AcDbEntity
  8
0
100
AcDbLine
 62
7
  6
CONTINUOUS
 10
189.2701718771
 20
126.0072688745
 11
189.3523041091
 21
131.9158232956
  0
LINE
  5
265
100
AcDbEntity
  8
0
100
AcDbLine
 62
7
  6
CONTINUOUS
 10
192.4698318926
 20
104.5230797061
 11
192.5740354232
 21
112.019433044
  0
LINE
  5
266
100
AcDbEntity
  8
0
100
AcDbLine
 62
7
  6
CONTINUOUS
 10
222.6818306325
 20
76.1997237856
 11
226.1795034443
 21
76.154436045
  0
LINE
  5
267
100
AcDbEntity
  8
0
100
AcDbLine
 62
7
  6
CONTINUOUS
 10
188.9721590808
 20
104.5683674468
 11
222.6818306325
 21
76.1997237856
  0
LINE
  5
268
100
AcDbEntity
  8
0
100
AcDbLine
 62
7
  6
CONTINUOUS
 10
197.6401798889
 20
116.9523051635
 11
197.6749143991
 21
119.4510896094
  0
LINE
  5
269
100
AcDbEntity
  8
0
100
AcDbLine
 62
7
  6
CONTINUOUS
 10
189.133534849
 20
116.1776648673
 11
191.8654558648
 21
119.8274318301
  0
LINE
  5
26A
100
AcDbEntity
  8
0
100
AcDbLine
 62
7
  6
CONTINUOUS
 10
192.4698318926
 20
104.5230797061
 11
226.1795034443
 21
76.154436045
  0
LINE
  5
26B
100
AcDbEntity
  8
0
100
AcDbLine
 62
7
  6
CONTINUOUS
 10
226.2837069748
 20
83.6507893828
 11
192.5740354232
 21
112.019433044
  0
LINE
  5
26C
100
AcDbEntity
  8
0
100
AcDbLine
 62
7
  6
CONTINUOUS
 10
231.3845859508
 20
91.0824459483
 11
239.0544827594
 21
90.9831364028
  0
LINE
  5
26D
100
AcDbEntity
  8
0
100
AcDbLine
 62
7
  6
CONTINUOUS
 10
189.2701718771
 20
126.0072688745
 11
191.8019704407
 21
122.9052706576
  0
LINE
  5
26E
100
AcDbEntity
  8
0
100
AcDbLine
 62
7
  6
CONTINUOUS
 10
231.3498514406
 20
88.5836615024
 11
197.6401798889
 21
116.9523051635
  0
LINE
  5
26F
100
AcDbEntity
  8
0
100
AcDbLine
 62
7
  6
CONTINUOUS
 10
231.3845859508
 20
91.0824459483
 11
197.6749143991
 21
119.4510896094
  0
LINE
  5
270
100
AcDbEntity
  8
0
100
AcDbLine
 62
7
  6
CONTINUOUS
 10
195.1006489923
 20
126.9693040866
 11
195.2427494991
 21
126.8497182692
  0
LINE
  5
271
100
AcDbEntity
  8
0
100
AcDbLine
 62
7
  6
CONTINUOUS
 10
189.4229558855
 20
131.864933332
 11
191.067479678
 21
130.4809711829
  0
LINE
  5
272
100
AcDbEntity
  8
0
100
AcDbLine
 62
7
  6
CONTINUOUS
 10
195.2420373758
 20
126.8488720729
 11
195.1006489923
 21
126.9693040866
  0
LINE
  5
273
100
AcDbEntity
  8
0
100
AcDbLine
 62
7
  6
CONTINUOUS
 10
189.4183957199
 20
131.8688176727
 11
189.4229558855
 21
131.864933332
  0
LINE
  5
274
100
AcDbEntity
  8
0
100
AcDbLine
 62
7
  6
CONTINUOUS
 10
195.1006489923
 20
126.9693040866
 11
189.4229558855
 21
131.864933332
  0
LINE
  5
275
100
AcDbEntity
  8
0
100
AcDbLine
 62
7
  6
CONTINUOUS
 10
197.0645654925
 20
125.8998421323
 11
191.4741659678
 21
130.720668113
  0
LINE
  5
276
100
AcDbEntity
  8
0
100
AcDbLine
 62
7
  6
CONTINUOUS
 10
195.7800593675
 20
126.4171233917
 11
191.067479678
 21
130.4809711829
  0
LINE
  5
277
100
AcDbEntity
  8
0
100
AcDbLine
 62
7
  6
CONTINUOUS
 10
188.9721590808
 20
104.5683674468
 11
192.4698318926
 21
104.5230797061
  0
LINE
  5
278
100
AcDbEntity
  8
0
100
AcDbLine
 62
7
  6
CONTINUOUS
 10
239.0544827594
 20
90.9831364028
 11
205.3448112077
 21
119.3517800639
  0
LINE
  5
279
100
AcDbEntity
  8
0
100
AcDbLine
 62
7
  6
CONTINUOUS
 10
226.1795034443
 20
76.154436045
 11
226.2837069748
 21
83.6507893828
  0
LINE
  5
27A
100
AcDbEntity
  8
0
100
AcDbLine
 62
7
  6
CONTINUOUS
 10
231.1600961872
 20
155.5063438228
 11
231.0534612409
 21
147.8350755738
  0
LINE
  5
27B
100
AcDbEntity
  8
0
100
AcDbLine
 62
7
  6
CONTINUOUS
 10
231.3498514406
 20
88.5836615024
 11
231.3845859508
 21
91.0824459483
  0
LINE
  5
27C
100
AcDbEntity
  8
0
100
AcDbLine
 62
7
  6
CONTINUOUS
 10
197.6749143991
 20
119.4510896094
 11
205.3448112077
 21
119.3517800639
  0
LINE
  5
27D
100
AcDbEntity
  8
0
100
AcDbLine
 62
7
  6
CONTINUOUS
 10
268.2608056044
 20
119.421144172
 11
270.5842596865
 21
119.3910601729
  0
LINE
  5
27E
100
AcDbEntity
  8
0
100
AcDbLine
 62
7
  6
CONTINUOUS
 10
236.8745881348
 20
147.759703834
 11
236.909322645
 21
150.25848828
  0
LINE
  5
27F
100
AcDbEntity
  8
0
100
AcDbLine
 62
7
  6
CONTINUOUS
 10
241.1187125678
 20
152.8781658322
 11
241.1534470779
 21
155.3769502782
  0
LINE
  5
280
100
AcDbEntity
  8
0
100
AcDbLine
 62
7
  6
CONTINUOUS
 10
273.3293814858
 20
124.5289312028
 11
274.8283841194
 21
124.5095221711
  0
LWPOLYLINE
  5
281
100
AcDbEntity
  8
0
100
AcDbPolyline
 62
7
  6
CONTINUOUS
 90
9
 70
0
 10
191.3603457035
 20
131.1389917163
 10
191.3172214204
 20
131.1386843401
 10
191.274351744
 20
131.1366606349
 10
191.2315774387
 20
131.1329249827
 10
191.1889608415
 20
131.1274806196
 10
191.1465682279
 20
131.1203332606
 10
191.1044706638
 20
131.1114921266
 10
191.0627372361
 20
131.1009691474
 10
191.0373393935
 20
131.0936858783
  0
LINE
  5
282
100
AcDbEntity
  8
0
100
AcDbLine
 62
7
  6
CONTINUOUS
 10
191.4741659678
 20
130.720668113
 11
222.6062843155
 21
130.3175706225
  0
LINE
  5
283
100
AcDbEntity
  8
0
100
AcDbLine
 62
7
  6
CONTINUOUS
 10
191.3603457159
 20
131.1389917162
 11
223.0315044771
 21
130.728914702
  0
LINE
  5
284
100
AcDbEntity
  8
0
100
AcDbLine
 62
7
  6
CONTINUOUS
 10
268.2608056044
 20
119.421144172
 11
234.5511340527
 21
147.7897878332
  0
LINE
  5
285
100
AcDbEntity
  8
0
100
AcDbLine
 62
7
  6
CONTINUOUS
 10
270.5842596865
 20
119.3910601729
 11
236.8745881348
 21
147.759703834
  0
LINE
  5
286
100
AcDbEntity
  8
0
100
AcDbLine
 62
7
  6
CONTINUOUS
 10
270.6189941967
 20
121.8898446188
 11
236.909322645
 21
150.25848828
  0
LINE
  5
287
100
AcDbEntity
  8
0
100
AcDbLine
 62
7
  6
CONTINUOUS
 10
234.5511340527
 20
147.7897878332
 11
236.8745881348
 21
147.759703834
  0
LINE
  5
288
100
AcDbEntity
  8
0
100
AcDbLine
 62
7
  6
CONTINUOUS
 10
273.3293814858
 20
124.5289312028
 11
239.6197099341
 21
152.8975748639
  0
LINE
  5
289
100
AcDbEntity
  8
0
100
AcDbLine
 62
7
  6
CONTINUOUS
 10
241.1187125678
 20
152.8781658322
 11
274.8283841194
 21
124.5095221711
  0
LINE
  5
28A
100
AcDbEntity
  8
0
100
AcDbLine
 62
7
  6
CONTINUOUS
 10
270.5842596865
 20
119.3910601729
 11
270.6189941967
 21
121.8898446188
  0
LINE
  5
28B
100
AcDbEntity
  8
0
100
AcDbLine
 62
7
  6
CONTINUOUS
 10
239.6197099341
 20
152.8975748639
 11
241.1187125678
 21
152.8781658322
  0
LINE
  5
28C
100
AcDbEntity
  8
0
100
AcDbLine
 62
7
  6
CONTINUOUS
 10
241.1534470779
 20
155.3769502782
 11
274.8631186296
 21
127.008306617
  0
LINE
  5
28D
100
AcDbEntity
  8
0
100
AcDbLine
 62
7
  6
CONTINUOUS
 10
274.8283841194
 20
124.5095221711
 11
274.8631186296
 21
127.008306617
  0
LINE
  5
28E
100
AcDbEntity
  8
0
100
AcDbLine
 62
7
  6
CONTINUOUS
 10
241.1534470779
 20
155.3769502782
 11
231.1600961872
 21
155.5063438228
  0
LINE
  5
28F
100
AcDbEntity
  8
0
100
AcDbLine
 62
7
  6
CONTINUOUS
 10
36.5829761595
 20
75.0399642071
 11
36.5829761595
 21
51.8100744913
  0
LINE
  5
290
100
AcDbEntity
  8
0
100
AcDbLine
 62
7
  6
CONTINUOUS
 10
36.5829761595
 20
94.7087356034
 11
36.5829761595
 21
107.7109332497
  0
LINE
  5
291
100
AcDbEntity
  8
0
100
AcDbLine
 62
7
  6
CONTINUOUS
 10
37.22748308
 20
107.8100744913
 11
37.22748308
 21
107.0578978445
  0
LINE
  5
292
100
AcDbEntity
  8
0
100
AcDbLine
 62
7
  6
CONTINUOUS
 10
36.5829761595
 20
51.8100744913
 11
43.5829761595
 21
51.8100744913
  0
LINE
  5
293
100
AcDbEntity
  8
0
100
AcDbLine
 62
7
  6
CONTINUOUS
 10
43.5829761595
 20
51.8100744913
 11
43.5829761595
 21
66.8100744913
  0
LINE
  5
294
100
AcDbEntity
  8
0
100
AcDbLine
 62
7
  6
CONTINUOUS
 10
36.5829761595
 20
94.7087356034
 11
41.7353114516
 21
88.5684215088
  0
LINE
  5
295
100
AcDbEntity
  8
0
100
AcDbLine
 62
7
  6
CONTINUOUS
 10
53.5829761595
 20
76.8100744913
 11
53.5829761595
 21
81.8100744913
  0
LINE
  5
296
100
AcDbEntity
  8
0
100
AcDbLine
 62
7
  6
CONTINUOUS
 10
48.2228306
 20
96.7844274765
 11
36.7257637692
 21
106.4316120139
  0
LINE
  5
297
100
AcDbEntity
  8
0
100
AcDbLine
 62
7
  6
CONTINUOUS
 10
48.8656182097
 20
97.411707286
 11
37.4997070414
 21
106.9488391553
  0
LINE
  5
298
100
AcDbEntity
  8
0
100
AcDbLine
 62
7
  6
CONTINUOUS
 10
36.5829761595
 20
75.0399642071
 11
41.9479528249
 21
82.4125021549
  0
LINE
  5
299
100
AcDbEntity
  8
0
100
AcDbLine
 62
7
  6
CONTINUOUS
 10
53.5829761595
 20
81.8100744913
 11
68.9329761595
 21
81.8100744913
  0
LINE
  5
29A
100
AcDbEntity
  8
0
100
AcDbLine
 62
7
  6
CONTINUOUS
 10
37.4997070414
 20
106.9488391553
 11
104.5762875584
 21
106.9488392591
  0
LINE
  5
29B
100
AcDbEntity
  8
0
100
AcDbLine
 62
7
  6
CONTINUOUS
 10
37.22748308
 20
107.8100744913
 11
106.0678654147
 21
107.8100744913
  0
LINE
  5
29C
100
AcDbEntity
  8
0
100
AcDbLine
 62
7
  6
CONTINUOUS
 10
119.5829761595
 20
154.8100744913
 11
119.5829761595
 21
139.4600744913
  0
LINE
  5
29D
100
AcDbEntity
  8
0
100
AcDbLine
 62
7
  6
CONTINUOUS
 10
126.5829761595
 20
139.4600744913
 11
131.2329761595
 21
139.4600744913
  0
LINE
  5
29E
100
AcDbEntity
  8
0
100
AcDbLine
 62
7
  6
CONTINUOUS
 10
131.2329761595
 20
139.4600744913
 11
131.2329761595
 21
144.4600744913
  0
LINE
  5
29F
100
AcDbEntity
  8
0
100
AcDbLine
 62
7
  6
CONTINUOUS
 10
136.5829761595
 20
149.8100744913
 11
139.5829761595
 21
149.8100744913
  0
LINE
  5
2A0
100
AcDbEntity
  8
0
100
AcDbLine
 62
7
  6
CONTINUOUS
 10
139.5829761595
 20
149.8100744913
 11
139.5829761595
 21
154.8100744913
  0
LINE
  5
2A1
100
AcDbEntity
  8
0
100
AcDbLine
 62
7
  6
CONTINUOUS
 10
139.5829761595
 20
154.8100744913
 11
119.5829761595
 21
154.8100744913
  0
ARC
  5
2A2
100
AcDbEntity
  8
0
100
AcDbCircle
 62
7
  6
CONTINUOUS
 10
192.2419721381
 20
154.1407008149
 40
39.3203839765
100
AcDbArc
 50
336.17174317
 51
350.7718997308
  0
ARC
  5
2A3
100
AcDbEntity
  8
0
100
AcDbCircle
 62
7
  6
CONTINUOUS
 10
201.4978105877
 20
160.6654013774
 40
37.7619771178
100
AcDbArc
 50
279.5885768311
 51
288.6713976048
  0
ARC
  5
2A4
100
AcDbEntity
  8
0
100
AcDbCircle
 62
7
  6
CONTINUOUS
 10
205.7112833763
 20
148.1914910216
 40
24.5957094216
100
AcDbArc
 50
288.6753118099
 51
336.1730197233
  0
ARC
  5
2A5
100
AcDbEntity
  8
0
100
AcDbCircle
 62
7
  6
CONTINUOUS
 10
205.2119827116
 20
138.6976289866
 40
15.4852525089
100
AcDbArc
 50
229.921607243
 51
237.0404103293
  0
ARC
  5
2A6
100
AcDbEntity
  8
0
100
AcDbCircle
 62
7
  6
CONTINUOUS
 10
205.2073594846
 20
138.6951114119
 40
15.4806696381
100
AcDbArc
 50
237.0496981606
 51
279.5956642787
  0
ARC
  5
2A7
100
AcDbEntity
  8
0
100
AcDbCircle
 62
7
  6
CONTINUOUS
 10
206.7757986959
 20
137.1623260836
 40
14.8711665677
100
AcDbArc
 50
229.2299885279
 51
237.7601746218
  0
ARC
  5
2A8
100
AcDbEntity
  8
0
100
AcDbCircle
 62
7
  6
CONTINUOUS
 10
231.2865590508
 20
83.580830339
 40
5.0033219766
100
AcDbArc
 50
89.2751717508
 51
179.1988376542
  0
ARC
  5
2A9
100
AcDbEntity
  8
0
100
AcDbCircle
 62
7
  6
CONTINUOUS
 10
197.5768874991
 20
111.9494740001
 40
5.0033219766
100
AcDbArc
 50
89.2751717508
 51
179.1988376542
  0
ARC
  5
2AA
100
AcDbEntity
  8
0
100
AcDbCircle
 62
7
  6
CONTINUOUS
 10
273.2955198696
 20
121.8524167232
 40
2.6767772575
100
AcDbArc
 50
89.2751676815
 51
179.1988417242
  0
ARC
  5
2AB
100
AcDbEntity
  8
0
100
AcDbCircle
 62
7
  6
CONTINUOUS
 10
239.5858483179
 20
150.2210603843
 40
2.6767772575
100
AcDbArc
 50
89.2751676809
 51
179.1988417236
  0
ARC
  5
2AC
100
AcDbEntity
  8
0
100
AcDbCircle
 62
7
  6
CONTINUOUS
 10
189.865201432
 20
121.3258304625
 40
2.4991934414
100
AcDbArc
 50
323.1629715245
 51
39.1973338788
  0
ARC
  5
2AD
100
AcDbEntity
  8
0
100
AcDbCircle
 62
7
  6
CONTINUOUS
 10
189.5146401062
 20
130.7140590071
 40
1.4976444556
100
AcDbArc
 50
354.6545014779
 51
355.536110277
  0
ARC
  5
2AE
100
AcDbEntity
  8
0
100
AcDbCircle
 62
7
  6
CONTINUOUS
 10
190.9260079124
 20
129.6333407625
 40
1.2156827148
100
AcDbArc
 50
66.5816796718
 51
70.1268949902
  0
ARC
  5
2AF
100
AcDbEntity
  8
0
100
AcDbCircle
 62
7
  6
CONTINUOUS
 10
189.0965854477
 20
131.4863055535
 40
0.4998775096
100
AcDbArc
 50
49.9258502169
 51
59.2320270379
  0
ARC
  5
2B0
100
AcDbEntity
  8
0
100
AcDbCircle
 62
7
  6
CONTINUOUS
 10
41.8318505488
 20
150.9881627003
 40
78.6011090983
100
AcDbArc
 50
336.9564067396
 51
351.5662507717
  0
ARC
  5
2B1
100
AcDbEntity
  8
0
100
AcDbCircle
 62
7
  6
CONTINUOUS
 10
60.1647090755
 20
164.3375770433
 40
75.527502552
100
AcDbArc
 50
280.3299785424
 51
289.41539786
  0
ARC
  5
2B2
100
AcDbEntity
  8
0
100
AcDbCircle
 62
7
  6
CONTINUOUS
 10
60.1647086961
 20
164.1988138383
 40
74.5275040255
100
AcDbArc
 50
280.3299786325
 51
289.41539777
  0
ARC
  5
2B3
100
AcDbEntity
  8
0
100
AcDbCircle
 62
7
  6
CONTINUOUS
 10
68.9329761595
 20
139.4600744913
 40
57.65
100
AcDbArc
 50
270.0
 51
360.0
  0
ARC
  5
2B4
100
AcDbEntity
  8
0
100
AcDbCircle
 62
7
  6
CONTINUOUS
 10
68.9329761595
 20
139.4600744913
 40
49.15
100
AcDbArc
 50
289.41539786
 51
336.9564067396
  0
ARC
  5
2B5
100
AcDbEntity
  8
0
100
AcDbCircle
 62
7
  6
CONTINUOUS
 10
68.9329761471
 20
139.3213098812
 40
48.1500000264
100
AcDbArc
 50
289.4153978646
 51
317.7532008457
  0
ARC
  5
2B6
100
AcDbEntity
  8
0
100
AcDbCircle
 62
7
  6
CONTINUOUS
 10
68.1492465003
 20
120.5318052132
 40
31.0
100
AcDbArc
 50
230.0
 51
280.3299785424
  0
ARC
  5
2B7
100
AcDbEntity
  8
0
100
AcDbCircle
 62
7
  6
CONTINUOUS
 10
68.1492465011
 20
120.3930405824
 40
30.0000000027
100
AcDbArc
 50
230.0000000024
 51
280.32997854
  0
ARC
  5
2B8
100
AcDbEntity
  8
0
100
AcDbCircle
 62
7
  6
CONTINUOUS
 10
53.5829761595
 20
66.8100744913
 40
10.0
100
AcDbArc
 50
90.0
 51
180.0
  0
ARC
  5
2B9
100
AcDbEntity
  8
0
100
AcDbCircle
 62
7
  6
CONTINUOUS
 10
136.5829761595
 20
144.4600744913
 40
5.35
100
AcDbArc
 50
90.0
 51
180.0
  0
ARC
  5
2BA
100
AcDbEntity
  8
0
100
AcDbCircle
 62
7
  6
CONTINUOUS
 10
37.905089236
 20
85.3544834603
 40
5.0
100
AcDbArc
 50
323.9567155711
 51
40.0
  0
ARC
  5
2BB
100
AcDbEntity
  8
0
100
AcDbCircle
 62
7
  6
CONTINUOUS
 10
36.4198734873
 20
104.7382144477
 40
2.4562500515
100
AcDbArc
 50
67.2798676053
 51
70.8041774181
  0
ARC
  5
2BC
100
AcDbEntity
  8
0
100
AcDbCircle
 62
7
  6
CONTINUOUS
 10
37.22748308
 20
105.6655675708
 40
2.1445069205
100
AcDbArc
 50
90.0
 51
107.4899503311
  0
ARC
  5
2BD
100
AcDbEntity
  8
0
100
AcDbCircle
 62
7
  6
CONTINUOUS
 10
36.0829761595
 20
105.6655675708
 40
1.0
100
AcDbArc
 50
50.0
 51
60.0
  0
ARC
  5
2BE
100
AcDbEntity
  8
0
100
AcDbCircle
 62
7
  6
CONTINUOUS
 10
106.0678654063
 20
108.8100744806
 40
0.9999999946
100
AcDbArc
 50
270.0000004844
 51
316.6224515684
  0
SPLINE
  5
2BF
100
AcDbEntity
  8
0
100
AcDbSpline
 62
7
  6
CONTINUOUS
 70
0
 71
3
 72
15
 73
11
 74
0
 42
0.0000001
 43
0.0000001
 44
0.0000000001
 40
0.0
 40
0.0
 40
0.0
 40
0.0
 40
0.1249617622
 40
0.2499467333
 40
0.3749514337
 40
0.4999693294
 40
0.6249918934
 40
0.7500098889
 40
0.8750147601
 40
1.0
 40
1.0
 40
1.0
 40
1.0
 10
239.0544827594
 20
90.9831364028
 30
0.0
 10
240.9369716271
 20
90.9587620052
 30
0.0
 10
244.7175345462
 20
91.2814271196
 30
0.0
 10
250.1772027028
 20
92.861184929
 30
0.0
 10
255.2270070128
 20
95.4758550173
 30
0.0
 10
259.6701039354
 20
99.0250272842
 30
0.0
 10
263.3365447667
 20
103.3721154483
 30
0.0
 10
266.0852744453
 20
108.3508556414
 30
0.0
 10
267.8106751834
 20
113.7671376466
 30
0.0
 10
268.2346333679
 20
117.5383256965
 30
0.0
 10
268.2608056044
 20
119.421144172
 30
0.0
  0
SPLINE
  5
2C0
100
AcDbEntity
  8
0
100
AcDbSpline
 62
7
  6
CONTINUOUS
 70
0
 71
3
 72
15
 73
11
 74
0
 42
0.0000001
 43
0.0000001
 44
0.0000000001
 40
0.0
 40
0.0
 40
0.0
 40
0.0
 40
0.0071009544
 40
0.0219580037
 40
0.0763830055
 40
0.1631643767
 40
0.2805318333
 40
0.4260362863
 40
0.5967103439
 40
1.0
 40
1.0
 40
1.0
 40
1.0
 10
191.037339386
 20
131.093685178
 30
0.0
 10
191.0367515883
 20
131.0935079325
 30
0.0
 10
191.0358424354
 20
131.0914893818
 30
0.0
 10
191.0341367759
 20
131.0854629638
 30
0.0
 10
191.0322285445
 20
131.0717332857
 30
0.0
 10
191.0299621284
 20
131.0496928243
 30
0.0
 10
191.0277022199
 20
131.0194587908
 30
0.0
 10
191.0254502562
 20
130.9820735474
 30
0.0
 10
191.0223894294
 20
130.9199294964
 30
0.0
 10
191.0205546605
 20
130.8703434412
 30
0.0
 10
191.0194219377
 20
130.8354939147
 30
0.0
  0
SPLINE
  5
2C1
100
AcDbEntity
  8
0
100
AcDbSpline
 62
7
  6
CONTINUOUS
 70
0
 71
3
 72
9
 73
5
 74
0
 42
0.0000001
 43
0.0000001
 44
0.0000000001
 40
0.0
 40
0.0
 40
0.0
 40
0.0
 40
0.3045183149
 40
1.0
 40
1.0
 40
1.0
 40
1.0
 10
191.0194219377
 20
130.8354939147
 30
0.0
 10
191.0186361584
 20
130.8113185071
 30
0.0
 10
191.0157324407
 20
130.7319448148
 30
0.0
 10
191.012060175
 20
130.6525698705
 30
0.0
 10
191.0077415832
 20
130.5974961713
 30
0.0
  0
SPLINE
  5
2C2
100
AcDbEntity
  8
0
100
AcDbSpline
 62
7
  6
CONTINUOUS
 70
0
 71
3
 72
9
 73
5
 74
0
 42
0.0000001
 43
0.0000001
 44
0.0000000001
 40
0.0
 40
0.0
 40
0.0
 40
0.0
 40
0.3253775282
 40
1.0
 40
1.0
 40
1.0
 40
1.0
 10
191.0057713553
 20
130.5745365592
 30
0.0
 10
191.0053836459
 20
130.5704466283
 30
0.0
 10
191.0040687388
 20
130.5578988617
 30
0.0
 10
191.002724923
 20
130.5452929584
 30
0.0
 10
191.0008141707
 20
130.53699215
 30
0.0
  0
SPLINE
  5
2C3
100
AcDbEntity
  8
0
100
AcDbSpline
 62
7
  6
CONTINUOUS
 70
0
 71
3
 72
15
 73
11
 74
0
 42
0.0000001
 43
0.0000001
 44
0.0000000001
 40
0.0
 40
0.0
 40
0.0
 40
0.0
 40
0.1249617622
 40
0.2499467333
 40
0.3749514337
 40
0.4999693294
 40
0.6249918934
 40
0.7500098889
 40
0.8750147601
 40
1.0
 40
1.0
 40
1.0
 40
1.0
 10
205.3448112077
 20
119.3517800639
 30
0.0
 10
207.2273000754
 20
119.3274056664
 30
0.0
 10
211.0078629945
 20
119.6500707808
 30
0.0
 10
216.4675311511
 20
121.2298285901
 30
0.0
 10
221.5173354611
 20
123.8444986784
 30
0.0
 10
225.9604323837
 20
127.3936709453
 30
0.0
 10
229.626873215
 20
131.7407591094
 30
0.0
 10
232.3756028937
 20
136.7194993025
 30
0.0
 10
234.1010036317
 20
142.1357813077
 30
0.0
 10
234.5249618162
 20
145.9069693576
 30
0.0
 10
234.5511340527
 20
147.7897878332
 30
0.0
  0
SPLINE
  5
2C4
100
AcDbEntity
  8
0
100
AcDbSpline
 62
7
  6
CONTINUOUS
 70
0
 71
3
 72
17
 73
13
 74
0
 42
0.0000001
 43
0.0000001
 44
0.0000000001
 40
0.0
 40
0.0
 40
0.0
 40
0.0
 40
0.005864018
 40
0.0197974839
 40
0.0423693436
 40
0.0735497236
 40
0.1610068286
 40
0.2800349909
 40
0.4275811874
 40
0.599826649
 40
0.7923002977
 40
1.0
 40
1.0
 40
1.0
 40
1.0
 10
191.3603457035
 20
131.138991712
 30
0.0
 10
191.3596347855
 20
131.1390009187
 30
0.0
 10
191.3583653122
 20
131.1361475019
 30
0.0
 10
191.3572759365
 20
131.1317173446
 30
0.0
 10
191.3558166809
 20
131.123321397
 30
0.0
 10
191.3537364526
 20
131.1065092339
 30
0.0
 10
191.3512228515
 20
131.0776634018
 30
0.0
 10
191.3484655909
 20
131.0348890547
 30
0.0
 10
191.3457946411
 20
130.9817271755
 30
0.0
 10
191.3433080777
 20
130.9196749695
 30
0.0
 10
191.3410759201
 20
130.8503053305
 30
0.0
 10
191.3398361331
 20
130.8018027791
 30
0.0
 10
191.3392648281
 20
130.7766268967
 30
0.0
  0
SPLINE
  5
2C5
100
AcDbEntity
  8
0
100
AcDbSpline
 62
7
  6
CONTINUOUS
 70
0
 71
3
 72
9
 73
5
 74
0
 42
0.0000001
 43
0.0000001
 44
0.0000000001
 40
0.0
 40
0.0
 40
0.0
 40
0.0
 40
0.5464899674
 40
1.0
 40
1.0
 40
1.0
 40
1.0
 10
197.0645654925
 20
125.8998421323
 30
0.0
 10
197.0257962443
 20
125.8561538254
 30
0.0
 10
196.9529836976
 20
125.7778701704
 30
0.0
 10
196.875920926
 20
125.7036141913
 30
0.0
 10
196.8391953304
 20
125.6719792066
 30
0.0
  0
SPLINE
  5
2C6
100
AcDbEntity
  8
0
100
AcDbSpline
 62
7
  6
CONTINUOUS
 70
0
 71
3
 72
13
 73
9
 74
0
 42
0.0000001
 43
0.0000001
 44
0.0000000001
 40
0.0
 40
0.0
 40
0.0
 40
0.0
 40
0.3801239449
 40
0.6960051139
 40
0.8168982078
 40
0.9080599725
 40
0.9678445443
 40
1.0
 40
1.0
 40
1.0
 40
1.0
 10
191.4741659856
 20
130.7206680976
 30
0.0
 10
191.4355349122
 20
130.6771354973
 30
0.0
 10
191.3630112243
 20
130.5990586946
 30
0.0
 10
191.272644971
 20
130.5121909943
 30
0.0
 10
191.2106313615
 20
130.4605949065
 30
0.0
 10
191.1758215835
 20
130.4368729459
 30
0.0
 10
191.1521187637
 20
130.4235948016
 30
0.0
 10
191.1356777931
 20
130.4221860501
 30
0.0
 10
191.1319364559
 20
130.4253864138
 30
0.0
  0
SPLINE
  5
2C7
100
AcDbEntity
  8
0
100
AcDbSpline
 62
7
  6
CONTINUOUS
 70
0
 71
3
 72
14
 73
10
 74
0
 42
0.0000001
 43
0.0000001
 44
0.0000000001
 40
0.0
 40
0.0
 40
0.0
 40
0.0
 40
0.3773101736
 40
0.5439475449
 40
0.6891119959
 40
0.8087170226
 40
0.8998871253
 40
0.9618700469
 40
1.0
 40
1.0
 40
1.0
 40
1.0
 10
191.4091704585
 20
130.7488847611
 30
0.0
 10
191.3715926672
 20
130.7074803882
 30
0.0
 10
191.315715575
 20
130.6492657146
 30
0.0
 10
191.2408560782
 20
130.5797694295
 30
0.0
 10
191.1919088811
 20
130.5385878886
 30
0.0
 10
191.1495595888
 20
130.5070935387
 30
0.0
 10
191.1144562923
 20
130.4866514083
 30
0.0
 10
191.0883984258
 20
130.4757769562
 30
0.0
 10
191.0717704224
 20
130.4772945283
 30
0.0
 10
191.0674796464
 20
130.4809712092
 30
0.0
  0
SPLINE
  5
2C8
100
AcDbEntity
  8
0
100
AcDbSpline
 62
7
  6
CONTINUOUS
 70
0
 71
3
 72
12
 73
8
 74
0
 42
0.0000001
 43
0.0000001
 44
0.0000000001
 40
0.0
 40
0.0
 40
0.0
 40
0.0
 40
0.3660675364
 40
0.6704686387
 40
0.8847554586
 40
0.9537698378
 40
1.0
 40
1.0
 40
1.0
 40
1.0
 10
191.3392648308
 20
130.7766268974
 30
0.0
 10
191.3082997728
 20
130.7368778682
 30
0.0
 10
191.2493995304
 20
130.6655983695
 30
0.0
 10
191.1649167168
 20
130.5781440237
 30
0.0
 10
191.1020068032
 20
130.5258099337
 30
0.0
 10
191.0614740292
 20
130.5055712674
 30
0.0
 10
191.04476916
 20
130.5033743407
 30
0.0
 10
191.0386866237
 20
130.5052435446
 30
0.0
  0
SPLINE
  5
2C9
100
AcDbEntity
  8
0
100
AcDbSpline
 62
7
  6
CONTINUOUS
 70
0
 71
3
 72
9
 73
5
 74
0
 42
0.0000001
 43
0.0000001
 44
0.0000000001
 40
0.0
 40
0.0
 40
0.0
 40
0.0
 40
0.2516728589
 40
1.0
 40
1.0
 40
1.0
 40
1.0
 10
191.3392648281
 20
130.7766268986
 30
0.0
 10
191.3137882355
 20
130.7866559704
 30
0.0
 10
191.2107486015
 20
130.8217083152
 30
0.0
 10
191.1008219289
 20
130.8368112433
 30
0.0
 10
191.0194219385
 20
130.8354939372
 30
0.0
  0
LINE
  5
2CA
100
AcDbEntity
  8
0
100
AcDbLine
 62
7
  6
CONTINUOUS
 10
191.4741659498
 20
130.7206681132
 11
191.4091704582
 21
130.7488847631
  0
SPLINE
  5
2CB
100
AcDbEntity
  8
0
100
AcDbSpline
 62
7
  6
CONTINUOUS
 70
0
 71
3
 72
19
 73
15
 74
0
 42
0.0000001
 43
0.0000001
 44
0.0000000001
 40
0.0
 40
0.0
 40
0.0
 40
0.0
 40
0.2017073595
 40
0.3919022861
 40
0.5644967636
 40
0.713968573
 40
0.7785072727
 40
0.8355411379
 40
0.8846156429
 40
0.9253420339
 40
0.9574025001
 40
0.9805589127
 40
0.9946808685
 40
1.0
 40
1.0
 40
1.0
 40
1.0
 10
73.5287559948
 20
90.8793000914
 30
0.0
 10
73.5393794446
 20
90.8221386761
 30
0.0
 10
73.5602681288
 20
90.711124414
 30
0.0
 10
73.5911383328
 20
90.551367394
 30
0.0
 10
73.6199764727
 20
90.4065579132
 30
0.0
 10
73.6425109994
 20
90.2974176076
 30
0.0
 10
73.65891173
 20
90.2210419421
 30
0.0
 10
73.6695474834
 20
90.1729939333
 30
0.0
 10
73.6790363208
 20
90.1318183879
 30
0.0
 10
73.6873182493
 20
90.0974805112
 30
0.0
 10
73.6942530366
 20
90.0712340436
 30
0.0
 10
73.6999023773
 20
90.0508458152
 30
0.0
 10
73.703837151
 20
90.0414018067
 30
0.0
 10
73.70656464
 20
90.033998449
 30
0.0
 10
73.7080729779
 20
90.0342733758
 30
0.0
  0
SPLINE
  5
2CC
100
AcDbEntity
  8
0
100
AcDbSpline
 62
7
  6
CONTINUOUS
 70
0
 71
3
 72
15
 73
11
 74
0
 42
0.0000001
 43
0.0000001
 44
0.0000000001
 40
0.0
 40
0.0
 40
0.0
 40
0.0
 40
0.3849893228
 40
0.5556533338
 40
0.7040852318
 40
0.8254670422
 40
0.9160095779
 40
0.9733798285
 40
0.9898464547
 40
1.0
 40
1.0
 40
1.0
 40
1.0
 10
48.8656182097
 20
97.411707286
 30
0.0
 10
48.789988325
 20
97.3233106506
 30
0.0
 10
48.6788949657
 20
97.1973530735
 30
0.0
 10
48.5333096552
 20
97.0421649406
 30
0.0
 10
48.4398396725
 20
96.9474249515
 30
0.0
 10
48.3606661944
 20
96.8724873789
 30
0.0
 10
48.2987984537
 20
96.8198769867
 30
0.0
 10
48.2575992269
 20
96.7911723596
 30
0.0
 10
48.2341524499
 20
96.7815911997
 30
0.0
 10
48.2251809557
 20
96.7824552939
 30
0.0
 10
48.2228306
 20
96.7844274765
 30
0.0
  0
SPLINE
  5
2CD
100
AcDbEntity
  8
0
100
AcDbSpline
 62
7
  6
CONTINUOUS
 70
0
 71
3
 72
15
 73
11
 74
0
 42
0.0000001
 43
0.0000001
 44
0.0000000001
 40
0.0
 40
0.0
 40
0.0
 40
0.0
 40
0.3849893228
 40
0.5556533338
 40
0.7040852318
 40
0.8254670422
 40
0.9160095779
 40
0.9733798285
 40
0.9898464547
 40
1.0
 40
1.0
 40
1.0
 40
1.0
 10
37.4997070776
 20
106.9488391249
 30
0.0
 10
37.4240771928
 20
106.8604424896
 30
0.0
 10
37.3129838335
 20
106.7344849125
 30
0.0
 10
37.167398523
 20
106.5792967796
 30
0.0
 10
37.0739285403
 20
106.4845567904
 30
0.0
 10
36.9947550623
 20
106.4096192179
 30
0.0
 10
36.9328873216
 20
106.3570088257
 30
0.0
 10
36.8916880948
 20
106.3283041986
 30
0.0
 10
36.8682413177
 20
106.3187230386
 30
0.0
 10
36.8592698235
 20
106.3195871329
 30
0.0
 10
36.8569194679
 20
106.3215593155
 30
0.0
  0
SPLINE
  5
2CE
100
AcDbEntity
  8
0
100
AcDbSpline
 62
7
  6
CONTINUOUS
 70
0
 71
3
 72
14
 73
10
 74
0
 42
0.0000001
 43
0.0000001
 44
0.0000000001
 40
0.0
 40
0.0
 40
0.0
 40
0.0
 40
0.3835580135
 40
0.6992601681
 40
0.8194218896
 40
0.9097294215
 40
0.943141646
 40
0.9687865132
 40
1.0
 40
1.0
 40
1.0
 40
1.0
 10
37.3685513789
 20
107.0038654706
 30
0.0
 10
37.2951296646
 20
106.91965096
 30
0.0
 10
37.1579048629
 20
106.7690337235
 30
0.0
 10
36.9883724006
 20
106.6007392633
 30
0.0
 10
36.8714757233
 20
106.5013127905
 30
0.0
 10
36.8143940033
 20
106.4591936263
 30
0.0
 10
36.775915842
 20
106.4378209727
 30
0.0
 10
36.7525407594
 20
106.427924264
 30
0.0
 10
36.7327287789
 20
106.425767676
 30
0.0
 10
36.7257637683
 20
106.4316120128
 30
0.0
  0
SPLINE
  5
2CF
100
AcDbEntity
  8
0
100
AcDbSpline
 62
7
  6
CONTINUOUS
 70
0
 71
3
 72
10
 73
6
 74
0
 42
0.0000001
 43
0.0000001
 44
0.0000000001
 40
0.0
 40
0.0
 40
0.0
 40
0.0
 40
0.5795070894
 40
0.815081245
 40
1.0
 40
1.0
 40
1.0
 40
1.0
 10
37.2274830854
 20
107.0578978461
 30
0.0
 10
37.1488827234
 20
106.9521762736
 30
0.0
 10
37.0341776424
 20
106.8062985357
 30
0.0
 10
36.8812066231
 20
106.6380807708
 30
0.0
 10
36.8122983508
 20
106.5715706286
 30
0.0
 10
36.7801208934
 20
106.5445197449
 30
0.0
  0
SPLINE
  5
2D0
100
AcDbEntity
  8
0
100
AcDbSpline
 62
7
  6
CONTINUOUS
 70
0
 71
3
 72
11
 73
7
 74
0
 42
0.0000001
 43
0.0000001
 44
0.0000000001
 40
0.0
 40
0.0
 40
0.0
 40
0.0
 40
0.3735519048
 40
0.6600959712
 40
0.8627818824
 40
1.0
 40
1.0
 40
1.0
 40
1.0
 10
36.7801208934
 20
106.5445197449
 30
0.0
 10
36.766594542
 20
106.5331484376
 30
0.0
 10
36.7421066568
 20
106.5137090195
 30
0.0
 10
36.7073393456
 20
106.4920508975
 30
0.0
 10
36.679864771
 20
106.480607063
 30
0.0
 10
36.6624577499
 20
106.4814120392
 30
0.0
 10
36.6568234426
 20
106.4846354261
 30
0.0
  0
SPLINE
  5
2D1
100
AcDbEntity
  8
0
100
AcDbSpline
 62
7
  6
CONTINUOUS
 70
0
 71
3
 72
9
 73
5
 74
0
 42
0.0000001
 43
0.0000001
 44
0.0000000001
 40
0.0
 40
0.0
 40
0.0
 40
0.0
 40
0.251491858
 40
1.0
 40
1.0
 40
1.0
 40
1.0
 10
37.22748308
 20
107.0578978484
 30
0.0
 10
37.17604438
 20
107.0774461592
 30
0.0
 10
36.9680004492
 20
107.1455438727
 30
0.0
 10
36.7467065689
 20
107.1736906557
 30
0.0
 10
36.5829761595
 20
107.1697357707
 30
0.0
  0
LINE
  5
2D2
100
AcDbEntity
  8
0
100
AcDbLine
 62
7
  6
CONTINUOUS
 10
37.4997070052
 20
106.9488391553
 11
37.3685513789
 21
107.0038654742
  0
SPLINE
  5
2D3
100
AcDbEntity
  8
0
100
AcDbSpline
 62
7
  6
CONTINUOUS
 70
0
 71
3
 72
22
 73
18
 74
0
 42
0.0000001
 43
0.0000001
 44
0.0000000001
 40
0.0
 40
0.0
 40
0.0
 40
0.0
 40
0.0025158601
 40
0.0099365784
 40
0.0219138104
 40
0.0379566921
 40
0.057519801
 40
0.080071053
 40
0.1322859159
 40
0.1915641224
 40
0.2558177901
 40
0.323643544
 40
0.3940878549
 40
0.5403681662
 40
0.6912658691
 40
0.8448733276
 40
1.0
 40
1.0
 40
1.0
 40
1.0
 10
106.0678654177
 20
107.8100744913
 30
0.0
 10
106.066477226
 20
107.8096750799
 30
0.0
 10
106.0619655651
 20
107.8058777976
 30
0.0
 10
106.0508541007
 20
107.8001575728
 30
0.0
 10
106.0336333709
 20
107.7891900488
 30
0.0
 10
106.0101682975
 20
107.7752466012
 30
0.0
 10
105.9816013798
 20
107.7579388866
 30
0.0
 10
105.935182646
 20
107.7300426326
 30
0.0
 10
105.8691810329
 20
107.6904515446
 30
0.0
 10
105.7825099909
 20
107.6387776458
 30
0.0
 10
105.6879962738
 20
107.5827537273
 30
0.0
 10
105.5878009493
 20
107.523743174
 30
0.0
 10
105.4467841221
 20
107.4412409805
 30
0.0
 10
105.2641165692
 20
107.3354791478
 30
0.0
 10
105.039335757
 20
107.2071669717
 30
0.0
 10
104.8093379434
 20
107.0777587297
 30
0.0
 10
104.6543131016
 20
106.9917937329
 30
0.0
 10
104.5762876772
 20
106.9488392591
 30
0.0
  0
SPLINE
  5
2D4
100
AcDbEntity
  8
0
100
AcDbSpline
 62
7
  6
CONTINUOUS
 70
0
 71
3
 72
15
 73
11
 74
0
 42
0.0000001
 43
0.0000001
 44
0.0000000001
 40
0.0
 40
0.0
 40
0.0
 40
0.0
 40
0.3777345067
 40
0.5462573787
 40
0.693792999
 40
0.8156600618
 40
0.9081611313
 40
0.9690093362
 40
0.9877255532
 40
1.0
 40
1.0
 40
1.0
 40
1.0
 10
104.5762874347
 20
106.9488391249
 30
0.0
 10
104.662842882
 20
106.871740251
 30
0.0
 10
104.7899622753
 20
106.7623835866
 30
0.0
 10
104.9560680487
 20
106.6291532636
 30
0.0
 10
105.0632136316
 20
106.5480634612
 30
0.0
 10
105.1542992201
 20
106.484288753
 30
0.0
 10
105.2260759967
 20
106.4401047265
 30
0.0
 10
105.2739803399
 20
106.4165370158
 30
0.0
 10
105.3013759917
 20
106.4101245805
 30
0.0
 10
105.3114890859
 20
106.4114743944
 30
0.0
 10
105.3146017062
 20
106.4135954805
 30
0.0
  0
SPLINE
  5
2D5
100
AcDbEntity
  8
0
100
AcDbSpline
 62
7
  6
CONTINUOUS
 70
0
 71
3
 72
18
 73
14
 74
0
 42
0.0000001
 43
0.0000001
 44
0.0000000001
 40
0.0
 40
0.0
 40
0.0
 40
0.0
 40
0.2008132271
 40
0.3903275545
 40
0.5624418125
 40
0.711623191
 40
0.8330935527
 40
0.8821954528
 40
0.9230109626
 40
0.955240265
 40
0.9786862898
 40
0.9933376652
 40
1.0
 40
1.0
 40
1.0
 40
1.0
 10
84.9387393761
 20
93.90943868
 30
0.0
 10
84.958505074
 20
93.8544388953
 30
0.0
 10
84.997367972
 20
93.7476922845
 30
0.0
 10
85.0547614276
 20
93.5943924207
 30
0.0
 10
85.1083458823
 20
93.4557140268
 30
0.0
 10
85.1563670974
 20
93.3361432574
 30
0.0
 10
85.1926033465
 20
93.2503901867
 30
0.0
 10
85.2178395824
 20
93.1943235353
 30
0.0
 10
85.2332025743
 20
93.1621648357
 30
0.0
 10
85.2458556655
 20
93.1373491699
 30
0.0
 10
85.2566231531
 20
93.1192739061
 30
0.0
 10
85.2633626789
 20
93.1093714968
 30
0.0
 10
85.2693252722
 20
93.1044254136
 30
0.0
 10
85.2711539808
 20
93.105069956
 30
0.0
  0
ENDSEC
  0
SECTION
  2
OBJECTS
  0
DICTIONARY
  5
C
100
AcDbDictionary
280
0
281
1
  3
ACAD_GROUP
350
D
  3
ACAD_MLINESTYLE
350
17
  3
ACAD_LAYOUT
350
1A
  3
ACAD_PLOTSETTINGS
350
19
  3
ACAD_PLOTSTYLENAME
350
E
  3
ACAD_TABLESTYLE
350
       2D6
  0
DICTIONARY
  5
D
102
{ACAD_REACTORS
330
C
102
}
100
AcDbDictionary
280
0
281
1
  0
ACDBDICTIONARYWDFLT
  5
E
102
{ACAD_REACTORS
330
C
102
}
100
AcDbDictionary
281
1
  3
Normal
350
F
100
AcDbDictionaryWithDefault
340
F
  0
DICTIONARY
  5
17
102
{ACAD_REACTORS
330
C
102
}
100
AcDbDictionary
280
0
281
1
  3
Standard
350
18
  0
DICTIONARY
  5
2D6
330
C
100
AcDbDictionary
281
1
  3
Standard
350
       2D9
  3
Standard1
350
       2DA
  0
DICTIONARY
  5
19
102
{ACAD_REACTORS
330
C
102
}
100
AcDbDictionary
281
1
  0
DICTIONARY
  5
1A
102
{ACAD_REACTORS
330
C
102
}
100
AcDbDictionary
281
1
  3
Model
350
2D7
  3
Layout1
350
2D8
  0
ACDBPLACEHOLDER
  5
F
102
{ACAD_REACTORS
330
E
102
}
  0
MLINESTYLE
  5
18
102
{ACAD_REACTORS
330
17
102
}
100
AcDbMlineStyle
  2
STANDARD
 70
0
  3

 62
256
 51
90.0
 52
90.0
 71
2
 49
0.5
 62
256
  6
BYLAYER
 49
-0.5
 62
256
  6
BYLAYER
  0
LAYOUT
  5
2D7
102
{ACAD_REACTORS
330
1A
102
}
100
AcDbPlotSettings
  1

  2
none_device
  4
ISO_A4_(297.00_x_210.00_MM)
  6

 40
0.0
 41
0.0
 42
0.0
 43
0.0
 44
297.0
 45
210.0
 46
0.0
 47
0.0
 48
0.0
 49
0.0
140
0.0
141
0.0
142
1.0
143
1.0
 70
1024
 72
1
 73
0
 74
0
  7

 75
0
147
1.0
148
0.0
149
0.0
100
AcDbLayout
  1
Model
 70
0
 71
0
 10
0.0
 20
0.0
 11
297.0
 21
210.0
 12
0.0
 22
0.0
 32
0.0
 14
0.0
 24
0.0
 34
0.0
 15
0.0
 25
0.0
 35
0.0
146
0.0
 13
0.0
 23
0.0
 33
0.0
 16
1.0
 26
0.0
 36
0.0
 17
0.0
 27
1.0
 37
0.0
 76
0
330
20C
345
0
346
0
  0
LAYOUT
  5
2D8
102
{ACAD_REACTORS
330
1A
102
}
100
AcDbPlotSettings
  1

  2
none_device
  4
ISO_A4_(297.00_x_210.00_MM)
  6

 40
0.0
 41
0.0
 42
0.0
 43
0.0
 44
297.0
 45
210.0
 46
0.0
 47
0.0
 48
0.0
 49
0.0
140
0.0
141
0.0
142
1.0
143
1.0
 70
0
 72
1
 73
0
 74
0
  7

 75
0
147
1.0
148
0.0
149
0.0
100
AcDbLayout
  1
Layout1
 70
0
 71
1
 10
0.0
 20
0.0
 11
297.0
 21
210.0
 12
0.0
 22
0.0
 32
0.0
 14
0.0
 24
0.0
 34
0.0
 15
0.0
 25
0.0
 35
0.0
146
0.0
 13
0.0
 23
0.0
 33
0.0
 16
1.0
 26
0.0
 36
0.0
 17
0.0
 27
1.0
 37
0.0
 76
0
330
20D
345
0
346
0
  0
TABLESTYLE
  5
2D9
102
{ACAD_REACTORS
330
2D6
330
259
102
}
330
2D6
100
AcDbTableStyle
  3
Standard
 70
0
 71
0
 40
0.06
 41
0.06
280
1
281
1
  7
Standard
140
0.18
170
1
 62
0
 63
7
283
0
  7
Standard
140
0.18
170
1
 62
0
 63
7
283
0
  7
Standard
140
0.18
170
1
 62
0
 63
7
283
0
  0
TABLESTYLE
  5
2DA
102
{ACAD_REACTORS
330
2D6
102
}
330
2D6
100
AcDbTableStyle
  3
Standard1
 70
1
 71
0
 40
0.06
 41
0.06
280
1
281
1
  7
Standard
140
0.18
170
1
 62
0
 63
7
283
0
  7
Standard
140
0.18
170
1
 62
0
 63
7
283
0
  7
Standard
140
0.18
170
1
 62
0
 63
7
283
0
  0
ENDSEC
  0
EOF
