999
DXF file: O:\ORAC_PRODUCTEN\ORAC_LIJN6\C-Type\C342\c342-prod-mm.dxf
999
Pro/ENGINEER 2013050 by Parametric Technology Corporation
  0
SECTION
  2
HEADER
  9
$ACADVER
  1
AC1024
  9
$DWGCODEPAGE
  3
ANSI_1252
  9
$EXTMAX
 10
297.0
 20
210.0
 30
0.0
  9
$EXTMIN
 10
0.0
 20
0.0
 30
0.0
  9
$LIMMIN
 10
0.0
 20
0.0
  9
$LIMMAX
 10
297.0
 20
210.0
  9
$VIEWCTR
 10
148.5
 20
105.0
  9
$VIEWSIZE
 40
210.0
  9
$CLAYER
  8
0
  9
$LTSCALE
 40
16.335
  9
$CELTYPE
  6
BYLAYER
  9
$DIMSCALE
 40
1.0
  9
$DIMASZ
 40
3.5
  9
$DIMEXO
 40
1.0
  9
$DIMDLI
 40
11.286
  9
$DIMEXE
 40
1.5
  9
$DIMCEN
 40
2.673
  9
$DIMLFAC
 40
1.0
  9
$DIMBLK
  1
_FILLED
  9
$DIMTXT
 40
2.5
  9
$DIMTOL
 70
1
  9
$DIMLIM
 70
0
  9
$DIMTFAC
 40
1.0
  9
$DIMTP
 40
0.001
  9
$DIMTM
 40
0.001
  9
$DIMGAP
 40
0.625
  9
$DIMDSEP
 70
44
  9
$PDMODE
 70
3
  9
$PDSIZE
 40
8.0
  9
$HANDSEED
  5
302
  9
$TILEMODE
 70
1
  9
$MEASUREMENT
 70
1
  9
$INSUNITS
 70
4
  0
ENDSEC
  0
SECTION
  2
CLASSES
  0
CLASS
  1
ACDBDICTIONARYWDFLT
  2
AcDbDictionaryWithDefault
  3
AutoCAD 2000
 90
0
 91
1
280
0
281
0
  0
CLASS
  1
ACDBPLACEHOLDER
  2
AcDbPlaceHolder
  3
AutoCAD 2000
 90
0
 91
1
280
0
281
0
  0
CLASS
  1
LAYOUT
  2
AcDbLayout
  3
AutoCAD 2000
 90
0
 91
0
280
0
281
0
  0
CLASS
  1
TABLESTYLE
  2
AcDbTableStyle
  3
ObjectDBX Classes
 90
2047
 91
1
280
0
281
0
  0
CLASS
  1
ACAD_TABLE
  2
AcDbTable
  3
ObjectDBX Classes
 90
1025
 91
1
280
0
281
1
  0
ENDSEC
  0
SECTION
  2
TABLES
  0
TABLE
  2
VPORT
  5
8
100
AcDbSymbolTable
 70
2
  0
VPORT
  5
1F4
100
AcDbSymbolTableRecord
100
AcDbViewportTableRecord
  2
*ACTIVE
 70
0
 10
0.0
 20
0.0
 11
1.0
 21
1.0
 12
148.5
 22
105.0
 13
0.0
 23
0.0
 14
1.0
 24
1.0
 15
0.0
 25
0.0
 16
0.0
 26
0.0
 36
1.0
 17
0.0
 27
0.0
 37
0.0
 40
210.0
 41
1.4142857143
 42
50.0
 43
0.0
 44
0.0
 50
0.0
 51
0.0
 71
0
 72
100
 73
1
 74
1
 75
0
 76
0
 77
0
 78
0
  0
ENDTAB
  0
TABLE
  2
LTYPE
  5
5
100
AcDbSymbolTable
 70
6
  0
LTYPE
  5
14
100
AcDbSymbolTableRecord
100
AcDbLinetypeTableRecord
  2
BYBLOCK
 70
0
  3

 72
65
 73
0
 40
0.0
  0
LTYPE
  5
15
100
AcDbSymbolTableRecord
100
AcDbLinetypeTableRecord
  2
BYLAYER
 70
0
  3

 72
65
 73
0
 40
0.0
  0
LTYPE
  5
16
100
AcDbSymbolTableRecord
100
AcDbLinetypeTableRecord
  2
CONTINUOUS
 70
64
  3
Solid line
 72
65
 73
0
 40
0.0
  0
LTYPE
  5
1F5
100
AcDbSymbolTableRecord
100
AcDbLinetypeTableRecord
  2
CENTER
 70
64
  3
____ _ ____ _ ____ _ ____ _ ____ _ ____ _ ____
 72
65
 73
4
 40
0.6
 49
0.375
 74
0
 49
-0.075
 74
0
 49
0.075
 74
0
 49
-0.075
 74
0
  0
LTYPE
  5
1F6
100
AcDbSymbolTableRecord
100
AcDbLinetypeTableRecord
  2
HIDDEN
 70
64
  3
- - - - - - - - - - - - - - - - - - - -
 72
65
 73
2
 40
0.2
 49
0.1
 74
0
 49
-0.1
 74
0
  0
LTYPE
  5
1F7
100
AcDbSymbolTableRecord
100
AcDbLinetypeTableRecord
  2
PHANTOM
 70
64
  3
_____ _ _ _____ _ _ _____ _ _ _____
 72
65
 73
6
 40
0.8
 49
0.45
 74
0
 49
-0.05
 74
0
 49
0.1
 74
0
 49
-0.05
 74
0
 49
0.1
 74
0
 49
-0.05
 74
0
  0
LTYPE
  5
1F8
100
AcDbSymbolTableRecord
100
AcDbLinetypeTableRecord
  2
DOT
 70
64
  3
. . . . . . . . . . . . . . . . . . . .
 72
65
 73
2
 40
0.2
 49
0.1
 74
0
 49
-0.1
 74
0
  0
LTYPE
  5
1F9
100
AcDbSymbolTableRecord
100
AcDbLinetypeTableRecord
  2
DASHED
 70
64
  3
- - - - - - - - - - - - - - - - - - - -
 72
65
 73
2
 40
0.2
 49
0.1
 74
0
 49
-0.1
 74
0
  0
ENDTAB
  0
TABLE
  2
LAYER
  5
2
100
AcDbSymbolTable
 70
36
  0
LAYER
  5
10
100
AcDbSymbolTableRecord
100
AcDbLayerTableRecord
  2
0
 70
0
 62
7
  6
CONTINUOUS
370
-3
390
F
  0
LAYER
  5
1FA
100
AcDbSymbolTableRecord
100
AcDbLayerTableRecord
  2
DEFAULT_1
 70
0
 62
7
  6
CENTER
370
-3
390
F
  0
LAYER
  5
1FB
100
AcDbSymbolTableRecord
100
AcDbLayerTableRecord
  2
DEFAULT_2
 70
0
 62
8
  6
HIDDEN
370
-3
390
F
  0
LAYER
  5
1FC
100
AcDbSymbolTableRecord
100
AcDbLayerTableRecord
  2
DEFAULT_3
 70
0
 62
7
  6
PHANTOM
370
-3
390
F
  0
LAYER
  5
1FD
100
AcDbSymbolTableRecord
100
AcDbLayerTableRecord
  2
DTM_ALL
 70
0
 62
7
  6
CONTINUOUS
370
-3
390
F
  0
LAYER
  5
1FE
100
AcDbSymbolTableRecord
100
AcDbLayerTableRecord
  2
DTM_AXIS
 70
0
 62
7
  6
CONTINUOUS
370
-3
390
F
  0
LAYER
  5
1FF
100
AcDbSymbolTableRecord
100
AcDbLayerTableRecord
  2
DTM_CSYS
 70
0
 62
7
  6
CONTINUOUS
370
-3
390
F
  0
LAYER
  5
200
100
AcDbSymbolTableRecord
100
AcDbLayerTableRecord
  2
DTM_CURVE
 70
0
 62
7
  6
CONTINUOUS
370
-3
390
F
  0
LAYER
  5
201
100
AcDbSymbolTableRecord
100
AcDbLayerTableRecord
  2
DTM_MASTER
 70
0
 62
7
  6
CONTINUOUS
370
-3
390
F
  0
LAYER
  5
202
100
AcDbSymbolTableRecord
100
AcDbLayerTableRecord
  2
DTM_POINT
 70
0
 62
7
  6
CONTINUOUS
370
-3
390
F
  0
LAYER
  5
203
100
AcDbSymbolTableRecord
100
AcDbLayerTableRecord
  2
DTM_QUILT
 70
0
 62
7
  6
CONTINUOUS
370
-3
390
F
  0
LAYER
  5
204
100
AcDbSymbolTableRecord
100
AcDbLayerTableRecord
  2
GTOL
 70
0
 62
7
  6
CONTINUOUS
370
-3
390
F
  0
LAYER
  5
205
100
AcDbSymbolTableRecord
100
AcDbLayerTableRecord
  2
NONE
 70
0
 62
7
  6
CONTINUOUS
370
-3
390
F
  0
LAYER
  5
206
100
AcDbSymbolTableRecord
100
AcDbLayerTableRecord
  2
NOTES
 70
0
 62
7
  6
CONTINUOUS
370
-3
390
F
  0
ENDTAB
  0
TABLE
  2
STYLE
  5
3
100
AcDbSymbolTable
 70
1
  0
STYLE
  5
11
100
AcDbSymbolTableRecord
100
AcDbTextStyleTableRecord
  2
STANDARD
 70
0
 40
0.0
 41
1.0
 50
0.0
 71
0
 42
0.2
  3
cgtime.ttf
  4

  0
STYLE
  5
207
100
AcDbSymbolTableRecord
100
AcDbTextStyleTableRecord
  2
TEXTSTYLE_1
 70
0
 40
0.0
 41
0.8
 50
0.0
 71
0
 42
0.2
  3
gdt
  4

  0
STYLE
  5
208
100
AcDbSymbolTableRecord
100
AcDbTextStyleTableRecord
  2
TEXTSTYLE_2
 70
0
 40
0.0
 41
1.0
 50
0.0
 71
0
 42
0.2
  3
trium.ttf
  4

  0
STYLE
  5
209
100
AcDbSymbolTableRecord
100
AcDbTextStyleTableRecord
  2
TEXTSTYLE_3
 70
0
 40
0.0
 41
1.0
 50
0.0
 71
0
 42
0.2
  3
calibri.ttf
  4

  0
ENDTAB
  0
TABLE
  2
VIEW
  5
6
100
AcDbSymbolTable
 70
0
  0
ENDTAB
  0
TABLE
  2
UCS
  5
7
100
AcDbSymbolTable
 70
0
  0
ENDTAB
  0
TABLE
  2
APPID
  5
9
100
AcDbSymbolTable
 70
1
  0
APPID
  5
20A
100
AcDbSymbolTableRecord
100
AcDbRegAppTableRecord
  2
ACAD
 70
0
  0
ENDTAB
  0
TABLE
  2
BLOCK_RECORD
  5
1
100
AcDbSymbolTable
 70
0
  0
BLOCK_RECORD
  5
20B
100
AcDbSymbolTableRecord
100
AcDbBlockTableRecord
  2
*Model_Space
  0
BLOCK_RECORD
  5
20C
100
AcDbSymbolTableRecord
100
AcDbBlockTableRecord
  2
*Paper_Space
  0
BLOCK_RECORD
  5
20D
100
AcDbSymbolTableRecord
100
AcDbBlockTableRecord
  2
_FILLED
  0
BLOCK_RECORD
  5
20E
100
AcDbSymbolTableRecord
100
AcDbBlockTableRecord
  2
*D0
  0
BLOCK_RECORD
  5
20F
100
AcDbSymbolTableRecord
100
AcDbBlockTableRecord
  2
*D1
  0
BLOCK_RECORD
  5
210
100
AcDbSymbolTableRecord
100
AcDbBlockTableRecord
  2
*D2
  0
BLOCK_RECORD
  5
211
100
AcDbSymbolTableRecord
100
AcDbBlockTableRecord
  2
*T1
  0
ENDTAB
  0
TABLE
  2
DIMSTYLE
  5
A
100
AcDbSymbolTable
 70
1
100
AcDbDimStyleTable
 71
0
  0
DIMSTYLE
105
212
100
AcDbSymbolTableRecord
100
AcDbDimStyleTableRecord
  2
STANDARD
 70
0
  3

  4

 40
1.0
 41
3.5
 42
1.0
 43
0.38
 44
1.5
 45
0.0
 46
0.0
 47
0.001
 48
0.001
140
2.5
141
0.09
142
0.0
143
25.4
144
1.0
145
0.0
146
1.0
147
0.625
 71
1.0
 72
0.0
 73
1
 74
1
 75
0
 76
0
 77
0
 78
8
170
0
171
2
172
0
173
0
174
0
175
0
176
0
177
0
178
0
270
2
271
3
272
3
273
2
274
2
275
0
280
0
281
0
282
0
283
1
284
8
285
0
286
0
287
3
288
0
340
11
278
44
341
20D
342
20D
343
20D
344
20D
  0
DIMSTYLE
105
213
100
AcDbSymbolTableRecord
100
AcDbDimStyleTableRecord
  2
DIMSTYLE_1
 70
0
  3

  4

 40
1.0
 41
3.5
 42
1.0
 43
0.38
 44
1.5
 45
0.0
 46
0.0
 47
0.0
 48
0.0
140
2.5
141
0.09
142
0.0
143
25.4
144
1.0
145
0.0
146
1.0
147
1.25
 71
0.0
 72
0.0
 73
1
 74
1
 75
0
 76
0
 77
0
 78
8
170
0
171
2
172
0
173
0
174
0
175
0
176
0
177
0
178
0
270
2
271
3
272
3
273
2
274
2
275
0
280
0
281
0
282
0
283
1
284
8
285
0
286
0
287
3
288
0
340
11
278
44
341
20D
342
20D
343
20D
344
20D
  0
DIMSTYLE
105
214
100
AcDbSymbolTableRecord
100
AcDbDimStyleTableRecord
  2
DIMSTYLE_2
 70
0
  3

  4

 40
1.0
 41
3.5
 42
1.0
 43
0.38
 44
1.5
 45
0.0
 46
0.0
 47
0.0
 48
0.0
140
2.5
141
0.09
142
0.0
143
25.4
144
1.0
145
0.0
146
1.0
147
1.25
 71
0.0
 72
0.0
 73
1
 74
1
 75
0
 76
0
 77
0
 78
8
170
0
171
2
172
0
173
0
174
0
175
0
176
0
177
0
178
0
270
2
271
0
272
0
273
2
274
2
275
0
280
0
281
0
282
0
283
1
284
8
285
0
286
0
287
3
288
0
340
11
278
44
341
20D
342
20D
343
20D
344
20D
  0
ENDTAB
  0
ENDSEC
  0
SECTION
  2
BLOCKS
  0
BLOCK
  5
20
100
AcDbEntity
  8
0
100
AcDbBlockBegin
  2
*Model_Space
 70
0
 10
0.0
 20
0.0
 30
0.0
  3
*Model_Space
  1

  0
ENDBLK
  5
21
100
AcDbEntity
  8
0
100
AcDbBlockEnd
  0
BLOCK
  5
1C
100
AcDbEntity
  8
0
100
AcDbBlockBegin
  2
*Paper_Space
 70
0
 10
0.0
 20
0.0
 30
0.0
  3
*Paper_Space
  1

  0
ENDBLK
  5
1D
100
AcDbEntity
  8
0
100
AcDbBlockEnd
  0
BLOCK
  5
215
100
AcDbEntity
  8
0
100
AcDbBlockBegin
  2
_FILLED
 70
64
 10
0.0
 20
0.0
  3
_FILLED
  1

  0
SOLID
  5
216
100
AcDbEntity
  8
0
  6
BYBLOCK
 62
0
100
AcDbTrace
 10
0.0
 20
0.0
 11
-1.0
 21
0.2142857143
 12
-1.0
 22
-0.2142857143
 13
-1.0
 23
-0.2142857143
  0
ENDBLK
  5
217
100
AcDbEntity
  8
0
  6
BYBLOCK
 62
0
100
AcDbBlockEnd
  0
BLOCK
  5
218
100
AcDbEntity
  8
0
100
AcDbBlockBegin
 62
2
  6
CONTINUOUS
  2
*D0
 70
65
 10
0.0
 20
0.0
  3
*D0
  1

  0
TEXT
  5
219
100
AcDbEntity
  8
0
100
AcDbText
 62
2
  6
CONTINUOUS
 10
118.7101806973
 20
188.7132112526
  7
STANDARD
 40
2.5
  1
190
 72
5
 11
124.1673791409
 21
188.7132112526
100
AcDbText
  0
LINE
  5
21A
100
AcDbEntity
  8
0
100
AcDbLine
 62
2
  6
CONTINUOUS
 10
26.4387799191
 20
73.1005514297
 11
26.4387799191
 21
191.4632112526
  0
LINE
  5
21B
100
AcDbEntity
  8
0
100
AcDbLine
 62
2
  6
CONTINUOUS
 10
216.4387799191
 20
179.20161406
 11
216.4387799191
 21
191.4632112526
  0
LINE
  5
21C
100
AcDbEntity
  8
0
100
AcDbLine
 62
2
  6
CONTINUOUS
 10
26.4387799191
 20
189.9632112526
 11
117.4601806973
 21
189.9632112526
  0
LINE
  5
21D
100
AcDbEntity
  8
0
100
AcDbLine
 62
2
  6
CONTINUOUS
 10
216.4387799191
 20
189.9632112526
 11
125.4173791409
 21
189.9632112526
  0
INSERT
  5
21E
100
AcDbEntity
  8
0
100
AcDbBlockReference
 62
2
  6
CONTINUOUS
  2
_FILLED
 10
26.4387799191
 20
189.9632112526
 41
3.5
 42
3.5
 43
3.5
 50
180.0
  0
INSERT
  5
21F
100
AcDbEntity
  8
0
100
AcDbBlockReference
 62
2
  6
CONTINUOUS
  2
_FILLED
 10
216.4387799191
 20
189.9632112526
 41
3.5
 42
3.5
 43
3.5
  0
ENDBLK
  5
220
100
AcDbEntity
  8
0
  6
BYBLOCK
 62
0
100
AcDbBlockEnd
  0
BLOCK
  5
221
100
AcDbEntity
  8
0
100
AcDbBlockBegin
 62
2
  6
CONTINUOUS
  2
*D1
 70
65
 10
0.0
 20
0.0
  3
*D1
  1

  0
TEXT
  5
222
100
AcDbEntity
  8
0
100
AcDbText
 62
2
  6
CONTINUOUS
 10
10.0765513589
 20
106.9476396604
  7
STANDARD
 40
2.5
  1
140
 72
5
 11
15.5337498024
 21
106.9476396604
100
AcDbText
  0
LINE
  5
223
100
AcDbEntity
  8
0
100
AcDbLine
 62
2
  6
CONTINUOUS
 10
25.4387799191
 20
38.1936652609
 11
11.3051505807
 21
38.1936652609
  0
LINE
  5
224
100
AcDbEntity
  8
0
100
AcDbLine
 62
2
  6
CONTINUOUS
 10
187.6137765834
 20
178.20161406
 11
11.3051505807
 21
178.20161406
  0
LINE
  5
225
100
AcDbEntity
  8
0
100
AcDbLine
 62
2
  6
CONTINUOUS
 10
12.8051505807
 20
38.1936652609
 11
12.8051505807
 21
105.6976396604
  0
LINE
  5
226
100
AcDbEntity
  8
0
100
AcDbLine
 62
2
  6
CONTINUOUS
 10
12.8051505807
 20
178.20161406
 11
12.8051505807
 21
110.6976396604
  0
INSERT
  5
227
100
AcDbEntity
  8
0
100
AcDbBlockReference
 62
2
  6
CONTINUOUS
  2
_FILLED
 10
12.8051505807
 20
38.1936652609
 41
3.5
 42
3.5
 43
3.5
 50
270.0
  0
INSERT
  5
228
100
AcDbEntity
  8
0
100
AcDbBlockReference
 62
2
  6
CONTINUOUS
  2
_FILLED
 10
12.8051505807
 20
178.20161406
 41
3.5
 42
3.5
 43
3.5
 50
90.0
  0
ENDBLK
  5
229
100
AcDbEntity
  8
0
  6
BYBLOCK
 62
0
100
AcDbBlockEnd
  0
BLOCK
  5
22A
100
AcDbEntity
  8
0
100
AcDbBlockBegin
 62
2
  6
CONTINUOUS
  2
*D2
 70
65
 10
0.0
 20
0.0
  3
*D2
  1

  0
TEXT
  5
22B
100
AcDbEntity
  8
0
100
AcDbText
 62
2
  6
CONTINUOUS
 10
129.0001092857
 20
92.9835294183
  7
STANDARD
 40
2.5
  1
236
 72
5
 11
134.4573077293
 21
92.9835294183
100
AcDbText
  0
LINE
  5
22C
100
AcDbEntity
  8
0
100
AcDbLine
 62
2
  6
CONTINUOUS
 10
217.0320007851
 20
177.3965743068
 11
227.6185398065
 21
163.0299441881
  0
LINE
  5
22D
100
AcDbEntity
  8
0
100
AcDbLine
 62
2
  6
CONTINUOUS
 10
27.0320007851
 20
37.3886255077
 11
37.6185398065
 21
23.021995389
  0
LINE
  5
22E
100
AcDbEntity
  8
0
100
AcDbLine
 62
2
  6
CONTINUOUS
 10
226.7287085075
 20
164.2375038178
 11
135.1213730246
 21
96.7335294183
  0
LINE
  5
22F
100
AcDbEntity
  8
0
100
AcDbLine
 62
2
  6
CONTINUOUS
 10
36.7287085075
 20
24.2295550188
 11
128.3360439904
 21
91.7335294183
  0
INSERT
  5
230
100
AcDbEntity
  8
0
100
AcDbBlockReference
 62
2
  6
CONTINUOUS
  2
_FILLED
 10
226.7287085075
 20
164.2375038178
 41
3.5
 42
3.5
 43
3.5
 50
36.3859053252
  0
INSERT
  5
231
100
AcDbEntity
  8
0
100
AcDbBlockReference
 62
2
  6
CONTINUOUS
  2
_FILLED
 10
36.7287085075
 20
24.2295550188
 41
3.5
 42
3.5
 43
3.5
 50
216.3859053252
  0
ENDBLK
  5
232
100
AcDbEntity
  8
0
  6
BYBLOCK
 62
0
100
AcDbBlockEnd
  0
BLOCK
  5
233
100
AcDbEntity
  8
0
100
AcDbBlockBegin
  2
*T1
 70
1
 10
0.0
 20
0.0
  3
*T1
  1

  0
LINE
  5
234
100
AcDbEntity
  8
0
100
AcDbLine
 62
7
  6
CONTINUOUS
 10
0.0
 20
0.0
 11
148.0
 21
0.0
  0
LINE
  5
235
100
AcDbEntity
  8
0
100
AcDbLine
 62
7
  6
CONTINUOUS
 10
0.0
 20
0.0
 11
0.0
 21
-43.0
  0
LINE
  5
236
100
AcDbEntity
  8
0
100
AcDbLine
 62
7
  6
CONTINUOUS
 10
45.0
 20
-23.0
 11
148.0
 21
-23.0
  0
LINE
  5
237
100
AcDbEntity
  8
0
100
AcDbLine
 62
7
  6
CONTINUOUS
 10
45.0
 20
-28.0
 11
148.0
 21
-28.0
  0
LINE
  5
238
100
AcDbEntity
  8
0
100
AcDbLine
 62
7
  6
CONTINUOUS
 10
0.0
 20
-43.0
 11
148.0
 21
-43.0
  0
LINE
  5
239
100
AcDbEntity
  8
0
100
AcDbLine
 62
7
  6
CONTINUOUS
 10
45.0
 20
0.0
 11
45.0
 21
-43.0
  0
LINE
  5
23A
100
AcDbEntity
  8
0
100
AcDbLine
 62
7
  6
CONTINUOUS
 10
143.0
 20
0.0
 11
143.0
 21
-23.0
  0
LINE
  5
23B
100
AcDbEntity
  8
0
100
AcDbLine
 62
7
  6
CONTINUOUS
 10
148.0
 20
0.0
 11
148.0
 21
-43.0
  0
TEXT
  5
23C
100
AcDbEntity
  8
0
100
AcDbText
 62
7
  6
CONTINUOUS
 10
8.9659749243
 20
-10.675
  7
STANDARD
 40
8.0
  1
O
 72
5
 11
17.370644185
 21
-10.675
100
AcDbText
  0
TEXT
  5
23D
100
AcDbEntity
  8
0
100
AcDbText
 62
7
  6
CONTINUOUS
 10
17.370644185
 20
-10.675
  7
STANDARD
 40
5.5
  1
RAC
 72
5
 11
33.9562472979
 21
-10.675
100
AcDbText
  0
TEXT
  5
23E
100
AcDbEntity
  8
0
100
AcDbText
 62
7
  6
CONTINUOUS
 10
33.9562472979
 20
-5.925
  7
TEXTSTYLE_2
 40
3.0
  1
®
 72
5
 11
36.0340250757
 21
-5.925
100
AcDbText
  0
TEXT
  5
23F
100
AcDbEntity
  8
0
100
AcDbText
 62
7
  6
CONTINUOUS
 10
9.5323389537
 20
-15.325
  7
TEXTSTYLE_2
 40
3.0
  1
D  E  C  O  R
 72
5
 11
34.3878945093
 21
-15.325
100
AcDbText
  0
TEXT
  5
240
100
AcDbEntity
  8
0
100
AcDbText
 62
7
  6
CONTINUOUS
 10
34.3878945093
 20
-15.325
  7
STANDARD
 40
2.5
  1
 
 72
5
 11
35.4676610463
 21
-15.325
100
AcDbText
  0
TEXT
  5
241
100
AcDbEntity
  8
0
100
AcDbText
 62
7
  6
CONTINUOUS
 10
52.5257352941
 20
-6.0
  7
TEXTSTYLE_3
 40
2.75
  1
Part name:
 72
5
 11
71.9375
 21
-6.0
100
AcDbText
  0
TEXT
  5
242
100
AcDbEntity
  8
0
100
AcDbText
 62
7
  6
CONTINUOUS
 10
49.2788865546
 20
-12.875
  7
TEXTSTYLE_3
 40
2.75
  1
Designed by:
 72
5
 11
71.9375
 21
-12.875
100
AcDbText
  0
TEXT
  5
243
100
AcDbEntity
  8
0
100
AcDbText
 62
7
  6
CONTINUOUS
 10
48.9553571429
 20
-19.75
  7
TEXTSTYLE_3
 40
2.75
  1
Designed on:
 72
5
 11
71.9375
 21
-19.75
100
AcDbText
  0
TEXT
  5
244
100
AcDbEntity
  8
0
100
AcDbText
 62
2
  6
CONTINUOUS
 10
74.0625
 20
-6.0
  7
TEXTSTYLE_3
 40
2.75
  1
C342
 72
5
 11
82.9595588235
 21
-6.0
100
AcDbText
  0
TEXT
  5
245
100
AcDbEntity
  8
0
100
AcDbText
 62
2
  6
CONTINUOUS
 10
74.0625
 20
-12.875
  7
TEXTSTYLE_3
 40
2.75
  1
ORAC
 72
5
 11
84.1034663866
 21
-12.875
100
AcDbText
  0
TEXT
  5
246
100
AcDbEntity
  8
0
100
AcDbText
 62
2
  6
CONTINUOUS
 10
74.0625
 20
-19.75
  7
TEXTSTYLE_3
 40
2.75
  1
25-Aug-2014
 72
5
 11
96.7211134454
 21
-19.75
100
AcDbText
  0
TEXT
  5
247
100
AcDbEntity
  8
0
100
AcDbText
 62
2
  6
CONTINUOUS
 10
96.7211134454
 20
-19.75
  7
TEXTSTYLE_3
 40
2.75
  1
 
 72
5
 11
97.7032563025
 21
-19.75
100
AcDbText
  0
TEXT
  5
248
100
AcDbEntity
  8
0
100
AcDbText
 62
2
  6
CONTINUOUS
 10
146.5625
 20
-17.5
  7
TEXTSTYLE_3
 40
1.5
  1
Version: 
 50
90.0
 72
5
 11
146.5625
 21
-9.0294117647
100
AcDbText
  0
TEXT
  5
249
100
AcDbEntity
  8
0
100
AcDbText
 62
2
  6
CONTINUOUS
 10
146.5625
 20
-9.0294117647
  7
TEXTSTYLE_3
 40
1.5
  1
1.0
 50
90.0
 72
5
 11
146.5625
 21
-6.0357142857
100
AcDbText
  0
TEXT
  5
24A
100
AcDbEntity
  8
0
100
AcDbText
 62
2
  6
CONTINUOUS
 10
146.5625
 20
-6.0357142857
  7
TEXTSTYLE_3
 40
1.5
  1
 
 50
90.0
 72
5
 11
146.5625
 21
-5.5
100
AcDbText
  0
TEXT
  5
24B
100
AcDbEntity
  8
0
100
AcDbText
 62
7
  6
CONTINUOUS
 10
9.6586134454
 20
-24.25
  7
TEXTSTYLE_3
 40
2.5
  1
Biekorfstraat 32
 72
5
 11
35.3413865546
 21
-24.25
100
AcDbText
  0
TEXT
  5
24C
100
AcDbEntity
  8
0
100
AcDbText
 62
7
  6
CONTINUOUS
 10
2.2584033613
 20
-28.0
  7
TEXTSTYLE_3
 40
2.5
  1
8400 Oostende - Belgium
 72
5
 11
42.7415966387
 21
-28.0
100
AcDbText
  0
TEXT
  5
24D
100
AcDbEntity
  8
0
100
AcDbText
 62
7
  6
CONTINUOUS
 10
4.2699579832
 20
-31.75
  7
TEXTSTYLE_3
 40
2.5
  1
Tel  +32 (0)59 80 32 52
 72
5
 11
40.7300420168
 21
-31.75
100
AcDbText
  0
TEXT
  5
24E
100
AcDbEntity
  8
0
100
AcDbText
 62
7
  6
CONTINUOUS
 10
5.7405462185
 20
-35.5
  7
TEXTSTYLE_3
 40
2.5
  1
www.oracdecor.com
 72
5
 11
39.2594537815
 21
-35.5
100
AcDbText
  0
TEXT
  5
24F
100
AcDbEntity
  8
0
100
AcDbText
 62
7
  6
CONTINUOUS
 10
5.5777310924
 20
-39.25
  7
TEXTSTYLE_3
 40
2.5
  1
info@oracdecor.com
 72
5
 11
39.4222689076
 21
-39.25
100
AcDbText
  0
TEXT
  5
250
100
AcDbEntity
  8
0
100
AcDbText
 62
7
  6
CONTINUOUS
 10
46.0625
 20
-26.75
  7
TEXTSTYLE_3
 40
2.5
  1
All dimensions are in mm unless otherwise specified   
 72
5
 11
132.3019957983
 21
-26.75
100
AcDbText
  0
TEXT
  5
251
100
AcDbEntity
  8
0
100
AcDbText
 62
7
  6
CONTINUOUS
 10
46.0625
 20
-31.7075
  7
TEXTSTYLE_3
 40
1.85
  1
All information in this document is Orac's exclusive property.  It may in no case 
 72
5
 11
140.0471638655
 21
-31.7075
100
AcDbText
  0
TEXT
  5
252
100
AcDbEntity
  8
0
100
AcDbText
 62
7
  6
CONTINUOUS
 10
46.0625
 20
-34.8525
  7
TEXTSTYLE_3
 40
1.85
  1
be reproduced, even partly, be communicated to a third party or used for any 
 72
5
 11
138.8345588235
 21
-34.8525
100
AcDbText
  0
TEXT
  5
253
100
AcDbEntity
  8
0
100
AcDbText
 62
7
  6
CONTINUOUS
 10
46.0625
 20
-37.9975
  7
TEXTSTYLE_3
 40
1.85
  1
possible purpose without ORAC's express written permission. 
 72
5
 11
119.4484243697
 21
-37.9975
100
AcDbText
  0
TEXT
  5
254
100
AcDbEntity
  8
0
100
AcDbText
 62
7
  6
CONTINUOUS
 10
46.0625
 20
-41.1425
  7
TEXTSTYLE_3
 40
1.85
  1
Further legal information can be found at http://www.oracdecor.be/nl/disclaimer 
 72
5
 11
143.7316176471
 21
-41.1425
100
AcDbText
  0
ENDBLK
  5
255
100
AcDbEntity
  8
0
  6
BYBLOCK
 62
0
100
AcDbBlockEnd
  0
ENDSEC
  0
SECTION
  2
ENTITIES
  0
DIMENSION
  5
256
100
AcDbEntity
  8
0
100
AcDbDimension
 62
2
  6
CONTINUOUS
  2
*D0
 10
216.4387799191
 20
189.9632112526
 11
121.4387799191
 21
189.9632112526
 70
160
 71
2
 42
190.0
  3
DIMSTYLE_1
100
AcDbAlignedDimension
 13
26.4387799191
 23
72.1005514297
 14
216.4387799191
 24
178.20161406
100
AcDbRotatedDimension
  0
DIMENSION
  5
257
100
AcDbEntity
  8
0
100
AcDbDimension
 62
2
  6
CONTINUOUS
  2
*D1
 10
12.8051505807
 20
178.20161406
 11
12.8051505807
 21
108.1976396604
 70
160
 71
2
 42
140.0079487991
  3
DIMSTYLE_2
100
AcDbAlignedDimension
 13
26.4387799191
 23
38.1936652609
 14
188.6137765834
 24
178.20161406
 50
90.0
100
AcDbRotatedDimension
  0
DIMENSION
  5
258
100
AcDbEntity
  8
0
100
AcDbDimension
 62
2
  6
CONTINUOUS
  2
*D2
 10
36.7287085075
 20
24.2295550188
 11
131.7287085075
 21
94.2335294183
 70
160
 71
2
 42
236.0131897308
  3
DIMSTYLE_2
100
AcDbAlignedDimension
 13
216.4387799191
 23
178.20161406
 14
26.4387799191
 24
38.1936652609
 50
216.3859053252
100
AcDbRotatedDimension
  0
ACAD_TABLE
  5
259
100
AcDbEntity
  8
0
 62
2
  6
CONTINUOUS
100
AcDbBlockReference
  2
*T1
 10
143.9999958937
 20
47.9999925619
 30
0.0
100
AcDbTable
342
       300
343
211
 11
1.0
 21
0.0
 31
0.0
 90
22
 91
4
 92
4
 93
0
 94
0
 95
0
 96
0
141
18.0
141
5.0
141
5.0
141
15.0
142
45.0
142
28.0
142
70.0
142
5.0
171
1
172
0
173
0
174
0
175
1
176
1
 91
41
178
0
145
0.0
301
CELL_VALUE
 90
4
  1
O\H5.5;RAC\P\Ftrium.ttf;\H3.0;®\PD  E  C  O  R\Fcgtime.ttf;\H2.5; 
304
ACVALUE_END
170
5
140
8.0
 64
7
171
1
172
0
173
0
174
0
175
1
176
2
 91
41
178
0
145
0.0
301
CELL_VALUE
 90
4
  1
Part name:\PDesigned by:\PDesigned on:
304
ACVALUE_END
170
6
140
2.75
 64
7
171
1
172
0
173
0
174
0
175
1
176
2
 91
33
178
0
145
0.0
301
CELL_VALUE
 90
4
  1
C342\PORAC\P25-Aug-2014 
304
ACVALUE_END
170
4
140
2.75
171
1
172
0
173
0
174
0
175
1
176
2
 91
33
178
0
145
0.0
301
CELL_VALUE
 90
4
  1
Version: 1.0 
304
ACVALUE_END
170
6
140
1.5
171
1
172
0
173
0
174
0
175
1
176
3
 91
41
178
0
145
0.0
301
CELL_VALUE
 90
4
  1
Biekorfstraat 32\P8400 Oostende - Belgium\PTel  +32 (0)59 80 32 52\Pwww.oracdecor.com\Pinfo@oracdecor.com
304
ACVALUE_END
170
5
140
2.5
 64
7
171
1
172
0
173
1
174
0
175
1
176
1
 91
1
178
0
145
0.0
170
1
171
1
172
0
173
1
174
0
175
1
176
1
 91
1
178
0
145
0.0
170
1
171
1
172
0
173
1
174
0
175
1
176
1
 91
1
178
0
145
0.0
170
1
171
1
172
0
173
1
174
0
175
1
176
1
 91
1
178
0
145
0.0
170
1
171
1
172
0
173
0
174
0
175
3
176
1
 91
41
178
0
145
0.0
301
CELL_VALUE
 90
4
  1
All dimensions are in mm unless otherwise specified   
304
ACVALUE_END
170
1
140
2.5
 64
7
171
1
172
0
173
1
174
0
175
1
176
1
 91
1
178
0
145
0.0
170
1
171
1
172
0
173
1
174
0
175
1
176
1
 91
1
178
0
145
0.0
170
1
171
1
172
0
173
1
174
0
175
1
176
1
 91
1
178
0
145
0.0
170
1
171
1
172
0
173
0
174
0
175
3
176
1
 91
41
178
0
145
0.0
301
CELL_VALUE
 90
4
  2
All information in this document is Orac's exclusive property.  It may in no case \Pbe reproduced, even partly, be communicated to a third party or used for any \Ppossible purpose without ORAC's express written permission. \PFurther legal information
  1
 can be found at http://www.oracdecor.be/nl/disclaimer 
304
ACVALUE_END
170
4
140
1.85
 64
7
171
1
172
0
173
1
174
0
175
1
176
1
 91
1
178
0
145
0.0
170
1
171
1
172
0
173
1
174
0
175
1
176
1
 91
1
178
0
145
0.0
170
1
  0
LINE
  5
25A
100
AcDbEntity
  8
0
100
AcDbLine
 62
5
  6
CONTINUOUS
 10
0.0
 20
0.0
 11
0.0
 21
210.0
  0
LINE
  5
25B
100
AcDbEntity
  8
0
100
AcDbLine
 62
7
  6
CONTINUOUS
 10
5.0
 20
5.0
 11
5.0
 21
195.0
  0
LINE
  5
25C
100
AcDbEntity
  8
0
100
AcDbLine
 62
5
  6
CONTINUOUS
 10
0.0
 20
0.0
 11
297.0
 21
0.0
  0
LINE
  5
25D
100
AcDbEntity
  8
0
100
AcDbLine
 62
7
  6
CONTINUOUS
 10
5.0
 20
5.0
 11
292.0
 21
5.0
  0
LINE
  5
25E
100
AcDbEntity
  8
0
100
AcDbLine
 62
4
  6
CONTINUOUS
 10
148.5
 20
195.0
 11
148.5
 21
205.0
  0
LINE
  5
25F
100
AcDbEntity
  8
0
100
AcDbLine
 62
7
  6
CONTINUOUS
 10
5.0
 20
195.0
 11
292.0
 21
195.0
  0
LINE
  5
260
100
AcDbEntity
  8
0
100
AcDbLine
 62
5
  6
CONTINUOUS
 10
0.0
 20
210.0
 11
297.0
 21
210.0
  0
LINE
  5
261
100
AcDbEntity
  8
0
100
AcDbLine
 62
7
  6
CONTINUOUS
 10
292.0
 20
5.0
 11
292.0
 21
195.0
  0
LINE
  5
262
100
AcDbEntity
  8
0
100
AcDbLine
 62
5
  6
CONTINUOUS
 10
297.0
 20
0.0
 11
297.0
 21
210.0
  0
LINE
  5
263
100
AcDbEntity
  8
0
100
AcDbLine
 62
7
  6
CONTINUOUS
 10
190.1261435693
 20
81.9782361853
 11
190.1371199525
 21
88.2617615516
  0
LINE
  5
264
100
AcDbEntity
  8
0
100
AcDbLine
 62
7
  6
CONTINUOUS
 10
190.1402386264
 20
90.0470733816
 11
190.1456798279
 21
93.1619361667
  0
LINE
  5
265
100
AcDbEntity
  8
0
100
AcDbLine
 62
7
  6
CONTINUOUS
 10
190.4934346793
 20
103.5221919953
 11
190.5085420177
 21
112.1705183842
  0
LINE
  5
266
100
AcDbEntity
  8
0
100
AcDbLine
 62
7
  6
CONTINUOUS
 10
195.3629959164
 20
93.2807007304
 11
195.5454287368
 21
94.1021179373
  0
LINE
  5
267
100
AcDbEntity
  8
0
100
AcDbLine
 62
7
  6
CONTINUOUS
 10
216.3953369372
 20
128.1497789259
 11
216.1870527677
 21
128.004100149
  0
LINE
  5
268
100
AcDbEntity
  8
0
100
AcDbLine
 62
7
  6
CONTINUOUS
 10
220.1946990285
 20
61.1522047409
 11
190.1261435693
 21
81.9782361853
  0
LINE
  5
269
100
AcDbEntity
  8
0
100
AcDbLine
 62
7
  6
CONTINUOUS
 10
222.3971723765
 20
61.2997067155
 11
192.3286169173
 21
82.1257381599
  0
LINE
  5
26A
100
AcDbEntity
  8
0
100
AcDbLine
 62
7
  6
CONTINUOUS
 10
192.4713577037
 20
82.2791062728
 11
222.5399131629
 21
61.4530748285
  0
LINE
  5
26B
100
AcDbEntity
  8
0
100
AcDbLine
 62
7
  6
CONTINUOUS
 10
190.8941600053
 20
89.2689149265
 11
190.1402386264
 21
90.0470733816
  0
LINE
  5
26C
100
AcDbEntity
  8
0
100
AcDbLine
 62
7
  6
CONTINUOUS
 10
192.7609165997
 20
96.2087833829
 11
191.0521157276
 21
94.4531213274
  0
LINE
  5
26D
100
AcDbEntity
  8
0
100
AcDbLine
 62
7
  6
CONTINUOUS
 10
195.9944439601
 20
92.6076345746
 11
195.3714903105
 21
93.2506149478
  0
LINE
  5
26E
100
AcDbEntity
  8
0
100
AcDbLine
 62
7
  6
CONTINUOUS
 10
195.9944439601
 20
92.6076345746
 11
226.0629994193
 21
71.7816031303
  0
LINE
  5
26F
100
AcDbEntity
  8
0
100
AcDbLine
 62
7
  6
CONTINUOUS
 10
225.4400457697
 20
72.4245835035
 11
195.3714903105
 21
93.2506149478
  0
LINE
  5
270
100
AcDbEntity
  8
0
100
AcDbLine
 62
7
  6
CONTINUOUS
 10
225.4315513756
 20
72.4546692861
 11
195.3629959164
 21
93.2807007304
  0
LINE
  5
271
100
AcDbEntity
  8
0
100
AcDbLine
 62
7
  6
CONTINUOUS
 10
225.613984196
 20
73.276086493
 11
195.5454287368
 21
94.1021179373
  0
LINE
  5
272
100
AcDbEntity
  8
0
100
AcDbLine
 62
7
  6
CONTINUOUS
 10
195.5704346321
 20
94.1271898118
 11
225.6389900913
 21
73.3011583675
  0
LINE
  5
273
100
AcDbEntity
  8
0
100
AcDbLine
 62
7
  6
CONTINUOUS
 10
226.0629994193
 20
71.7816031303
 11
225.4400457697
 21
72.4245835035
  0
LINE
  5
274
100
AcDbEntity
  8
0
100
AcDbLine
 62
7
  6
CONTINUOUS
 10
197.6403489144
 20
94.4999551989
 11
227.7089043736
 21
73.6739237545
  0
LINE
  5
275
100
AcDbEntity
  8
0
100
AcDbLine
 62
7
  6
CONTINUOUS
 10
227.8501395088
 20
73.8101031008
 11
197.7815840496
 21
94.6361345451
  0
LINE
  5
276
100
AcDbEntity
  8
0
100
AcDbLine
 62
7
  6
CONTINUOUS
 10
228.2241462912
 20
76.4229938157
 11
198.155590832
 21
97.24902526
  0
LINE
  5
277
100
AcDbEntity
  8
0
100
AcDbLine
 62
7
  6
CONTINUOUS
 10
198.1106998335
 20
97.3824544652
 11
228.1792552927
 21
76.5564230208
  0
LINE
  5
278
100
AcDbEntity
  8
0
100
AcDbLine
 62
7
  6
CONTINUOUS
 10
225.4315513756
 20
72.4546692861
 11
225.613984196
 21
73.276086493
  0
LINE
  5
279
100
AcDbEntity
  8
0
100
AcDbLine
 62
7
  6
CONTINUOUS
 10
190.1371199525
 20
88.2617615516
 11
190.4667768021
 21
88.2616599597
  0
LINE
  5
27A
100
AcDbEntity
  8
0
100
AcDbLine
 62
7
  6
CONTINUOUS
 10
247.3203853925
 20
127.8104127717
 11
247.3209615663
 21
128.1402484259
  0
LINE
  5
27B
100
AcDbEntity
  8
0
100
AcDbLine
 62
7
  6
CONTINUOUS
 10
252.6897216552
 20
126.2741811739
 11
252.8416139099
 21
128.1385470996
  0
LINE
  5
27C
100
AcDbEntity
  8
0
100
AcDbLine
 62
7
  6
CONTINUOUS
 10
243.4705322557
 20
126.8296787357
 11
244.5974135062
 21
123.9791084749
  0
LINE
  5
27D
100
AcDbEntity
  8
0
100
AcDbLine
 62
7
  6
CONTINUOUS
 10
269.329697949
 20
100.047930278
 11
239.2611424898
 21
120.8739617223
  0
LINE
  5
27E
100
AcDbEntity
  8
0
100
AcDbLine
 62
7
  6
CONTINUOUS
 10
269.484388667
 20
100.030346425
 11
239.4158332078
 21
120.8563778694
  0
LINE
  5
27F
100
AcDbEntity
  8
0
100
AcDbLine
 62
7
  6
CONTINUOUS
 10
228.9851985087
 20
127.9837118793
 11
228.7539223687
 21
128.1459703206
  0
LINE
  5
280
100
AcDbEntity
  8
0
100
AcDbLine
 62
7
  6
CONTINUOUS
 10
242.7490799103
 20
119.755872574
 11
272.8176353694
 21
98.9298411296
  0
LINE
  5
281
100
AcDbEntity
  8
0
100
AcDbLine
 62
7
  6
CONTINUOUS
 10
240.8533704263
 20
121.2710901174
 11
240.7328668047
 21
121.3545531296
  0
LINE
  5
282
100
AcDbEntity
  8
0
100
AcDbLine
 62
7
  6
CONTINUOUS
 10
244.0051618237
 20
123.3198310983
 11
242.7944746696
 21
124.1574691707
  0
LINE
  5
283
100
AcDbEntity
  8
0
100
AcDbLine
 62
7
  6
CONTINUOUS
 10
278.7120857896
 20
102.4320395757
 11
248.6435303304
 21
123.2580710201
  0
LINE
  5
284
100
AcDbEntity
  8
0
100
AcDbLine
 62
7
  6
CONTINUOUS
 10
248.735813289
 20
123.5274437462
 11
278.8043687482
 21
102.7014123018
  0
LINE
  5
285
100
AcDbEntity
  8
0
100
AcDbLine
 62
7
  6
CONTINUOUS
 10
243.8473859271
 20
123.3955301954
 11
243.8557578568
 21
123.3896095943
  0
LINE
  5
286
100
AcDbEntity
  8
0
100
AcDbLine
 62
7
  6
CONTINUOUS
 10
242.7944746696
 20
124.1574691707
 11
242.7355507947
 21
124.1991797474
  0
LINE
  5
287
100
AcDbEntity
  8
0
100
AcDbLine
 62
7
  6
CONTINUOUS
 10
243.8473859271
 20
123.3955301954
 11
242.7944746696
 21
124.1574691707
  0
LINE
  5
288
100
AcDbEntity
  8
0
100
AcDbLine
 62
7
  6
CONTINUOUS
 10
245.5800819564
 20
128.1407849212
 11
246.3006569728
 21
127.3970448479
  0
LINE
  5
289
100
AcDbEntity
  8
0
100
AcDbLine
 62
7
  6
CONTINUOUS
 10
216.3953369372
 20
128.1497789259
 11
228.7539223687
 21
128.1459703206
  0
LINE
  5
28A
100
AcDbEntity
  8
0
100
AcDbLine
 62
7
  6
CONTINUOUS
 10
243.6689109689
 20
128.141373896
 11
245.5800819564
 21
128.1407849212
  0
LINE
  5
28B
100
AcDbEntity
  8
0
100
AcDbLine
 62
7
  6
CONTINUOUS
 10
247.3209615663
 20
128.1402484259
 11
252.8416139099
 21
128.1385470996
  0
LINE
  5
28C
100
AcDbEntity
  8
0
100
AcDbLine
 62
7
  6
CONTINUOUS
 10
249.9000530822
 20
123.7558784056
 11
279.9686085414
 21
102.9298469613
  0
LINE
  5
28D
100
AcDbEntity
  8
0
100
AcDbLine
 62
7
  6
CONTINUOUS
 10
280.1005004711
 20
103.1212480877
 11
250.0319450119
 21
123.947279532
  0
LINE
  5
28E
100
AcDbEntity
  8
0
100
AcDbLine
 62
7
  6
CONTINUOUS
 10
246.4895057355
 20
127.266244741
 11
246.3006569728
 21
127.3970448479
  0
LINE
  5
28F
100
AcDbEntity
  8
0
100
AcDbLine
 62
7
  6
CONTINUOUS
 10
246.8832352126
 20
127.2381971422
 11
245.5800819564
 21
128.1407849212
  0
LINE
  5
290
100
AcDbEntity
  8
0
100
AcDbLine
 62
7
  6
CONTINUOUS
 10
252.5191957491
 20
126.1225365882
 11
282.5877512083
 21
105.2965051439
  0
LINE
  5
291
100
AcDbEntity
  8
0
100
AcDbLine
 62
7
  6
CONTINUOUS
 10
282.7582771144
 20
105.4481497295
 11
252.6897216552
 21
126.2741811739
  0
LINE
  5
292
100
AcDbEntity
  8
0
100
AcDbLine
 62
7
  6
CONTINUOUS
 10
282.9101693691
 20
107.3125156552
 11
252.8416139099
 21
128.1385470996
  0
LINE
  5
293
100
AcDbEntity
  8
0
100
AcDbLine
 62
7
  6
CONTINUOUS
 10
282.7582771144
 20
105.4481497295
 11
282.9101693691
 21
107.3125156552
  0
LINE
  5
294
100
AcDbEntity
  8
0
100
AcDbLine
 62
7
  6
CONTINUOUS
 10
26.4387799191
 20
38.1936652609
 11
26.4387799191
 21
57.24413869
  0
LINE
  5
295
100
AcDbEntity
  8
0
100
AcDbLine
 62
7
  6
CONTINUOUS
 10
26.4387799191
 20
62.656870174
 11
26.4387799191
 21
72.1005514297
  0
LINE
  5
296
100
AcDbEntity
  8
0
100
AcDbLine
 62
7
  6
CONTINUOUS
 10
27.4387799191
 20
103.5112169797
 11
27.4387799191
 21
129.7313247173
  0
LINE
  5
297
100
AcDbEntity
  8
0
100
AcDbLine
 62
7
  6
CONTINUOUS
 10
28.729890509
 20
60.2983449907
 11
26.4387799191
 21
62.656870174
  0
LINE
  5
298
100
AcDbEntity
  8
0
100
AcDbLine
 62
7
  6
CONTINUOUS
 10
44.1836842695
 20
70.4254782665
 11
42.2905747976
 21
72.374291381
  0
LINE
  5
299
100
AcDbEntity
  8
0
100
AcDbLine
 62
7
  6
CONTINUOUS
 10
42.2646480046
 20
72.4654978599
 11
42.8136972042
 21
74.9560502772
  0
LINE
  5
29A
100
AcDbEntity
  8
0
100
AcDbLine
 62
7
  6
CONTINUOUS
 10
105.8805524406
 20
178.20161406
 11
105.2495035829
 21
177.7597488928
  0
LINE
  5
29B
100
AcDbEntity
  8
0
100
AcDbLine
 62
7
  6
CONTINUOUS
 10
26.4387799191
 20
57.24413869
 11
27.4387799191
 21
57.24413869
  0
LINE
  5
29C
100
AcDbEntity
  8
0
100
AcDbLine
 62
7
  6
CONTINUOUS
 10
34.3558396775
 20
81.3404607206
 11
29.1815711147
 21
76.0160280913
  0
LINE
  5
29D
100
AcDbEntity
  8
0
100
AcDbLine
 62
7
  6
CONTINUOUS
 10
105.8805524406
 20
178.20161406
 11
143.3697944962
 21
178.20161406
  0
LINE
  5
29E
100
AcDbEntity
  8
0
100
AcDbLine
 62
7
  6
CONTINUOUS
 10
188.6137765834
 20
178.20161406
 11
194.4112323
 21
178.20161406
  0
LINE
  5
29F
100
AcDbEntity
  8
0
100
AcDbLine
 62
7
  6
CONTINUOUS
 10
199.6921163822
 20
178.20161406
 11
216.4387799191
 21
178.20161406
  0
LINE
  5
2A0
100
AcDbEntity
  8
0
100
AcDbLine
 62
7
  6
CONTINUOUS
 10
144.0469500878
 20
177.7274646102
 11
143.3697944962
 21
178.20161406
  0
LINE
  5
2A1
100
AcDbEntity
  8
0
100
AcDbLine
 62
7
  6
CONTINUOUS
 10
199.6921163822
 20
177.20161406
 11
199.6921163822
 21
178.20161406
  0
LINE
  5
2A2
100
AcDbEntity
  8
0
100
AcDbLine
 62
7
  6
CONTINUOUS
 10
189.1803206734
 20
163.8132782817
 11
185.9823234679
 21
166.1223497079
  0
LINE
  5
2A3
100
AcDbEntity
  8
0
100
AcDbLine
 62
7
  6
CONTINUOUS
 10
188.0189542043
 20
174.2246165074
 11
191.4524037572
 21
165.5832782722
  0
LINE
  5
2A4
100
AcDbEntity
  8
0
100
AcDbLine
 62
7
  6
CONTINUOUS
 10
215.9879007544
 20
172.5490664725
 11
216.4387799191
 21
178.20161406
  0
LINE
  5
2A5
100
AcDbEntity
  8
0
100
AcDbLine
 62
7
  6
CONTINUOUS
 10
194.4112323
 20
178.20161406
 11
196.6010057923
 21
175.9474077593
  0
ARC
  5
2A6
100
AcDbEntity
  8
0
100
AcDbCircle
 62
7
  6
CONTINUOUS
 10
295.5115785194
 20
20.6325702808
 40
83.7521681155
100
AcDbArc
 50
100.6951196671
 51
101.5067821389
  0
ARC
  5
2A7
100
AcDbEntity
  8
0
100
AcDbCircle
 62
7
  6
CONTINUOUS
 10
265.4430230601
 20
41.4586017257
 40
83.752168115
100
AcDbArc
 50
100.6951196671
 51
101.5067821389
  0
ARC
  5
2A8
100
AcDbEntity
  8
0
100
AcDbCircle
 62
7
  6
CONTINUOUS
 10
177.0393948964
 20
82.4162914852
 40
51.5344376031
100
AcDbArc
 50
350.3866165895
 51
353.3215799106
  0
ARC
  5
2A9
100
AcDbEntity
  8
0
100
AcDbCircle
 62
7
  6
CONTINUOUS
 10
146.9708394371
 20
103.2423229296
 40
51.5344376033
100
AcDbArc
 50
350.3866165895
 51
353.3215799106
  0
ARC
  5
2AA
100
AcDbEntity
  8
0
100
AcDbCircle
 62
7
  6
CONTINUOUS
 10
254.5391378546
 20
82.8645067272
 40
40.8912778367
100
AcDbArc
 50
109.7327429791
 51
111.7058227873
  0
ARC
  5
2AB
100
AcDbEntity
  8
0
100
AcDbCircle
 62
7
  6
CONTINUOUS
 10
284.6074605329
 20
62.0391070411
 40
40.8906047813
100
AcDbArc
 50
110.0185112835
 51
111.7058471326
  0
ARC
  5
2AC
100
AcDbEntity
  8
0
100
AcDbCircle
 62
7
  6
CONTINUOUS
 10
246.514767958
 20
150.5876336456
 40
26.3305542462
100
AcDbArc
 50
249.2206696787
 51
258.8521710899
  0
ARC
  5
2AD
100
AcDbEntity
  8
0
100
AcDbCircle
 62
7
  6
CONTINUOUS
 10
220.1963542296
 20
77.6438972475
 40
16.4916925896
100
AcDbArc
 50
269.9942494661
 51
277.6692965113
  0
ARC
  5
2AE
100
AcDbEntity
  8
0
100
AcDbCircle
 62
7
  6
CONTINUOUS
 10
190.1277987704
 20
98.4699286918
 40
16.4916925896
100
AcDbArc
 50
269.9942494661
 51
277.6692965113
  0
ARC
  5
2AF
100
AcDbEntity
  8
0
100
AcDbCircle
 62
7
  6
CONTINUOUS
 10
194.6047159988
 20
90.9953701551
 40
4.9575207368
100
AcDbArc
 50
135.7751567851
 51
154.0857112432
  0
ARC
  5
2B0
100
AcDbEntity
  8
0
100
AcDbCircle
 62
7
  6
CONTINUOUS
 10
240.7496727071
 20
121.3316382596
 40
3.4880572123
100
AcDbArc
 50
55.2959725281
 51
78.8532852075
  0
ARC
  5
2B1
100
AcDbEntity
  8
0
100
AcDbCircle
 62
7
  6
CONTINUOUS
 10
191.5787024603
 20
97.3604702067
 40
1.6504132642
100
AcDbArc
 50
315.7493833845
 51
33.5827944223
  0
ARC
  5
2B2
100
AcDbEntity
  8
0
100
AcDbCircle
 62
7
  6
CONTINUOUS
 10
215.2412074681
 20
129.3561957702
 40
1.650086634
100
AcDbArc
 50
276.5559637616
 51
304.9743370982
  0
ARC
  5
2B3
100
AcDbEntity
  8
0
100
AcDbCircle
 62
7
  6
CONTINUOUS
 10
229.9216060263
 20
129.3357791252
 40
1.6446735815
100
AcDbArc
 50
235.2945074513
 51
262.7807907911
  0
ARC
  5
2B4
100
AcDbEntity
  8
0
100
AcDbCircle
 62
7
  6
CONTINUOUS
 10
244.6989000247
 20
127.314716504
 40
1.3206810887
100
AcDbArc
 50
141.2498721589
 51
201.5472612215
  0
ARC
  5
2B5
100
AcDbEntity
  8
0
100
AcDbCircle
 62
7
  6
CONTINUOUS
 10
190.4668347797
 20
88.8560045047
 40
0.5943144551
100
AcDbArc
 50
269.9944108687
 51
44.0171490434
  0
ARC
  5
2B6
100
AcDbEntity
  8
0
100
AcDbCircle
 62
7
  6
CONTINUOUS
 10
246.7268943421
 20
127.8101948294
 40
0.5936086271
100
AcDbArc
 50
224.1067397751
 51
235.2792198182
  0
ARC
  5
2B7
100
AcDbEntity
  8
0
100
AcDbCircle
 62
7
  6
CONTINUOUS
 10
244.1370975686
 20
123.7959834292
 40
0.4942635519
100
AcDbArc
 50
235.3044671111
 51
242.3098710462
  0
ARC
  5
2B8
100
AcDbEntity
  8
0
100
AcDbCircle
 62
7
  6
CONTINUOUS
 10
279.9379020442
 20
103.0921494268
 40
0.1651816591
100
AcDbArc
 50
280.7127159371
 51
10.1462615605
  0
ARC
  5
2B9
100
AcDbEntity
  8
0
100
AcDbCircle
 62
7
  6
CONTINUOUS
 10
249.8693465851
 20
123.9181808712
 40
0.1651816591
100
AcDbArc
 50
280.7127159371
 51
10.1462615605
  0
ARC
  5
2BA
100
AcDbEntity
  8
0
100
AcDbCircle
 62
7
  6
CONTINUOUS
 10
227.6872811685
 20
73.8376788745
 40
0.1651765792
100
AcDbArc
 50
277.5221596026
 51
350.3846925545
  0
ARC
  5
2BB
100
AcDbEntity
  8
0
100
AcDbCircle
 62
7
  6
CONTINUOUS
 10
197.6187257093
 20
94.6637103189
 40
0.1651765792
100
AcDbArc
 50
277.5221596027
 51
350.3846925546
  0
ARC
  5
2BC
100
AcDbEntity
  8
0
100
AcDbCircle
 62
7
  6
CONTINUOUS
 10
222.375068887
 20
61.4633953608
 40
0.1651670327
100
AcDbArc
 50
277.7196293501
 51
356.4175149923
  0
ARC
  5
2BD
100
AcDbEntity
  8
0
100
AcDbCircle
 62
7
  6
CONTINUOUS
 10
192.3065134278
 20
82.2894268051
 40
0.1651670327
100
AcDbArc
 50
277.71962935
 51
356.4175149923
  0
ARC
  5
2BE
100
AcDbEntity
  8
0
100
AcDbCircle
 62
7
  6
CONTINUOUS
 10
282.5936716881
 20
105.461548869
 40
0.1651498813
100
AcDbArc
 50
267.9455558503
 51
355.3462945269
  0
ARC
  5
2BF
100
AcDbEntity
  8
0
100
AcDbCircle
 62
7
  6
CONTINUOUS
 10
252.525116229
 20
126.2875803134
 40
0.1651498813
100
AcDbArc
 50
267.9455558504
 51
355.3462945269
  0
ARC
  5
2C0
100
AcDbEntity
  8
0
100
AcDbCircle
 62
7
  6
CONTINUOUS
 10
278.837279762
 20
102.539631013
 40
0.1650856955
100
AcDbArc
 50
101.4993151355
 51
220.6756943229
  0
ARC
  5
2C1
100
AcDbEntity
  8
0
100
AcDbCircle
 62
7
  6
CONTINUOUS
 10
248.7687243028
 20
123.3656624573
 40
0.1650856955
100
AcDbArc
 50
101.4993151319
 51
220.6756943267
  0
ARC
  5
2C2
100
AcDbEntity
  8
0
100
AcDbCircle
 62
7
  6
CONTINUOUS
 10
228.0604966015
 20
76.4422031999
 40
0.1647719461
100
AcDbArc
 50
353.310276981
 51
43.8839090213
  0
ARC
  5
2C3
100
AcDbEntity
  8
0
100
AcDbCircle
 62
7
  6
CONTINUOUS
 10
197.9919411423
 20
97.2682346442
 40
0.1647719461
100
AcDbArc
 50
353.310276982
 51
43.8839090215
  0
ARC
  5
2C4
100
AcDbEntity
  8
0
100
AcDbCircle
 62
7
  6
CONTINUOUS
 10
269.423436195
 20
100.1833405555
 40
0.164688993
100
AcDbArc
 50
235.3262489125
 51
291.7319974058
  0
ARC
  5
2C5
100
AcDbEntity
  8
0
100
AcDbCircle
 62
7
  6
CONTINUOUS
 10
239.3549065946
 20
121.0093371426
 40
0.1646750425
100
AcDbArc
 50
228.9986632885
 51
291.7319974057
  0
ARC
  5
2C6
100
AcDbEntity
  8
0
100
AcDbCircle
 62
7
  6
CONTINUOUS
 10
225.6462390438
 20
73.2689225093
 40
0.0330408515
100
AcDbArc
 50
102.6734207908
 51
167.4775576816
  0
ARC
  5
2C7
100
AcDbEntity
  8
0
100
AcDbCircle
 62
7
  6
CONTINUOUS
 10
195.5776835846
 20
94.0949539536
 40
0.0330408515
100
AcDbArc
 50
102.6734207909
 51
167.4775576815
  0
ARC
  5
2C8
100
AcDbEntity
  8
0
100
AcDbCircle
 62
7
  6
CONTINUOUS
 10
240.7440094353
 20
121.3235769646
 40
0.0329083789
100
AcDbArc
 50
48.150266185
 51
55.3748177326
  0
ARC
  5
2C9
100
AcDbEntity
  8
0
100
AcDbCircle
 62
7
  6
CONTINUOUS
 10
254.7360194713
 20
-84.6349878729
 40
253.970446129
100
AcDbArc
 50
100.7099375001
 51
101.521644351
  0
ARC
  5
2CA
100
AcDbEntity
  8
0
100
AcDbCircle
 62
7
  6
CONTINUOUS
 10
-104.2983151529
 20
102.3874710617
 40
156.0418557696
100
AcDbArc
 50
350.4791506282
 51
353.4173346557
  0
ARC
  5
2CB
100
AcDbEntity
  8
0
100
AcDbCircle
 62
7
  6
CONTINUOUS
 10
221.6104467145
 20
41.012109417
 40
123.8984875726
100
AcDbArc
 50
109.7498256446
 51
111.7241146544
  0
ARC
  5
2CC
100
AcDbEntity
  8
0
100
AcDbCircle
 62
7
  6
CONTINUOUS
 10
197.2534805236
 20
246.4268669373
 40
80.0
100
AcDbArc
 50
249.2588071468
 51
258.8782041793
  0
ARC
  5
2CD
100
AcDbEntity
  8
0
100
AcDbCircle
 62
7
  6
CONTINUOUS
 10
26.4325811716
 20
88.1747454262
 40
49.9810805497
100
AcDbArc
 50
270.0071059303
 51
277.6884302549
  0
ARC
  5
2CE
100
AcDbEntity
  8
0
100
AcDbCircle
 62
7
  6
CONTINUOUS
 10
39.9387799191
 20
65.5622030143
 40
15.0
100
AcDbArc
 50
135.819451896
 51
154.1580672368
  0
ARC
  5
2CF
100
AcDbEntity
  8
0
100
AcDbCircle
 62
7
  6
CONTINUOUS
 10
179.7771713279
 20
157.5283932895
 40
10.6
100
AcDbArc
 50
54.1693325588
 51
78.8782041793
  0
ARC
  5
2D0
100
AcDbEntity
  8
0
100
AcDbCircle
 62
7
  6
CONTINUOUS
 10
30.7701034094
 20
84.8250690795
 40
5.0
100
AcDbArc
 50
315.819451896
 51
33.7101023181
  0
ARC
  5
2D1
100
AcDbEntity
  8
0
100
AcDbCircle
 62
7
  6
CONTINUOUS
 10
102.3816214011
 20
181.8555091142
 40
5.0
100
AcDbArc
 50
276.5657467941
 51
304.9999999999
  0
ARC
  5
2D2
100
AcDbEntity
  8
0
100
AcDbCircle
 62
7
  6
CONTINUOUS
 10
146.9148322695
 20
181.8232248316
 40
5.0
100
AcDbArc
 50
234.9999999999
 51
262.8011465202
  0
ARC
  5
2D3
100
AcDbEntity
  8
0
100
AcDbCircle
 62
7
  6
CONTINUOUS
 10
191.7362755826
 20
175.70161406
 40
4.0
100
AcDbArc
 50
141.3178125465
 51
201.6693325588
  0
ARC
  5
2D4
100
AcDbEntity
  8
0
100
AcDbCircle
 62
7
  6
CONTINUOUS
 10
197.8921163822
 20
177.20161406
 40
1.8
100
AcDbArc
 50
224.1693325588
 51
360.0
  0
ARC
  5
2D5
100
AcDbEntity
  8
0
100
AcDbCircle
 62
7
  6
CONTINUOUS
 10
27.4387799191
 20
59.04413869
 40
1.8
100
AcDbArc
 50
270.0
 51
44.1693325588
  0
ARC
  5
2D6
100
AcDbEntity
  8
0
100
AcDbCircle
 62
7
  6
CONTINUOUS
 10
190.0584082403
 20
165.02940419
 40
1.5
100
AcDbArc
 50
234.1693325588
 51
21.6693325588
  0
ARC
  5
2D7
100
AcDbEntity
  8
0
100
AcDbCircle
 62
7
  6
CONTINUOUS
 10
50.2181292069
 20
84.5566366308
 40
0.5
100
AcDbArc
 50
353.4223981024
 51
43.9749313361
  0
ARC
  5
2D8
100
AcDbEntity
  8
0
100
AcDbCircle
 62
7
  6
CONTINUOUS
 10
215.4894838439
 20
172.5888230241
 40
0.5
100
AcDbArc
 50
267.9297608724
 51
355.4394205415
  0
ARC
  5
2D9
100
AcDbEntity
  8
0
100
AcDbCircle
 62
7
  6
CONTINUOUS
 10
49.1010370928
 20
76.6598795628
 40
0.5
100
AcDbArc
 50
277.51577791
 51
350.474231607
  0
ARC
  5
2DA
100
AcDbEntity
  8
0
100
AcDbCircle
 62
7
  6
CONTINUOUS
 10
207.4459904989
 20
165.402731975
 40
0.5
100
AcDbArc
 50
280.709314925
 51
10.2677953714
  0
ARC
  5
2DB
100
AcDbEntity
  8
0
100
AcDbCircle
 62
7
  6
CONTINUOUS
 10
204.1083187288
 20
163.7278580071
 40
0.5
100
AcDbArc
 50
101.5222382018
 51
220.8209738087
  0
ARC
  5
2DC
100
AcDbEntity
  8
0
100
AcDbCircle
 62
7
  6
CONTINUOUS
 10
175.5657846994
 20
156.5754021509
 40
0.5
100
AcDbArc
 50
229.0604610694
 51
291.7339262643
  0
ARC
  5
2DD
100
AcDbEntity
  8
0
100
AcDbCircle
 62
7
  6
CONTINUOUS
 10
33.0522132199
 20
39.1384267062
 40
0.5
100
AcDbArc
 50
277.7174709399
 51
356.5155391892
  0
ARC
  5
2DE
100
AcDbEntity
  8
0
100
AcDbCircle
 62
7
  6
CONTINUOUS
 10
42.9113523633
 20
74.9345219261
 40
0.1
100
AcDbArc
 50
102.6701174091
 51
167.5678391873
  0
ARC
  5
2DF
100
AcDbEntity
  8
0
100
AcDbCircle
 62
7
  6
CONTINUOUS
 10
42.3623031637
 20
72.4439695088
 40
0.1
100
AcDbArc
 50
167.5678391872
 51
224.1693325588
  0
ARC
  5
2E0
100
AcDbEntity
  8
0
100
AcDbCircle
 62
7
  6
CONTINUOUS
 10
179.7771713279
 20
157.5283932895
 40
0.1
100
AcDbArc
 50
48.2060203953
 51
109.7200747726
  0
SPLINE
  5
2E1
100
AcDbEntity
  8
0
100
AcDbSpline
 62
7
  6
CONTINUOUS
 70
0
 71
3
 72
15
 73
11
 74
0
 42
0.0000001
 43
0.0000001
 44
0.0000000001
 40
0.0
 40
0.0
 40
0.0
 40
0.0
 40
0.1248947402
 40
0.2498326243
 40
0.3748277137
 40
0.4998733178
 40
0.6249447256
 40
0.7500080265
 40
0.8750324266
 40
1.0
 40
1.0
 40
1.0
 40
1.0
 10
243.9074184852
 20
123.3583260547
 30
0.0
 10
243.9515897049
 20
123.335149134
 30
0.0
 10
244.0476727829
 20
123.3020915917
 30
0.0
 10
244.1995490532
 20
123.2980812144
 30
0.0
 10
244.345855003
 20
123.339695092
 30
0.0
 10
244.4730266712
 20
123.4231935098
 30
0.0
 10
244.5694660062
 20
123.5408875361
 30
0.0
 10
244.6263133058
 20
123.6820473927
 30
0.0
 10
244.638425299
 20
123.8335791892
 30
0.0
 10
244.6157627103
 20
123.9326921419
 30
0.0
 10
244.5974135062
 20
123.9791084749
 30
0.0
  0
SPLINE
  5
2E2
100
AcDbEntity
  8
0
100
AcDbSpline
 62
7
  6
CONTINUOUS
 70
0
 71
3
 72
11
 73
7
 74
0
 42
0.0000001
 43
0.0000001
 44
0.0000000001
 40
0.0
 40
0.0
 40
0.0
 40
0.0
 40
0.2635565852
 40
0.5182909528
 40
0.7637044649
 40
1.0
 40
1.0
 40
1.0
 40
1.0
 10
229.7152447989
 20
127.704032042
 30
0.0
 10
230.3840239784
 20
127.6192885533
 30
0.0
 10
231.6958789681
 20
127.4246303917
 30
0.0
 10
233.6127312403
 20
127.04387685
 30
0.0
 10
235.4375803734
 20
126.5724903313
 30
0.0
 10
236.6084013374
 20
126.1842078913
 30
0.0
 10
237.1734851995
 20
125.9697839561
 30
0.0
  0
SPLINE
  5
2E3
100
AcDbEntity
  8
0
100
AcDbSpline
 62
7
  6
CONTINUOUS
 70
0
 71
3
 72
15
 73
11
 74
0
 42
0.0000001
 43
0.0000001
 44
0.0000000001
 40
0.0
 40
0.0
 40
0.0
 40
0.0
 40
0.1068725936
 40
0.2107499169
 40
0.3129544891
 40
0.4172959846
 40
0.5301474325
 40
0.6595026604
 40
0.8135886244
 40
1.0
 40
1.0
 40
1.0
 40
1.0
 10
280.1005004711
 20
103.1212480877
 30
0.0
 10
280.075902033
 20
103.2584433015
 30
0.0
 10
280.049027809
 20
103.5336427565
 30
0.0
 10
280.0882830107
 20
103.9428759929
 30
0.0
 10
280.2205672495
 20
104.3301589776
 30
0.0
 10
280.4598932499
 20
104.6779856054
 30
0.0
 10
280.8161775466
 20
104.9656612443
 30
0.0
 10
281.2940886706
 20
105.1754726769
 30
0.0
 10
281.8988947955
 20
105.2949044613
 30
0.0
 10
282.3447955655
 20
105.3053677546
 30
0.0
 10
282.5877512083
 20
105.2965051439
 30
0.0
  0
SPLINE
  5
2E4
100
AcDbEntity
  8
0
100
AcDbSpline
 62
7
  6
CONTINUOUS
 70
0
 71
3
 72
9
 73
5
 74
0
 42
0.0000001
 43
0.0000001
 44
0.0000000001
 40
0.0
 40
0.0
 40
0.0
 40
0.0
 40
0.5389389126
 40
1.0
 40
1.0
 40
1.0
 40
1.0
 10
240.7659652247
 20
121.3480903225
 30
0.0
 10
241.1063798277
 20
121.0430423371
 30
0.0
 10
241.7506340061
 20
120.4908017529
 30
0.0
 10
242.4276138487
 20
119.9785258144
 30
0.0
 10
242.7490806964
 20
119.7558720294
 30
0.0
  0
SPLINE
  5
2E5
100
AcDbEntity
  8
0
100
AcDbSpline
 62
7
  6
CONTINUOUS
 70
0
 71
3
 72
13
 73
9
 74
0
 42
0.0000001
 43
0.0000001
 44
0.0000000001
 40
0.0
 40
0.0
 40
0.0
 40
0.0
 40
0.1254632604
 40
0.2509549648
 40
0.4997648518
 40
0.7487376504
 40
0.8743849896
 40
1.0
 40
1.0
 40
1.0
 40
1.0
 10
246.3887881273
 20
127.3222856271
 30
0.0
 10
246.4328486737
 20
127.2917685009
 30
0.0
 10
246.5299168249
 20
127.2425583851
 30
0.0
 10
246.7412997979
 20
127.2000290759
 30
0.0
 10
247.0159050474
 20
127.2577767606
 30
0.0
 10
247.2196801532
 20
127.4507382167
 30
0.0
 10
247.3053009118
 20
127.6488313214
 30
0.0
 10
247.3202916536
 20
127.7567511361
 30
0.0
 10
247.3203853925
 20
127.8104127717
 30
0.0
  0
SPLINE
  5
2E6
100
AcDbEntity
  8
0
100
AcDbSpline
 62
7
  6
CONTINUOUS
 70
0
 71
3
 72
9
 73
5
 74
0
 42
0.0000001
 43
0.0000001
 44
0.0000000001
 40
0.0
 40
0.0
 40
0.0
 40
0.0
 40
0.2567581938
 40
1.0
 40
1.0
 40
1.0
 40
1.0
 10
238.60271277
 20
121.3833358665
 30
0.0
 10
238.6600267493
 20
121.3436391581
 30
0.0
 10
238.8813132796
 20
121.1862746164
 30
0.0
 10
239.0945730323
 20
121.0174825517
 30
0.0
 10
239.2468671466
 20
120.885057831
 30
0.0
  0
SPLINE
  5
2E7
100
AcDbEntity
  8
0
100
AcDbSpline
 62
7
  6
CONTINUOUS
 70
0
 71
3
 72
33
 73
29
 74
0
 42
0.0000001
 43
0.0000001
 44
0.0000000001
 40
0.0
 40
0.0
 40
0.0
 40
0.0
 40
0.0592731437
 40
0.1127662707
 40
0.1379000869
 40
0.1622370358
 40
0.1860251699
 40
0.2095240011
 40
0.2329993147
 40
0.2567200666
 40
0.2809562931
 40
0.3059548971
 40
0.359003153
 40
0.417338911
 40
0.4819639727
 40
0.5536158281
 40
0.5921623067
 40
0.6320995634
 40
0.6729489267
 40
0.7142134928
 40
0.7553866006
 40
0.7959586764
 40
0.8354237851
 40
0.8732871862
 40
0.909075612
 40
0.9423531098
 40
0.9727477768
 40
1.0
 40
1.0
 40
1.0
 40
1.0
 10
228.1792552927
 20
76.5564230208
 30
0.0
 10
227.294371442
 20
77.4759856825
 30
0.0
 10
225.7517111968
 20
79.3719522528
 30
0.0
 10
224.3764099087
 20
82.032575175
 30
0.0
 10
223.7237605935
 20
84.1563304864
 30
0.0
 10
223.4480991018
 20
85.7136368017
 30
0.0
 10
223.3753788981
 20
87.2583448978
 30
0.0
 10
223.504228745
 20
88.7808888053
 30
0.0
 10
223.8331526192
 20
90.2715902736
 30
0.0
 10
224.3604953861
 20
91.7208949893
 30
0.0
 10
225.0819837158
 20
93.1207359816
 30
0.0
 10
226.3206440606
 20
94.9470564728
 30
0.0
 10
228.3770654152
 20
97.0765468296
 30
0.0
 10
231.499046772
 20
99.2577153449
 30
0.0
 10
235.2937164876
 20
101.0722315324
 30
0.0
 10
238.8955932934
 20
102.2041930704
 30
0.0
 10
242.0550421113
 20
102.893017701
 30
0.0
 10
244.5919398615
 20
103.3070847788
 30
0.0
 10
247.2036096987
 20
103.605867577
 30
0.0
 10
249.8525396917
 20
103.7893222377
 30
0.0
 10
252.500945359
 20
103.8572489018
 30
0.0
 10
255.1110831733
 20
103.8095735046
 30
0.0
 10
257.6452359329
 20
103.6462836433
 30
0.0
 10
260.06584144
 20
103.3674397396
 30
0.0
 10
262.3355132127
 20
102.9732081472
 30
0.0
 10
264.417624213
 20
102.4636374932
 30
0.0
 10
266.275534999
 20
101.8389533476
 30
0.0
 10
267.4055693175
 20
101.3154346115
 30
0.0
 10
267.9168220471
 20
101.0275173705
 30
0.0
  0
SPLINE
  5
2E8
100
AcDbEntity
  8
0
100
AcDbSpline
 62
7
  6
CONTINUOUS
 70
0
 71
3
 72
23
 73
19
 74
0
 42
0.0000001
 43
0.0000001
 44
0.0000000001
 40
0.0
 40
0.0
 40
0.0
 40
0.0
 40
0.1167981784
 40
0.2143690352
 40
0.2973321975
 40
0.3698547035
 40
0.4352470212
 40
0.4957115103
 40
0.5524477361
 40
0.6061346245
 40
0.6572561099
 40
0.7056337125
 40
0.7513800779
 40
0.7953392355
 40
0.8392973004
 40
0.8859473324
 40
0.9384719062
 40
1.0
 40
1.0
 40
1.0
 40
1.0
 10
222.5399131629
 20
61.4530748285
 30
0.0
 10
222.5691140485
 20
61.9195022915
 30
0.0
 10
222.664792949
 20
62.7742869309
 30
0.0
 10
222.9512944006
 20
63.9329464456
 30
0.0
 10
223.3406246179
 20
64.872154726
 30
0.0
 10
223.8049768218
 20
65.6282205291
 30
0.0
 10
224.3142826312
 20
66.2398347126
 30
0.0
 10
224.8392820755
 20
66.7490172994
 30
0.0
 10
225.3539996412
 20
67.1989994394
 30
0.0
 10
225.8332312497
 20
67.6332960728
 30
0.0
 10
226.2479347137
 20
68.0862636366
 30
0.0
 10
226.5876681142
 20
68.5599685095
 30
0.0
 10
226.8363727219
 20
69.0566472613
 30
0.0
 10
226.9753342941
 20
69.5778323894
 30
0.0
 10
226.982689751
 20
70.1223006531
 30
0.0
 10
226.8383969414
 20
70.6831883535
 30
0.0
 10
226.5294750683
 20
71.2530956786
 30
0.0
 10
226.2343068728
 20
71.604788482
 30
0.0
 10
226.0629994193
 20
71.7816031303
 30
0.0
  0
SPLINE
  5
2E9
100
AcDbEntity
  8
0
100
AcDbSpline
 62
7
  6
CONTINUOUS
 70
0
 71
3
 72
9
 73
5
 74
0
 42
0.0000001
 43
0.0000001
 44
0.0000000001
 40
0.0
 40
0.0
 40
0.0
 40
0.0
 40
0.5087537763
 40
1.0
 40
1.0
 40
1.0
 40
1.0
 10
192.9535962772
 20
98.2733524688
 30
0.0
 10
192.407651715
 20
99.0944122332
 30
0.0
 10
191.4445613261
 20
100.7851875625
 30
0.0
 10
190.7541457365
 20
102.6065151354
 30
0.0
 10
190.4934346793
 20
103.5221919953
 30
0.0
  0
SPLINE
  5
2EA
100
AcDbEntity
  8
0
100
AcDbSpline
 62
7
  6
CONTINUOUS
 70
0
 71
3
 72
21
 73
17
 74
0
 42
0.0000001
 43
0.0000001
 44
0.0000000001
 40
0.0
 40
0.0
 40
0.0
 40
0.0
 40
0.1031933993
 40
0.1896958758
 40
0.2632772525
 40
0.3278739598
 40
0.4441486662
 40
0.5540681939
 40
0.6067970984
 40
0.6580002787
 40
0.7081749012
 40
0.7583669593
 40
0.8102599808
 40
0.8661029572
 40
0.9284733188
 40
1.0
 40
1.0
 40
1.0
 40
1.0
 10
272.8176361556
 20
98.9298405851
 30
0.0
 10
273.1217844746
 20
98.7191819281
 30
0.0
 10
273.6968286391
 20
98.3536093813
 30
0.0
 10
274.5479377265
 20
97.9397006239
 30
0.0
 10
275.3189138276
 20
97.6945015641
 30
0.0
 10
276.2274107674
 20
97.5703521448
 30
0.0
 10
277.2802993037
 20
97.7092443201
 30
0.0
 10
278.2037229538
 20
98.135376813
 30
0.0
 10
278.8011935106
 20
98.6215504414
 30
0.0
 10
279.1615212601
 20
99.0449800734
 30
0.0
 10
279.4243388919
 20
99.5254326184
 30
0.0
 10
279.5728528682
 20
100.0560594583
 30
0.0
 10
279.589434645
 20
100.6277501287
 30
0.0
 10
279.4581496708
 20
101.2291807607
 30
0.0
 10
279.1662193276
 20
101.8490319138
 30
0.0
 10
278.8794500245
 20
102.2377398737
 30
0.0
 10
278.7120857896
 20
102.4320395757
 30
0.0
  0
SPLINE
  5
2EB
100
AcDbEntity
  8
0
100
AcDbSpline
 62
7
  6
CONTINUOUS
 70
0
 71
3
 72
16
 73
12
 74
0
 42
0.0000001
 43
0.0000001
 44
0.0000000001
 40
0.0
 40
0.0
 40
0.0
 40
0.0
 40
0.1072648041
 40
0.2165284528
 40
0.3295539953
 40
0.4480716681
 40
0.5736320577
 40
0.707548202
 40
0.7780094909
 40
0.8505513182
 40
1.0
 40
1.0
 40
1.0
 40
1.0
 10
190.5085420177
 20
112.1705183842
 30
0.0
 10
190.8273315074
 20
113.2334720456
 30
0.0
 10
191.7123691292
 20
115.3135503617
 30
0.0
 10
193.6719708938
 20
118.1284034823
 30
0.0
 10
196.1927318205
 20
120.6188188816
 30
0.0
 10
199.2143143968
 20
122.7685794015
 30
0.0
 10
202.6969968767
 20
124.5716323703
 30
0.0
 10
205.9065364457
 20
125.7575793378
 30
0.0
 10
208.6666897757
 20
126.5292175655
 30
0.0
 10
211.6199140027
 20
127.1919452872
 30
0.0
 10
213.8935479468
 20
127.5405151277
 30
0.0
 10
215.4296038535
 20
127.7168993657
 30
0.0
  0
SPLINE
  5
2EC
100
AcDbEntity
  8
0
100
AcDbSpline
 62
7
  6
CONTINUOUS
 70
0
 71
3
 72
9
 73
5
 74
0
 42
0.0000001
 43
0.0000001
 44
0.0000000001
 40
0.0
 40
0.0
 40
0.0
 40
0.0
 40
0.2462135459
 40
1.0
 40
1.0
 40
1.0
 40
1.0
 10
225.6389900913
 20
73.3011583675
 30
0.0
 10
225.8074394779
 20
73.3389815372
 30
0.0
 10
226.4930474685
 20
73.4859557674
 30
0.0
 10
227.1848763464
 20
73.6049272475
 30
0.0
 10
227.7089043736
 20
73.6739237545
 30
0.0
  0
SPLINE
  5
2ED
100
AcDbEntity
  8
0
100
AcDbSpline
 62
7
  6
CONTINUOUS
 70
0
 71
3
 72
8
 73
4
 74
0
 42
0.0000001
 43
0.0000001
 44
0.0000000001
 40
0.0
 40
0.0
 40
0.0
 40
0.0
 40
1.0
 40
1.0
 40
1.0
 40
1.0
 10
225.4400457697
 20
72.4245835035
 30
0.0
 10
225.4327947343
 20
72.4320676453
 30
0.0
 10
225.4292920511
 20
72.4444965113
 30
0.0
 10
225.4315513756
 20
72.4546692861
 30
0.0
  0
SPLINE
  5
2EE
100
AcDbEntity
  8
0
100
AcDbSpline
 62
7
  6
CONTINUOUS
 70
0
 71
3
 72
35
 73
31
 74
0
 42
0.0000001
 43
0.0000001
 44
0.0000000001
 40
0.0
 40
0.0
 40
0.0
 40
0.0
 40
0.0594227841
 40
0.1129719443
 40
0.1381224605
 40
0.1624808651
 40
0.1863061166
 40
0.209868778
 40
0.2334452892
 40
0.2573159698
 40
0.2817587904
 40
0.307024553
 40
0.3607946769
 40
0.4201053446
 40
0.4521870068
 40
0.4860025177
 40
0.5216370936
 40
0.5591581908
 40
0.5983891097
 40
0.6388644784
 40
0.6800788783
 40
0.7215113419
 40
0.7626335967
 40
0.8029171411
 40
0.8418405723
 40
0.8788987409
 40
0.9136160821
 40
0.9455683161
 40
0.9744207615
 40
1.0
 40
1.0
 40
1.0
 40
1.0
 10
198.1106998335
 20
97.3824544652
 30
0.0
 10
197.2113261443
 20
98.3170748256
 30
0.0
 10
195.6466679156
 20
100.2453016717
 30
0.0
 10
194.2643787087
 20
102.9556170661
 30
0.0
 10
193.6222094061
 20
105.1169905654
 30
0.0
 10
193.3613865645
 20
106.700855554
 30
0.0
 10
193.310564035
 20
108.2706760003
 30
0.0
 10
193.4682591206
 20
109.8163465049
 30
0.0
 10
193.8329522055
 20
111.3276575843
 30
0.0
 10
194.4025646615
 20
112.7946382611
 30
0.0
 10
195.1723129529
 20
114.2090352797
 30
0.0
 10
196.4858727663
 20
116.0523511881
 30
0.0
 10
198.6517605749
 20
118.1915641203
 30
0.0
 10
201.3042676286
 20
119.9549310217
 30
0.0
 10
203.7458678788
 20
121.1874132759
 30
0.0
 10
205.7964956153
 20
122.0336341876
 30
0.0
 10
208.0139931367
 20
122.7705090188
 30
0.0
 10
210.3898166829
 20
123.3882268308
 30
0.0
 10
212.9014156637
 20
123.8842459343
 30
0.0
 10
215.5147941437
 20
124.2616430209
 30
0.0
 10
218.1908102139
 20
124.5197051692
 30
0.0
 10
220.8897409913
 20
124.658371939
 30
0.0
 10
223.5718504875
 20
124.6774712112
 30
0.0
 10
226.1974049288
 20
124.5769568885
 30
0.0
 10
228.7267515416
 20
124.3568611388
 30
0.0
 10
231.1204673753
 20
124.0172848814
 30
0.0
 10
233.3394020789
 20
123.5584580053
 30
0.0
 10
235.3455140081
 20
122.9802825072
 30
0.0
 10
237.1008440076
 20
122.2828644403
 30
0.0
 10
238.143717776
 20
121.7012441787
 30
0.0
 10
238.60271277
 20
121.3833358665
 30
0.0
  0
SPLINE
  5
2EF
100
AcDbEntity
  8
0
100
AcDbSpline
 62
7
  6
CONTINUOUS
 70
0
 71
3
 72
23
 73
19
 74
0
 42
0.0000001
 43
0.0000001
 44
0.0000000001
 40
0.0
 40
0.0
 40
0.0
 40
0.0
 40
0.1167981784
 40
0.2143690352
 40
0.2973321975
 40
0.3698547035
 40
0.4352470212
 40
0.4957115103
 40
0.5524477361
 40
0.6061346245
 40
0.6572561099
 40
0.7056337125
 40
0.7513800779
 40
0.7953392355
 40
0.8392973004
 40
0.8859473324
 40
0.9384719062
 40
1.0
 40
1.0
 40
1.0
 40
1.0
 10
192.4713577037
 20
82.2791062728
 30
0.0
 10
192.5005585893
 20
82.7455337359
 30
0.0
 10
192.5962374898
 20
83.6003183752
 30
0.0
 10
192.8827389414
 20
84.7589778899
 30
0.0
 10
193.2720691587
 20
85.6981861703
 30
0.0
 10
193.7364213626
 20
86.4542519734
 30
0.0
 10
194.245727172
 20
87.0658661569
 30
0.0
 10
194.7707266163
 20
87.5750487438
 30
0.0
 10
195.285444182
 20
88.0250308838
 30
0.0
 10
195.7646757905
 20
88.4593275171
 30
0.0
 10
196.1793792545
 20
88.912295081
 30
0.0
 10
196.519112655
 20
89.3859999538
 30
0.0
 10
196.7678172627
 20
89.8826787057
 30
0.0
 10
196.9067788349
 20
90.4038638338
 30
0.0
 10
196.9141342918
 20
90.9483320975
 30
0.0
 10
196.7698414822
 20
91.5092197979
 30
0.0
 10
196.4609196092
 20
92.0791271229
 30
0.0
 10
196.1657514136
 20
92.4308199264
 30
0.0
 10
195.9944439601
 20
92.6076345746
 30
0.0
  0
SPLINE
  5
2F0
100
AcDbEntity
  8
0
100
AcDbSpline
 62
7
  6
CONTINUOUS
 70
0
 71
3
 72
8
 73
4
 74
0
 42
0.0000001
 43
0.0000001
 44
0.0000000001
 40
0.0
 40
0.0
 40
0.0
 40
0.0
 40
1.0
 40
1.0
 40
1.0
 40
1.0
 10
240.7627081562
 20
121.3506568324
 30
0.0
 10
240.754458479
 20
121.3563547068
 30
0.0
 10
240.7423210772
 20
121.3579418735
 30
0.0
 10
240.7328837154
 20
121.3545567371
 30
0.0
  0
SPLINE
  5
2F1
100
AcDbEntity
  8
0
100
AcDbSpline
 62
7
  6
CONTINUOUS
 70
0
 71
3
 72
15
 73
11
 74
0
 42
0.0000001
 43
0.0000001
 44
0.0000000001
 40
0.0
 40
0.0
 40
0.0
 40
0.0
 40
0.1068725936
 40
0.2107499169
 40
0.3129544891
 40
0.4172959846
 40
0.5301474325
 40
0.6595026604
 40
0.8135886244
 40
1.0
 40
1.0
 40
1.0
 40
1.0
 10
250.0319450119
 20
123.947279532
 30
0.0
 10
250.0073465738
 20
124.0844747459
 30
0.0
 10
249.9804723498
 20
124.3596742008
 30
0.0
 10
250.0197275515
 20
124.7689074372
 30
0.0
 10
250.1520117903
 20
125.156190422
 30
0.0
 10
250.3913377907
 20
125.5040170497
 30
0.0
 10
250.7476220874
 20
125.7916926887
 30
0.0
 10
251.2255332114
 20
126.0015041213
 30
0.0
 10
251.8303393363
 20
126.1209359057
 30
0.0
 10
252.2762401064
 20
126.1313991989
 30
0.0
 10
252.5191957491
 20
126.1225365882
 30
0.0
  0
SPLINE
  5
2F2
100
AcDbEntity
  8
0
100
AcDbSpline
 62
7
  6
CONTINUOUS
 70
0
 71
3
 72
9
 73
5
 74
0
 42
0.0000001
 43
0.0000001
 44
0.0000000001
 40
0.0
 40
0.0
 40
0.0
 40
0.0
 40
0.2462135459
 40
1.0
 40
1.0
 40
1.0
 40
1.0
 10
195.5704346321
 20
94.1271898118
 30
0.0
 10
195.7388840187
 20
94.1650129815
 30
0.0
 10
196.4244920093
 20
94.3119872117
 30
0.0
 10
197.1163208873
 20
94.4309586918
 30
0.0
 10
197.6403489144
 20
94.4999551989
 30
0.0
  0
SPLINE
  5
2F3
100
AcDbEntity
  8
0
100
AcDbSpline
 62
7
  6
CONTINUOUS
 70
0
 71
3
 72
21
 73
17
 74
0
 42
0.0000001
 43
0.0000001
 44
0.0000000001
 40
0.0
 40
0.0
 40
0.0
 40
0.0
 40
0.1031933993
 40
0.1896958758
 40
0.2632772525
 40
0.3278739598
 40
0.4441486662
 40
0.5540681939
 40
0.6067970984
 40
0.6580002787
 40
0.7081749012
 40
0.7583669593
 40
0.8102599808
 40
0.8661029572
 40
0.9284733188
 40
1.0
 40
1.0
 40
1.0
 40
1.0
 10
242.7490806964
 20
119.7558720294
 30
0.0
 10
243.0532290154
 20
119.5452133725
 30
0.0
 10
243.6282731799
 20
119.1796408257
 30
0.0
 10
244.4793822673
 20
118.7657320682
 30
0.0
 10
245.2503583684
 20
118.5205330085
 30
0.0
 10
246.1588553082
 20
118.3963835891
 30
0.0
 10
247.2117438445
 20
118.5352757644
 30
0.0
 10
248.1351674946
 20
118.9614082573
 30
0.0
 10
248.7326380514
 20
119.4475818857
 30
0.0
 10
249.0929658009
 20
119.8710115178
 30
0.0
 10
249.3557834328
 20
120.3514640628
 30
0.0
 10
249.504297409
 20
120.8820909026
 30
0.0
 10
249.5208791858
 20
121.4537815731
 30
0.0
 10
249.3895942116
 20
122.0552122051
 30
0.0
 10
249.0976638684
 20
122.6750633581
 30
0.0
 10
248.8108945653
 20
123.063771318
 30
0.0
 10
248.6435303304
 20
123.2580710201
 30
0.0
  0
SPLINE
  5
2F4
100
AcDbEntity
  8
0
100
AcDbSpline
 62
7
  6
CONTINUOUS
 70
0
 71
3
 72
8
 73
4
 74
0
 42
0.0000001
 43
0.0000001
 44
0.0000000001
 40
0.0
 40
0.0
 40
0.0
 40
0.0
 40
1.0
 40
1.0
 40
1.0
 40
1.0
 10
195.3714903105
 20
93.2506149478
 30
0.0
 10
195.3642392751
 20
93.2580990896
 30
0.0
 10
195.3607365919
 20
93.2705279556
 30
0.0
 10
195.3629959164
 20
93.2807007304
 30
0.0
  0
SPLINE
  5
2F5
100
AcDbEntity
  8
0
100
AcDbSpline
 62
7
  6
CONTINUOUS
 70
0
 71
3
 72
10
 73
6
 74
0
 42
0.0000001
 43
0.0000001
 44
0.0000000001
 40
0.0
 40
0.0
 40
0.0
 40
0.0
 40
0.3564134007
 40
0.7128268013
 40
1.0
 40
1.0
 40
1.0
 40
1.0
 10
146.2882653656
 20
176.8626387861
 30
0.0
 10
149.2265682946
 20
176.4915045387
 30
0.0
 10
154.9569003739
 20
175.5835860197
 30
0.0
 10
162.4842241284
 20
173.8121001002
 30
0.0
 10
166.9860001703
 20
172.344724089
 30
0.0
 10
168.9216972667
 20
171.6116942951
 30
0.0
  0
SPLINE
  5
2F6
100
AcDbEntity
  8
0
100
AcDbSpline
 62
7
  6
CONTINUOUS
 70
0
 71
3
 72
8
 73
4
 74
0
 42
0.0000001
 43
0.0000001
 44
0.0000000001
 40
0.0
 40
0.0
 40
0.0
 40
0.0
 40
1.0
 40
1.0
 40
1.0
 40
1.0
 10
42.8894186248
 20
75.0320868333
 30
0.0
 10
44.9138905019
 20
75.4872119186
 30
0.0
 10
47.0389738912
 20
75.8834933019
 30
0.0
 10
49.1664366968
 20
76.1641751228
 30
0.0
  0
SPLINE
  5
2F7
100
AcDbEntity
  8
0
100
AcDbSpline
 62
7
  6
CONTINUOUS
 70
0
 71
3
 72
8
 73
4
 74
0
 42
0.0000001
 43
0.0000001
 44
0.0000000001
 40
0.0
 40
0.0
 40
0.0
 40
0.0
 40
1.0
 40
1.0
 40
1.0
 40
1.0
 10
207.9379831904
 20
165.4918565589
 30
0.0
 10
207.326387478
 20
168.8680363657
 30
0.0
 10
208.9854189061
 20
172.3236068382
 30
0.0
 10
215.4714215302
 20
172.0891493778
 30
0.0
  0
SPLINE
  5
2F8
100
AcDbEntity
  8
0
100
AcDbSpline
 62
7
  6
CONTINUOUS
 70
0
 71
3
 72
9
 73
5
 74
0
 42
0.0000001
 43
0.0000001
 44
0.0000000001
 40
0.0
 40
0.0
 40
0.0
 40
0.0
 40
0.3963160923
 40
1.0
 40
1.0
 40
1.0
 40
1.0
 10
179.8438167415
 20
157.6029478927
 30
0.0
 10
188.6500865856
 20
149.7308988154
 30
0.0
 10
201.4952098615
 20
145.8860390308
 30
0.0
 10
209.6128493821
 20
156.5906357102
 30
0.0
 10
203.7299408226
 20
163.4010091735
 30
0.0
  0
SPLINE
  5
2F9
100
AcDbEntity
  8
0
100
AcDbSpline
 62
7
  6
CONTINUOUS
 70
0
 71
3
 72
10
 73
6
 74
0
 42
0.0000001
 43
0.0000001
 44
0.0000000001
 40
0.0
 40
0.0
 40
0.0
 40
0.0
 40
0.2726860628
 40
0.6005461666
 40
1.0
 40
1.0
 40
1.0
 40
1.0
 10
50.5779510398
 20
84.9038084162
 30
0.0
 10
37.7321142544
 20
98.2177144783
 30
0.0
 10
28.5184122662
 20
131.2752825379
 30
0.0
 10
78.4680115149
 20
172.7309097417
 30
0.0
 10
160.7076892464
 20
168.8019461413
 30
0.0
 10
175.2381535691
 20
156.1977014195
 30
0.0
  0
SPLINE
  5
2FA
100
AcDbEntity
  8
0
100
AcDbSpline
 62
7
  6
CONTINUOUS
 70
0
 71
3
 72
9
 73
5
 74
0
 42
0.0000001
 43
0.0000001
 44
0.0000000001
 40
0.0
 40
0.0
 40
0.0
 40
0.0
 40
0.493217246
 40
1.0
 40
1.0
 40
1.0
 40
1.0
 10
33.5512888793
 20
39.1080377896
 30
0.0
 10
34.2963119606
 20
51.3435146491
 30
0.0
 10
45.3822405149
 20
57.1693188387
 30
0.0
 10
48.7843165294
 20
65.6894750846
 30
0.0
 10
44.1836842695
 20
70.4254782666
 30
0.0
  0
SPLINE
  5
2FB
100
AcDbEntity
  8
0
100
AcDbSpline
 62
7
  6
CONTINUOUS
 70
0
 71
3
 72
16
 73
12
 74
0
 42
0.0000001
 43
0.0000001
 44
0.0000000001
 40
0.0
 40
0.0
 40
0.0
 40
0.0
 40
0.125
 40
0.25
 40
0.375
 40
0.5
 40
0.625
 40
0.75
 40
0.8125
 40
0.875
 40
1.0
 40
1.0
 40
1.0
 40
1.0
 10
27.4387799191
 20
129.7313247173
 30
0.0
 10
28.3981969114
 20
132.9476456233
 30
0.0
 10
31.0303957536
 20
139.1741168039
 30
0.0
 10
36.8910581014
 20
147.65997956
 30
0.0
 10
44.4389639323
 20
155.1809645301
 30
0.0
 10
53.5071276332
 20
161.6958415325
 30
0.0
 10
63.9866434677
 20
167.1805016479
 30
0.0
 10
73.8264391877
 20
170.8641044648
 30
0.0
 10
82.34908561
 20
173.2573676522
 30
0.0
 10
91.2440569776
 20
175.2619951591
 30
0.0
 10
98.2285007354
 20
176.3444825915
 30
0.0
 10
102.9533377048
 20
176.8883026088
 30
0.0
  0
SPLINE
  5
2FC
100
AcDbEntity
  8
0
100
AcDbSpline
 62
7
  6
CONTINUOUS
 70
0
 71
3
 72
9
 73
5
 74
0
 42
0.0000001
 43
0.0000001
 44
0.0000000001
 40
0.0
 40
0.0
 40
0.0
 40
0.0
 40
0.3818495242
 40
1.0
 40
1.0
 40
1.0
 40
1.0
 10
34.9293848081
 20
87.6000246191
 30
0.0
 10
33.6335631248
 20
89.5422852955
 30
0.0
 10
30.5722665235
 20
94.7240421258
 30
0.0
 10
28.4099154323
 20
100.1233011131
 30
0.0
 10
27.4387799191
 20
103.5112169797
 30
0.0
  0
ENDSEC
  0
SECTION
  2
OBJECTS
  0
DICTIONARY
  5
C
100
AcDbDictionary
280
0
281
1
  3
ACAD_GROUP
350
D
  3
ACAD_MLINESTYLE
350
17
  3
ACAD_LAYOUT
350
1A
  3
ACAD_PLOTSETTINGS
350
19
  3
ACAD_PLOTSTYLENAME
350
E
  3
ACAD_TABLESTYLE
350
       2FD
  0
DICTIONARY
  5
D
102
{ACAD_REACTORS
330
C
102
}
100
AcDbDictionary
280
0
281
1
  0
ACDBDICTIONARYWDFLT
  5
E
102
{ACAD_REACTORS
330
C
102
}
100
AcDbDictionary
281
1
  3
Normal
350
F
100
AcDbDictionaryWithDefault
340
F
  0
DICTIONARY
  5
17
102
{ACAD_REACTORS
330
C
102
}
100
AcDbDictionary
280
0
281
1
  3
Standard
350
18
  0
DICTIONARY
  5
2FD
330
C
100
AcDbDictionary
281
1
  3
Standard
350
       300
  3
Standard1
350
       301
  0
DICTIONARY
  5
19
102
{ACAD_REACTORS
330
C
102
}
100
AcDbDictionary
281
1
  0
DICTIONARY
  5
1A
102
{ACAD_REACTORS
330
C
102
}
100
AcDbDictionary
281
1
  3
Model
350
2FE
  3
Layout1
350
2FF
  0
ACDBPLACEHOLDER
  5
F
102
{ACAD_REACTORS
330
E
102
}
  0
MLINESTYLE
  5
18
102
{ACAD_REACTORS
330
17
102
}
100
AcDbMlineStyle
  2
STANDARD
 70
0
  3

 62
256
 51
90.0
 52
90.0
 71
2
 49
0.5
 62
256
  6
BYLAYER
 49
-0.5
 62
256
  6
BYLAYER
  0
LAYOUT
  5
2FE
102
{ACAD_REACTORS
330
1A
102
}
100
AcDbPlotSettings
  1

  2
none_device
  4
ISO_A4_(297.00_x_210.00_MM)
  6

 40
0.0
 41
0.0
 42
0.0
 43
0.0
 44
297.0
 45
210.0
 46
0.0
 47
0.0
 48
0.0
 49
0.0
140
0.0
141
0.0
142
1.0
143
1.0
 70
1024
 72
1
 73
0
 74
0
  7

 75
0
147
1.0
148
0.0
149
0.0
100
AcDbLayout
  1
Model
 70
0
 71
0
 10
0.0
 20
0.0
 11
297.0
 21
210.0
 12
0.0
 22
0.0
 32
0.0
 14
0.0
 24
0.0
 34
0.0
 15
0.0
 25
0.0
 35
0.0
146
0.0
 13
0.0
 23
0.0
 33
0.0
 16
1.0
 26
0.0
 36
0.0
 17
0.0
 27
1.0
 37
0.0
 76
0
330
20B
345
0
346
0
  0
LAYOUT
  5
2FF
102
{ACAD_REACTORS
330
1A
102
}
100
AcDbPlotSettings
  1

  2
none_device
  4
ISO_A4_(297.00_x_210.00_MM)
  6

 40
0.0
 41
0.0
 42
0.0
 43
0.0
 44
297.0
 45
210.0
 46
0.0
 47
0.0
 48
0.0
 49
0.0
140
0.0
141
0.0
142
1.0
143
1.0
 70
0
 72
1
 73
0
 74
0
  7

 75
0
147
1.0
148
0.0
149
0.0
100
AcDbLayout
  1
Layout1
 70
0
 71
1
 10
0.0
 20
0.0
 11
297.0
 21
210.0
 12
0.0
 22
0.0
 32
0.0
 14
0.0
 24
0.0
 34
0.0
 15
0.0
 25
0.0
 35
0.0
146
0.0
 13
0.0
 23
0.0
 33
0.0
 16
1.0
 26
0.0
 36
0.0
 17
0.0
 27
1.0
 37
0.0
 76
0
330
20C
345
0
346
0
  0
TABLESTYLE
  5
300
102
{ACAD_REACTORS
330
2FD
330
259
102
}
330
2FD
100
AcDbTableStyle
  3
Standard
 70
0
 71
0
 40
0.06
 41
0.06
280
1
281
1
  7
Standard
140
0.18
170
1
 62
0
 63
7
283
0
  7
Standard
140
0.18
170
1
 62
0
 63
7
283
0
  7
Standard
140
0.18
170
1
 62
0
 63
7
283
0
  0
TABLESTYLE
  5
301
102
{ACAD_REACTORS
330
2FD
102
}
330
2FD
100
AcDbTableStyle
  3
Standard1
 70
1
 71
0
 40
0.06
 41
0.06
280
1
281
1
  7
Standard
140
0.18
170
1
 62
0
 63
7
283
0
  7
Standard
140
0.18
170
1
 62
0
 63
7
283
0
  7
Standard
140
0.18
170
1
 62
0
 63
7
283
0
  0
ENDSEC
  0
EOF
