999
DXF file: O:\ORAC_PRODUCTEN\ORAC_LIJN6\C-Type\C341\c341-prod-mm.dxf
999
Pro/ENGINEER 2013050 by Parametric Technology Corporation
  0
SECTION
  2
HEADER
  9
$ACADVER
  1
AC1024
  9
$DWGCODEPAGE
  3
ANSI_1252
  9
$EXTMAX
 10
297.0
 20
210.0
 30
0.0
  9
$EXTMIN
 10
0.0
 20
0.0
 30
0.0
  9
$LIMMIN
 10
0.0
 20
0.0
  9
$LIMMAX
 10
297.0
 20
210.0
  9
$VIEWCTR
 10
148.5
 20
105.0
  9
$VIEWSIZE
 40
210.0
  9
$CLAYER
  8
0
  9
$LTSCALE
 40
16.335
  9
$CELTYPE
  6
BYLAYER
  9
$DIMSCALE
 40
1.0
  9
$DIMASZ
 40
3.5
  9
$DIMEXO
 40
1.0
  9
$DIMDLI
 40
11.286
  9
$DIMEXE
 40
1.5
  9
$DIMCEN
 40
2.673
  9
$DIMLFAC
 40
1.0
  9
$DIMBLK
  1
_FILLED
  9
$DIMTXT
 40
2.5
  9
$DIMTOL
 70
1
  9
$DIMLIM
 70
0
  9
$DIMTFAC
 40
1.0
  9
$DIMTP
 40
0.001
  9
$DIMTM
 40
0.001
  9
$DIMGAP
 40
0.625
  9
$DIMDSEP
 70
44
  9
$PDMODE
 70
3
  9
$PDSIZE
 40
8.0
  9
$HANDSEED
  5
2F8
  9
$TILEMODE
 70
1
  9
$MEASUREMENT
 70
1
  9
$INSUNITS
 70
4
  0
ENDSEC
  0
SECTION
  2
CLASSES
  0
CLASS
  1
ACDBDICTIONARYWDFLT
  2
AcDbDictionaryWithDefault
  3
AutoCAD 2000
 90
0
 91
1
280
0
281
0
  0
CLASS
  1
ACDBPLACEHOLDER
  2
AcDbPlaceHolder
  3
AutoCAD 2000
 90
0
 91
1
280
0
281
0
  0
CLASS
  1
LAYOUT
  2
AcDbLayout
  3
AutoCAD 2000
 90
0
 91
0
280
0
281
0
  0
CLASS
  1
TABLESTYLE
  2
AcDbTableStyle
  3
ObjectDBX Classes
 90
2047
 91
1
280
0
281
0
  0
CLASS
  1
ACAD_TABLE
  2
AcDbTable
  3
ObjectDBX Classes
 90
1025
 91
1
280
0
281
1
  0
ENDSEC
  0
SECTION
  2
TABLES
  0
TABLE
  2
VPORT
  5
8
100
AcDbSymbolTable
 70
2
  0
VPORT
  5
1F4
100
AcDbSymbolTableRecord
100
AcDbViewportTableRecord
  2
*ACTIVE
 70
0
 10
0.0
 20
0.0
 11
1.0
 21
1.0
 12
148.5
 22
105.0
 13
0.0
 23
0.0
 14
1.0
 24
1.0
 15
0.0
 25
0.0
 16
0.0
 26
0.0
 36
1.0
 17
0.0
 27
0.0
 37
0.0
 40
210.0
 41
1.4142857143
 42
50.0
 43
0.0
 44
0.0
 50
0.0
 51
0.0
 71
0
 72
100
 73
1
 74
1
 75
0
 76
0
 77
0
 78
0
  0
ENDTAB
  0
TABLE
  2
LTYPE
  5
5
100
AcDbSymbolTable
 70
6
  0
LTYPE
  5
14
100
AcDbSymbolTableRecord
100
AcDbLinetypeTableRecord
  2
BYBLOCK
 70
0
  3

 72
65
 73
0
 40
0.0
  0
LTYPE
  5
15
100
AcDbSymbolTableRecord
100
AcDbLinetypeTableRecord
  2
BYLAYER
 70
0
  3

 72
65
 73
0
 40
0.0
  0
LTYPE
  5
16
100
AcDbSymbolTableRecord
100
AcDbLinetypeTableRecord
  2
CONTINUOUS
 70
64
  3
Solid line
 72
65
 73
0
 40
0.0
  0
LTYPE
  5
1F5
100
AcDbSymbolTableRecord
100
AcDbLinetypeTableRecord
  2
CENTER
 70
64
  3
____ _ ____ _ ____ _ ____ _ ____ _ ____ _ ____
 72
65
 73
4
 40
0.6
 49
0.375
 74
0
 49
-0.075
 74
0
 49
0.075
 74
0
 49
-0.075
 74
0
  0
LTYPE
  5
1F6
100
AcDbSymbolTableRecord
100
AcDbLinetypeTableRecord
  2
HIDDEN
 70
64
  3
- - - - - - - - - - - - - - - - - - - -
 72
65
 73
2
 40
0.2
 49
0.1
 74
0
 49
-0.1
 74
0
  0
LTYPE
  5
1F7
100
AcDbSymbolTableRecord
100
AcDbLinetypeTableRecord
  2
PHANTOM
 70
64
  3
_____ _ _ _____ _ _ _____ _ _ _____
 72
65
 73
6
 40
0.8
 49
0.45
 74
0
 49
-0.05
 74
0
 49
0.1
 74
0
 49
-0.05
 74
0
 49
0.1
 74
0
 49
-0.05
 74
0
  0
LTYPE
  5
1F8
100
AcDbSymbolTableRecord
100
AcDbLinetypeTableRecord
  2
DOT
 70
64
  3
. . . . . . . . . . . . . . . . . . . .
 72
65
 73
2
 40
0.2
 49
0.1
 74
0
 49
-0.1
 74
0
  0
LTYPE
  5
1F9
100
AcDbSymbolTableRecord
100
AcDbLinetypeTableRecord
  2
DASHED
 70
64
  3
- - - - - - - - - - - - - - - - - - - -
 72
65
 73
2
 40
0.2
 49
0.1
 74
0
 49
-0.1
 74
0
  0
ENDTAB
  0
TABLE
  2
LAYER
  5
2
100
AcDbSymbolTable
 70
36
  0
LAYER
  5
10
100
AcDbSymbolTableRecord
100
AcDbLayerTableRecord
  2
0
 70
0
 62
7
  6
CONTINUOUS
370
-3
390
F
  0
LAYER
  5
1FA
100
AcDbSymbolTableRecord
100
AcDbLayerTableRecord
  2
DEFAULT_1
 70
0
 62
7
  6
CENTER
370
-3
390
F
  0
LAYER
  5
1FB
100
AcDbSymbolTableRecord
100
AcDbLayerTableRecord
  2
DEFAULT_2
 70
0
 62
8
  6
HIDDEN
370
-3
390
F
  0
LAYER
  5
1FC
100
AcDbSymbolTableRecord
100
AcDbLayerTableRecord
  2
DEFAULT_3
 70
0
 62
7
  6
PHANTOM
370
-3
390
F
  0
LAYER
  5
1FD
100
AcDbSymbolTableRecord
100
AcDbLayerTableRecord
  2
DTM_ALL
 70
0
 62
7
  6
CONTINUOUS
370
-3
390
F
  0
LAYER
  5
1FE
100
AcDbSymbolTableRecord
100
AcDbLayerTableRecord
  2
DTM_AXIS
 70
0
 62
7
  6
CONTINUOUS
370
-3
390
F
  0
LAYER
  5
1FF
100
AcDbSymbolTableRecord
100
AcDbLayerTableRecord
  2
DTM_CSYS
 70
0
 62
7
  6
CONTINUOUS
370
-3
390
F
  0
LAYER
  5
200
100
AcDbSymbolTableRecord
100
AcDbLayerTableRecord
  2
DTM_CURVE
 70
0
 62
7
  6
CONTINUOUS
370
-3
390
F
  0
LAYER
  5
201
100
AcDbSymbolTableRecord
100
AcDbLayerTableRecord
  2
DTM_MASTER
 70
0
 62
7
  6
CONTINUOUS
370
-3
390
F
  0
LAYER
  5
202
100
AcDbSymbolTableRecord
100
AcDbLayerTableRecord
  2
DTM_POINT
 70
0
 62
7
  6
CONTINUOUS
370
-3
390
F
  0
LAYER
  5
203
100
AcDbSymbolTableRecord
100
AcDbLayerTableRecord
  2
DTM_QUILT
 70
0
 62
7
  6
CONTINUOUS
370
-3
390
F
  0
LAYER
  5
204
100
AcDbSymbolTableRecord
100
AcDbLayerTableRecord
  2
GTOL
 70
0
 62
7
  6
CONTINUOUS
370
-3
390
F
  0
LAYER
  5
205
100
AcDbSymbolTableRecord
100
AcDbLayerTableRecord
  2
NONE
 70
0
 62
7
  6
CONTINUOUS
370
-3
390
F
  0
LAYER
  5
206
100
AcDbSymbolTableRecord
100
AcDbLayerTableRecord
  2
NOTES
 70
0
 62
7
  6
CONTINUOUS
370
-3
390
F
  0
ENDTAB
  0
TABLE
  2
STYLE
  5
3
100
AcDbSymbolTable
 70
1
  0
STYLE
  5
11
100
AcDbSymbolTableRecord
100
AcDbTextStyleTableRecord
  2
STANDARD
 70
0
 40
0.0
 41
1.0
 50
0.0
 71
0
 42
0.2
  3
cgtime.ttf
  4

  0
STYLE
  5
207
100
AcDbSymbolTableRecord
100
AcDbTextStyleTableRecord
  2
TEXTSTYLE_1
 70
0
 40
0.0
 41
0.8
 50
0.0
 71
0
 42
0.2
  3
gdt
  4

  0
STYLE
  5
208
100
AcDbSymbolTableRecord
100
AcDbTextStyleTableRecord
  2
TEXTSTYLE_2
 70
0
 40
0.0
 41
1.0
 50
0.0
 71
0
 42
0.2
  3
trium.ttf
  4

  0
STYLE
  5
209
100
AcDbSymbolTableRecord
100
AcDbTextStyleTableRecord
  2
TEXTSTYLE_3
 70
0
 40
0.0
 41
1.0
 50
0.0
 71
0
 42
0.2
  3
calibri.ttf
  4

  0
ENDTAB
  0
TABLE
  2
VIEW
  5
6
100
AcDbSymbolTable
 70
0
  0
ENDTAB
  0
TABLE
  2
UCS
  5
7
100
AcDbSymbolTable
 70
0
  0
ENDTAB
  0
TABLE
  2
APPID
  5
9
100
AcDbSymbolTable
 70
1
  0
APPID
  5
20A
100
AcDbSymbolTableRecord
100
AcDbRegAppTableRecord
  2
ACAD
 70
0
  0
ENDTAB
  0
TABLE
  2
BLOCK_RECORD
  5
1
100
AcDbSymbolTable
 70
0
  0
BLOCK_RECORD
  5
20B
100
AcDbSymbolTableRecord
100
AcDbBlockTableRecord
  2
*Model_Space
  0
BLOCK_RECORD
  5
20C
100
AcDbSymbolTableRecord
100
AcDbBlockTableRecord
  2
*Paper_Space
  0
BLOCK_RECORD
  5
20D
100
AcDbSymbolTableRecord
100
AcDbBlockTableRecord
  2
_FILLED
  0
BLOCK_RECORD
  5
20E
100
AcDbSymbolTableRecord
100
AcDbBlockTableRecord
  2
*D0
  0
BLOCK_RECORD
  5
20F
100
AcDbSymbolTableRecord
100
AcDbBlockTableRecord
  2
*D1
  0
BLOCK_RECORD
  5
210
100
AcDbSymbolTableRecord
100
AcDbBlockTableRecord
  2
*D2
  0
BLOCK_RECORD
  5
211
100
AcDbSymbolTableRecord
100
AcDbBlockTableRecord
  2
*T1
  0
ENDTAB
  0
TABLE
  2
DIMSTYLE
  5
A
100
AcDbSymbolTable
 70
1
100
AcDbDimStyleTable
 71
0
  0
DIMSTYLE
105
212
100
AcDbSymbolTableRecord
100
AcDbDimStyleTableRecord
  2
STANDARD
 70
0
  3

  4

 40
1.0
 41
3.5
 42
1.0
 43
0.38
 44
1.5
 45
0.0
 46
0.0
 47
0.001
 48
0.001
140
2.5
141
0.09
142
0.0
143
25.4
144
1.0
145
0.0
146
1.0
147
0.625
 71
1.0
 72
0.0
 73
1
 74
1
 75
0
 76
0
 77
0
 78
8
170
0
171
2
172
0
173
0
174
0
175
0
176
0
177
0
178
0
270
2
271
3
272
3
273
2
274
2
275
0
280
0
281
0
282
0
283
1
284
8
285
0
286
0
287
3
288
0
340
11
278
44
341
20D
342
20D
343
20D
344
20D
  0
DIMSTYLE
105
213
100
AcDbSymbolTableRecord
100
AcDbDimStyleTableRecord
  2
DIMSTYLE_1
 70
0
  3

  4

 40
1.0
 41
3.5
 42
1.0
 43
0.38
 44
1.5
 45
0.0
 46
0.0
 47
0.0
 48
0.0
140
2.5
141
0.09
142
0.0
143
25.4
144
1.0
145
0.0
146
1.0
147
1.25
 71
0.0
 72
0.0
 73
1
 74
1
 75
0
 76
0
 77
0
 78
8
170
0
171
2
172
0
173
0
174
0
175
0
176
0
177
0
178
0
270
2
271
3
272
3
273
2
274
2
275
0
280
0
281
0
282
0
283
1
284
8
285
0
286
0
287
3
288
0
340
11
278
44
341
20D
342
20D
343
20D
344
20D
  0
DIMSTYLE
105
214
100
AcDbSymbolTableRecord
100
AcDbDimStyleTableRecord
  2
DIMSTYLE_2
 70
0
  3

  4

 40
1.0
 41
3.5
 42
1.0
 43
0.38
 44
1.5
 45
0.0
 46
0.0
 47
0.0
 48
0.0
140
2.5
141
0.09
142
0.0
143
25.4
144
1.0
145
0.0
146
1.0
147
1.25
 71
0.0
 72
0.0
 73
1
 74
1
 75
0
 76
0
 77
0
 78
8
170
0
171
2
172
0
173
0
174
0
175
0
176
0
177
0
178
0
270
2
271
0
272
0
273
2
274
2
275
0
280
0
281
0
282
0
283
1
284
8
285
0
286
0
287
3
288
0
340
11
278
44
341
20D
342
20D
343
20D
344
20D
  0
ENDTAB
  0
ENDSEC
  0
SECTION
  2
BLOCKS
  0
BLOCK
  5
20
100
AcDbEntity
  8
0
100
AcDbBlockBegin
  2
*Model_Space
 70
0
 10
0.0
 20
0.0
 30
0.0
  3
*Model_Space
  1

  0
ENDBLK
  5
21
100
AcDbEntity
  8
0
100
AcDbBlockEnd
  0
BLOCK
  5
1C
100
AcDbEntity
  8
0
100
AcDbBlockBegin
  2
*Paper_Space
 70
0
 10
0.0
 20
0.0
 30
0.0
  3
*Paper_Space
  1

  0
ENDBLK
  5
1D
100
AcDbEntity
  8
0
100
AcDbBlockEnd
  0
BLOCK
  5
215
100
AcDbEntity
  8
0
100
AcDbBlockBegin
  2
_FILLED
 70
64
 10
0.0
 20
0.0
  3
_FILLED
  1

  0
SOLID
  5
216
100
AcDbEntity
  8
0
  6
BYBLOCK
 62
0
100
AcDbTrace
 10
0.0
 20
0.0
 11
-1.0
 21
0.2142857143
 12
-1.0
 22
-0.2142857143
 13
-1.0
 23
-0.2142857143
  0
ENDBLK
  5
217
100
AcDbEntity
  8
0
  6
BYBLOCK
 62
0
100
AcDbBlockEnd
  0
BLOCK
  5
218
100
AcDbEntity
  8
0
100
AcDbBlockBegin
 62
2
  6
CONTINUOUS
  2
*D0
 70
65
 10
0.0
 20
0.0
  3
*D0
  1

  0
TEXT
  5
219
100
AcDbEntity
  8
0
100
AcDbText
 62
2
  6
CONTINUOUS
 10
97.3916313039
 20
168.4625876297
  7
STANDARD
 40
2.5
  1
122
 72
5
 11
102.8488297474
 21
168.4625876297
100
AcDbText
  0
LINE
  5
21A
100
AcDbEntity
  8
0
100
AcDbLine
 62
2
  6
CONTINUOUS
 10
39.1202305252
 20
89.9351374534
 11
39.1202305252
 21
171.2125876297
  0
LINE
  5
21B
100
AcDbEntity
  8
0
100
AcDbLine
 62
2
  6
CONTINUOUS
 10
161.1202305261
 20
156.2457194149
 11
161.1202305261
 21
171.2125876297
  0
LINE
  5
21C
100
AcDbEntity
  8
0
100
AcDbLine
 62
2
  6
CONTINUOUS
 10
39.1202305252
 20
169.7125876297
 11
96.1416313039
 21
169.7125876297
  0
LINE
  5
21D
100
AcDbEntity
  8
0
100
AcDbLine
 62
2
  6
CONTINUOUS
 10
161.1202305261
 20
169.7125876297
 11
104.0988297474
 21
169.7125876297
  0
INSERT
  5
21E
100
AcDbEntity
  8
0
100
AcDbBlockReference
 62
2
  6
CONTINUOUS
  2
_FILLED
 10
39.1202305252
 20
169.7125876297
 41
3.5
 42
3.5
 43
3.5
 50
180.0
  0
INSERT
  5
21F
100
AcDbEntity
  8
0
100
AcDbBlockReference
 62
2
  6
CONTINUOUS
  2
_FILLED
 10
161.1202305261
 20
169.7125876297
 41
3.5
 42
3.5
 43
3.5
  0
ENDBLK
  5
220
100
AcDbEntity
  8
0
  6
BYBLOCK
 62
0
100
AcDbBlockEnd
  0
BLOCK
  5
221
100
AcDbEntity
  8
0
100
AcDbBlockBegin
 62
2
  6
CONTINUOUS
  2
*D1
 70
65
 10
0.0
 20
0.0
  3
*D1
  1

  0
TEXT
  5
222
100
AcDbEntity
  8
0
100
AcDbText
 62
2
  6
CONTINUOUS
 10
23.8682294945
 20
109.9937194149
  7
STANDARD
 40
2.5
  1
88
 72
5
 11
27.5063617902
 21
109.9937194149
100
AcDbText
  0
LINE
  5
223
100
AcDbEntity
  8
0
100
AcDbLine
 62
2
  6
CONTINUOUS
 10
139.0229276598
 20
155.2457194149
 11
24.1872956424
 21
155.2457194149
  0
LINE
  5
224
100
AcDbEntity
  8
0
100
AcDbLine
 62
2
  6
CONTINUOUS
 10
38.1202305252
 20
67.2417194148
 11
24.1872956424
 21
67.2417194148
  0
LINE
  5
225
100
AcDbEntity
  8
0
100
AcDbLine
 62
2
  6
CONTINUOUS
 10
25.6872956424
 20
155.2457194149
 11
25.6872956424
 21
113.7437194149
  0
LINE
  5
226
100
AcDbEntity
  8
0
100
AcDbLine
 62
2
  6
CONTINUOUS
 10
25.6872956424
 20
67.2417194148
 11
25.6872956424
 21
108.7437194149
  0
INSERT
  5
227
100
AcDbEntity
  8
0
100
AcDbBlockReference
 62
2
  6
CONTINUOUS
  2
_FILLED
 10
25.6872956424
 20
155.2457194149
 41
3.5
 42
3.5
 43
3.5
 50
90.0
  0
INSERT
  5
228
100
AcDbEntity
  8
0
100
AcDbBlockReference
 62
2
  6
CONTINUOUS
  2
_FILLED
 10
25.6872956424
 20
67.2417194148
 41
3.5
 42
3.5
 43
3.5
 50
270.0
  0
ENDBLK
  5
229
100
AcDbEntity
  8
0
  6
BYBLOCK
 62
0
100
AcDbBlockEnd
  0
BLOCK
  5
22A
100
AcDbEntity
  8
0
100
AcDbBlockBegin
 62
2
  6
CONTINUOUS
  2
*D2
 70
65
 10
0.0
 20
0.0
  3
*D2
  1

  0
TEXT
  5
22B
100
AcDbEntity
  8
0
100
AcDbText
 62
2
  6
CONTINUOUS
 10
107.2952286866
 20
96.2643561961
  7
STANDARD
 40
2.5
  1
150
 72
5
 11
112.7524271302
 21
96.2643561961
100
AcDbText
  0
LINE
  5
22C
100
AcDbEntity
  8
0
100
AcDbLine
 62
2
  6
CONTINUOUS
 10
161.7052530288
 20
154.4347023551
 11
171.9013616629
 21
140.2998306064
  0
LINE
  5
22D
100
AcDbEntity
  8
0
100
AcDbLine
 62
2
  6
CONTINUOUS
 10
39.705253028
 20
66.430702355
 11
49.9013616621
 21
52.2958306063
  0
LINE
  5
22E
100
AcDbEntity
  8
0
100
AcDbLine
 62
2
  6
CONTINUOUS
 10
171.0238279088
 20
141.5163561962
 11
113.4895794652
 21
100.0143561961
  0
LINE
  5
22F
100
AcDbEntity
  8
0
100
AcDbLine
 62
2
  6
CONTINUOUS
 10
49.023827908
 20
53.5123561961
 11
106.5580763516
 21
95.0143561961
  0
INSERT
  5
230
100
AcDbEntity
  8
0
100
AcDbBlockReference
 62
2
  6
CONTINUOUS
  2
_FILLED
 10
171.0238279088
 20
141.5163561962
 41
3.5
 42
3.5
 43
3.5
 50
35.8045797413
  0
INSERT
  5
231
100
AcDbEntity
  8
0
100
AcDbBlockReference
 62
2
  6
CONTINUOUS
  2
_FILLED
 10
49.023827908
 20
53.5123561961
 41
3.5
 42
3.5
 43
3.5
 50
215.8045797413
  0
ENDBLK
  5
232
100
AcDbEntity
  8
0
  6
BYBLOCK
 62
0
100
AcDbBlockEnd
  0
BLOCK
  5
233
100
AcDbEntity
  8
0
100
AcDbBlockBegin
  2
*T1
 70
1
 10
0.0
 20
0.0
  3
*T1
  1

  0
LINE
  5
234
100
AcDbEntity
  8
0
100
AcDbLine
 62
7
  6
CONTINUOUS
 10
0.0
 20
0.0
 11
148.0
 21
0.0
  0
LINE
  5
235
100
AcDbEntity
  8
0
100
AcDbLine
 62
7
  6
CONTINUOUS
 10
0.0
 20
0.0
 11
0.0
 21
-43.0
  0
LINE
  5
236
100
AcDbEntity
  8
0
100
AcDbLine
 62
7
  6
CONTINUOUS
 10
45.0
 20
-23.0
 11
148.0
 21
-23.0
  0
LINE
  5
237
100
AcDbEntity
  8
0
100
AcDbLine
 62
7
  6
CONTINUOUS
 10
45.0
 20
-28.0
 11
148.0
 21
-28.0
  0
LINE
  5
238
100
AcDbEntity
  8
0
100
AcDbLine
 62
7
  6
CONTINUOUS
 10
0.0
 20
-43.0
 11
148.0
 21
-43.0
  0
LINE
  5
239
100
AcDbEntity
  8
0
100
AcDbLine
 62
7
  6
CONTINUOUS
 10
45.0
 20
0.0
 11
45.0
 21
-43.0
  0
LINE
  5
23A
100
AcDbEntity
  8
0
100
AcDbLine
 62
7
  6
CONTINUOUS
 10
143.0
 20
0.0
 11
143.0
 21
-23.0
  0
LINE
  5
23B
100
AcDbEntity
  8
0
100
AcDbLine
 62
7
  6
CONTINUOUS
 10
148.0
 20
0.0
 11
148.0
 21
-43.0
  0
TEXT
  5
23C
100
AcDbEntity
  8
0
100
AcDbText
 62
7
  6
CONTINUOUS
 10
8.9659749243
 20
-10.675
  7
STANDARD
 40
8.0
  1
O
 72
5
 11
17.370644185
 21
-10.675
100
AcDbText
  0
TEXT
  5
23D
100
AcDbEntity
  8
0
100
AcDbText
 62
7
  6
CONTINUOUS
 10
17.370644185
 20
-10.675
  7
STANDARD
 40
5.5
  1
RAC
 72
5
 11
33.9562472979
 21
-10.675
100
AcDbText
  0
TEXT
  5
23E
100
AcDbEntity
  8
0
100
AcDbText
 62
7
  6
CONTINUOUS
 10
33.9562472979
 20
-5.925
  7
TEXTSTYLE_2
 40
3.0
  1
®
 72
5
 11
36.0340250757
 21
-5.925
100
AcDbText
  0
TEXT
  5
23F
100
AcDbEntity
  8
0
100
AcDbText
 62
7
  6
CONTINUOUS
 10
9.5323389537
 20
-15.325
  7
TEXTSTYLE_2
 40
3.0
  1
D  E  C  O  R
 72
5
 11
34.3878945093
 21
-15.325
100
AcDbText
  0
TEXT
  5
240
100
AcDbEntity
  8
0
100
AcDbText
 62
7
  6
CONTINUOUS
 10
34.3878945093
 20
-15.325
  7
STANDARD
 40
2.5
  1
 
 72
5
 11
35.4676610463
 21
-15.325
100
AcDbText
  0
TEXT
  5
241
100
AcDbEntity
  8
0
100
AcDbText
 62
7
  6
CONTINUOUS
 10
52.5257352941
 20
-6.0
  7
TEXTSTYLE_3
 40
2.75
  1
Part name:
 72
5
 11
71.9375
 21
-6.0
100
AcDbText
  0
TEXT
  5
242
100
AcDbEntity
  8
0
100
AcDbText
 62
7
  6
CONTINUOUS
 10
49.2788865546
 20
-12.875
  7
TEXTSTYLE_3
 40
2.75
  1
Designed by:
 72
5
 11
71.9375
 21
-12.875
100
AcDbText
  0
TEXT
  5
243
100
AcDbEntity
  8
0
100
AcDbText
 62
7
  6
CONTINUOUS
 10
48.9553571429
 20
-19.75
  7
TEXTSTYLE_3
 40
2.75
  1
Designed on:
 72
5
 11
71.9375
 21
-19.75
100
AcDbText
  0
TEXT
  5
244
100
AcDbEntity
  8
0
100
AcDbText
 62
2
  6
CONTINUOUS
 10
74.0625
 20
-6.0
  7
TEXTSTYLE_3
 40
2.75
  1
C341
 72
5
 11
82.9595588235
 21
-6.0
100
AcDbText
  0
TEXT
  5
245
100
AcDbEntity
  8
0
100
AcDbText
 62
2
  6
CONTINUOUS
 10
74.0625
 20
-12.875
  7
TEXTSTYLE_3
 40
2.75
  1
ORAC
 72
5
 11
84.1034663866
 21
-12.875
100
AcDbText
  0
TEXT
  5
246
100
AcDbEntity
  8
0
100
AcDbText
 62
2
  6
CONTINUOUS
 10
74.0625
 20
-19.75
  7
TEXTSTYLE_3
 40
2.75
  1
25-Aug-2014
 72
5
 11
96.7211134454
 21
-19.75
100
AcDbText
  0
TEXT
  5
247
100
AcDbEntity
  8
0
100
AcDbText
 62
2
  6
CONTINUOUS
 10
96.7211134454
 20
-19.75
  7
TEXTSTYLE_3
 40
2.75
  1
 
 72
5
 11
97.7032563025
 21
-19.75
100
AcDbText
  0
TEXT
  5
248
100
AcDbEntity
  8
0
100
AcDbText
 62
2
  6
CONTINUOUS
 10
146.5625
 20
-17.5
  7
TEXTSTYLE_3
 40
1.5
  1
Version: 
 50
90.0
 72
5
 11
146.5625
 21
-9.0294117647
100
AcDbText
  0
TEXT
  5
249
100
AcDbEntity
  8
0
100
AcDbText
 62
2
  6
CONTINUOUS
 10
146.5625
 20
-9.0294117647
  7
TEXTSTYLE_3
 40
1.5
  1
1.0
 50
90.0
 72
5
 11
146.5625
 21
-6.0357142857
100
AcDbText
  0
TEXT
  5
24A
100
AcDbEntity
  8
0
100
AcDbText
 62
2
  6
CONTINUOUS
 10
146.5625
 20
-6.0357142857
  7
TEXTSTYLE_3
 40
1.5
  1
 
 50
90.0
 72
5
 11
146.5625
 21
-5.5
100
AcDbText
  0
TEXT
  5
24B
100
AcDbEntity
  8
0
100
AcDbText
 62
7
  6
CONTINUOUS
 10
9.6586134454
 20
-24.25
  7
TEXTSTYLE_3
 40
2.5
  1
Biekorfstraat 32
 72
5
 11
35.3413865546
 21
-24.25
100
AcDbText
  0
TEXT
  5
24C
100
AcDbEntity
  8
0
100
AcDbText
 62
7
  6
CONTINUOUS
 10
2.2584033613
 20
-28.0
  7
TEXTSTYLE_3
 40
2.5
  1
8400 Oostende - Belgium
 72
5
 11
42.7415966387
 21
-28.0
100
AcDbText
  0
TEXT
  5
24D
100
AcDbEntity
  8
0
100
AcDbText
 62
7
  6
CONTINUOUS
 10
4.2699579832
 20
-31.75
  7
TEXTSTYLE_3
 40
2.5
  1
Tel  +32 (0)59 80 32 52
 72
5
 11
40.7300420168
 21
-31.75
100
AcDbText
  0
TEXT
  5
24E
100
AcDbEntity
  8
0
100
AcDbText
 62
7
  6
CONTINUOUS
 10
5.7405462185
 20
-35.5
  7
TEXTSTYLE_3
 40
2.5
  1
www.oracdecor.com
 72
5
 11
39.2594537815
 21
-35.5
100
AcDbText
  0
TEXT
  5
24F
100
AcDbEntity
  8
0
100
AcDbText
 62
7
  6
CONTINUOUS
 10
5.5777310924
 20
-39.25
  7
TEXTSTYLE_3
 40
2.5
  1
info@oracdecor.com
 72
5
 11
39.4222689076
 21
-39.25
100
AcDbText
  0
TEXT
  5
250
100
AcDbEntity
  8
0
100
AcDbText
 62
7
  6
CONTINUOUS
 10
46.0625
 20
-26.75
  7
TEXTSTYLE_3
 40
2.5
  1
All dimensions are in mm unless otherwise specified   
 72
5
 11
132.3019957983
 21
-26.75
100
AcDbText
  0
TEXT
  5
251
100
AcDbEntity
  8
0
100
AcDbText
 62
7
  6
CONTINUOUS
 10
46.0625
 20
-31.7075
  7
TEXTSTYLE_3
 40
1.85
  1
All information in this document is Orac's exclusive property.  It may in no case 
 72
5
 11
140.0471638655
 21
-31.7075
100
AcDbText
  0
TEXT
  5
252
100
AcDbEntity
  8
0
100
AcDbText
 62
7
  6
CONTINUOUS
 10
46.0625
 20
-34.8525
  7
TEXTSTYLE_3
 40
1.85
  1
be reproduced, even partly, be communicated to a third party or used for any 
 72
5
 11
138.8345588235
 21
-34.8525
100
AcDbText
  0
TEXT
  5
253
100
AcDbEntity
  8
0
100
AcDbText
 62
7
  6
CONTINUOUS
 10
46.0625
 20
-37.9975
  7
TEXTSTYLE_3
 40
1.85
  1
possible purpose without ORAC's express written permission. 
 72
5
 11
119.4484243697
 21
-37.9975
100
AcDbText
  0
TEXT
  5
254
100
AcDbEntity
  8
0
100
AcDbText
 62
7
  6
CONTINUOUS
 10
46.0625
 20
-41.1425
  7
TEXTSTYLE_3
 40
1.85
  1
Further legal information can be found at http://www.oracdecor.be/nl/disclaimer 
 72
5
 11
143.7316176471
 21
-41.1425
100
AcDbText
  0
ENDBLK
  5
255
100
AcDbEntity
  8
0
  6
BYBLOCK
 62
0
100
AcDbBlockEnd
  0
ENDSEC
  0
SECTION
  2
ENTITIES
  0
DIMENSION
  5
256
100
AcDbEntity
  8
0
100
AcDbDimension
 62
2
  6
CONTINUOUS
  2
*D0
 10
161.1202305261
 20
169.7125876297
 11
100.1202305257
 21
169.7125876297
 70
160
 71
2
 42
122.0000000008
  3
DIMSTYLE_1
100
AcDbAlignedDimension
 13
39.1202305252
 23
88.9351374534
 14
161.1202305261
 24
155.2457194149
100
AcDbRotatedDimension
  0
DIMENSION
  5
257
100
AcDbEntity
  8
0
100
AcDbDimension
 62
2
  6
CONTINUOUS
  2
*D1
 10
25.6872956424
 20
67.2417194148
 11
25.6872956424
 21
111.2437194149
 70
160
 71
2
 42
88.0040000001
  3
DIMSTYLE_2
100
AcDbAlignedDimension
 13
140.0229276598
 23
155.2457194149
 14
39.1202305252
 24
67.2417194148
 50
270.0
100
AcDbRotatedDimension
  0
DIMENSION
  5
258
100
AcDbEntity
  8
0
100
AcDbDimension
 62
2
  6
CONTINUOUS
  2
*D2
 10
49.023827908
 20
53.5123561961
 11
110.0238279084
 21
97.5143561961
 70
160
 71
2
 42
150.4284016276
  3
DIMSTYLE_2
100
AcDbAlignedDimension
 13
161.1202305261
 23
155.2457194149
 14
39.1202305252
 24
67.2417194148
 50
215.8045797413
100
AcDbRotatedDimension
  0
ACAD_TABLE
  5
259
100
AcDbEntity
  8
0
 62
2
  6
CONTINUOUS
100
AcDbBlockReference
  2
*T1
 10
143.9999958937
 20
47.9999925619
 30
0.0
100
AcDbTable
342
       2F6
343
211
 11
1.0
 21
0.0
 31
0.0
 90
22
 91
4
 92
4
 93
0
 94
0
 95
0
 96
0
141
18.0
141
5.0
141
5.0
141
15.0
142
45.0
142
28.0
142
70.0
142
5.0
171
1
172
0
173
0
174
0
175
1
176
1
 91
41
178
0
145
0.0
301
CELL_VALUE
 90
4
  1
O\H5.5;RAC\P\Ftrium.ttf;\H3.0;®\PD  E  C  O  R\Fcgtime.ttf;\H2.5; 
304
ACVALUE_END
170
5
140
8.0
 64
7
171
1
172
0
173
0
174
0
175
1
176
2
 91
41
178
0
145
0.0
301
CELL_VALUE
 90
4
  1
Part name:\PDesigned by:\PDesigned on:
304
ACVALUE_END
170
6
140
2.75
 64
7
171
1
172
0
173
0
174
0
175
1
176
2
 91
33
178
0
145
0.0
301
CELL_VALUE
 90
4
  1
C341\PORAC\P25-Aug-2014 
304
ACVALUE_END
170
4
140
2.75
171
1
172
0
173
0
174
0
175
1
176
2
 91
33
178
0
145
0.0
301
CELL_VALUE
 90
4
  1
Version: 1.0 
304
ACVALUE_END
170
6
140
1.5
171
1
172
0
173
0
174
0
175
1
176
3
 91
41
178
0
145
0.0
301
CELL_VALUE
 90
4
  1
Biekorfstraat 32\P8400 Oostende - Belgium\PTel  +32 (0)59 80 32 52\Pwww.oracdecor.com\Pinfo@oracdecor.com
304
ACVALUE_END
170
5
140
2.5
 64
7
171
1
172
0
173
1
174
0
175
1
176
1
 91
1
178
0
145
0.0
170
1
171
1
172
0
173
1
174
0
175
1
176
1
 91
1
178
0
145
0.0
170
1
171
1
172
0
173
1
174
0
175
1
176
1
 91
1
178
0
145
0.0
170
1
171
1
172
0
173
1
174
0
175
1
176
1
 91
1
178
0
145
0.0
170
1
171
1
172
0
173
0
174
0
175
3
176
1
 91
41
178
0
145
0.0
301
CELL_VALUE
 90
4
  1
All dimensions are in mm unless otherwise specified   
304
ACVALUE_END
170
1
140
2.5
 64
7
171
1
172
0
173
1
174
0
175
1
176
1
 91
1
178
0
145
0.0
170
1
171
1
172
0
173
1
174
0
175
1
176
1
 91
1
178
0
145
0.0
170
1
171
1
172
0
173
1
174
0
175
1
176
1
 91
1
178
0
145
0.0
170
1
171
1
172
0
173
0
174
0
175
3
176
1
 91
41
178
0
145
0.0
301
CELL_VALUE
 90
4
  2
All information in this document is Orac's exclusive property.  It may in no case \Pbe reproduced, even partly, be communicated to a third party or used for any \Ppossible purpose without ORAC's express written permission. \PFurther legal information
  1
 can be found at http://www.oracdecor.be/nl/disclaimer 
304
ACVALUE_END
170
4
140
1.85
 64
7
171
1
172
0
173
1
174
0
175
1
176
1
 91
1
178
0
145
0.0
170
1
171
1
172
0
173
1
174
0
175
1
176
1
 91
1
178
0
145
0.0
170
1
  0
LINE
  5
25A
100
AcDbEntity
  8
0
100
AcDbLine
 62
5
  6
CONTINUOUS
 10
0.0
 20
0.0
 11
0.0
 21
210.0
  0
LINE
  5
25B
100
AcDbEntity
  8
0
100
AcDbLine
 62
7
  6
CONTINUOUS
 10
5.0
 20
5.0
 11
5.0
 21
195.0
  0
LINE
  5
25C
100
AcDbEntity
  8
0
100
AcDbLine
 62
5
  6
CONTINUOUS
 10
0.0
 20
0.0
 11
297.0
 21
0.0
  0
LINE
  5
25D
100
AcDbEntity
  8
0
100
AcDbLine
 62
7
  6
CONTINUOUS
 10
5.0
 20
5.0
 11
292.0
 21
5.0
  0
LINE
  5
25E
100
AcDbEntity
  8
0
100
AcDbLine
 62
4
  6
CONTINUOUS
 10
148.5
 20
195.0
 11
148.5
 21
205.0
  0
LINE
  5
25F
100
AcDbEntity
  8
0
100
AcDbLine
 62
7
  6
CONTINUOUS
 10
5.0
 20
195.0
 11
292.0
 21
195.0
  0
LINE
  5
260
100
AcDbEntity
  8
0
100
AcDbLine
 62
5
  6
CONTINUOUS
 10
0.0
 20
210.0
 11
297.0
 21
210.0
  0
LINE
  5
261
100
AcDbEntity
  8
0
100
AcDbLine
 62
7
  6
CONTINUOUS
 10
292.0
 20
5.0
 11
292.0
 21
195.0
  0
LINE
  5
262
100
AcDbEntity
  8
0
100
AcDbLine
 62
5
  6
CONTINUOUS
 10
297.0
 20
0.0
 11
297.0
 21
210.0
  0
LINE
  5
263
100
AcDbEntity
  8
0
100
AcDbLine
 62
7
  6
CONTINUOUS
 10
190.7543266204
 20
90.9753821064
 11
190.7903656126
 21
95.9732245614
  0
LINE
  5
264
100
AcDbEntity
  8
0
100
AcDbLine
 62
7
  6
CONTINUOUS
 10
190.8092142575
 20
98.5871311211
 11
190.8325075126
 21
101.8174106732
  0
LINE
  5
265
100
AcDbEntity
  8
0
100
AcDbLine
 62
7
  6
CONTINUOUS
 10
191.4571702054
 20
119.1321647206
 11
191.4299410672
 21
115.3560618201
  0
LINE
  5
266
100
AcDbEntity
  8
0
100
AcDbLine
 62
7
  6
CONTINUOUS
 10
210.0283991443
 20
134.8378094458
 11
209.8632863212
 21
134.7238182024
  0
LINE
  5
267
100
AcDbEntity
  8
0
100
AcDbLine
 62
7
  6
CONTINUOUS
 10
197.5297356043
 20
102.4134126726
 11
197.8076262104
 21
103.2768539397
  0
LINE
  5
268
100
AcDbEntity
  8
0
100
AcDbLine
 62
7
  6
CONTINUOUS
 10
220.3793919155
 20
62.297746892
 11
190.7543266204
 21
90.9753821064
  0
LINE
  5
269
100
AcDbEntity
  8
0
100
AcDbLine
 62
7
  6
CONTINUOUS
 10
193.1353232387
 20
91.1014292644
 11
222.7603885337
 21
62.4237940499
  0
LINE
  5
26A
100
AcDbEntity
  8
0
100
AcDbLine
 62
7
  6
CONTINUOUS
 10
222.9808254937
 20
62.6432320869
 11
193.3557601986
 21
91.3208673013
  0
LINE
  5
26B
100
AcDbEntity
  8
0
100
AcDbLine
 62
7
  6
CONTINUOUS
 10
191.9226026628
 20
97.5162970098
 11
190.8092142575
 21
98.5871311211
  0
LINE
  5
26C
100
AcDbEntity
  8
0
100
AcDbLine
 62
7
  6
CONTINUOUS
 10
191.9170304754
 20
97.5147436322
 11
190.8092142575
 21
98.5871311211
  0
LINE
  5
26D
100
AcDbEntity
  8
0
100
AcDbLine
 62
7
  6
CONTINUOUS
 10
227.1666604321
 20
73.6855087808
 11
197.541595137
 21
102.3631439952
  0
LINE
  5
26E
100
AcDbEntity
  8
0
100
AcDbLine
 62
7
  6
CONTINUOUS
 10
197.5297356043
 20
102.4134126726
 11
227.1548008993
 21
73.7357774582
  0
LINE
  5
26F
100
AcDbEntity
  8
0
100
AcDbLine
 62
7
  6
CONTINUOUS
 10
197.8076262104
 20
103.2768539397
 11
227.4326915054
 21
74.5992187253
  0
LINE
  5
270
100
AcDbEntity
  8
0
100
AcDbLine
 62
7
  6
CONTINUOUS
 10
227.47396733
 20
74.6335187533
 11
197.8489020349
 21
103.3111539677
  0
LINE
  5
271
100
AcDbEntity
  8
0
100
AcDbLine
 62
7
  6
CONTINUOUS
 10
200.0566314506
 20
103.5008558633
 11
229.6816967456
 21
74.8232206489
  0
LINE
  5
272
100
AcDbEntity
  8
0
100
AcDbLine
 62
7
  6
CONTINUOUS
 10
229.9134320904
 20
75.0089477911
 11
200.2883667954
 21
103.6865830055
  0
LINE
  5
273
100
AcDbEntity
  8
0
100
AcDbLine
 62
7
  6
CONTINUOUS
 10
200.8760119396
 20
106.1176088487
 11
230.5010772346
 21
77.4399736343
  0
LINE
  5
274
100
AcDbEntity
  8
0
100
AcDbLine
 62
7
  6
CONTINUOUS
 10
200.8109502426
 20
106.345087223
 11
230.4360155377
 21
77.6674520086
  0
LINE
  5
275
100
AcDbEntity
  8
0
100
AcDbLine
 62
7
  6
CONTINUOUS
 10
227.1548008993
 20
73.7357774582
 11
227.4326915054
 21
74.5992187253
  0
LINE
  5
276
100
AcDbEntity
  8
0
100
AcDbLine
 62
7
  6
CONTINUOUS
 10
190.7903656126
 20
95.9732245614
 11
191.2901331593
 21
95.9700455278
  0
LINE
  5
277
100
AcDbEntity
  8
0
100
AcDbLine
 62
7
  6
CONTINUOUS
 10
247.0980380342
 20
133.602394222
 11
247.1052458327
 21
134.601962713
  0
LINE
  5
278
100
AcDbEntity
  8
0
100
AcDbLine
 62
7
  6
CONTINUOUS
 10
251.8537971443
 20
132.3948234099
 11
252.0431248711
 21
134.5705527431
  0
LINE
  5
279
100
AcDbEntity
  8
0
100
AcDbLine
 62
7
  6
CONTINUOUS
 10
241.4424897336
 20
133.7760032013
 11
242.3316166117
 21
130.7626448462
  0
LINE
  5
27A
100
AcDbEntity
  8
0
100
AcDbLine
 62
7
  6
CONTINUOUS
 10
265.2010953321
 20
97.2558490532
 11
235.576030037
 21
125.9334842676
  0
LINE
  5
27B
100
AcDbEntity
  8
0
100
AcDbLine
 62
7
  6
CONTINUOUS
 10
235.8276796361
 20
125.8912069298
 11
265.4527449312
 21
97.2135717154
  0
LINE
  5
27C
100
AcDbEntity
  8
0
100
AcDbLine
 62
7
  6
CONTINUOUS
 10
224.3018386816
 20
134.7212457654
 11
224.265224069
 21
134.7472486527
  0
LINE
  5
27D
100
AcDbEntity
  8
0
100
AcDbLine
 62
7
  6
CONTINUOUS
 10
266.9915294208
 20
97.785378691
 11
237.3664641258
 21
126.4630139054
  0
LINE
  5
27E
100
AcDbEntity
  8
0
100
AcDbLine
 62
7
  6
CONTINUOUS
 10
237.4160493862
 20
126.4533744935
 11
267.0411146812
 21
97.7757392791
  0
LINE
  5
27F
100
AcDbEntity
  8
0
100
AcDbLine
 62
7
  6
CONTINUOUS
 10
240.8496771202
 20
129.6268559624
 11
239.7636589544
 21
130.2931374828
  0
LINE
  5
280
100
AcDbEntity
  8
0
100
AcDbLine
 62
7
  6
CONTINUOUS
 10
243.845211417
 20
134.6226998721
 11
245.5745764765
 21
132.9594457154
  0
LINE
  5
281
100
AcDbEntity
  8
0
100
AcDbLine
 62
7
  6
CONTINUOUS
 10
276.7494486833
 20
99.9818244122
 11
247.1243833883
 21
128.6594596266
  0
LINE
  5
282
100
AcDbEntity
  8
0
100
AcDbLine
 62
7
  6
CONTINUOUS
 10
276.8825792243
 20
100.3995840021
 11
247.2575139292
 21
129.0772192165
  0
LINE
  5
283
100
AcDbEntity
  8
0
100
AcDbLine
 62
7
  6
CONTINUOUS
 10
278.1206002521
 20
100.633992516
 11
248.495534957
 21
129.3116277304
  0
LINE
  5
284
100
AcDbEntity
  8
0
100
AcDbLine
 62
7
  6
CONTINUOUS
 10
248.6985345853
 20
129.5901732784
 11
278.3235998804
 21
100.912538064
  0
LINE
  5
285
100
AcDbEntity
  8
0
100
AcDbLine
 62
7
  6
CONTINUOUS
 10
281.2256947811
 20
103.4887773111
 11
251.6006294861
 21
132.1664125255
  0
LINE
  5
286
100
AcDbEntity
  8
0
100
AcDbLine
 62
7
  6
CONTINUOUS
 10
251.8537971443
 20
132.3948234099
 11
281.4788624394
 21
103.7171881955
  0
LINE
  5
287
100
AcDbEntity
  8
0
100
AcDbLine
 62
7
  6
CONTINUOUS
 10
210.0283991443
 20
134.8378094458
 11
224.265224069
 21
134.7472486527
  0
LINE
  5
288
100
AcDbEntity
  8
0
100
AcDbLine
 62
7
  6
CONTINUOUS
 10
241.4993775745
 20
134.6376217788
 11
243.845211417
 21
134.6226998721
  0
LINE
  5
289
100
AcDbEntity
  8
0
100
AcDbLine
 62
7
  6
CONTINUOUS
 10
247.1052458327
 20
134.601962713
 11
252.0431248711
 21
134.5705527431
  0
LINE
  5
28A
100
AcDbEntity
  8
0
100
AcDbLine
 62
7
  6
CONTINUOUS
 10
281.6681901662
 20
105.8929175287
 11
252.0431248711
 21
134.5705527431
  0
LINE
  5
28B
100
AcDbEntity
  8
0
100
AcDbLine
 62
7
  6
CONTINUOUS
 10
281.4788624394
 20
103.7171881955
 11
281.6681901662
 21
105.8929175287
  0
LINE
  5
28C
100
AcDbEntity
  8
0
100
AcDbLine
 62
7
  6
CONTINUOUS
 10
39.1202305252
 20
67.2417194148
 11
39.1202305252
 21
77.2417194148
  0
LINE
  5
28D
100
AcDbEntity
  8
0
100
AcDbLine
 62
7
  6
CONTINUOUS
 10
39.1202305252
 20
82.4717893564
 11
39.1202305252
 21
88.9351374534
  0
LINE
  5
28E
100
AcDbEntity
  8
0
100
AcDbLine
 62
7
  6
CONTINUOUS
 10
40.1202647178
 20
123.5859559726
 11
40.1202647178
 21
116.0304899201
  0
LINE
  5
28F
100
AcDbEntity
  8
0
100
AcDbLine
 62
7
  6
CONTINUOUS
 10
41.3591546417
 20
80.3475015688
 11
39.1202305252
 21
82.4717893564
  0
LINE
  5
290
100
AcDbEntity
  8
0
100
AcDbLine
 62
7
  6
CONTINUOUS
 10
77.0516950642
 20
155.2457194149
 11
76.7229756264
 21
155.0155475866
  0
LINE
  5
291
100
AcDbEntity
  8
0
100
AcDbLine
 62
7
  6
CONTINUOUS
 10
52.5117030926
 20
90.2128366746
 11
53.0552596926
 21
91.9439221572
  0
LINE
  5
292
100
AcDbEntity
  8
0
100
AcDbLine
 62
7
  6
CONTINUOUS
 10
39.1202305252
 20
77.2417194148
 11
40.1202305252
 21
77.2417194148
  0
LINE
  5
293
100
AcDbEntity
  8
0
100
AcDbLine
 62
7
  6
CONTINUOUS
 10
105.6122237472
 20
155.1941595686
 11
105.5385886555
 21
155.2457194149
  0
LINE
  5
294
100
AcDbEntity
  8
0
100
AcDbLine
 62
7
  6
CONTINUOUS
 10
77.0516950642
 20
155.2457194149
 11
105.5385886555
 21
155.2457194149
  0
LINE
  5
295
100
AcDbEntity
  8
0
100
AcDbLine
 62
7
  6
CONTINUOUS
 10
140.0229276598
 20
155.2457194149
 11
144.7167775461
 21
155.2457194149
  0
LINE
  5
296
100
AcDbEntity
  8
0
100
AcDbLine
 62
7
  6
CONTINUOUS
 10
151.2398790096
 20
155.2457194149
 11
161.1202305261
 21
155.2457194149
  0
LINE
  5
297
100
AcDbEntity
  8
0
100
AcDbLine
 62
7
  6
CONTINUOUS
 10
138.7952766555
 20
145.2120526771
 11
136.6127167104
 21
146.5313081255
  0
LINE
  5
298
100
AcDbEntity
  8
0
100
AcDbLine
 62
7
  6
CONTINUOUS
 10
139.9215355968
 20
153.5210934108
 11
141.7440111896
 21
147.5033674201
  0
LINE
  5
299
100
AcDbEntity
  8
0
100
AcDbLine
 62
7
  6
CONTINUOUS
 10
151.2398790096
 20
153.2457194149
 11
151.2398790096
 21
155.2457194149
  0
LINE
  5
29A
100
AcDbEntity
  8
0
100
AcDbLine
 62
7
  6
CONTINUOUS
 10
160.7728074586
 20
150.8901723515
 11
161.1202305261
 21
155.2457194149
  0
LINE
  5
29B
100
AcDbEntity
  8
0
100
AcDbLine
 62
7
  6
CONTINUOUS
 10
144.7167775461
 20
155.2457194149
 11
148.2009548931
 21
151.939937261
  0
ARC
  5
29C
100
AcDbEntity
  8
0
100
AcDbCircle
 62
7
  6
CONTINUOUS
 10
296.455065391
 20
0.4145686061
 40
101.8827047097
100
AcDbArc
 50
100.3672325887
 51
101.0758329686
  0
ARC
  5
29D
100
AcDbEntity
  8
0
100
AcDbCircle
 62
7
  6
CONTINUOUS
 10
266.8300000958
 20
29.0922038214
 40
101.8827047088
100
AcDbArc
 50
100.3672325887
 51
101.0758329686
  0
ARC
  5
29E
100
AcDbEntity
  8
0
100
AcDbCircle
 62
7
  6
CONTINUOUS
 10
176.1379750809
 20
89.2944780669
 40
55.6405981192
100
AcDbArc
 50
345.122891346
 51
347.698569761
  0
ARC
  5
29F
100
AcDbEntity
  8
0
100
AcDbCircle
 62
7
  6
CONTINUOUS
 10
146.512909786
 20
117.9721132813
 40
55.6405981191
100
AcDbArc
 50
345.122891346
 51
347.698569761
  0
ARC
  5
2A0
100
AcDbEntity
  8
0
100
AcDbCircle
 62
7
  6
CONTINUOUS
 10
220.5064650914
 20
82.4485827342
 40
20.1512365063
100
AcDbArc
 50
269.6386919026
 51
276.4219928287
  0
ARC
  5
2A1
100
AcDbEntity
  8
0
100
AcDbCircle
 62
7
  6
CONTINUOUS
 10
190.8813997963
 20
111.1262179486
 40
20.1512365063
100
AcDbArc
 50
269.6386919026
 51
276.4219928287
  0
ARC
  5
2A2
100
AcDbEntity
  8
0
100
AcDbCircle
 62
7
  6
CONTINUOUS
 10
201.4581893499
 20
119.0597174456
 40
10.0012815447
100
AcDbArc
 50
156.1598954402
 51
179.5849572497
  0
ARC
  5
2A3
100
AcDbEntity
  8
0
100
AcDbCircle
 62
7
  6
CONTINUOUS
 10
201.4220128327
 20
115.2838012885
 40
9.9923330484
100
AcDbArc
 50
179.5856563676
 51
198.2346489008
  0
ARC
  5
2A4
100
AcDbEntity
  8
0
100
AcDbCircle
 62
7
  6
CONTINUOUS
 10
186.9706396672
 20
107.1028893088
 40
6.5004219235
100
AcDbArc
 50
309.9296708237
 51
25.3876513963
  0
ARC
  5
2A5
100
AcDbEntity
  8
0
100
AcDbCircle
 62
7
  6
CONTINUOUS
 10
237.3622897195
 20
135.9589194649
 40
4.9949614839
100
AcDbArc
 50
244.0427668186
 51
270.1486340907
  0
ARC
  5
2A6
100
AcDbEntity
  8
0
100
AcDbCircle
 62
7
  6
CONTINUOUS
 10
237.3871131828
 20
126.4190190666
 40
4.5449712109
100
AcDbArc
 50
58.4733114016
 51
90.1495850462
  0
ARC
  5
2A7
100
AcDbEntity
  8
0
100
AcDbCircle
 62
7
  6
CONTINUOUS
 10
193.0735228308
 20
99.8133117047
 40
3.0064201855
100
AcDbArc
 50
129.9506188769
 51
138.1943168451
  0
ARC
  5
2A8
100
AcDbEntity
  8
0
100
AcDbCircle
 62
7
  6
CONTINUOUS
 10
208.726483376
 20
136.3703503468
 40
2.0008470803
100
AcDbArc
 50
279.7681792384
 51
304.6220744155
  0
ARC
  5
2A9
100
AcDbEntity
  8
0
100
AcDbCircle
 62
7
  6
CONTINUOUS
 10
225.4583025726
 20
136.3497645719
 40
1.9973688279
100
AcDbArc
 50
234.6202067643
 51
261.0895524528
  0
ARC
  5
2AA
100
AcDbEntity
  8
0
100
AcDbCircle
 62
7
  6
CONTINUOUS
 10
242.6411556889
 20
134.1295492941
 40
1.249717933
100
AcDbArc
 50
156.0117224683
 51
196.4334048106
  0
ARC
  5
2AB
100
AcDbEntity
  8
0
100
AcDbCircle
 62
7
  6
CONTINUOUS
 10
241.3721278608
 20
130.4797888725
 40
1.0003012494
100
AcDbArc
 50
238.5110977614
 51
16.425444916
  0
ARC
  5
2AC
100
AcDbEntity
  8
0
100
AcDbCircle
 62
7
  6
CONTINUOUS
 10
191.2960365245
 20
96.8702147699
 40
0.9001181652
100
AcDbArc
 50
269.624256144
 51
45.8785637446
  0
ARC
  5
2AD
100
AcDbEntity
  8
0
100
AcDbCircle
 62
7
  6
CONTINUOUS
 10
246.1978798347
 20
133.6086689414
 40
0.9001083692
100
AcDbArc
 50
226.1668861921
 51
359.6006156285
  0
ARC
  5
2AE
100
AcDbEntity
  8
0
100
AcDbCircle
 62
7
  6
CONTINUOUS
 10
222.7323636175
 20
62.6723857744
 40
0.2501664274
100
AcDbArc
 50
276.4320662683
 51
353.3077053731
  0
ARC
  5
2AF
100
AcDbEntity
  8
0
100
AcDbCircle
 62
7
  6
CONTINUOUS
 10
193.1072983224
 20
91.3500209888
 40
0.2501664274
100
AcDbArc
 50
276.4320662683
 51
353.3077053731
  0
ARC
  5
2B0
100
AcDbEntity
  8
0
100
AcDbCircle
 62
7
  6
CONTINUOUS
 10
229.6716569404
 20
75.073181501
 40
0.2501623979
100
AcDbArc
 50
272.3000778834
 51
345.1196341234
  0
ARC
  5
2B1
100
AcDbEntity
  8
0
100
AcDbCircle
 62
7
  6
CONTINUOUS
 10
200.0465916453
 20
103.7508167154
 40
0.2501623979
100
AcDbArc
 50
272.3000778834
 51
345.1196341234
  0
ARC
  5
2B2
100
AcDbEntity
  8
0
100
AcDbCircle
 62
7
  6
CONTINUOUS
 10
281.2296530886
 20
103.7388973098
 40
0.2501532529
100
AcDbArc
 50
269.0933336598
 51
355.0214204423
  0
ARC
  5
2B3
100
AcDbEntity
  8
0
100
AcDbCircle
 62
7
  6
CONTINUOUS
 10
251.6045877936
 20
132.4165325242
 40
0.2501532529
100
AcDbArc
 50
269.0933336597
 51
355.0214204424
  0
ARC
  5
2B4
100
AcDbEntity
  8
0
100
AcDbCircle
 62
7
  6
CONTINUOUS
 10
278.0755785828
 20
100.8800510984
 40
0.2501421978
100
AcDbArc
 50
280.368501232
 51
7.4623799093
  0
ARC
  5
2B5
100
AcDbEntity
  8
0
100
AcDbCircle
 62
7
  6
CONTINUOUS
 10
248.4505132878
 20
129.5576863128
 40
0.2501421978
100
AcDbArc
 50
280.3685012309
 51
7.4623799105
  0
ARC
  5
2B6
100
AcDbEntity
  8
0
100
AcDbCircle
 62
7
  6
CONTINUOUS
 10
276.9305308608
 20
100.1541932284
 40
0.2500196179
100
AcDbArc
 50
101.0570636407
 51
223.5878163011
  0
ARC
  5
2B7
100
AcDbEntity
  8
0
100
AcDbCircle
 62
7
  6
CONTINUOUS
 10
247.3054655658
 20
128.8318284428
 40
0.2500196179
100
AcDbArc
 50
101.0570636407
 51
223.5878163011
  0
ARC
  5
2B8
100
AcDbEntity
  8
0
100
AcDbCircle
 62
7
  6
CONTINUOUS
 10
265.3624992739
 20
97.4464899655
 40
0.2497902918
100
AcDbArc
 50
229.747462144
 51
291.1791755083
  0
ARC
  5
2B9
100
AcDbEntity
  8
0
100
AcDbCircle
 62
7
  6
CONTINUOUS
 10
235.7374339788
 20
126.1241251799
 40
0.2497902918
100
AcDbArc
 50
229.747462144
 51
291.1791755083
  0
ARC
  5
2BA
100
AcDbEntity
  8
0
100
AcDbCircle
 62
7
  6
CONTINUOUS
 10
230.2570784475
 20
77.4932302354
 40
0.2497432852
100
AcDbArc
 50
347.689572876
 51
44.2350419764
  0
ARC
  5
2BB
100
AcDbEntity
  8
0
100
AcDbCircle
 62
7
  6
CONTINUOUS
 10
200.6320131524
 20
106.1708654498
 40
0.2497432852
100
AcDbArc
 50
347.689572876
 51
44.2350419764
  0
ARC
  5
2BC
100
AcDbEntity
  8
0
100
AcDbCircle
 62
7
  6
CONTINUOUS
 10
227.4803224905
 20
74.583885928
 40
0.0500380397
100
AcDbArc
 50
97.2966483456
 51
162.1562152605
  0
ARC
  5
2BD
100
AcDbEntity
  8
0
100
AcDbCircle
 62
7
  6
CONTINUOUS
 10
197.8552571955
 20
103.2615211424
 40
0.0500380397
100
AcDbArc
 50
97.2966483456
 51
162.1562152606
  0
ARC
  5
2BE
100
AcDbEntity
  8
0
100
AcDbCircle
 62
7
  6
CONTINUOUS
 10
267.0080973157
 20
97.7382508391
 40
0.0499552756
100
AcDbArc
 50
48.628511622
 51
109.3692312873
  0
ARC
  5
2BF
100
AcDbEntity
  8
0
100
AcDbCircle
 62
7
  6
CONTINUOUS
 10
237.3830320207
 20
126.4158860535
 40
0.0499552756
100
AcDbArc
 50
48.628511622
 51
109.3692312876
  0
ARC
  5
2C0
100
AcDbEntity
  8
0
100
AcDbCircle
 62
7
  6
CONTINUOUS
 10
227.2023498615
 20
73.7204620413
 40
0.0499546374
100
AcDbArc
 50
162.1463636876
 51
224.4029411571
  0
ARC
  5
2C1
100
AcDbEntity
  8
0
100
AcDbCircle
 62
7
  6
CONTINUOUS
 10
197.5772845664
 20
102.3980972558
 40
0.0499546374
100
AcDbArc
 50
162.1463636878
 51
224.4029411569
  0
ARC
  5
2C2
100
AcDbEntity
  8
0
100
AcDbCircle
 62
7
  6
CONTINUOUS
 10
192.0451432303
 20
-55.5197785262
 40
203.7631092205
100
AcDbArc
 50
100.7329643195
 51
101.4417732479
  0
ARC
  5
2C3
100
AcDbEntity
  8
0
100
AcDbCircle
 62
7
  6
CONTINUOUS
 10
-49.7041792557
 20
120.5880033221
 40
111.2448078737
100
AcDbArc
 50
345.5323020707
 51
348.1093876107
  0
ARC
  5
2C4
100
AcDbEntity
  8
0
100
AcDbCircle
 62
7
  6
CONTINUOUS
 10
39.1202305252
 20
107.5222959142
 40
40.2805764994
100
AcDbArc
 50
270.0
 51
276.7896731687
  0
ARC
  5
2C5
100
AcDbEntity
  8
0
100
AcDbCircle
 62
7
  6
CONTINUOUS
 10
60.1202647178
 20
116.0304899201
 40
20.0
100
AcDbArc
 50
180.0
 51
198.6447690431
  0
ARC
  5
2C6
100
AcDbEntity
  8
0
100
AcDbCircle
 62
7
  6
CONTINUOUS
 10
60.1202647178
 20
123.5859559726
 40
20.0
100
AcDbArc
 50
156.5662316712
 51
180.0
  0
ARC
  5
2C7
100
AcDbEntity
  8
0
100
AcDbCircle
 62
7
  6
CONTINUOUS
 10
31.3238919149
 20
99.4509868936
 40
13.0
100
AcDbArc
 50
310.3289998916
 51
25.8134726067
  0
ARC
  5
2C8
100
AcDbEntity
  8
0
100
AcDbCircle
 62
7
  6
CONTINUOUS
 10
131.735072468
 20
157.842705851
 40
10.0
100
AcDbArc
 50
244.4151032365
 51
270.5107401029
  0
ARC
  5
2C9
100
AcDbEntity
  8
0
100
AcDbCircle
 62
7
  6
CONTINUOUS
 10
131.9053294548
 20
138.7434646996
 40
9.1
100
AcDbArc
 50
58.849
 51
90.5107401029
  0
ARC
  5
2CA
100
AcDbEntity
  8
0
100
AcDbCircle
 62
7
  6
CONTINUOUS
 10
43.6202305252
 20
84.9665104868
 40
6.0
100
AcDbArc
 50
130.3289998917
 51
138.5903778907
  0
ARC
  5
2CB
100
AcDbEntity
  8
0
100
AcDbCircle
 62
7
  6
CONTINUOUS
 10
74.428669881
 20
158.2921557637
 40
4.0
100
AcDbArc
 50
280.1319249467
 51
305.0
  0
ARC
  5
2CC
100
AcDbEntity
  8
0
100
AcDbCircle
 62
7
  6
CONTINUOUS
 10
107.9065294926
 20
158.4707677458
 40
4.0
100
AcDbArc
 50
235.0
 51
261.4536056393
  0
ARC
  5
2CD
100
AcDbEntity
  8
0
100
AcDbCircle
 62
7
  6
CONTINUOUS
 10
142.3142155073
 20
154.2457194149
 40
2.5
100
AcDbArc
 50
156.4218215218
 51
196.849
  0
ARC
  5
2CE
100
AcDbEntity
  8
0
100
AcDbCircle
 62
7
  6
CONTINUOUS
 10
139.8298672612
 20
146.9236666168
 40
2.0
100
AcDbArc
 50
238.849
 51
16.849
  0
ARC
  5
2CF
100
AcDbEntity
  8
0
100
AcDbCircle
 62
7
  6
CONTINUOUS
 10
149.4398790096
 20
153.2457194149
 40
1.8
100
AcDbArc
 50
226.5050076126
 51
360.0
  0
ARC
  5
2D0
100
AcDbEntity
  8
0
100
AcDbCircle
 62
7
  6
CONTINUOUS
 10
40.1202305252
 20
79.0417194148
 40
1.8
100
AcDbArc
 50
270.0
 51
46.5050076126
  0
ARC
  5
2D1
100
AcDbEntity
  8
0
100
AcDbCircle
 62
7
  6
CONTINUOUS
 10
160.2743905482
 20
150.9299289032
 40
0.5
100
AcDbArc
 50
269.4459185073
 51
355.4394205416
  0
ARC
  5
2D2
100
AcDbEntity
  8
0
100
AcDbCircle
 62
7
  6
CONTINUOUS
 10
154.0048352658
 20
145.1699143923
 40
0.5
100
AcDbArc
 50
280.7326741662
 51
7.8900986528
  0
ARC
  5
2D3
100
AcDbEntity
  8
0
100
AcDbCircle
 62
7
  6
CONTINUOUS
 10
58.6643481816
 20
97.7696968267
 40
0.5
100
AcDbArc
 50
348.1115602094
 51
44.6331706849
  0
ARC
  5
2D4
100
AcDbEntity
  8
0
100
AcDbCircle
 62
7
  6
CONTINUOUS
 10
57.528766687
 20
92.9201852918
 40
0.5
100
AcDbArc
 50
272.6545851235
 51
345.5303228255
  0
ARC
  5
2D5
100
AcDbEntity
  8
0
100
AcDbCircle
 62
7
  6
CONTINUOUS
 10
151.7234390793
 20
143.7038441453
 40
0.5
100
AcDbArc
 50
101.4420376057
 51
224.0228633255
  0
ARC
  5
2D6
100
AcDbEntity
  8
0
100
AcDbCircle
 62
7
  6
CONTINUOUS
 10
128.6174229324
 20
138.1390499248
 40
0.5
100
AcDbArc
 50
230.1224097658
 51
291.5363118228
  0
ARC
  5
2D7
100
AcDbEntity
  8
0
100
AcDbCircle
 62
7
  6
CONTINUOUS
 10
43.8232890647
 20
68.02070725
 40
0.5
100
AcDbArc
 50
276.7896731687
 51
353.7258961075
  0
ARC
  5
2D8
100
AcDbEntity
  8
0
100
AcDbCircle
 62
7
  6
CONTINUOUS
 10
131.9053294548
 20
138.7434646996
 40
0.1
100
AcDbArc
 50
49.0050076126
 51
109.7257694061
  0
ARC
  5
2D9
100
AcDbEntity
  8
0
100
AcDbCircle
 62
7
  6
CONTINUOUS
 10
53.1506669249
 20
91.91396452
 40
0.1
100
AcDbArc
 50
97.6521488174
 51
162.5678391885
  0
ARC
  5
2DA
100
AcDbEntity
  8
0
100
AcDbCircle
 62
7
  6
CONTINUOUS
 10
52.6071103249
 20
90.1828790374
 40
0.1
100
AcDbArc
 50
162.5678391878
 51
224.8033503542
  0
SPLINE
  5
2DB
100
AcDbEntity
  8
0
100
AcDbSpline
 62
7
  6
CONTINUOUS
 70
0
 71
3
 72
15
 73
11
 74
0
 42
0.0000001
 43
0.0000001
 44
0.0000000001
 40
0.0
 40
0.0
 40
0.0
 40
0.0
 40
0.1191435437
 40
0.2290509778
 40
0.3329215914
 40
0.4363980496
 40
0.5471234703
 40
0.6732774523
 40
0.8222098005
 40
1.0
 40
1.0
 40
1.0
 40
1.0
 10
278.3235998804
 20
100.912538064
 30
0.0
 10
278.2999557778
 20
101.0926779943
 30
0.0
 10
278.2779142759
 20
101.4430043317
 30
0.0
 10
278.3397521782
 20
101.9505056127
 30
0.0
 10
278.5107671223
 20
102.4089387942
 30
0.0
 10
278.8038204184
 20
102.803975056
 30
0.0
 10
279.2244767288
 20
103.1190644741
 30
0.0
 10
279.7734472842
 20
103.3442427408
 30
0.0
 10
280.4550369744
 20
103.4747610372
 30
0.0
 10
280.9546128594
 20
103.4931236526
 30
0.0
 10
281.2256947811
 20
103.4887773111
 30
0.0
  0
SPLINE
  5
2DC
100
AcDbEntity
  8
0
100
AcDbSpline
 62
7
  6
CONTINUOUS
 70
0
 71
3
 72
25
 73
21
 74
0
 42
0.0000001
 43
0.0000001
 44
0.0000000001
 40
0.0
 40
0.0
 40
0.0
 40
0.0
 40
0.1595708292
 40
0.2342712972
 40
0.3048707155
 40
0.3711221884
 40
0.4331219929
 40
0.4914653099
 40
0.5196686557
 40
0.5474951796
 40
0.6022790035
 40
0.6557139889
 40
0.7075393967
 40
0.7581096468
 40
0.7834198849
 40
0.8091194229
 40
0.8356438631
 40
0.8635135676
 40
0.9254708052
 40
1.0
 40
1.0
 40
1.0
 40
1.0
 10
267.0411146812
 20
97.7757392791
 30
0.0
 10
267.7019432218
 20
97.1935194129
 30
0.0
 10
268.7143443933
 20
96.382655351
 30
0.0
 10
270.1313537589
 20
95.4726205948
 30
0.0
 10
271.1646014064
 20
94.9252022443
 30
0.0
 10
272.1843515289
 20
94.5129055579
 30
0.0
 10
273.183908348
 20
94.251352836
 30
0.0
 10
274.0048657289
 20
94.1728531356
 30
0.0
 10
274.6363213805
 20
94.2059795066
 30
0.0
 10
275.2412820494
 20
94.3025330558
 30
0.0
 10
275.9601906958
 20
94.5398498713
 30
0.0
 10
276.727164524
 20
94.9919396385
 30
0.0
 10
277.3555476793
 20
95.5912437909
 30
0.0
 10
277.7269726181
 20
96.2024307264
 30
0.0
 10
277.9038526026
 20
96.7365571143
 30
0.0
 10
277.9731618995
 20
97.1607566347
 30
0.0
 10
277.9728188363
 20
97.6047769555
 30
0.0
 10
277.8687211454
 20
98.2411129972
 30
0.0
 10
277.5059457539
 20
99.0877787209
 30
0.0
 10
277.0332913181
 20
99.6840945575
 30
0.0
 10
276.7494486833
 20
99.9818244122
 30
0.0
  0
SPLINE
  5
2DD
100
AcDbEntity
  8
0
100
AcDbSpline
 62
7
  6
CONTINUOUS
 70
0
 71
3
 72
9
 73
5
 74
0
 42
0.0000001
 43
0.0000001
 44
0.0000000001
 40
0.0
 40
0.0
 40
0.0
 40
0.0
 40
0.5099785175
 40
1.0
 40
1.0
 40
1.0
 40
1.0
 10
265.4527449312
 20
97.2135717154
 30
0.0
 10
265.712984487
 20
97.3143346586
 30
0.0
 10
266.2246408368
 20
97.5083897881
 30
0.0
 10
266.7385411823
 20
97.6965034267
 30
0.0
 10
266.9915294208
 20
97.785378691
 30
0.0
  0
SPLINE
  5
2DE
100
AcDbEntity
  8
0
100
AcDbSpline
 62
7
  6
CONTINUOUS
 70
0
 71
3
 72
37
 73
33
 74
0
 42
0.0000001
 43
0.0000001
 44
0.0000000001
 40
0.0
 40
0.0
 40
0.0
 40
0.0
 40
0.052597451
 40
0.1039518476
 40
0.1534281618
 40
0.1775189793
 40
0.2013099551
 40
0.2250260038
 40
0.2489893148
 40
0.2736144576
 40
0.299355734
 40
0.3264510423
 40
0.3550099647
 40
0.3851270206
 40
0.4168991218
 40
0.4504386245
 40
0.4679191972
 40
0.4858833531
 40
0.5231763088
 40
0.5620885502
 40
0.6022837789
 40
0.6433630867
 40
0.6848856203
 40
0.7263829057
 40
0.7673693833
 40
0.8073509592
 40
0.8458330485
 40
0.8823296586
 40
0.9163757001
 40
0.9475463665
 40
0.9754912889
 40
1.0
 40
1.0
 40
1.0
 40
1.0
 10
230.4360155377
 20
77.6674520086
 30
0.0
 10
229.7048524807
 20
78.4181970861
 30
0.0
 10
228.3516239855
 20
79.9959567781
 30
0.0
 10
226.7094268659
 20
82.5878058771
 30
0.0
 10
225.7570853967
 20
84.9070633083
 30
0.0
 10
225.3254312017
 20
86.8022994872
 30
0.0
 10
225.1799401329
 20
88.2253713309
 30
0.0
 10
225.2258530822
 20
89.6532084445
 30
0.0
 10
225.4789909364
 20
91.0766824207
 30
0.0
 10
225.9544571037
 20
92.4851875246
 30
0.0
 10
226.6633845144
 20
93.8622028847
 30
0.0
 10
227.600735689
 20
95.1914898919
 30
0.0
 10
228.760474653
 20
96.4527446275
 30
0.0
 10
230.1362256435
 20
97.6233807197
 30
0.0
 10
231.7214677973
 20
98.6805489374
 30
0.0
 10
233.1912538603
 20
99.4374224382
 30
0.0
 10
234.4606253505
 20
99.9659129569
 30
0.0
 10
235.8266643172
 20
100.4516597925
 30
0.0
 10
237.6376104033
 20
100.9523084745
 30
0.0
 10
239.9167192817
 20
101.3919277362
 30
0.0
 10
242.2949351263
 20
101.6853207408
 30
0.0
 10
244.73797981
 20
101.8396999856
 30
0.0
 10
247.2115585946
 20
101.8622696073
 30
0.0
 10
249.6811713807
 20
101.7602172162
 30
0.0
 10
252.1122616136
 20
101.5407710657
 30
0.0
 10
254.470261029
 20
101.2112094909
 30
0.0
 10
256.7206531803
 20
100.7788804907
 30
0.0
 10
258.8291059136
 20
100.2511762914
 30
0.0
 10
260.7615019156
 20
99.6356010009
 30
0.0
 10
262.484667702
 20
98.939346329
 30
0.0
 10
263.9654864283
 20
98.1698725824
 30
0.0
 10
264.8284700547
 20
97.5714466439
 30
0.0
 10
265.2010953321
 20
97.2558490532
 30
0.0
  0
SPLINE
  5
2DF
100
AcDbEntity
  8
0
100
AcDbSpline
 62
7
  6
CONTINUOUS
 70
0
 71
3
 72
9
 73
5
 74
0
 42
0.0000001
 43
0.0000001
 44
0.0000000001
 40
0.0
 40
0.0
 40
0.0
 40
0.0
 40
0.2462487221
 40
1.0
 40
1.0
 40
1.0
 40
1.0
 10
227.47396733
 20
74.6335187533
 30
0.0
 10
227.6544128526
 20
74.6565931425
 30
0.0
 10
228.3880340396
 20
74.7433712043
 30
0.0
 10
229.1253119852
 20
74.8009699408
 30
0.0
 10
229.6816967456
 20
74.8232206489
 30
0.0
  0
SPLINE
  5
2E0
100
AcDbEntity
  8
0
100
AcDbSpline
 62
7
  6
CONTINUOUS
 70
0
 71
3
 72
23
 73
19
 74
0
 42
0.0000001
 43
0.0000001
 44
0.0000000001
 40
0.0
 40
0.0
 40
0.0
 40
0.0
 40
0.0840121519
 40
0.1564864817
 40
0.221838703
 40
0.2834380474
 40
0.3432575228
 40
0.4020077007
 40
0.4596009056
 40
0.5157168756
 40
0.5697640048
 40
0.6210732621
 40
0.6700189646
 40
0.7186442749
 40
0.7708976412
 40
0.8319105429
 40
0.9067915607
 40
1.0
 40
1.0
 40
1.0
 40
1.0
 10
222.9808254937
 20
62.6432320869
 30
0.0
 10
223.0263102781
 20
63.0312189655
 30
0.0
 10
223.1655424086
 20
63.7500533199
 30
0.0
 10
223.5545941535
 20
64.7126306411
 30
0.0
 10
224.0707154919
 20
65.4901350661
 30
0.0
 10
224.6755258054
 20
66.118439363
 30
0.0
 10
225.3335334778
 20
66.6394656819
 30
0.0
 10
226.0141706852
 20
67.0957117503
 30
0.0
 10
226.6899627384
 20
67.5272883408
 30
0.0
 10
227.3300139656
 20
67.9741857048
 30
0.0
 10
227.9035149364
 20
68.4613030423
 30
0.0
 10
228.3829567163
 20
68.9994848842
 30
0.0
 10
228.7333415242
 20
69.6040813288
 30
0.0
 10
228.9096285317
 20
70.2888300537
 30
0.0
 10
228.8630101334
 20
71.0519267978
 30
0.0
 10
228.5631100089
 20
71.8836925611
 30
0.0
 10
227.9895275926
 20
72.7883779363
 30
0.0
 10
227.4699698765
 20
73.3759227178
 30
0.0
 10
227.1666604321
 20
73.6855087808
 30
0.0
  0
SPLINE
  5
2E1
100
AcDbEntity
  8
0
100
AcDbSpline
 62
7
  6
CONTINUOUS
 70
0
 71
3
 72
11
 73
7
 74
0
 42
0.0000001
 43
0.0000001
 44
0.0000000001
 40
0.0
 40
0.0
 40
0.0
 40
0.0
 40
0.2660921694
 40
0.522001901
 40
0.76648505
 40
1.0
 40
1.0
 40
1.0
 40
1.0
 10
225.1489290515
 20
134.3765007125
 30
0.0
 10
226.0667795326
 20
134.2325680759
 30
0.0
 10
227.8601646979
 20
133.9012890411
 30
0.0
 10
230.4597135635
 20
133.2576816331
 30
0.0
 10
232.9005080697
 20
132.4704819971
 30
0.0
 10
234.44293305
 20
131.8247382183
 30
0.0
 10
235.1759943523
 20
131.4678446722
 30
0.0
  0
SPLINE
  5
2E2
100
AcDbEntity
  8
0
100
AcDbSpline
 62
7
  6
CONTINUOUS
 70
0
 71
3
 72
15
 73
11
 74
0
 42
0.0000001
 43
0.0000001
 44
0.0000000001
 40
0.0
 40
0.0
 40
0.0
 40
0.0
 40
0.1132007182
 40
0.2285405371
 40
0.3469722776
 40
0.4693212046
 40
0.596288852
 40
0.7283985833
 40
0.863204623
 40
1.0
 40
1.0
 40
1.0
 40
1.0
 10
192.3102473551
 20
123.1020917227
 30
0.0
 10
192.6311869169
 20
123.8284405968
 30
0.0
 10
193.3994006464
 20
125.2443253373
 30
0.0
 10
194.8695013583
 20
127.1939177558
 30
0.0
 10
196.6389349738
 20
128.9682229373
 30
0.0
 10
198.6895552997
 20
130.544875105
 30
0.0
 10
201.0022210009
 20
131.9037910493
 30
0.0
 10
203.5423079858
 20
133.0077845691
 30
0.0
 10
206.2537648398
 20
133.8413487639
 30
0.0
 10
208.1202500777
 20
134.2357319482
 30
0.0
 10
209.0659514935
 20
134.3985109934
 30
0.0
  0
SPLINE
  5
2E3
100
AcDbEntity
  8
0
100
AcDbSpline
 62
7
  6
CONTINUOUS
 70
0
 71
3
 72
9
 73
5
 74
0
 42
0.0000001
 43
0.0000001
 44
0.0000000001
 40
0.0
 40
0.0
 40
0.0
 40
0.0
 40
0.2489644009
 40
1.0
 40
1.0
 40
1.0
 40
1.0
 10
192.8431356283
 20
109.8898045353
 30
0.0
 10
192.7560885359
 20
110.0730536989
 30
0.0
 10
192.4171342004
 20
110.8140996331
 30
0.0
 10
192.1229764193
 20
111.5758491629
 30
0.0
 10
191.9314648007
 20
112.1571068994
 30
0.0
  0
SPLINE
  5
2E4
100
AcDbEntity
  8
0
100
AcDbSpline
 62
7
  6
CONTINUOUS
 70
0
 71
3
 72
9
 73
5
 74
0
 42
0.0000001
 43
0.0000001
 44
0.0000000001
 40
0.0
 40
0.0
 40
0.0
 40
0.0
 40
0.5099785175
 40
1.0
 40
1.0
 40
1.0
 40
1.0
 10
235.8276796361
 20
125.8912069298
 30
0.0
 10
236.0879191919
 20
125.991969873
 30
0.0
 10
236.5995755418
 20
126.1860250025
 30
0.0
 10
237.1134758872
 20
126.3741386411
 30
0.0
 10
237.3664641258
 20
126.4630139054
 30
0.0
  0
SPLINE
  5
2E5
100
AcDbEntity
  8
0
100
AcDbSpline
 62
7
  6
CONTINUOUS
 70
0
 71
3
 72
37
 73
33
 74
0
 42
0.0000001
 43
0.0000001
 44
0.0000000001
 40
0.0
 40
0.0
 40
0.0
 40
0.0
 40
0.052597451
 40
0.1039518476
 40
0.1534281618
 40
0.1775189793
 40
0.2013099551
 40
0.2250260038
 40
0.2489893148
 40
0.2736144576
 40
0.299355734
 40
0.3264510423
 40
0.3550099647
 40
0.3851270206
 40
0.4168991218
 40
0.4504386245
 40
0.4679191972
 40
0.4858833531
 40
0.5231763088
 40
0.5620885502
 40
0.6022837789
 40
0.6433630867
 40
0.6848856203
 40
0.7263829057
 40
0.7673693833
 40
0.8073509592
 40
0.8458330485
 40
0.8823296586
 40
0.9163757001
 40
0.9475463665
 40
0.9754912889
 40
1.0
 40
1.0
 40
1.0
 40
1.0
 10
200.8109502426
 20
106.345087223
 30
0.0
 10
200.0797871856
 20
107.0958323005
 30
0.0
 10
198.7265586904
 20
108.6735919925
 30
0.0
 10
197.0843615708
 20
111.2654410915
 30
0.0
 10
196.1320201016
 20
113.5846985227
 30
0.0
 10
195.7003659066
 20
115.4799347016
 30
0.0
 10
195.5548748379
 20
116.9030065453
 30
0.0
 10
195.6007877871
 20
118.3308436589
 30
0.0
 10
195.8539256414
 20
119.7543176351
 30
0.0
 10
196.3293918086
 20
121.162822739
 30
0.0
 10
197.0383192194
 20
122.5398380991
 30
0.0
 10
197.9756703939
 20
123.8691251063
 30
0.0
 10
199.135409358
 20
125.1303798419
 30
0.0
 10
200.5111603484
 20
126.3010159341
 30
0.0
 10
202.0964025022
 20
127.3581841518
 30
0.0
 10
203.5661885653
 20
128.1150576526
 30
0.0
 10
204.8355600555
 20
128.6435481714
 30
0.0
 10
206.2015990221
 20
129.1292950069
 30
0.0
 10
208.0125451082
 20
129.6299436889
 30
0.0
 10
210.2916539866
 20
130.0695629506
 30
0.0
 10
212.6698698312
 20
130.3629559552
 30
0.0
 10
215.112914515
 20
130.5173352
 30
0.0
 10
217.5864932996
 20
130.5399048217
 30
0.0
 10
220.0561060856
 20
130.4378524306
 30
0.0
 10
222.4871963185
 20
130.2184062801
 30
0.0
 10
224.8451957339
 20
129.8888447053
 30
0.0
 10
227.0955878852
 20
129.4565157051
 30
0.0
 10
229.2040406185
 20
128.9288115059
 30
0.0
 10
231.1364366205
 20
128.3132362153
 30
0.0
 10
232.8596024069
 20
127.6169815434
 30
0.0
 10
234.3404211333
 20
126.8475077968
 30
0.0
 10
235.2034047596
 20
126.2490818583
 30
0.0
 10
235.576030037
 20
125.9334842676
 30
0.0
  0
SPLINE
  5
2E6
100
AcDbEntity
  8
0
100
AcDbSpline
 62
7
  6
CONTINUOUS
 70
0
 71
3
 72
9
 73
5
 74
0
 42
0.0000001
 43
0.0000001
 44
0.0000000001
 40
0.0
 40
0.0
 40
0.0
 40
0.0
 40
0.2462487221
 40
1.0
 40
1.0
 40
1.0
 40
1.0
 10
197.8489020349
 20
103.3111539677
 30
0.0
 10
198.0293475576
 20
103.3342283569
 30
0.0
 10
198.7629687445
 20
103.4210064187
 30
0.0
 10
199.5002466901
 20
103.4786051552
 30
0.0
 10
200.0566314506
 20
103.5008558633
 30
0.0
  0
SPLINE
  5
2E7
100
AcDbEntity
  8
0
100
AcDbSpline
 62
7
  6
CONTINUOUS
 70
0
 71
3
 72
23
 73
19
 74
0
 42
0.0000001
 43
0.0000001
 44
0.0000000001
 40
0.0
 40
0.0
 40
0.0
 40
0.0
 40
0.0840121519
 40
0.1564864817
 40
0.221838703
 40
0.2834380474
 40
0.3432575228
 40
0.4020077007
 40
0.4596009056
 40
0.5157168756
 40
0.5697640048
 40
0.6210732621
 40
0.6700189646
 40
0.7186442749
 40
0.7708976412
 40
0.8319105429
 40
0.9067915607
 40
1.0
 40
1.0
 40
1.0
 40
1.0
 10
193.3557601986
 20
91.3208673013
 30
0.0
 10
193.4012449831
 20
91.7088541799
 30
0.0
 10
193.5404771136
 20
92.4276885344
 30
0.0
 10
193.9295288584
 20
93.3902658555
 30
0.0
 10
194.4456501969
 20
94.1677702805
 30
0.0
 10
195.0504605103
 20
94.7960745774
 30
0.0
 10
195.7084681827
 20
95.3171008963
 30
0.0
 10
196.3891053902
 20
95.7733469647
 30
0.0
 10
197.0648974434
 20
96.2049235552
 30
0.0
 10
197.7049486706
 20
96.6518209192
 30
0.0
 10
198.2784496413
 20
97.1389382567
 30
0.0
 10
198.7578914213
 20
97.6771200986
 30
0.0
 10
199.1082762291
 20
98.2817165432
 30
0.0
 10
199.2845632366
 20
98.9664652681
 30
0.0
 10
199.2379448384
 20
99.7295620122
 30
0.0
 10
198.9380447139
 20
100.5613277755
 30
0.0
 10
198.3644622975
 20
101.4660131507
 30
0.0
 10
197.8449045815
 20
102.0535579322
 30
0.0
 10
197.541595137
 20
102.3631439952
 30
0.0
  0
SPLINE
  5
2E8
100
AcDbEntity
  8
0
100
AcDbSpline
 62
7
  6
CONTINUOUS
 70
0
 71
3
 72
25
 73
21
 74
0
 42
0.0000001
 43
0.0000001
 44
0.0000000001
 40
0.0
 40
0.0
 40
0.0
 40
0.0
 40
0.1595708292
 40
0.2342712972
 40
0.3048707155
 40
0.3711221884
 40
0.4331219929
 40
0.4914653099
 40
0.5196686557
 40
0.5474951796
 40
0.6022790035
 40
0.6557139889
 40
0.7075393967
 40
0.7581096468
 40
0.7834198849
 40
0.8091194229
 40
0.8356438631
 40
0.8635135676
 40
0.9254708052
 40
1.0
 40
1.0
 40
1.0
 40
1.0
 10
237.4160493862
 20
126.4533744935
 30
0.0
 10
238.0768779267
 20
125.8711546273
 30
0.0
 10
239.0892790983
 20
125.0602905654
 30
0.0
 10
240.5062884638
 20
124.1502558092
 30
0.0
 10
241.5395361113
 20
123.6028374587
 30
0.0
 10
242.5592862339
 20
123.1905407723
 30
0.0
 10
243.5588430529
 20
122.9289880504
 30
0.0
 10
244.3798004339
 20
122.85048835
 30
0.0
 10
245.0112560855
 20
122.883614721
 30
0.0
 10
245.6162167543
 20
122.9801682702
 30
0.0
 10
246.3351254007
 20
123.2174850857
 30
0.0
 10
247.102099229
 20
123.6695748529
 30
0.0
 10
247.7304823842
 20
124.2688790053
 30
0.0
 10
248.101907323
 20
124.8800659408
 30
0.0
 10
248.2787873076
 20
125.4141923287
 30
0.0
 10
248.3480966044
 20
125.8383918491
 30
0.0
 10
248.3477535412
 20
126.2824121699
 30
0.0
 10
248.2436558504
 20
126.9187482116
 30
0.0
 10
247.8808804589
 20
127.7654139353
 30
0.0
 10
247.408226023
 20
128.3617297719
 30
0.0
 10
247.1243833883
 20
128.6594596266
 30
0.0
  0
SPLINE
  5
2E9
100
AcDbEntity
  8
0
100
AcDbSpline
 62
7
  6
CONTINUOUS
 70
0
 71
3
 72
15
 73
11
 74
0
 42
0.0000001
 43
0.0000001
 44
0.0000000001
 40
0.0
 40
0.0
 40
0.0
 40
0.0
 40
0.1191435437
 40
0.2290509778
 40
0.3329215914
 40
0.4363980496
 40
0.5471234703
 40
0.6732774523
 40
0.8222098005
 40
1.0
 40
1.0
 40
1.0
 40
1.0
 10
248.6985345853
 20
129.5901732784
 30
0.0
 10
248.6748904828
 20
129.7703132088
 30
0.0
 10
248.6528489809
 20
130.1206395461
 30
0.0
 10
248.7146868831
 20
130.6281408271
 30
0.0
 10
248.8857018272
 20
131.0865740086
 30
0.0
 10
249.1787551233
 20
131.4816102704
 30
0.0
 10
249.5994114338
 20
131.7966996885
 30
0.0
 10
250.1483819892
 20
132.0218779552
 30
0.0
 10
250.8299716794
 20
132.1523962516
 30
0.0
 10
251.3295475644
 20
132.170758867
 30
0.0
 10
251.6006294861
 20
132.1664125255
 30
0.0
  0
SPLINE
  5
2EA
100
AcDbEntity
  8
0
100
AcDbSpline
 62
7
  6
CONTINUOUS
 70
0
 71
3
 72
8
 73
4
 74
0
 42
0.0000001
 43
0.0000001
 44
0.0000000001
 40
0.0
 40
0.0
 40
0.0
 40
0.0
 40
1.0
 40
1.0
 40
1.0
 40
1.0
 10
154.500101866
 20
145.2385510788
 30
0.0
 10
154.0832212815
 20
148.2466658403
 30
0.0
 10
155.5325334355
 20
150.475763301
 30
0.0
 10
160.2695553504
 20
150.4299522829
 30
0.0
  0
SPLINE
  5
2EB
100
AcDbEntity
  8
0
100
AcDbSpline
 62
7
  6
CONTINUOUS
 70
0
 71
3
 72
9
 73
5
 74
0
 42
0.0000001
 43
0.0000001
 44
0.0000000001
 40
0.0
 40
0.0
 40
0.0
 40
0.0
 40
0.4853362967
 40
1.0
 40
1.0
 40
1.0
 40
1.0
 10
131.9709287613
 20
138.8189413912
 30
0.0
 10
137.318271955
 20
134.1713873228
 30
0.0
 10
149.0308974021
 20
127.7567605263
 30
0.0
 10
156.5822233328
 20
137.956961004
 30
0.0
 10
151.3639078061
 20
143.3563714649
 30
0.0
  0
SPLINE
  5
2EC
100
AcDbEntity
  8
0
100
AcDbSpline
 62
7
  6
CONTINUOUS
 70
0
 71
3
 72
8
 73
4
 74
0
 42
0.0000001
 43
0.0000001
 44
0.0000000001
 40
0.0
 40
0.0
 40
0.0
 40
0.0
 40
1.0
 40
1.0
 40
1.0
 40
1.0
 10
128.8009683401
 20
137.6739573713
 30
0.0
 10
129.7749880921
 20
138.0583472117
 30
0.0
 10
130.9680799381
 20
138.5136390621
 30
0.0
 10
131.8715775886
 20
138.8375965833
 30
0.0
  0
SPLINE
  5
2ED
100
AcDbEntity
  8
0
100
AcDbSpline
 62
7
  6
CONTINUOUS
 70
0
 71
3
 72
10
 73
6
 74
0
 42
0.0000001
 43
0.0000001
 44
0.0000000001
 40
0.0
 40
0.0
 40
0.0
 40
0.0
 40
0.3493238449
 40
0.5423062069
 40
1.0
 40
1.0
 40
1.0
 40
1.0
 10
59.0201578935
 20
98.1209794037
 30
0.0
 10
50.7341186882
 20
106.5138044842
 30
0.0
 10
42.6358859644
 20
124.0591432638
 30
0.0
 10
71.2685794508
 20
152.0484054359
 30
0.0
 10
118.0718219984
 20
146.2979978788
 30
0.0
 10
128.2968481696
 20
137.755341935
 30
0.0
  0
SPLINE
  5
2EE
100
AcDbEntity
  8
0
100
AcDbSpline
 62
7
  6
CONTINUOUS
 70
0
 71
3
 72
8
 73
4
 74
0
 42
0.0000001
 43
0.0000001
 44
0.0000000001
 40
0.0
 40
0.0
 40
0.0
 40
0.0
 40
1.0
 40
1.0
 40
1.0
 40
1.0
 10
43.0267051888
 20
105.1117431572
 30
0.0
 10
42.3203958097
 20
106.5719379425
 30
0.0
 10
41.6947770281
 20
108.0808368348
 30
0.0
 10
41.1698867904
 20
109.6364945799
 30
0.0
  0
SPLINE
  5
2EF
100
AcDbEntity
  8
0
100
AcDbSpline
 62
7
  6
CONTINUOUS
 70
0
 71
3
 72
8
 73
4
 74
0
 42
0.0000001
 43
0.0000001
 44
0.0000000001
 40
0.0
 40
0.0
 40
0.0
 40
0.0
 40
1.0
 40
1.0
 40
1.0
 40
1.0
 10
53.137351074
 20
92.0130739954
 30
0.0
 10
54.5673860386
 20
92.2052063039
 30
0.0
 10
56.061471015
 20
92.3516178371
 30
0.0
 10
57.5519240254
 20
92.4207218421
 30
0.0
  0
SPLINE
  5
2F0
100
AcDbEntity
  8
0
100
AcDbSpline
 62
7
  6
CONTINUOUS
 70
0
 71
3
 72
16
 73
12
 74
0
 42
0.0000001
 43
0.0000001
 44
0.0000000001
 40
0.0
 40
0.0
 40
0.0
 40
0.0
 40
0.0451489297
 40
0.1088056677
 40
0.2361191438
 40
0.4907460958
 40
0.6180595719
 40
0.6817163099
 40
0.7453730479
 40
0.872686524
 40
1.0
 40
1.0
 40
1.0
 40
1.0
 10
41.769856721
 20
131.5397303189
 30
0.0
 10
41.9964899701
 20
132.0626031596
 30
0.0
 10
42.581497554
 20
133.3120736888
 30
0.0
 10
44.0399750908
 20
135.9423581875
 30
0.0
 10
47.391238573
 20
140.6339875546
 30
0.0
 10
52.4754970693
 20
145.2938297868
 30
0.0
 10
57.8926418537
 20
148.5994752189
 30
0.0
 10
61.2466667931
 20
150.2402837811
 30
0.0
 10
64.7769063459
 20
151.7074889943
 30
0.0
 10
69.3683360046
 20
153.1689807594
 30
0.0
 10
73.1929157385
 20
154.0079570172
 30
0.0
 10
75.1323309191
 20
154.3545345093
 30
0.0
  0
SPLINE
  5
2F1
100
AcDbEntity
  8
0
100
AcDbSpline
 62
7
  6
CONTINUOUS
 70
0
 71
3
 72
11
 73
7
 74
0
 42
0.0000001
 43
0.0000001
 44
0.0000000001
 40
0.0
 40
0.0
 40
0.0
 40
0.0
 40
0.2905293037
 40
0.5810586074
 40
0.8715879112
 40
1.0
 40
1.0
 40
1.0
 40
1.0
 10
107.3120886818
 20
154.5151843346
 30
0.0
 10
109.4846030061
 20
154.188701224
 30
0.0
 10
113.732652192
 20
153.4074513613
 30
0.0
 10
119.7149836239
 20
151.8582951655
 30
0.0
 10
124.2023261662
 20
150.2756533644
 30
0.0
 10
126.6753845458
 20
149.1781289997
 30
0.0
 10
127.4165923715
 20
148.823241917
 30
0.0
  0
SPLINE
  5
2F2
100
AcDbEntity
  8
0
100
AcDbSpline
 62
7
  6
CONTINUOUS
 70
0
 71
3
 72
9
 73
5
 74
0
 42
0.0000001
 43
0.0000001
 44
0.0000000001
 40
0.0
 40
0.0
 40
0.0
 40
0.0
 40
0.4726644571
 40
1.0
 40
1.0
 40
1.0
 40
1.0
 10
44.3202942901
 20
67.9660647214
 30
0.0
 10
45.0237292109
 20
74.3642099179
 30
0.0
 10
53.8874511931
 20
77.811956242
 30
0.0
 10
58.2775049414
 20
84.331517291
 30
0.0
 10
52.5361573717
 20
90.1124114673
 30
0.0
  0
ENDSEC
  0
SECTION
  2
OBJECTS
  0
DICTIONARY
  5
C
100
AcDbDictionary
280
0
281
1
  3
ACAD_GROUP
350
D
  3
ACAD_MLINESTYLE
350
17
  3
ACAD_LAYOUT
350
1A
  3
ACAD_PLOTSETTINGS
350
19
  3
ACAD_PLOTSTYLENAME
350
E
  3
ACAD_TABLESTYLE
350
       2F3
  0
DICTIONARY
  5
D
102
{ACAD_REACTORS
330
C
102
}
100
AcDbDictionary
280
0
281
1
  0
ACDBDICTIONARYWDFLT
  5
E
102
{ACAD_REACTORS
330
C
102
}
100
AcDbDictionary
281
1
  3
Normal
350
F
100
AcDbDictionaryWithDefault
340
F
  0
DICTIONARY
  5
17
102
{ACAD_REACTORS
330
C
102
}
100
AcDbDictionary
280
0
281
1
  3
Standard
350
18
  0
DICTIONARY
  5
2F3
330
C
100
AcDbDictionary
281
1
  3
Standard
350
       2F6
  3
Standard1
350
       2F7
  0
DICTIONARY
  5
19
102
{ACAD_REACTORS
330
C
102
}
100
AcDbDictionary
281
1
  0
DICTIONARY
  5
1A
102
{ACAD_REACTORS
330
C
102
}
100
AcDbDictionary
281
1
  3
Model
350
2F4
  3
Layout1
350
2F5
  0
ACDBPLACEHOLDER
  5
F
102
{ACAD_REACTORS
330
E
102
}
  0
MLINESTYLE
  5
18
102
{ACAD_REACTORS
330
17
102
}
100
AcDbMlineStyle
  2
STANDARD
 70
0
  3

 62
256
 51
90.0
 52
90.0
 71
2
 49
0.5
 62
256
  6
BYLAYER
 49
-0.5
 62
256
  6
BYLAYER
  0
LAYOUT
  5
2F4
102
{ACAD_REACTORS
330
1A
102
}
100
AcDbPlotSettings
  1

  2
none_device
  4
ISO_A4_(297.00_x_210.00_MM)
  6

 40
0.0
 41
0.0
 42
0.0
 43
0.0
 44
297.0
 45
210.0
 46
0.0
 47
0.0
 48
0.0
 49
0.0
140
0.0
141
0.0
142
1.0
143
1.0
 70
1024
 72
1
 73
0
 74
0
  7

 75
0
147
1.0
148
0.0
149
0.0
100
AcDbLayout
  1
Model
 70
0
 71
0
 10
0.0
 20
0.0
 11
297.0
 21
210.0
 12
0.0
 22
0.0
 32
0.0
 14
0.0
 24
0.0
 34
0.0
 15
0.0
 25
0.0
 35
0.0
146
0.0
 13
0.0
 23
0.0
 33
0.0
 16
1.0
 26
0.0
 36
0.0
 17
0.0
 27
1.0
 37
0.0
 76
0
330
20B
345
0
346
0
  0
LAYOUT
  5
2F5
102
{ACAD_REACTORS
330
1A
102
}
100
AcDbPlotSettings
  1

  2
none_device
  4
ISO_A4_(297.00_x_210.00_MM)
  6

 40
0.0
 41
0.0
 42
0.0
 43
0.0
 44
297.0
 45
210.0
 46
0.0
 47
0.0
 48
0.0
 49
0.0
140
0.0
141
0.0
142
1.0
143
1.0
 70
0
 72
1
 73
0
 74
0
  7

 75
0
147
1.0
148
0.0
149
0.0
100
AcDbLayout
  1
Layout1
 70
0
 71
1
 10
0.0
 20
0.0
 11
297.0
 21
210.0
 12
0.0
 22
0.0
 32
0.0
 14
0.0
 24
0.0
 34
0.0
 15
0.0
 25
0.0
 35
0.0
146
0.0
 13
0.0
 23
0.0
 33
0.0
 16
1.0
 26
0.0
 36
0.0
 17
0.0
 27
1.0
 37
0.0
 76
0
330
20C
345
0
346
0
  0
TABLESTYLE
  5
2F6
102
{ACAD_REACTORS
330
2F3
330
259
102
}
330
2F3
100
AcDbTableStyle
  3
Standard
 70
0
 71
0
 40
0.06
 41
0.06
280
1
281
1
  7
Standard
140
0.18
170
1
 62
0
 63
7
283
0
  7
Standard
140
0.18
170
1
 62
0
 63
7
283
0
  7
Standard
140
0.18
170
1
 62
0
 63
7
283
0
  0
TABLESTYLE
  5
2F7
102
{ACAD_REACTORS
330
2F3
102
}
330
2F3
100
AcDbTableStyle
  3
Standard1
 70
1
 71
0
 40
0.06
 41
0.06
280
1
281
1
  7
Standard
140
0.18
170
1
 62
0
 63
7
283
0
  7
Standard
140
0.18
170
1
 62
0
 63
7
283
0
  7
Standard
140
0.18
170
1
 62
0
 63
7
283
0
  0
ENDSEC
  0
EOF
