999
DXF file: O:\ORAC_PRODUCTEN\ORAC_LIJN6\C-Type\C325\c325-prod-mm.dxf
999
Pro/ENGINEER 2018500 by Parametric Technology Corporation
  0
SECTION
  2
HEADER
  9
$ACADVER
  1
AC1024
  9
$DWGCODEPAGE
  3
ANSI_1250
  9
$EXTMAX
 10
297.0
 20
210.0
 30
0.0
  9
$EXTMIN
 10
0.0
 20
0.0
 30
0.0
  9
$LIMMIN
 10
0.0
 20
0.0
  9
$LIMMAX
 10
297.0
 20
210.0
  9
$VIEWCTR
 10
148.5
 20
105.0
  9
$VIEWSIZE
 40
210.0
  9
$CLAYER
  8
0
  9
$LTSCALE
 40
16.335
  9
$CELTYPE
  6
BYLAYER
  9
$DIMSCALE
 40
1.0
  9
$DIMASZ
 40
3.5
  9
$DIMEXO
 40
1.0
  9
$DIMDLI
 40
11.286
  9
$DIMEXE
 40
1.5
  9
$DIMCEN
 40
2.673
  9
$DIMLFAC
 40
1.0
  9
$DIMBLK
  1
_FILLED
  9
$DIMALT
 70
0
  9
$DIMALTF
 40
0.0393700787
  9
$DIMTXT
 40
2.5
  9
$DIMTOL
 70
1
  9
$DIMLIM
 70
0
  9
$DIMTFAC
 40
1.0
  9
$DIMTP
 40
0.001
  9
$DIMTM
 40
0.001
  9
$DIMGAP
 40
0.625
  9
$DIMDSEP
 70
44
  9
$AUNITS
 70
0
  9
$PDMODE
 70
3
  9
$PDSIZE
 40
8.0
  9
$HANDSEED
  5
2EE
  9
$TILEMODE
 70
1
  9
$MEASUREMENT
 70
1
  9
$INSUNITS
 70
4
  0
ENDSEC
  0
SECTION
  2
CLASSES
  0
CLASS
  1
ACDBDICTIONARYWDFLT
  2
AcDbDictionaryWithDefault
  3
AutoCAD 2000
 90
0
 91
1
280
0
281
0
  0
CLASS
  1
ACDBPLACEHOLDER
  2
AcDbPlaceHolder
  3
AutoCAD 2000
 90
0
 91
1
280
0
281
0
  0
CLASS
  1
LAYOUT
  2
AcDbLayout
  3
AutoCAD 2000
 90
0
 91
0
280
0
281
0
  0
CLASS
  1
TABLESTYLE
  2
AcDbTableStyle
  3
ObjectDBX Classes
 90
2047
 91
1
280
0
281
0
  0
CLASS
  1
ACAD_TABLE
  2
AcDbTable
  3
ObjectDBX Classes
 90
1025
 91
1
280
0
281
1
  0
ENDSEC
  0
SECTION
  2
TABLES
  0
TABLE
  2
VPORT
  5
8
100
AcDbSymbolTable
 70
2
  0
VPORT
  5
1F4
100
AcDbSymbolTableRecord
100
AcDbViewportTableRecord
  2
*ACTIVE
 70
0
 10
0.0
 20
0.0
 11
1.0
 21
1.0
 12
148.5
 22
105.0
 13
0.0
 23
0.0
 14
1.0
 24
1.0
 15
0.0
 25
0.0
 16
0.0
 26
0.0
 36
1.0
 17
0.0
 27
0.0
 37
0.0
 40
210.0
 41
1.4142857143
 42
50.0
 43
0.0
 44
0.0
 50
0.0
 51
0.0
 71
0
 72
100
 73
1
 74
1
 75
0
 76
0
 77
0
 78
0
  0
ENDTAB
  0
TABLE
  2
LTYPE
  5
5
100
AcDbSymbolTable
 70
6
  0
LTYPE
  5
14
100
AcDbSymbolTableRecord
100
AcDbLinetypeTableRecord
  2
BYBLOCK
 70
0
  3

 72
65
 73
0
 40
0.0
  0
LTYPE
  5
15
100
AcDbSymbolTableRecord
100
AcDbLinetypeTableRecord
  2
BYLAYER
 70
0
  3

 72
65
 73
0
 40
0.0
  0
LTYPE
  5
16
100
AcDbSymbolTableRecord
100
AcDbLinetypeTableRecord
  2
CONTINUOUS
 70
64
  3
Solid line
 72
65
 73
0
 40
0.0
  0
LTYPE
  5
1F5
100
AcDbSymbolTableRecord
100
AcDbLinetypeTableRecord
  2
CENTER
 70
64
  3
____ _ ____ _ ____ _ ____ _ ____ _ ____ _ ____
 72
65
 73
4
 40
0.6
 49
0.375
 74
0
 49
-0.075
 74
0
 49
0.075
 74
0
 49
-0.075
 74
0
  0
LTYPE
  5
1F6
100
AcDbSymbolTableRecord
100
AcDbLinetypeTableRecord
  2
HIDDEN
 70
64
  3
- - - - - - - - - - - - - - - - - - - -
 72
65
 73
2
 40
0.2
 49
0.1
 74
0
 49
-0.1
 74
0
  0
LTYPE
  5
1F7
100
AcDbSymbolTableRecord
100
AcDbLinetypeTableRecord
  2
PHANTOM
 70
64
  3
_____ _ _ _____ _ _ _____ _ _ _____
 72
65
 73
6
 40
0.8
 49
0.45
 74
0
 49
-0.05
 74
0
 49
0.1
 74
0
 49
-0.05
 74
0
 49
0.1
 74
0
 49
-0.05
 74
0
  0
LTYPE
  5
1F8
100
AcDbSymbolTableRecord
100
AcDbLinetypeTableRecord
  2
DOT
 70
64
  3
. . . . . . . . . . . . . . . . . . . .
 72
65
 73
2
 40
0.2
 49
0.1
 74
0
 49
-0.1
 74
0
  0
LTYPE
  5
1F9
100
AcDbSymbolTableRecord
100
AcDbLinetypeTableRecord
  2
DASHED
 70
64
  3
- - - - - - - - - - - - - - - - - - - -
 72
65
 73
2
 40
0.2
 49
0.1
 74
0
 49
-0.1
 74
0
  0
ENDTAB
  0
TABLE
  2
LAYER
  5
2
100
AcDbSymbolTable
 70
36
  0
LAYER
  5
10
100
AcDbSymbolTableRecord
100
AcDbLayerTableRecord
  2
0
 70
0
 62
7
  6
CONTINUOUS
370
-3
390
F
  0
LAYER
  5
1FA
100
AcDbSymbolTableRecord
100
AcDbLayerTableRecord
  2
DEFAULT_1
 70
0
 62
7
  6
CENTER
370
-3
390
F
  0
LAYER
  5
1FB
100
AcDbSymbolTableRecord
100
AcDbLayerTableRecord
  2
DEFAULT_2
 70
0
 62
8
  6
HIDDEN
370
-3
390
F
  0
LAYER
  5
1FC
100
AcDbSymbolTableRecord
100
AcDbLayerTableRecord
  2
DEFAULT_3
 70
0
 62
7
  6
PHANTOM
370
-3
390
F
  0
LAYER
  5
1FD
100
AcDbSymbolTableRecord
100
AcDbLayerTableRecord
  2
DTM_ALL
 70
0
 62
7
  6
CONTINUOUS
370
-3
390
F
  0
LAYER
  5
1FE
100
AcDbSymbolTableRecord
100
AcDbLayerTableRecord
  2
DTM_AXIS
 70
0
 62
7
  6
CONTINUOUS
370
-3
390
F
  0
LAYER
  5
1FF
100
AcDbSymbolTableRecord
100
AcDbLayerTableRecord
  2
DTM_CSYS
 70
0
 62
7
  6
CONTINUOUS
370
-3
390
F
  0
LAYER
  5
200
100
AcDbSymbolTableRecord
100
AcDbLayerTableRecord
  2
DTM_CURVE
 70
0
 62
7
  6
CONTINUOUS
370
-3
390
F
  0
LAYER
  5
201
100
AcDbSymbolTableRecord
100
AcDbLayerTableRecord
  2
DTM_MASTER
 70
0
 62
7
  6
CONTINUOUS
370
-3
390
F
  0
LAYER
  5
202
100
AcDbSymbolTableRecord
100
AcDbLayerTableRecord
  2
DTM_POINT
 70
0
 62
7
  6
CONTINUOUS
370
-3
390
F
  0
LAYER
  5
203
100
AcDbSymbolTableRecord
100
AcDbLayerTableRecord
  2
DTM_QUILT
 70
0
 62
7
  6
CONTINUOUS
370
-3
390
F
  0
LAYER
  5
204
100
AcDbSymbolTableRecord
100
AcDbLayerTableRecord
  2
GTOL
 70
0
 62
7
  6
CONTINUOUS
370
-3
390
F
  0
LAYER
  5
205
100
AcDbSymbolTableRecord
100
AcDbLayerTableRecord
  2
NOTES
 70
0
 62
7
  6
CONTINUOUS
370
-3
390
F
  0
ENDTAB
  0
TABLE
  2
STYLE
  5
3
100
AcDbSymbolTable
 70
1
  0
STYLE
  5
11
100
AcDbSymbolTableRecord
100
AcDbTextStyleTableRecord
  2
STANDARD
 70
0
 40
0.0
 41
1.0
 50
0.0
 71
0
 42
0.2
  3
cgtime.ttf
  4

  0
STYLE
  5
206
100
AcDbSymbolTableRecord
100
AcDbTextStyleTableRecord
  2
TEXTSTYLE_1
 70
0
 40
0.0
 41
0.8
 50
0.0
 71
0
 42
0.2
  3
gdt
  4

  0
STYLE
  5
207
100
AcDbSymbolTableRecord
100
AcDbTextStyleTableRecord
  2
TEXTSTYLE_2
 70
0
 40
0.0
 41
1.0
 50
0.0
 71
0
 42
0.2
  3
trium.ttf
  4

  0
STYLE
  5
208
100
AcDbSymbolTableRecord
100
AcDbTextStyleTableRecord
  2
TEXTSTYLE_3
 70
0
 40
0.0
 41
1.0
 50
0.0
 71
0
 42
0.2
  3
calibri.ttf
  4

  0
ENDTAB
  0
TABLE
  2
VIEW
  5
6
100
AcDbSymbolTable
 70
0
  0
ENDTAB
  0
TABLE
  2
UCS
  5
7
100
AcDbSymbolTable
 70
0
  0
ENDTAB
  0
TABLE
  2
APPID
  5
9
100
AcDbSymbolTable
 70
1
  0
APPID
  5
209
100
AcDbSymbolTableRecord
100
AcDbRegAppTableRecord
  2
ACAD
 70
0
  0
ENDTAB
  0
TABLE
  2
BLOCK_RECORD
  5
1
100
AcDbSymbolTable
 70
0
  0
BLOCK_RECORD
  5
20A
100
AcDbSymbolTableRecord
100
AcDbBlockTableRecord
  2
*Model_Space
  0
BLOCK_RECORD
  5
20B
100
AcDbSymbolTableRecord
100
AcDbBlockTableRecord
  2
*Paper_Space
  0
BLOCK_RECORD
  5
20C
100
AcDbSymbolTableRecord
100
AcDbBlockTableRecord
  2
_FILLED
  0
BLOCK_RECORD
  5
20D
100
AcDbSymbolTableRecord
100
AcDbBlockTableRecord
  2
*D0
  0
BLOCK_RECORD
  5
20E
100
AcDbSymbolTableRecord
100
AcDbBlockTableRecord
  2
*D1
  0
BLOCK_RECORD
  5
20F
100
AcDbSymbolTableRecord
100
AcDbBlockTableRecord
  2
*D2
  0
BLOCK_RECORD
  5
210
100
AcDbSymbolTableRecord
100
AcDbBlockTableRecord
  2
*D3
  0
BLOCK_RECORD
  5
211
100
AcDbSymbolTableRecord
100
AcDbBlockTableRecord
  2
*D4
  0
BLOCK_RECORD
  5
212
100
AcDbSymbolTableRecord
100
AcDbBlockTableRecord
  2
*D5
  0
BLOCK_RECORD
  5
213
100
AcDbSymbolTableRecord
100
AcDbBlockTableRecord
  2
*D6
  0
BLOCK_RECORD
  5
214
100
AcDbSymbolTableRecord
100
AcDbBlockTableRecord
  2
*T1
  0
ENDTAB
  0
TABLE
  2
DIMSTYLE
  5
A
100
AcDbSymbolTable
 70
1
100
AcDbDimStyleTable
 71
0
  0
DIMSTYLE
105
215
100
AcDbSymbolTableRecord
100
AcDbDimStyleTableRecord
  2
STANDARD
 70
0
  3

  4

 40
1.0
 41
3.5
 42
1.0
 43
0.38
 44
1.5
 45
0.0
 46
0.0
 47
0.001
 48
0.001
140
2.5
141
0.09
142
0.0
143
25.4
144
1.0
145
0.0
146
1.0
147
0.625
 71
1.0
 72
0.0
 73
1
 74
1
 75
0
 76
0
 77
0
 78
8
 79
2
170
0
171
2
172
0
173
0
174
0
175
0
176
0
177
0
178
0
270
2
179
3
271
3
272
3
273
2
274
2
275
0
280
0
281
0
282
0
283
1
284
8
285
0
286
0
287
3
288
0
340
11
278
44
341
20C
342
20C
343
20C
344
20C
  0
DIMSTYLE
105
216
100
AcDbSymbolTableRecord
100
AcDbDimStyleTableRecord
  2
DIMSTYLE_1
 70
0
  3

  4

 40
1.0
 41
3.5
 42
1.0
 43
0.38
 44
1.5
 45
0.0
 46
0.0
 47
0.0
 48
0.0
140
2.5
141
0.09
142
0.0
143
25.4
144
1.0
145
0.0
146
1.0
147
1.25
 71
0.0
 72
0.0
 73
1
 74
1
 75
0
 76
0
 77
0
 78
8
 79
2
170
0
171
2
172
0
173
0
174
0
175
0
176
0
177
0
178
0
270
2
179
3
271
3
272
3
273
2
274
2
275
0
280
0
281
0
282
0
283
1
284
8
285
0
286
0
287
3
288
0
340
11
278
44
341
20C
342
20C
343
20C
344
20C
  0
DIMSTYLE
105
217
100
AcDbSymbolTableRecord
100
AcDbDimStyleTableRecord
  2
DIMSTYLE_2
 70
0
  3

  4

 40
1.0
 41
3.5
 42
1.0
 43
0.38
 44
1.5
 45
0.0
 46
0.0
 47
0.0
 48
0.0
140
2.5
141
0.09
142
0.0
143
25.4
144
1.0
145
0.0
146
1.0
147
1.25
 71
0.0
 72
0.0
 73
1
 74
1
 75
0
 76
0
 77
0
 78
8
 79
2
170
0
171
2
172
0
173
0
174
0
175
0
176
0
177
0
178
0
270
2
179
3
271
1
272
1
273
2
274
2
275
0
280
0
281
0
282
0
283
1
284
8
285
0
286
0
287
3
288
0
340
11
278
44
341
20C
342
20C
343
20C
344
20C
  0
DIMSTYLE
105
218
100
AcDbSymbolTableRecord
100
AcDbDimStyleTableRecord
  2
DIMSTYLE_3
 70
0
  3

  4

 40
1.0
 41
3.5
 42
1.0
 43
0.38
 44
1.5
 45
0.0
 46
0.0
 47
0.0
 48
0.0
140
2.5
141
0.09
142
0.0
143
25.4
144
1.0
145
0.0
146
1.0
147
1.25
 71
0.0
 72
0.0
 73
1
 74
1
 75
0
 76
0
 77
0
 78
8
 79
2
170
0
171
2
172
0
173
0
174
0
175
0
176
0
177
0
178
0
270
2
179
3
271
0
272
0
273
2
274
2
275
0
280
0
281
0
282
0
283
1
284
8
285
0
286
0
287
3
288
0
340
11
278
44
341
20C
342
20C
343
20C
344
20C
  0
ENDTAB
  0
ENDSEC
  0
SECTION
  2
BLOCKS
  0
BLOCK
  5
20
100
AcDbEntity
  8
0
100
AcDbBlockBegin
  2
*Model_Space
 70
0
 10
0.0
 20
0.0
 30
0.0
  3
*Model_Space
  1

  0
ENDBLK
  5
21
100
AcDbEntity
  8
0
100
AcDbBlockEnd
  0
BLOCK
  5
1C
100
AcDbEntity
  8
0
100
AcDbBlockBegin
  2
*Paper_Space
 70
0
 10
0.0
 20
0.0
 30
0.0
  3
*Paper_Space
  1

  0
ENDBLK
  5
1D
100
AcDbEntity
  8
0
100
AcDbBlockEnd
  0
BLOCK
  5
219
100
AcDbEntity
  8
0
100
AcDbBlockBegin
  2
_FILLED
 70
64
 10
0.0
 20
0.0
  3
_FILLED
  1

  0
SOLID
  5
21A
100
AcDbEntity
  8
0
  6
BYBLOCK
 62
0
100
AcDbTrace
 10
0.0
 20
0.0
 11
-1.0
 21
0.2142857143
 12
-1.0
 22
-0.2142857143
 13
-1.0
 23
-0.2142857143
  0
ENDBLK
  5
21B
100
AcDbEntity
  8
0
  6
BYBLOCK
 62
0
100
AcDbBlockEnd
  0
BLOCK
  5
21C
100
AcDbEntity
  8
0
100
AcDbBlockBegin
 62
2
  6
CONTINUOUS
  2
*D0
 70
65
 10
0.0
 20
0.0
  3
*D0
  1

  0
TEXT
  5
21D
100
AcDbEntity
  8
0
100
AcDbText
 62
2
  6
CONTINUOUS
 10
23.5361506406
 20
120.6799503639
  7
STANDARD
 40
2.5
  1
70
 72
5
 11
27.1742829363
 21
120.6799503639
100
AcDbText
  0
TEXT
  5
21E
100
AcDbEntity
  8
0
100
AcDbText
 62
2
  6
CONTINUOUS
 10
27.1742829363
 20
120.6799503639
  7
STANDARD
 40
2.5
  1
mm
 72
5
 11
32.845489162
 21
120.6799503639
100
AcDbText
  0
TEXT
  5
21F
100
AcDbEntity
  8
0
100
AcDbText
 62
2
  6
CONTINUOUS
 10
23.4048276834
 20
116.9299503639
  7
STANDARD
 40
2.5
  1
2-3/4"
 72
5
 11
32.9768121192
 21
116.9299503639
100
AcDbText
  0
LINE
  5
220
100
AcDbEntity
  8
0
100
AcDbLine
 62
2
  6
CONTINUOUS
 10
102.3772476086
 20
156.9299503639
 11
26.6908199013
 21
156.9299503639
  0
LINE
  5
221
100
AcDbEntity
  8
0
100
AcDbLine
 62
2
  6
CONTINUOUS
 10
49.3772476086
 20
86.9299503639
 11
26.6908199013
 21
86.9299503639
  0
LINE
  5
222
100
AcDbEntity
  8
0
100
AcDbLine
 62
2
  6
CONTINUOUS
 10
28.1908199013
 20
156.9299503639
 11
28.1908199013
 21
124.4299503639
  0
LINE
  5
223
100
AcDbEntity
  8
0
100
AcDbLine
 62
2
  6
CONTINUOUS
 10
28.1908199013
 20
86.9299503639
 11
28.1908199013
 21
115.6799503639
  0
INSERT
  5
224
100
AcDbEntity
  8
0
100
AcDbBlockReference
 62
2
  6
CONTINUOUS
  2
_FILLED
 10
28.1908199013
 20
156.9299503639
 41
3.5
 42
3.5
 43
3.5
 50
90.0
  0
INSERT
  5
225
100
AcDbEntity
  8
0
100
AcDbBlockReference
 62
2
  6
CONTINUOUS
  2
_FILLED
 10
28.1908199013
 20
86.9299503639
 41
3.5
 42
3.5
 43
3.5
 50
270.0
  0
ENDBLK
  5
226
100
AcDbEntity
  8
0
  6
BYBLOCK
 62
0
100
AcDbBlockEnd
  0
BLOCK
  5
227
100
AcDbEntity
  8
0
100
AcDbBlockBegin
 62
2
  6
CONTINUOUS
  2
*D1
 70
65
 10
0.0
 20
0.0
  3
*D1
  1

  0
TEXT
  5
228
100
AcDbEntity
  8
0
100
AcDbText
 62
2
  6
CONTINUOUS
 10
78.2225783479
 20
174.2152039474
  7
STANDARD
 40
2.5
  1
65
 72
5
 11
81.8607106437
 21
174.2152039474
100
AcDbText
  0
TEXT
  5
229
100
AcDbEntity
  8
0
100
AcDbText
 62
2
  6
CONTINUOUS
 10
81.8607106437
 20
174.2152039474
  7
STANDARD
 40
2.5
  1
mm
 72
5
 11
87.5319168693
 21
174.2152039474
100
AcDbText
  0
TEXT
  5
22A
100
AcDbEntity
  8
0
100
AcDbText
 62
2
  6
CONTINUOUS
 10
78.0912553907
 20
170.4652039474
  7
STANDARD
 40
2.5
  1
2-1/2"
 72
5
 11
87.6632398265
 21
170.4652039474
100
AcDbText
  0
LINE
  5
22B
100
AcDbEntity
  8
0
100
AcDbLine
 62
2
  6
CONTINUOUS
 10
115.3772476086
 20
157.9299503639
 11
115.3772476086
 21
176.9652039474
  0
LINE
  5
22C
100
AcDbEntity
  8
0
100
AcDbLine
 62
2
  6
CONTINUOUS
 10
50.3772476086
 20
99.9299503639
 11
50.3772476086
 21
176.9652039474
  0
LINE
  5
22D
100
AcDbEntity
  8
0
100
AcDbLine
 62
2
  6
CONTINUOUS
 10
115.3772476086
 20
175.4652039474
 11
88.7819168693
 21
175.4652039474
  0
LINE
  5
22E
100
AcDbEntity
  8
0
100
AcDbLine
 62
2
  6
CONTINUOUS
 10
50.3772476086
 20
175.4652039474
 11
76.9725783479
 21
175.4652039474
  0
INSERT
  5
22F
100
AcDbEntity
  8
0
100
AcDbBlockReference
 62
2
  6
CONTINUOUS
  2
_FILLED
 10
115.3772476086
 20
175.4652039474
 41
3.5
 42
3.5
 43
3.5
  0
INSERT
  5
230
100
AcDbEntity
  8
0
100
AcDbBlockReference
 62
2
  6
CONTINUOUS
  2
_FILLED
 10
50.3772476086
 20
175.4652039474
 41
3.5
 42
3.5
 43
3.5
 50
180.0
  0
ENDBLK
  5
231
100
AcDbEntity
  8
0
  6
BYBLOCK
 62
0
100
AcDbBlockEnd
  0
BLOCK
  5
232
100
AcDbEntity
  8
0
100
AcDbBlockBegin
 62
2
  6
CONTINUOUS
  2
*D2
 70
65
 10
0.0
 20
0.0
  3
*D2
  1

  0
TEXT
  5
233
100
AcDbEntity
  8
0
100
AcDbText
 62
2
  6
CONTINUOUS
 10
92.6102002377
 20
105.9108995764
  7
STANDARD
 40
2.5
  1
95,5
 72
5
 11
99.2833519887
 21
105.9108995764
100
AcDbText
  0
TEXT
  5
234
100
AcDbEntity
  8
0
100
AcDbText
 62
2
  6
CONTINUOUS
 10
99.2833519887
 20
105.9108995764
  7
STANDARD
 40
2.5
  1
mm
 72
5
 11
104.9545582143
 21
105.9108995764
100
AcDbText
  0
TEXT
  5
235
100
AcDbEntity
  8
0
100
AcDbText
 62
2
  6
CONTINUOUS
 10
93.9963870081
 20
102.1608995764
  7
STANDARD
 40
2.5
  1
3-3/4"
 72
5
 11
103.5683714439
 21
102.1608995764
100
AcDbText
  0
LINE
  5
236
100
AcDbEntity
  8
0
100
AcDbLine
 62
2
  6
CONTINUOUS
 10
51.1100411003
 20
86.2494992646
 11
67.3815694634
 21
71.1402229273
  0
LINE
  5
237
100
AcDbEntity
  8
0
100
AcDbLine
 62
2
  6
CONTINUOUS
 10
116.1100411003
 20
156.2494992646
 11
132.3815694634
 21
141.1402229273
  0
LINE
  5
238
100
AcDbEntity
  8
0
100
AcDbLine
 62
2
  6
CONTINUOUS
 10
66.282379226
 20
72.1608995764
 11
92.9788077974
 21
100.9108995764
  0
LINE
  5
239
100
AcDbEntity
  8
0
100
AcDbLine
 62
2
  6
CONTINUOUS
 10
131.282379226
 20
142.1608995764
 11
101.1038077974
 21
109.6608995764
  0
INSERT
  5
23A
100
AcDbEntity
  8
0
100
AcDbBlockReference
 62
2
  6
CONTINUOUS
  2
_FILLED
 10
66.282379226
 20
72.1608995764
 41
3.5
 42
3.5
 43
3.5
 50
227.1210963967
  0
INSERT
  5
23B
100
AcDbEntity
  8
0
100
AcDbBlockReference
 62
2
  6
CONTINUOUS
  2
_FILLED
 10
131.282379226
 20
142.1608995764
 41
3.5
 42
3.5
 43
3.5
 50
47.1210963967
  0
ENDBLK
  5
23C
100
AcDbEntity
  8
0
  6
BYBLOCK
 62
0
100
AcDbBlockEnd
  0
BLOCK
  5
23D
100
AcDbEntity
  8
0
100
AcDbBlockBegin
 62
2
  6
CONTINUOUS
  2
*D3
 70
65
 10
0.0
 20
0.0
  3
*D3
  1

  0
TEXT
  5
23E
100
AcDbEntity
  8
0
100
AcDbText
 62
2
  6
CONTINUOUS
 10
129.0994158356
 20
153.418790545
  7
STANDARD
 40
2.5
  1
8
 72
5
 11
130.9184819835
 21
153.418790545
100
AcDbText
  0
TEXT
  5
23F
100
AcDbEntity
  8
0
100
AcDbText
 62
2
  6
CONTINUOUS
 10
130.9184819835
 20
153.418790545
  7
STANDARD
 40
2.5
  1
mm
 72
5
 11
136.5896882091
 21
153.418790545
100
AcDbText
  0
TEXT
  5
240
100
AcDbEntity
  8
0
100
AcDbText
 62
2
  6
CONTINUOUS
 10
129.0361862636
 20
149.668790545
  7
STANDARD
 40
2.5
  1
 1/4"
 72
5
 11
136.6529177811
 21
149.668790545
100
AcDbText
  0
LINE
  5
241
100
AcDbEntity
  8
0
100
AcDbLine
 62
2
  6
CONTINUOUS
 10
116.3772476086
 20
156.9299503639
 11
134.3445520224
 21
156.9299503639
  0
LINE
  5
242
100
AcDbEntity
  8
0
100
AcDbLine
 62
2
  6
CONTINUOUS
 10
115.4153301555
 20
148.9120589921
 11
134.3445520224
 21
148.9120589921
  0
LINE
  5
243
100
AcDbEntity
  8
0
100
AcDbLine
 62
2
  6
CONTINUOUS
 10
132.8445520224
 20
156.9299503639
 11
132.8445520224
 21
161.9299503639
  0
LINE
  5
244
100
AcDbEntity
  8
0
100
AcDbLine
 62
2
  6
CONTINUOUS
 10
132.8445520224
 20
148.9120589921
 11
132.8445520224
 21
145.4120589921
  0
LINE
  5
245
100
AcDbEntity
  8
0
100
AcDbLine
 62
2
  6
CONTINUOUS
 10
132.8445520224
 20
145.4120589921
 11
132.8445520224
 21
148.418790545
  0
LINE
  5
246
100
AcDbEntity
  8
0
100
AcDbLine
 62
2
  6
CONTINUOUS
 10
132.8445520224
 20
148.418790545
 11
132.8445520224
 21
143.9120589921
  0
INSERT
  5
247
100
AcDbEntity
  8
0
100
AcDbBlockReference
 62
2
  6
CONTINUOUS
  2
_FILLED
 10
132.8445520224
 20
156.9299503639
 41
3.5
 42
3.5
 43
3.5
 50
270.0
  0
INSERT
  5
248
100
AcDbEntity
  8
0
100
AcDbBlockReference
 62
2
  6
CONTINUOUS
  2
_FILLED
 10
132.8445520224
 20
148.9120589921
 41
3.5
 42
3.5
 43
3.5
 50
90.0
  0
ENDBLK
  5
249
100
AcDbEntity
  8
0
  6
BYBLOCK
 62
0
100
AcDbBlockEnd
  0
BLOCK
  5
24A
100
AcDbEntity
  8
0
100
AcDbBlockBegin
 62
2
  6
CONTINUOUS
  2
*D4
 70
65
 10
0.0
 20
0.0
  3
*D4
  1

  0
TEXT
  5
24B
100
AcDbEntity
  8
0
100
AcDbText
 62
2
  6
CONTINUOUS
 10
50.7328422553
 20
69.984966049
  7
STANDARD
 40
2.5
  1
10
 72
5
 11
54.370974551
 21
69.984966049
100
AcDbText
  0
TEXT
  5
24C
100
AcDbEntity
  8
0
100
AcDbText
 62
2
  6
CONTINUOUS
 10
54.370974551
 20
69.984966049
  7
STANDARD
 40
2.5
  1
mm
 72
5
 11
60.0421807767
 21
69.984966049
100
AcDbText
  0
TEXT
  5
24D
100
AcDbEntity
  8
0
100
AcDbText
 62
2
  6
CONTINUOUS
 10
52.1190290257
 20
66.234966049
  7
STANDARD
 40
2.5
  1
3/8"
 72
5
 11
58.6559940062
 21
66.234966049
100
AcDbText
  0
LINE
  5
24E
100
AcDbEntity
  8
0
100
AcDbLine
 62
2
  6
CONTINUOUS
 10
50.3772476086
 20
85.9299503639
 11
50.3772476086
 21
69.734966049
  0
LINE
  5
24F
100
AcDbEntity
  8
0
100
AcDbLine
 62
2
  6
CONTINUOUS
 10
60.3977754233
 20
86.8871820834
 11
60.3977754233
 21
69.734966049
  0
LINE
  5
250
100
AcDbEntity
  8
0
100
AcDbLine
 62
2
  6
CONTINUOUS
 10
50.3772476086
 20
71.234966049
 11
45.3772476086
 21
71.234966049
  0
LINE
  5
251
100
AcDbEntity
  8
0
100
AcDbLine
 62
2
  6
CONTINUOUS
 10
60.3977754233
 20
71.234966049
 11
65.3977754233
 21
71.234966049
  0
INSERT
  5
252
100
AcDbEntity
  8
0
100
AcDbBlockReference
 62
2
  6
CONTINUOUS
  2
_FILLED
 10
50.3772476086
 20
71.234966049
 41
3.5
 42
3.5
 43
3.5
  0
INSERT
  5
253
100
AcDbEntity
  8
0
100
AcDbBlockReference
 62
2
  6
CONTINUOUS
  2
_FILLED
 10
60.3977754233
 20
71.234966049
 41
3.5
 42
3.5
 43
3.5
 50
180.0
  0
ENDBLK
  5
254
100
AcDbEntity
  8
0
  6
BYBLOCK
 62
0
100
AcDbBlockEnd
  0
BLOCK
  5
255
100
AcDbEntity
  8
0
100
AcDbBlockBegin
 62
2
  6
CONTINUOUS
  2
*D5
 70
65
 10
0.0
 20
0.0
  3
*D5
  1

  0
TEXT
  5
256
100
AcDbEntity
  8
0
100
AcDbText
 62
2
  6
CONTINUOUS
 10
72.2225783479
 20
164.8861631303
  7
STANDARD
 40
2.5
  1
53
 72
5
 11
75.8607106437
 21
164.8861631303
100
AcDbText
  0
TEXT
  5
257
100
AcDbEntity
  8
0
100
AcDbText
 62
2
  6
CONTINUOUS
 10
75.8607106437
 20
164.8861631303
  7
STANDARD
 40
2.5
  1
mm
 72
5
 11
81.5319168693
 21
164.8861631303
100
AcDbText
  0
TEXT
  5
258
100
AcDbEntity
  8
0
100
AcDbText
 62
2
  6
CONTINUOUS
 10
72.0912553907
 20
161.1361631303
  7
STANDARD
 40
2.5
  1
2-1/8"
 72
5
 11
81.6632398265
 21
161.1361631303
100
AcDbText
  0
LINE
  5
259
100
AcDbEntity
  8
0
100
AcDbLine
 62
2
  6
CONTINUOUS
 10
50.3772476086
 20
99.9299503639
 11
50.3772476086
 21
167.6361631303
  0
LINE
  5
25A
100
AcDbEntity
  8
0
100
AcDbLine
 62
2
  6
CONTINUOUS
 10
103.3772476086
 20
157.9299503639
 11
103.3772476086
 21
167.6361631303
  0
LINE
  5
25B
100
AcDbEntity
  8
0
100
AcDbLine
 62
2
  6
CONTINUOUS
 10
50.3772476086
 20
166.1361631303
 11
70.9725783479
 21
166.1361631303
  0
LINE
  5
25C
100
AcDbEntity
  8
0
100
AcDbLine
 62
2
  6
CONTINUOUS
 10
103.3772476086
 20
166.1361631303
 11
82.7819168693
 21
166.1361631303
  0
INSERT
  5
25D
100
AcDbEntity
  8
0
100
AcDbBlockReference
 62
2
  6
CONTINUOUS
  2
_FILLED
 10
50.3772476086
 20
166.1361631303
 41
3.5
 42
3.5
 43
3.5
 50
180.0
  0
INSERT
  5
25E
100
AcDbEntity
  8
0
100
AcDbBlockReference
 62
2
  6
CONTINUOUS
  2
_FILLED
 10
103.3772476086
 20
166.1361631303
 41
3.5
 42
3.5
 43
3.5
  0
ENDBLK
  5
25F
100
AcDbEntity
  8
0
  6
BYBLOCK
 62
0
100
AcDbBlockEnd
  0
BLOCK
  5
260
100
AcDbEntity
  8
0
100
AcDbBlockBegin
 62
2
  6
CONTINUOUS
  2
*D6
 70
65
 10
0.0
 20
0.0
  3
*D6
  1

  0
TEXT
  5
261
100
AcDbEntity
  8
0
100
AcDbText
 62
2
  6
CONTINUOUS
 10
36.6056884754
 20
126.6799503639
  7
STANDARD
 40
2.5
  1
58
 72
5
 11
40.2438207711
 21
126.6799503639
100
AcDbText
  0
TEXT
  5
262
100
AcDbEntity
  8
0
100
AcDbText
 62
2
  6
CONTINUOUS
 10
40.2438207711
 20
126.6799503639
  7
STANDARD
 40
2.5
  1
mm
 72
5
 11
45.9150269968
 21
126.6799503639
100
AcDbText
  0
TEXT
  5
263
100
AcDbEntity
  8
0
100
AcDbText
 62
2
  6
CONTINUOUS
 10
36.4743655182
 20
122.9299503639
  7
STANDARD
 40
2.5
  1
2-1/4"
 72
5
 11
46.046349954
 21
122.9299503639
100
AcDbText
  0
LINE
  5
264
100
AcDbEntity
  8
0
100
AcDbLine
 62
2
  6
CONTINUOUS
 10
102.3772476086
 20
156.9299503639
 11
39.7603577361
 21
156.9299503639
  0
LINE
  5
265
100
AcDbEntity
  8
0
100
AcDbLine
 62
2
  6
CONTINUOUS
 10
49.3772476086
 20
98.9299503639
 11
39.7603577361
 21
98.9299503639
  0
LINE
  5
266
100
AcDbEntity
  8
0
100
AcDbLine
 62
2
  6
CONTINUOUS
 10
41.2603577361
 20
156.9299503639
 11
41.2603577361
 21
130.4299503639
  0
LINE
  5
267
100
AcDbEntity
  8
0
100
AcDbLine
 62
2
  6
CONTINUOUS
 10
41.2603577361
 20
98.9299503639
 11
41.2603577361
 21
121.6799503639
  0
INSERT
  5
268
100
AcDbEntity
  8
0
100
AcDbBlockReference
 62
2
  6
CONTINUOUS
  2
_FILLED
 10
41.2603577361
 20
156.9299503639
 41
3.5
 42
3.5
 43
3.5
 50
90.0
  0
INSERT
  5
269
100
AcDbEntity
  8
0
100
AcDbBlockReference
 62
2
  6
CONTINUOUS
  2
_FILLED
 10
41.2603577361
 20
98.9299503639
 41
3.5
 42
3.5
 43
3.5
 50
270.0
  0
ENDBLK
  5
26A
100
AcDbEntity
  8
0
  6
BYBLOCK
 62
0
100
AcDbBlockEnd
  0
BLOCK
  5
26B
100
AcDbEntity
  8
0
100
AcDbBlockBegin
  2
*T1
 70
1
 10
0.0
 20
0.0
  3
*T1
  1

  0
LINE
  5
26C
100
AcDbEntity
  8
0
100
AcDbLine
 62
7
  6
CONTINUOUS
 10
0.0
 20
0.0
 11
148.0
 21
0.0
  0
LINE
  5
26D
100
AcDbEntity
  8
0
100
AcDbLine
 62
7
  6
CONTINUOUS
 10
0.0
 20
0.0
 11
0.0
 21
-43.0
  0
LINE
  5
26E
100
AcDbEntity
  8
0
100
AcDbLine
 62
7
  6
CONTINUOUS
 10
45.0
 20
-20.0
 11
148.0
 21
-20.0
  0
LINE
  5
26F
100
AcDbEntity
  8
0
100
AcDbLine
 62
7
  6
CONTINUOUS
 10
45.0
 20
-28.0
 11
148.0
 21
-28.0
  0
LINE
  5
270
100
AcDbEntity
  8
0
100
AcDbLine
 62
7
  6
CONTINUOUS
 10
0.0
 20
-43.0
 11
148.0
 21
-43.0
  0
LINE
  5
271
100
AcDbEntity
  8
0
100
AcDbLine
 62
7
  6
CONTINUOUS
 10
45.0
 20
0.0
 11
45.0
 21
-43.0
  0
LINE
  5
272
100
AcDbEntity
  8
0
100
AcDbLine
 62
7
  6
CONTINUOUS
 10
143.0
 20
0.0
 11
143.0
 21
-20.0
  0
LINE
  5
273
100
AcDbEntity
  8
0
100
AcDbLine
 62
7
  6
CONTINUOUS
 10
148.0
 20
0.0
 11
148.0
 21
-43.0
  0
TEXT
  5
274
100
AcDbEntity
  8
0
100
AcDbText
 62
7
  6
CONTINUOUS
 10
8.9659749243
 20
-9.175
  7
STANDARD
 40
8.0
  1
O
 72
5
 11
17.370644185
 21
-9.175
100
AcDbText
  0
TEXT
  5
275
100
AcDbEntity
  8
0
100
AcDbText
 62
7
  6
CONTINUOUS
 10
17.370644185
 20
-9.175
  7
STANDARD
 40
5.5
  1
RAC
 72
5
 11
33.9562472979
 21
-9.175
100
AcDbText
  0
TEXT
  5
276
100
AcDbEntity
  8
0
100
AcDbText
 62
7
  6
CONTINUOUS
 10
33.9562472979
 20
-4.425
  7
TEXTSTYLE_2
 40
3.0
  1
®
 72
5
 11
36.0340250757
 21
-4.425
100
AcDbText
  0
TEXT
  5
277
100
AcDbEntity
  8
0
100
AcDbText
 62
7
  6
CONTINUOUS
 10
9.5323389537
 20
-13.825
  7
TEXTSTYLE_2
 40
3.0
  1
D  E  C  O  R
 72
5
 11
34.3878945093
 21
-13.825
100
AcDbText
  0
TEXT
  5
278
100
AcDbEntity
  8
0
100
AcDbText
 62
7
  6
CONTINUOUS
 10
34.3878945093
 20
-13.825
  7
STANDARD
 40
2.5
  1
 
 72
5
 11
35.4676610463
 21
-13.825
100
AcDbText
  0
TEXT
  5
279
100
AcDbEntity
  8
0
100
AcDbText
 62
7
  6
CONTINUOUS
 10
52.8786764706
 20
-4.6
  7
TEXTSTYLE_3
 40
2.7
  1
Part name:
 72
5
 11
71.9375
 21
-4.6
100
AcDbText
  0
TEXT
  5
27A
100
AcDbEntity
  8
0
100
AcDbText
 62
7
  6
CONTINUOUS
 10
49.6908613445
 20
-11.35
  7
TEXTSTYLE_3
 40
2.7
  1
Designed by:
 72
5
 11
71.9375
 21
-11.35
100
AcDbText
  0
TEXT
  5
27B
100
AcDbEntity
  8
0
100
AcDbText
 62
7
  6
CONTINUOUS
 10
49.3732142857
 20
-18.1
  7
TEXTSTYLE_3
 40
2.7
  1
Designed on:
 72
5
 11
71.9375
 21
-18.1
100
AcDbText
  0
TEXT
  5
27C
100
AcDbEntity
  8
0
100
AcDbText
 62
2
  6
CONTINUOUS
 10
74.0625
 20
-4.6
  7
TEXTSTYLE_3
 40
2.7
  1
C325
 72
5
 11
82.7977941176
 21
-4.6
100
AcDbText
  0
TEXT
  5
27D
100
AcDbEntity
  8
0
100
AcDbText
 62
2
  6
CONTINUOUS
 10
74.0625
 20
-11.35
  7
TEXTSTYLE_3
 40
2.7
  1
ORAC
 72
5
 11
83.9209033613
 21
-11.35
100
AcDbText
  0
TEXT
  5
27E
100
AcDbEntity
  8
0
100
AcDbText
 62
2
  6
CONTINUOUS
 10
74.0625
 20
-18.1
  7
TEXTSTYLE_3
 40
2.7
  1
01-Apr-2019
 72
5
 11
95.787289916
 21
-18.1
100
AcDbText
  0
TEXT
  5
27F
100
AcDbEntity
  8
0
100
AcDbText
 62
2
  6
CONTINUOUS
 10
95.787289916
 20
-18.1
  7
TEXTSTYLE_3
 40
2.7
  1
 
 72
5
 11
96.7515756303
 21
-18.1
100
AcDbText
  0
TEXT
  5
280
100
AcDbEntity
  8
0
100
AcDbText
 62
2
  6
CONTINUOUS
 10
146.5625
 20
-16.0
  7
TEXTSTYLE_3
 40
1.5
  1
Version: 
 50
90.0
 72
5
 11
146.5625
 21
-7.5294117647
100
AcDbText
  0
TEXT
  5
281
100
AcDbEntity
  8
0
100
AcDbText
 62
2
  6
CONTINUOUS
 10
146.5625
 20
-7.5294117647
  7
TEXTSTYLE_3
 40
1.5
  1
1.0
 50
90.0
 72
5
 11
146.5625
 21
-4.5357142857
100
AcDbText
  0
TEXT
  5
282
100
AcDbEntity
  8
0
100
AcDbText
 62
2
  6
CONTINUOUS
 10
146.5625
 20
-4.5357142857
  7
TEXTSTYLE_3
 40
1.5
  1
 
 50
90.0
 72
5
 11
146.5625
 21
-4.0
100
AcDbText
  0
TEXT
  5
283
100
AcDbEntity
  8
0
100
AcDbText
 62
7
  6
CONTINUOUS
 10
9.6586134454
 20
-22.75
  7
TEXTSTYLE_3
 40
2.5
  1
Biekorfstraat 32
 72
5
 11
35.3413865546
 21
-22.75
100
AcDbText
  0
TEXT
  5
284
100
AcDbEntity
  8
0
100
AcDbText
 62
7
  6
CONTINUOUS
 10
2.2584033613
 20
-26.5
  7
TEXTSTYLE_3
 40
2.5
  1
8400 Oostende - Belgium
 72
5
 11
42.7415966387
 21
-26.5
100
AcDbText
  0
TEXT
  5
285
100
AcDbEntity
  8
0
100
AcDbText
 62
7
  6
CONTINUOUS
 10
4.2699579832
 20
-30.25
  7
TEXTSTYLE_3
 40
2.5
  1
Tel  +32 (0)59 80 32 52
 72
5
 11
40.7300420168
 21
-30.25
100
AcDbText
  0
TEXT
  5
286
100
AcDbEntity
  8
0
100
AcDbText
 62
7
  6
CONTINUOUS
 10
5.7405462185
 20
-34.0
  7
TEXTSTYLE_3
 40
2.5
  1
www.oracdecor.com
 72
5
 11
39.2594537815
 21
-34.0
100
AcDbText
  0
TEXT
  5
287
100
AcDbEntity
  8
0
100
AcDbText
 62
7
  6
CONTINUOUS
 10
5.5777310924
 20
-37.75
  7
TEXTSTYLE_3
 40
2.5
  1
info@oracdecor.com
 72
5
 11
39.4222689076
 21
-37.75
100
AcDbText
  0
TEXT
  5
288
100
AcDbEntity
  8
0
100
AcDbText
 62
7
  6
CONTINUOUS
 10
46.0625
 20
-23.375
  7
TEXTSTYLE_3
 40
2.5
  1
Unless otherwise specified: all dimensions are in millimeters 
 72
5
 11
143.4259453782
 21
-23.375
100
AcDbText
  0
TEXT
  5
289
100
AcDbEntity
  8
0
100
AcDbText
 62
7
  6
CONTINUOUS
 10
46.0625
 20
-27.125
  7
TEXTSTYLE_3
 40
2.5
  1
and inches, scale 1:1, length 2 meters
 72
5
 11
106.1675420168
 21
-27.125
100
AcDbText
  0
TEXT
  5
28A
100
AcDbEntity
  8
0
100
AcDbText
 62
7
  6
CONTINUOUS
 10
46.0625
 20
-31.81
  7
TEXTSTYLE_3
 40
1.8
  1
All information in this document is Orac's exclusive property.  It may in no case 
 72
5
 11
137.5070378151
 21
-31.81
100
AcDbText
  0
TEXT
  5
28B
100
AcDbEntity
  8
0
100
AcDbText
 62
7
  6
CONTINUOUS
 10
46.0625
 20
-34.87
  7
TEXTSTYLE_3
 40
1.8
  1
be reproduced, even partly, be communicated to a third party or used for any 
 72
5
 11
136.3272058824
 21
-34.87
100
AcDbText
  0
TEXT
  5
28C
100
AcDbEntity
  8
0
100
AcDbText
 62
7
  6
CONTINUOUS
 10
46.0625
 20
-37.93
  7
TEXTSTYLE_3
 40
1.8
  1
possible purpose without ORAC's express written permission. Further legal 
 72
5
 11
132.7952731092
 21
-37.93
100
AcDbText
  0
TEXT
  5
28D
100
AcDbEntity
  8
0
100
AcDbText
 62
7
  6
CONTINUOUS
 10
46.0625
 20
-40.99
  7
TEXTSTYLE_3
 40
1.8
  1
information can be found at https://www.oracdecor.com/en/general-sales-conditions
 72
5
 11
145.349894958
 21
-40.99
100
AcDbText
  0
ENDBLK
  5
28E
100
AcDbEntity
  8
0
  6
BYBLOCK
 62
0
100
AcDbBlockEnd
  0
ENDSEC
  0
SECTION
  2
ENTITIES
  0
DIMENSION
  5
28F
100
AcDbEntity
  8
0
100
AcDbDimension
 62
2
  6
CONTINUOUS
  2
*D0
 10
28.1908199013
 20
86.9299503639
 11
28.1908199013
 21
120.0549503639
 70
160
 71
2
 72
2
 41
0.9
 42
70.0
  1
<>mm\P2-3/4"
  3
DIMSTYLE_1
100
AcDbAlignedDimension
 13
103.3772476086
 23
156.9299503639
 14
50.3772476086
 24
86.9299503639
 50
270.0
100
AcDbRotatedDimension
  0
DIMENSION
  5
290
100
AcDbEntity
  8
0
100
AcDbDimension
 62
2
  6
CONTINUOUS
  2
*D1
 10
50.3772476086
 20
175.4652039474
 11
82.8772476086
 21
173.5902039474
 70
160
 71
2
 72
2
 41
0.9
 42
65.0
  1
<>mm\P2-1/2"
  3
DIMSTYLE_1
100
AcDbAlignedDimension
 13
115.3772476086
 23
156.9299503639
 14
50.3772476086
 24
98.9299503639
 50
180.0
100
AcDbRotatedDimension
  0
DIMENSION
  5
291
100
AcDbEntity
  8
0
100
AcDbDimension
 62
2
  6
CONTINUOUS
  2
*D2
 10
131.282379226
 20
142.1608995764
 11
98.782379226
 21
105.2858995764
 70
160
 71
2
 72
2
 41
0.9
 42
95.5248658727
  1
<>mm\P3-3/4"
  3
DIMSTYLE_2
100
AcDbAlignedDimension
 13
50.3772476086
 23
86.9299503639
 14
115.3772476086
 24
156.9299503639
 50
47.1210963967
100
AcDbRotatedDimension
  0
DIMENSION
  5
292
100
AcDbEntity
  8
0
100
AcDbDimension
 62
2
  6
CONTINUOUS
  2
*D3
 10
132.8445520224
 20
148.9120589921
 11
132.8445520224
 21
152.793790545
 70
160
 71
2
 72
2
 41
0.9
 42
8.0178913718
  1
<>mm\P 1/4"
  3
DIMSTYLE_3
100
AcDbAlignedDimension
 13
115.3772476086
 23
156.9299503639
 14
114.4153301555
 24
148.9120589921
 50
270.0
100
AcDbRotatedDimension
  0
DIMENSION
  5
293
100
AcDbEntity
  8
0
100
AcDbDimension
 62
2
  6
CONTINUOUS
  2
*D4
 10
60.3977754233
 20
71.234966049
 11
55.387511516
 21
69.359966049
 70
160
 71
2
 72
2
 41
0.9
 42
10.0205278146
  1
<>mm\P3/8"
  3
DIMSTYLE_2
100
AcDbAlignedDimension
 13
50.3772476086
 23
86.9299503639
 14
60.3977754233
 24
87.8871820834
100
AcDbRotatedDimension
  0
DIMENSION
  5
294
100
AcDbEntity
  8
0
100
AcDbDimension
 62
2
  6
CONTINUOUS
  2
*D5
 10
103.3772476086
 20
166.1361631303
 11
76.8772476086
 21
164.2611631303
 70
160
 71
2
 72
2
 41
0.9
 42
53.0
  1
<>mm\P2-1/8"
  3
DIMSTYLE_1
100
AcDbAlignedDimension
 13
50.3772476086
 23
98.9299503639
 14
103.3772476086
 24
156.9299503639
100
AcDbRotatedDimension
  0
DIMENSION
  5
295
100
AcDbEntity
  8
0
100
AcDbDimension
 62
2
  6
CONTINUOUS
  2
*D6
 10
41.2603577361
 20
98.9299503639
 11
41.2603577361
 21
126.0549503639
 70
160
 71
2
 72
2
 41
0.9
 42
58.0
  1
<>mm\P2-1/4"
  3
DIMSTYLE_1
100
AcDbAlignedDimension
 13
103.3772476086
 23
156.9299503639
 14
50.3772476086
 24
98.9299503639
 50
270.0
100
AcDbRotatedDimension
  0
ACAD_TABLE
  5
296
100
AcDbEntity
  8
0
 62
2
  6
CONTINUOUS
100
AcDbBlockReference
  2
*T1
 10
144.0
 20
48.0
 30
0.0
100
AcDbTable
342
       2EC
343
214
 11
1.0
 21
0.0
 31
0.0
 90
22
 91
4
 92
4
 93
0
 94
0
 95
0
 96
0
141
15.0
141
5.0
141
8.0
141
15.0
142
45.0
142
28.0
142
70.0
142
5.0
171
1
172
0
173
0
174
0
175
1
176
1
 91
41
178
0
145
0.0
301
CELL_VALUE
 90
4
  1
\A1;O\H5.5;RAC\fCG Triumvirate;\H3.0;\S®^ ;\PD  E  C  O  R\fCG Times;\H2.5; 
304
ACVALUE_END
170
5
140
8.0
 64
7
171
1
172
0
173
0
174
0
175
1
176
2
 91
57
178
0
145
0.0
  7
TEXTSTYLE_3
301
CELL_VALUE
 90
4
  1
Part name:\PDesigned by:\PDesigned on:
304
ACVALUE_END
170
6
140
2.7
 64
7
171
1
172
0
173
0
174
0
175
1
176
2
 91
49
178
0
145
0.0
  7
TEXTSTYLE_3
301
CELL_VALUE
 90
4
  1
C325\PORAC\P01-Apr-2019 
304
ACVALUE_END
170
4
140
2.7
171
1
172
0
173
0
174
0
175
1
176
2
 91
49
178
0
145
0.0
  7
TEXTSTYLE_3
301
CELL_VALUE
 90
4
  1
Version: 1.0 
304
ACVALUE_END
170
6
140
1.5
171
1
172
0
173
0
174
0
175
1
176
3
 91
57
178
0
145
0.0
  7
TEXTSTYLE_3
301
CELL_VALUE
 90
4
  1
Biekorfstraat 32\P8400 Oostende - Belgium\PTel  +32 (0)59 80 32 52\Pwww.oracdecor.com\Pinfo@oracdecor.com
304
ACVALUE_END
170
5
140
2.5
 64
7
171
1
172
0
173
1
174
0
175
1
176
1
 91
1
178
0
145
0.0
170
1
171
1
172
0
173
1
174
0
175
1
176
1
 91
1
178
0
145
0.0
170
1
171
1
172
0
173
1
174
0
175
1
176
1
 91
1
178
0
145
0.0
170
1
171
1
172
0
173
1
174
0
175
1
176
1
 91
1
178
0
145
0.0
170
1
171
1
172
0
173
0
174
0
175
3
176
1
 91
57
178
0
145
0.0
  7
TEXTSTYLE_3
301
CELL_VALUE
 90
4
  1
Unless otherwise specified: all dimensions are in millimeters \Pand inches, scale 1:1, length 2 meters
304
ACVALUE_END
170
4
140
2.5
 64
7
171
1
172
0
173
1
174
0
175
1
176
1
 91
1
178
0
145
0.0
170
1
171
1
172
0
173
1
174
0
175
1
176
1
 91
1
178
0
145
0.0
170
1
171
1
172
0
173
1
174
0
175
1
176
1
 91
1
178
0
145
0.0
170
1
171
1
172
0
173
0
174
0
175
3
176
1
 91
57
178
0
145
0.0
  7
TEXTSTYLE_3
301
CELL_VALUE
 90
4
  2
All information in this document is Orac's exclusive property.  It may in no case \Pbe reproduced, even partly, be communicated to a third party or used for any \Ppossible purpose without ORAC's express written permission. Further legal \Pinformation
  1
 can be found at https://www.oracdecor.com/en/general-sales-conditions
304
ACVALUE_END
170
4
140
1.8
 64
7
171
1
172
0
173
1
174
0
175
1
176
1
 91
1
178
0
145
0.0
170
1
171
1
172
0
173
1
174
0
175
1
176
1
 91
1
178
0
145
0.0
170
1
  0
LINE
  5
297
100
AcDbEntity
  8
0
100
AcDbLine
 62
5
  6
CONTINUOUS
 10
0.0
 20
0.0
 11
0.0
 21
210.0
  0
LINE
  5
298
100
AcDbEntity
  8
0
100
AcDbLine
 62
7
  6
CONTINUOUS
 10
5.0
 20
5.0
 11
5.0
 21
195.0
  0
LINE
  5
299
100
AcDbEntity
  8
0
100
AcDbLine
 62
5
  6
CONTINUOUS
 10
0.0
 20
0.0
 11
297.0
 21
0.0
  0
LINE
  5
29A
100
AcDbEntity
  8
0
100
AcDbLine
 62
7
  6
CONTINUOUS
 10
5.0
 20
5.0
 11
292.0
 21
5.0
  0
LINE
  5
29B
100
AcDbEntity
  8
0
100
AcDbLine
 62
4
  6
CONTINUOUS
 10
148.5
 20
195.0
 11
148.5
 21
205.0
  0
LINE
  5
29C
100
AcDbEntity
  8
0
100
AcDbLine
 62
7
  6
CONTINUOUS
 10
5.0
 20
195.0
 11
292.0
 21
195.0
  0
LINE
  5
29D
100
AcDbEntity
  8
0
100
AcDbLine
 62
5
  6
CONTINUOUS
 10
0.0
 20
210.0
 11
297.0
 21
210.0
  0
LINE
  5
29E
100
AcDbEntity
  8
0
100
AcDbLine
 62
7
  6
CONTINUOUS
 10
292.0
 20
5.0
 11
292.0
 21
195.0
  0
LINE
  5
29F
100
AcDbEntity
  8
0
100
AcDbLine
 62
5
  6
CONTINUOUS
 10
297.0
 20
0.0
 11
297.0
 21
210.0
  0
LINE
  5
2A0
100
AcDbEntity
  8
0
100
AcDbLine
 62
7
  6
CONTINUOUS
 10
167.6281076793
 20
110.678363704
 11
167.6270864892
 21
107.3261648286
  0
LINE
  5
2A1
100
AcDbEntity
  8
0
100
AcDbLine
 62
7
  6
CONTINUOUS
 10
167.6259971502
 20
103.7502574023
 11
167.6244526414
 21
98.6801913622
  0
LINE
  5
2A2
100
AcDbEntity
  8
0
100
AcDbLine
 62
7
  6
CONTINUOUS
 10
202.5239493439
 20
63.7753784876
 11
211.5440181306
 21
63.7753784876
  0
LINE
  5
2A3
100
AcDbEntity
  8
0
100
AcDbLine
 62
7
  6
CONTINUOUS
 10
202.5239493439
 20
63.7753784876
 11
167.6244526414
 21
98.6801913622
  0
LINE
  5
2A4
100
AcDbEntity
  8
0
100
AcDbLine
 62
7
  6
CONTINUOUS
 10
168.792437653
 20
106.1606361491
 11
167.6270864892
 21
107.3261648286
  0
LINE
  5
2A5
100
AcDbEntity
  8
0
100
AcDbLine
 62
7
  6
CONTINUOUS
 10
168.6003128451
 20
106.5123542071
 11
168.1593294269
 21
106.9534047995
  0
LINE
  5
2A6
100
AcDbEntity
  8
0
100
AcDbLine
 62
7
  6
CONTINUOUS
 10
176.6445214281
 20
98.6801913622
 11
211.5440181306
 21
63.7753784876
  0
LINE
  5
2A7
100
AcDbEntity
  8
0
100
AcDbLine
 62
7
  6
CONTINUOUS
 10
177.6437458409
 20
99.6372772906
 11
212.5432425434
 21
64.7324644161
  0
LINE
  5
2A8
100
AcDbEntity
  8
0
100
AcDbLine
 62
7
  6
CONTINUOUS
 10
168.1593294269
 20
106.9534047995
 11
167.6270864892
 21
107.3261648286
  0
LINE
  5
2A9
100
AcDbEntity
  8
0
100
AcDbLine
 62
7
  6
CONTINUOUS
 10
202.6270346894
 20
124.6547919059
 11
202.6297217265
 21
133.475366372
  0
LINE
  5
2AA
100
AcDbEntity
  8
0
100
AcDbLine
 62
7
  6
CONTINUOUS
 10
167.6244526414
 20
98.6801913622
 11
176.6445214281
 21
98.6801913622
  0
LINE
  5
2AB
100
AcDbEntity
  8
0
100
AcDbLine
 62
7
  6
CONTINUOUS
 10
167.6281076793
 20
110.678363704
 11
168.8359506535
 21
110.678363704
  0
LINE
  5
2AC
100
AcDbEntity
  8
0
100
AcDbLine
 62
7
  6
CONTINUOUS
 10
201.6696444531
 20
123.6558590529
 11
236.5691411556
 21
88.7510461784
  0
LINE
  5
2AD
100
AcDbEntity
  8
0
100
AcDbLine
 62
7
  6
CONTINUOUS
 10
202.6270346894
 20
124.6547919059
 11
237.5265313919
 21
89.7499790314
  0
LINE
  5
2AE
100
AcDbEntity
  8
0
100
AcDbLine
 62
7
  6
CONTINUOUS
 10
220.6375506356
 20
168.1741684847
 11
220.637701539
 21
168.6695300231
  0
LINE
  5
2AF
100
AcDbEntity
  8
0
100
AcDbLine
 62
7
  6
CONTINUOUS
 10
237.529218429
 20
98.5705534975
 11
202.6297217265
 21
133.475366372
  0
LINE
  5
2B0
100
AcDbEntity
  8
0
100
AcDbLine
 62
7
  6
CONTINUOUS
 10
237.7282954144
 20
98.7705207634
 11
202.8287987119
 21
133.6753336379
  0
LINE
  5
2B1
100
AcDbEntity
  8
0
100
AcDbLine
 62
7
  6
CONTINUOUS
 10
232.633736105
 20
161.6519822173
 11
232.6358738809
 21
168.6695300231
  0
LINE
  5
2B2
100
AcDbEntity
  8
0
100
AcDbLine
 62
7
  6
CONTINUOUS
 10
237.5265313919
 20
89.7499790314
 11
237.529218429
 21
98.5705534975
  0
LINE
  5
2B3
100
AcDbEntity
  8
0
100
AcDbLine
 62
7
  6
CONTINUOUS
 10
231.671660791
 20
160.652859815
 11
266.5711574935
 21
125.7480469404
  0
LINE
  5
2B4
100
AcDbEntity
  8
0
100
AcDbLine
 62
7
  6
CONTINUOUS
 10
232.633736105
 20
161.6519822173
 11
267.5332328075
 21
126.7471693428
  0
LINE
  5
2B5
100
AcDbEntity
  8
0
100
AcDbLine
 62
7
  6
CONTINUOUS
 10
267.5353705834
 20
133.7647171485
 11
232.6358738809
 21
168.6695300231
  0
LINE
  5
2B6
100
AcDbEntity
  8
0
100
AcDbLine
 62
7
  6
CONTINUOUS
 10
267.5332328075
 20
126.7471693428
 11
267.5353705834
 21
133.7647171485
  0
LINE
  5
2B7
100
AcDbEntity
  8
0
100
AcDbLine
 62
7
  6
CONTINUOUS
 10
232.6358738809
 20
168.6695300231
 11
228.4489632144
 21
168.6695300231
  0
LINE
  5
2B8
100
AcDbEntity
  8
0
100
AcDbLine
 62
7
  6
CONTINUOUS
 10
224.5675435067
 20
168.6695300231
 11
220.637701539
 21
168.6695300231
  0
LINE
  5
2B9
100
AcDbEntity
  8
0
100
AcDbLine
 62
7
  6
CONTINUOUS
 10
224.5675435067
 20
168.6695300231
 11
225.9639969964
 21
167.8953324823
  0
LINE
  5
2BA
100
AcDbEntity
  8
0
100
AcDbLine
 62
7
  6
CONTINUOUS
 10
50.9096851941
 20
95.2044240437
 11
50.3772476086
 21
95.5772408546
  0
LINE
  5
2BB
100
AcDbEntity
  8
0
100
AcDbLine
 62
7
  6
CONTINUOUS
 10
50.3772476086
 20
86.9299503639
 11
59.3986904048
 21
86.9299503639
  0
LINE
  5
2BC
100
AcDbEntity
  8
0
100
AcDbLine
 62
7
  6
CONTINUOUS
 10
50.3772476086
 20
98.9299503639
 11
50.3772476086
 21
95.5772408546
  0
LINE
  5
2BD
100
AcDbEntity
  8
0
100
AcDbLine
 62
7
  6
CONTINUOUS
 10
50.3772476086
 20
92.0007887174
 11
50.3772476086
 21
86.9299503639
  0
LINE
  5
2BE
100
AcDbEntity
  8
0
100
AcDbLine
 62
7
  6
CONTINUOUS
 10
50.3772476086
 20
98.9299503639
 11
51.5852745713
 21
98.9299503639
  0
LINE
  5
2BF
100
AcDbEntity
  8
0
100
AcDbLine
 62
7
  6
CONTINUOUS
 10
85.3772476086
 20
112.9085075678
 11
85.3772476086
 21
121.7304256547
  0
LINE
  5
2C0
100
AcDbEntity
  8
0
100
AcDbLine
 62
7
  6
CONTINUOUS
 10
103.3772476086
 20
156.434513368
 11
103.3772476086
 21
156.9299503639
  0
LINE
  5
2C1
100
AcDbEntity
  8
0
100
AcDbLine
 62
7
  6
CONTINUOUS
 10
115.3772476086
 20
149.9113335888
 11
115.3772476086
 21
156.9299503639
  0
LINE
  5
2C2
100
AcDbEntity
  8
0
100
AcDbLine
 62
7
  6
CONTINUOUS
 10
115.3772476086
 20
156.9299503639
 11
111.1896991583
 21
156.9299503639
  0
LINE
  5
2C3
100
AcDbEntity
  8
0
100
AcDbLine
 62
7
  6
CONTINUOUS
 10
107.3076882015
 20
156.9299503639
 11
103.3772476086
 21
156.9299503639
  0
LINE
  5
2C4
100
AcDbEntity
  8
0
100
AcDbLine
 62
7
  6
CONTINUOUS
 10
107.3076882015
 20
156.9299503639
 11
108.7045902922
 21
156.1556348911
  0
ARC
  5
2C5
100
AcDbEntity
  8
0
100
AcDbCircle
 62
7
  6
CONTINUOUS
 10
202.4581930528
 20
150.6721095904
 40
9.0020909342
100
AcDbArc
 50
271.2476210062
 51
348.6341563515
  0
ARC
  5
2C6
100
AcDbEntity
  8
0
100
AcDbCircle
 62
7
  6
CONTINUOUS
 10
202.8327353954
 20
133.4723142016
 40
8.2018350414
100
AcDbArc
 50
91.2473134898
 51
176.5481272731
  0
ARC
  5
2C7
100
AcDbEntity
  8
0
100
AcDbCircle
 62
7
  6
CONTINUOUS
 10
189.653673144
 20
134.2673006881
 40
5.0011943002
100
AcDbArc
 50
290.774512345
 51
356.5477671388
  0
ARC
  5
2C8
100
AcDbEntity
  8
0
100
AcDbCircle
 62
7
  6
CONTINUOUS
 10
168.8356423246
 20
115.6794306226
 40
5.001077676
100
AcDbArc
 50
270.0035324357
 51
332.6222109254
  0
ARC
  5
2C9
100
AcDbEntity
  8
0
100
AcDbCircle
 62
7
  6
CONTINUOUS
 10
215.6366581487
 20
168.175933661
 40
5.0008994541
100
AcDbArc
 50
309.6285966348
 51
359.9797761796
  0
ARC
  5
2CA
100
AcDbEntity
  8
0
100
AcDbCircle
 62
7
  6
CONTINUOUS
 10
226.836525074
 20
169.4698084221
 40
1.8000967172
100
AcDbArc
 50
241.0060740705
 51
333.6040724614
  0
ARC
  5
2CB
100
AcDbEntity
  8
0
100
AcDbCircle
 62
7
  6
CONTINUOUS
 10
167.1262982834
 20
105.4795554838
 40
1.7999936092
100
AcDbArc
 50
286.1172060012
 51
54.9850336255
  0
ARC
  5
2CC
100
AcDbEntity
  8
0
100
AcDbCircle
 62
7
  6
CONTINUOUS
 10
236.5263117859
 20
89.7503484559
 40
1.0002196742
100
AcDbArc
 50
272.454153534
 51
359.9788381841
  0
ARC
  5
2CD
100
AcDbEntity
  8
0
100
AcDbCircle
 62
7
  6
CONTINUOUS
 10
201.6268150834
 20
124.6551613304
 40
1.0002196742
100
AcDbArc
 50
272.454153534
 51
359.9788381841
  0
ARC
  5
2CE
100
AcDbEntity
  8
0
100
AcDbCircle
 62
7
  6
CONTINUOUS
 10
211.5439533623
 20
64.7755981549
 40
1.0002196694
100
AcDbArc
 50
270.0037101357
 51
357.5283951003
  0
ARC
  5
2CF
100
AcDbEntity
  8
0
100
AcDbCircle
 62
7
  6
CONTINUOUS
 10
176.6444566598
 20
99.6804110295
 40
1.0002196694
100
AcDbArc
 50
270.0037101357
 51
357.5283951003
  0
ARC
  5
2D0
100
AcDbEntity
  8
0
100
AcDbCircle
 62
7
  6
CONTINUOUS
 10
266.5330136256
 20
126.747538608
 40
1.0002192501
100
AcDbArc
 50
272.1855335474
 51
359.9788472945
  0
ARC
  5
2D1
100
AcDbEntity
  8
0
100
AcDbCircle
 62
7
  6
CONTINUOUS
 10
231.6335169231
 20
161.6523514826
 40
1.0002192501
100
AcDbArc
 50
272.1855335474
 51
359.9788472945
  0
ARC
  5
2D2
100
AcDbEntity
  8
0
100
AcDbCircle
 62
7
  6
CONTINUOUS
 10
237.7292631548
 20
98.5704783642
 40
0.2000453398
100
AcDbArc
 50
90.2771762857
 51
179.9784807216
  0
ARC
  5
2D3
100
AcDbEntity
  8
0
100
AcDbCircle
 62
7
  6
CONTINUOUS
 10
202.8297664523
 20
133.4752912388
 40
0.2000453398
100
AcDbArc
 50
90.2771762854
 51
179.9784807218
  0
ARC
  5
2D4
100
AcDbEntity
  8
0
100
AcDbCircle
 62
7
  6
CONTINUOUS
 10
85.2038457532
 20
138.92637201
 40
9.0
100
AcDbArc
 50
271.2439553058
 51
348.6519013267
  0
ARC
  5
2D5
100
AcDbEntity
  8
0
100
AcDbCircle
 62
7
  6
CONTINUOUS
 10
85.5772476086
 20
121.7304256547
 40
8.2
100
AcDbArc
 50
91.2439553058
 51
176.5682002562
  0
ARC
  5
2D6
100
AcDbEntity
  8
0
100
AcDbCircle
 62
7
  6
CONTINUOUS
 10
98.3772476086
 20
156.434513368
 40
5.0
100
AcDbArc
 50
309.6372521873
 51
360.0
  0
ARC
  5
2D7
100
AcDbEntity
  8
0
100
AcDbCircle
 62
7
  6
CONTINUOUS
 10
72.400918396
 20
122.5205829048
 40
5.0
100
AcDbArc
 50
290.776733614
 51
356.5682002562
  0
ARC
  5
2D8
100
AcDbEntity
  8
0
100
AcDbCircle
 62
7
  6
CONTINUOUS
 10
51.5852745713
 20
103.9299503639
 40
5.0
100
AcDbArc
 50
270.0
 51
332.6348573752
  0
ARC
  5
2D9
100
AcDbEntity
  8
0
100
AcDbCircle
 62
7
  6
CONTINUOUS
 10
109.5772476086
 20
157.7299503639
 40
1.8
100
AcDbArc
 50
241.0
 51
333.6122000388
  0
ARC
  5
2DA
100
AcDbEntity
  8
0
100
AcDbCircle
 62
7
  6
CONTINUOUS
 10
49.8772476086
 20
93.7299503639
 40
1.8
100
AcDbArc
 50
286.1276202132
 51
55.0
  0
ARC
  5
2DB
100
AcDbEntity
  8
0
100
AcDbCircle
 62
7
  6
CONTINUOUS
 10
114.3772476086
 20
149.9113335888
 40
1.0
100
AcDbArc
 50
272.1824969627
 51
360.0
  0
ARC
  5
2DC
100
AcDbEntity
  8
0
100
AcDbCircle
 62
7
  6
CONTINUOUS
 10
84.3772476086
 20
112.9085075678
 40
1.0
100
AcDbArc
 50
272.4511896127
 51
360.0
  0
ARC
  5
2DD
100
AcDbEntity
  8
0
100
AcDbCircle
 62
7
  6
CONTINUOUS
 10
59.3986904048
 20
87.9299503639
 40
1.0
100
AcDbArc
 50
270.0
 51
357.5488103873
  0
ARC
  5
2DE
100
AcDbEntity
  8
0
100
AcDbCircle
 62
7
  6
CONTINUOUS
 10
85.5772476086
 20
121.7304256547
 40
0.2
100
AcDbArc
 50
90.2731917379
 51
180.0
  0
SPLINE
  5
2DF
100
AcDbEntity
  8
0
100
AcDbSpline
 62
7
  6
CONTINUOUS
 70
0
 71
3
 72
21
 73
17
 74
0
 42
0.0000001
 43
0.0000001
 44
0.0000000001
 40
0.0
 40
0.0
 40
0.0
 40
0.0
 40
0.0737014251
 40
0.1416410734
 40
0.2057548635
 40
0.2672270367
 40
0.3268637052
 40
0.3852474673
 40
0.499999993
 40
0.6147525196
 40
0.6731362828
 40
0.7327729528
 40
0.7942451279
 40
0.8583589204
 40
0.9262985716
 40
1.0
 40
1.0
 40
1.0
 40
1.0
 10
236.5691411556
 20
88.7510461784
 30
0.0
 10
235.6578796988
 20
88.7120379092
 30
0.0
 10
233.9093966343
 20
88.5304660358
 30
0.0
 10
231.4177600253
 20
87.9846389447
 30
0.0
 10
229.1382040988
 20
87.2376964486
 30
0.0
 10
227.0333911361
 20
86.3222421103
 30
0.0
 10
225.0792150162
 20
85.2600823296
 30
0.0
 10
222.672111484
 20
83.6725034492
 30
0.0
 10
219.9454555525
 20
81.3538965815
 30
0.0
 10
217.6260182831
 20
78.6279469817
 30
0.0
 10
216.0377062737
 20
76.2213270866
 30
0.0
 10
214.974951286
 20
74.2674745355
 30
0.0
 10
214.0588558381
 20
72.1629404505
 30
0.0
 10
213.3112189845
 20
69.8836120679
 30
0.0
 10
212.7646329106
 20
67.3921417372
 30
0.0
 10
212.5825284092
 20
65.6437139889
 30
0.0
 10
212.5432425434
 20
64.7324644161
 30
0.0
  0
SPLINE
  5
2E0
100
AcDbEntity
  8
0
100
AcDbSpline
 62
7
  6
CONTINUOUS
 70
0
 71
3
 72
36
 73
32
 74
0
 42
0.0000001
 43
0.0000001
 44
0.0000000001
 40
0.0
 40
0.0
 40
0.0
 40
0.0
 40
0.0361284044
 40
0.0697622122
 40
0.1309530494
 40
0.1595482432
 40
0.1875233929
 40
0.2154940534
 40
0.2440546033
 40
0.2736334614
 40
0.304513164
 40
0.3368671234
 40
0.3707602298
 40
0.4058469803
 40
0.4414071475
 40
0.4766456309
 40
0.5107468308
 40
0.5430510376
 40
0.5735387259
 40
0.602405435
 40
0.6299132042
 40
0.6564069159
 40
0.6823231243
 40
0.7081250671
 40
0.7342475414
 40
0.7611308933
 40
0.7892044291
 40
0.8504296143
 40
0.8842854261
 40
0.920479541
 40
1.0
 40
1.0
 40
1.0
 40
1.0
 10
266.5711574935
 20
125.7480469404
 30
0.0
 10
266.0369899453
 20
125.7276899489
 30
0.0
 10
265.0060029306
 20
125.6532910318
 30
0.0
 10
263.090791138
 20
125.3537961685
 30
0.0
 10
261.3274168432
 20
124.8124315151
 30
0.0
 10
259.7870122658
 20
123.9883036301
 30
0.0
 10
258.7703601987
 20
123.2526615363
 30
0.0
 10
257.8658985203
 20
122.3835372625
 30
0.0
 10
257.0728875794
 20
121.3818413599
 30
0.0
 10
256.3828555652
 20
120.2567838821
 30
0.0
 10
255.7879510161
 20
119.0168337096
 30
0.0
 10
255.280223558
 20
117.6707645526
 30
0.0
 10
254.8563280762
 20
116.2315138861
 30
0.0
 10
254.4979172255
 20
114.7264337554
 30
0.0
 10
254.1790877098
 20
113.1924624469
 30
0.0
 10
253.8779732394
 20
111.6698781237
 30
0.0
 10
253.5720534793
 20
110.197290341
 30
0.0
 10
253.2350621501
 20
108.8034477653
 30
0.0
 10
252.8557033446
 20
107.5007533083
 30
0.0
 10
252.4216540839
 20
106.2899849805
 30
0.0
 10
251.9194350352
 20
105.1698186453
 30
0.0
 10
251.3356009359
 20
104.1391769121
 30
0.0
 10
250.6567263875
 20
103.1988236362
 30
0.0
 10
249.8745779563
 20
102.349622608
 30
0.0
 10
248.9854132694
 20
101.5910311506
 30
0.0
 10
247.9854764165
 20
100.9234123212
 30
0.0
 10
246.4562412903
 20
100.1316986235
 30
0.0
 10
244.7154882614
 20
99.5532572462
 30
0.0
 10
242.813119428
 20
99.1576905
 30
0.0
 10
240.6191988919
 20
98.8556512861
 30
0.0
 10
238.9048655103
 20
98.7761307961
 30
0.0
 10
237.7282954144
 20
98.7705207634
 30
0.0
  0
SPLINE
  5
2E1
100
AcDbEntity
  8
0
100
AcDbSpline
 62
7
  6
CONTINUOUS
 70
0
 71
3
 72
12
 73
8
 74
0
 42
0.0000001
 43
0.0000001
 44
0.0000000001
 40
0.0
 40
0.0
 40
0.0
 40
0.0
 40
0.2503894745
 40
0.4940333922
 40
0.6164152555
 40
0.7406865795
 40
1.0
 40
1.0
 40
1.0
 40
1.0
 10
173.276573226
 20
113.3796543512
 30
0.0
 10
174.2304519928
 20
115.2215323195
 30
0.0
 10
176.4555773516
 20
118.6881091941
 30
0.0
 10
179.9512984382
 20
122.4469536361
 30
0.0
 10
183.0886016478
 20
125.0343933165
 30
0.0
 10
186.5487074418
 20
127.4065181282
 30
0.0
 10
189.4190690749
 20
128.8293363411
 30
0.0
 10
191.4275521324
 20
129.5912662825
 30
0.0
  0
SPLINE
  5
2E2
100
AcDbEntity
  8
0
100
AcDbSpline
 62
7
  6
CONTINUOUS
 70
0
 71
3
 72
15
 73
11
 74
0
 42
0.0000001
 43
0.0000001
 44
0.0000000001
 40
0.0
 40
0.0
 40
0.0
 40
0.0
 40
0.1005774776
 40
0.2117017641
 40
0.3318934178
 40
0.4576884716
 40
0.5864368054
 40
0.719653225
 40
0.8582387153
 40
1.0
 40
1.0
 40
1.0
 40
1.0
 10
211.2837489703
 20
148.8980398863
 30
0.0
 10
211.3996547507
 20
149.4746927434
 30
0.0
 10
211.6442763743
 20
150.6883460395
 30
0.0
 10
212.0679325142
 20
152.5828161466
 30
0.0
 10
212.6201074407
 20
154.5982649385
 30
0.0
 10
213.3536304501
 20
156.6659757531
 30
0.0
 10
214.3016463953
 20
158.7299184092
 30
0.0
 10
215.5043352078
 20
160.7461776003
 30
0.0
 10
216.9974289128
 20
162.6580032111
 30
0.0
 10
218.1877753693
 20
163.7954804879
 30
0.0
 10
218.8262776671
 20
164.3242617141
 30
0.0
  0
SPLINE
  5
2E3
100
AcDbEntity
  8
0
100
AcDbSpline
 62
7
  6
CONTINUOUS
 70
0
 71
3
 72
36
 73
32
 74
0
 42
0.0000001
 43
0.0000001
 44
0.0000000001
 40
0.0
 40
0.0
 40
0.0
 40
0.0
 40
0.0361284044
 40
0.0697622122
 40
0.1309530494
 40
0.1595482432
 40
0.1875233929
 40
0.2154940534
 40
0.2440546033
 40
0.2736334614
 40
0.304513164
 40
0.3368671234
 40
0.3707602298
 40
0.4058469803
 40
0.4414071475
 40
0.4766456309
 40
0.5107468308
 40
0.5430510376
 40
0.5735387259
 40
0.602405435
 40
0.6299132042
 40
0.6564069159
 40
0.6823231243
 40
0.7081250671
 40
0.7342475414
 40
0.7611308933
 40
0.7892044291
 40
0.8504296143
 40
0.8842854261
 40
0.920479541
 40
1.0
 40
1.0
 40
1.0
 40
1.0
 10
231.671660791
 20
160.652859815
 30
0.0
 10
231.1374932428
 20
160.6325028234
 30
0.0
 10
230.1065062281
 20
160.5581039064
 30
0.0
 10
228.1912944355
 20
160.2586090431
 30
0.0
 10
226.4279201407
 20
159.7172443896
 30
0.0
 10
224.8875155633
 20
158.8931165047
 30
0.0
 10
223.8708634962
 20
158.1574744108
 30
0.0
 10
222.9664018178
 20
157.288350137
 30
0.0
 10
222.1733908769
 20
156.2866542344
 30
0.0
 10
221.4833588627
 20
155.1615967567
 30
0.0
 10
220.8884543136
 20
153.9216465841
 30
0.0
 10
220.3807268555
 20
152.5755774271
 30
0.0
 10
219.9568313737
 20
151.1363267607
 30
0.0
 10
219.598420523
 20
149.6312466299
 30
0.0
 10
219.2795910073
 20
148.0972753214
 30
0.0
 10
218.9784765369
 20
146.5746909982
 30
0.0
 10
218.6725567768
 20
145.1021032156
 30
0.0
 10
218.3355654476
 20
143.7082606399
 30
0.0
 10
217.9562066421
 20
142.4055661829
 30
0.0
 10
217.5221573814
 20
141.194797855
 30
0.0
 10
217.0199383327
 20
140.0746315199
 30
0.0
 10
216.4361042334
 20
139.0439897866
 30
0.0
 10
215.757229685
 20
138.1036365108
 30
0.0
 10
214.9750812538
 20
137.2544354826
 30
0.0
 10
214.0859165669
 20
136.4958440252
 30
0.0
 10
213.085979714
 20
135.8282251957
 30
0.0
 10
211.5567445878
 20
135.0365114981
 30
0.0
 10
209.8159915589
 20
134.4580701208
 30
0.0
 10
207.9136227255
 20
134.0625033745
 30
0.0
 10
205.7197021894
 20
133.7604641607
 30
0.0
 10
204.0053688078
 20
133.6809436707
 30
0.0
 10
202.8287987119
 20
133.6753336379
 30
0.0
  0
SPLINE
  5
2E4
100
AcDbEntity
  8
0
100
AcDbSpline
 62
7
  6
CONTINUOUS
 70
0
 71
3
 72
21
 73
17
 74
0
 42
0.0000001
 43
0.0000001
 44
0.0000000001
 40
0.0
 40
0.0
 40
0.0
 40
0.0
 40
0.0737014251
 40
0.1416410734
 40
0.2057548635
 40
0.2672270367
 40
0.3268637052
 40
0.3852474673
 40
0.499999993
 40
0.6147525196
 40
0.6731362828
 40
0.7327729528
 40
0.7942451279
 40
0.8583589204
 40
0.9262985716
 40
1.0
 40
1.0
 40
1.0
 40
1.0
 10
201.6696444531
 20
123.6558590529
 30
0.0
 10
200.7583829963
 20
123.6168507837
 30
0.0
 10
199.0098999318
 20
123.4352789104
 30
0.0
 10
196.5182633228
 20
122.8894518193
 30
0.0
 10
194.2387073963
 20
122.1425093232
 30
0.0
 10
192.1338944336
 20
121.2270549848
 30
0.0
 10
190.1797183137
 20
120.1648952042
 30
0.0
 10
187.7726147815
 20
118.5773163238
 30
0.0
 10
185.04595885
 20
116.258709456
 30
0.0
 10
182.7265215806
 20
113.5327598563
 30
0.0
 10
181.1382095712
 20
111.1261399612
 30
0.0
 10
180.0754545835
 20
109.1722874101
 30
0.0
 10
179.1593591356
 20
107.0677533251
 30
0.0
 10
178.411722282
 20
104.7884249424
 30
0.0
 10
177.8651362081
 20
102.2969546117
 30
0.0
 10
177.6830317067
 20
100.5485268635
 30
0.0
 10
177.6437458409
 20
99.6372772906
 30
0.0
  0
SPLINE
  5
2E5
100
AcDbEntity
  8
0
100
AcDbSpline
 62
7
  6
CONTINUOUS
 70
0
 71
3
 72
19
 73
15
 74
0
 42
0.0000001
 43
0.0000001
 44
0.0000000001
 40
0.0
 40
0.0
 40
0.0
 40
0.0
 40
0.0625
 40
0.125
 40
0.1875
 40
0.25
 40
0.375
 40
0.5
 40
0.625
 40
0.75
 40
0.8125
 40
0.875
 40
0.9375
 40
1.0
 40
1.0
 40
1.0
 40
1.0
 10
84.4200158891
 20
111.9094225493
 30
0.0
 10
83.4601774381
 20
111.8683343142
 30
0.0
 10
81.6561261285
 20
111.6705322517
 30
0.0
 10
79.2002004666
 20
111.1236778553
 30
0.0
 10
76.9430001198
 20
110.3780981439
 30
0.0
 10
74.1565978145
 20
109.1607937049
 30
0.0
 10
71.0392149036
 20
107.2735431855
 30
0.0
 10
67.7976539903
 20
104.5095439823
 30
0.0
 10
65.0336547871
 20
101.267983069
 30
0.0
 10
63.1464042676
 20
98.1506001581
 30
0.0
 10
61.9290998286
 20
95.3641978528
 30
0.0
 10
61.1835201173
 20
93.1069975059
 30
0.0
 10
60.6366657209
 20
90.6510718441
 30
0.0
 10
60.4388636584
 20
88.8470205344
 30
0.0
 10
60.3977754233
 20
87.8871820834
 30
0.0
  0
SPLINE
  5
2E6
100
AcDbEntity
  8
0
100
AcDbSpline
 62
7
  6
CONTINUOUS
 70
0
 71
3
 72
13
 73
9
 74
0
 42
0.0000001
 43
0.0000001
 44
0.0000000001
 40
0.0
 40
0.0
 40
0.0
 40
0.0
 40
0.2193291787
 40
0.3570371552
 40
0.5010762549
 40
0.6737968143
 40
0.8703742509
 40
1.0
 40
1.0
 40
1.0
 40
1.0
 10
114.4153301555
 20
148.9120589921
 30
0.0
 10
110.524916415
 20
148.7637945771
 30
0.0
 10
105.9046428503
 20
147.0148768723
 30
0.0
 10
102.6661895759
 20
140.4776896843
 30
0.0
 10
101.419304822
 20
132.438406333
 30
0.0
 10
99.1975204742
 20
126.0174343971
 30
0.0
 10
93.9118624575
 20
122.5818863971
 30
0.0
 10
88.1647580873
 20
121.9427655183
 30
0.0
 10
85.5762939932
 20
121.9304233813
 30
0.0
  0
SPLINE
  5
2E7
100
AcDbEntity
  8
0
100
AcDbSpline
 62
7
  6
CONTINUOUS
 70
0
 71
3
 72
15
 73
11
 74
0
 42
0.0000001
 43
0.0000001
 44
0.0000000001
 40
0.0
 40
0.0
 40
0.0
 40
0.0
 40
0.0899447416
 40
0.2249806018
 40
0.3600164621
 40
0.4891169292
 40
0.6182173963
 40
0.7473178633
 40
0.8764183304
 40
1.0
 40
1.0
 40
1.0
 40
1.0
 10
94.0278941343
 20
137.1554484747
 30
0.0
 10
94.1064165045
 20
137.5467048901
 30
0.0
 10
94.3124497016
 20
138.5709482919
 30
0.0
 10
94.6950674773
 20
140.362539249
 30
0.0
 10
95.258317517
 20
142.5259191052
 30
0.0
 10
96.0131877199
 20
144.7229898907
 30
0.0
 10
96.9656811039
 20
146.8432731598
 30
0.0
 10
98.1853473475
 20
148.9228078955
 30
0.0
 10
99.7124106286
 20
150.8921681477
 30
0.0
 10
100.9325340006
 20
152.0585552882
 30
0.0
 10
101.5668717193
 20
152.5840201486
 30
0.0
  0
SPLINE
  5
2E8
100
AcDbEntity
  8
0
100
AcDbSpline
 62
7
  6
CONTINUOUS
 70
0
 71
3
 72
13
 73
9
 74
0
 42
0.0000001
 43
0.0000001
 44
0.0000000001
 40
0.0
 40
0.0
 40
0.0
 40
0.0
 40
0.1984326661
 40
0.4268221101
 40
0.6552115541
 40
0.8836009981
 40
0.9977957201
 40
1.0
 40
1.0
 40
1.0
 40
1.0
 10
56.0257505478
 20
101.6316524934
 30
0.0
 10
56.8040694037
 20
103.1354202278
 30
0.0
 10
58.677168458
 20
106.1575871453
 30
0.0
 10
62.1171224347
 20
110.1900755379
 30
0.0
 10
66.3339793084
 20
113.7873068649
 30
0.0
 10
70.413943117
 20
116.2584809764
 30
0.0
 10
73.1798992842
 20
117.4673574779
 30
0.0
 10
74.1560540648
 20
117.8387146517
 30
0.0
 10
74.1745550148
 20
117.8457339078
 30
0.0
  0
ENDSEC
  0
SECTION
  2
OBJECTS
  0
DICTIONARY
  5
C
100
AcDbDictionary
280
0
281
1
  3
ACAD_GROUP
350
D
  3
ACAD_MLINESTYLE
350
17
  3
ACAD_LAYOUT
350
1A
  3
ACAD_PLOTSETTINGS
350
19
  3
ACAD_PLOTSTYLENAME
350
E
  3
ACAD_TABLESTYLE
350
       2E9
  0
DICTIONARY
  5
D
102
{ACAD_REACTORS
330
C
102
}
100
AcDbDictionary
280
0
281
1
  0
ACDBDICTIONARYWDFLT
  5
E
102
{ACAD_REACTORS
330
C
102
}
100
AcDbDictionary
281
1
  3
Normal
350
F
100
AcDbDictionaryWithDefault
340
F
  0
DICTIONARY
  5
17
102
{ACAD_REACTORS
330
C
102
}
100
AcDbDictionary
280
0
281
1
  3
Standard
350
18
  0
DICTIONARY
  5
2E9
330
C
100
AcDbDictionary
281
1
  3
Standard
350
       2EC
  3
Standard1
350
       2ED
  0
DICTIONARY
  5
19
102
{ACAD_REACTORS
330
C
102
}
100
AcDbDictionary
281
1
  0
DICTIONARY
  5
1A
102
{ACAD_REACTORS
330
C
102
}
100
AcDbDictionary
281
1
  3
Model
350
2EA
  3
Layout1
350
2EB
  0
ACDBPLACEHOLDER
  5
F
102
{ACAD_REACTORS
330
E
102
}
  0
MLINESTYLE
  5
18
102
{ACAD_REACTORS
330
17
102
}
100
AcDbMlineStyle
  2
STANDARD
 70
0
  3

 62
256
 51
90.0
 52
90.0
 71
2
 49
0.5
 62
256
  6
BYLAYER
 49
-0.5
 62
256
  6
BYLAYER
  0
LAYOUT
  5
2EA
102
{ACAD_REACTORS
330
1A
102
}
100
AcDbPlotSettings
  1

  2
none_device
  4
ISO_A4_(297.00_x_210.00_MM)
  6

 40
0.0
 41
0.0
 42
0.0
 43
0.0
 44
297.0
 45
210.0
 46
0.0
 47
0.0
 48
0.0
 49
0.0
140
0.0
141
0.0
142
1.0
143
1.0
 70
1024
 72
1
 73
0
 74
0
  7

 75
0
147
1.0
148
0.0
149
0.0
100
AcDbLayout
  1
Model
 70
0
 71
0
 10
0.0
 20
0.0
 11
297.0
 21
210.0
 12
0.0
 22
0.0
 32
0.0
 14
0.0
 24
0.0
 34
0.0
 15
0.0
 25
0.0
 35
0.0
146
0.0
 13
0.0
 23
0.0
 33
0.0
 16
1.0
 26
0.0
 36
0.0
 17
0.0
 27
1.0
 37
0.0
 76
0
330
20A
345
0
346
0
  0
LAYOUT
  5
2EB
102
{ACAD_REACTORS
330
1A
102
}
100
AcDbPlotSettings
  1

  2
none_device
  4
ISO_A4_(297.00_x_210.00_MM)
  6

 40
0.0
 41
0.0
 42
0.0
 43
0.0
 44
297.0
 45
210.0
 46
0.0
 47
0.0
 48
0.0
 49
0.0
140
0.0
141
0.0
142
1.0
143
1.0
 70
0
 72
1
 73
0
 74
0
  7

 75
0
147
1.0
148
0.0
149
0.0
100
AcDbLayout
  1
Layout1
 70
0
 71
1
 10
0.0
 20
0.0
 11
297.0
 21
210.0
 12
0.0
 22
0.0
 32
0.0
 14
0.0
 24
0.0
 34
0.0
 15
0.0
 25
0.0
 35
0.0
146
0.0
 13
0.0
 23
0.0
 33
0.0
 16
1.0
 26
0.0
 36
0.0
 17
0.0
 27
1.0
 37
0.0
 76
0
330
20B
345
0
346
0
  0
TABLESTYLE
  5
2EC
102
{ACAD_REACTORS
330
2E9
330
296
102
}
330
2E9
100
AcDbTableStyle
  3
Standard
 70
0
 71
0
 40
0.06
 41
0.06
280
1
281
1
  7
Standard
140
0.18
170
1
 62
0
 63
7
283
0
  7
Standard
140
0.18
170
1
 62
0
 63
7
283
0
  7
Standard
140
0.18
170
1
 62
0
 63
7
283
0
  0
TABLESTYLE
  5
2ED
102
{ACAD_REACTORS
330
2E9
102
}
330
2E9
100
AcDbTableStyle
  3
Standard1
 70
1
 71
0
 40
0.06
 41
0.06
280
1
281
1
  7
Standard
140
0.18
170
1
 62
0
 63
7
283
0
  7
Standard
140
0.18
170
1
 62
0
 63
7
283
0
  7
Standard
140
0.18
170
1
 62
0
 63
7
283
0
  0
ENDSEC
  0
EOF
