999
DXF file: O:\ORAC_PRODUCTEN\ORAC_LIJN6\C-Type\C303\c303-prod-mm.dxf
999
Pro/ENGINEER 2013050 by Parametric Technology Corporation
  0
SECTION
  2
HEADER
  9
$ACADVER
  1
AC1024
  9
$DWGCODEPAGE
  3
ANSI_1252
  9
$EXTMAX
 10
297.0
 20
210.0
 30
0.0
  9
$EXTMIN
 10
0.0
 20
0.0
 30
0.0
  9
$LIMMIN
 10
0.0
 20
0.0
  9
$LIMMAX
 10
297.0
 20
210.0
  9
$VIEWCTR
 10
148.5
 20
105.0
  9
$VIEWSIZE
 40
210.0
  9
$CLAYER
  8
0
  9
$LTSCALE
 40
16.335
  9
$CELTYPE
  6
BYLAYER
  9
$DIMSCALE
 40
1.0
  9
$DIMASZ
 40
3.5
  9
$DIMEXO
 40
1.0
  9
$DIMDLI
 40
11.286
  9
$DIMEXE
 40
1.5
  9
$DIMCEN
 40
2.673
  9
$DIMLFAC
 40
1.0
  9
$DIMBLK
  1
_FILLED
  9
$DIMTXT
 40
2.5
  9
$DIMTOL
 70
1
  9
$DIMLIM
 70
0
  9
$DIMTFAC
 40
1.0
  9
$DIMTP
 40
0.001
  9
$DIMTM
 40
0.001
  9
$DIMGAP
 40
0.625
  9
$DIMDSEP
 70
44
  9
$PDMODE
 70
3
  9
$PDSIZE
 40
8.0
  9
$HANDSEED
  5
2F4
  9
$TILEMODE
 70
1
  9
$MEASUREMENT
 70
1
  9
$INSUNITS
 70
4
  0
ENDSEC
  0
SECTION
  2
CLASSES
  0
CLASS
  1
ACDBDICTIONARYWDFLT
  2
AcDbDictionaryWithDefault
  3
AutoCAD 2000
 90
0
 91
1
280
0
281
0
  0
CLASS
  1
ACDBPLACEHOLDER
  2
AcDbPlaceHolder
  3
AutoCAD 2000
 90
0
 91
1
280
0
281
0
  0
CLASS
  1
LAYOUT
  2
AcDbLayout
  3
AutoCAD 2000
 90
0
 91
0
280
0
281
0
  0
CLASS
  1
TABLESTYLE
  2
AcDbTableStyle
  3
ObjectDBX Classes
 90
2047
 91
1
280
0
281
0
  0
CLASS
  1
ACAD_TABLE
  2
AcDbTable
  3
ObjectDBX Classes
 90
1025
 91
1
280
0
281
1
  0
ENDSEC
  0
SECTION
  2
TABLES
  0
TABLE
  2
VPORT
  5
8
100
AcDbSymbolTable
 70
2
  0
VPORT
  5
1F4
100
AcDbSymbolTableRecord
100
AcDbViewportTableRecord
  2
*ACTIVE
 70
0
 10
0.0
 20
0.0
 11
1.0
 21
1.0
 12
148.5
 22
105.0
 13
0.0
 23
0.0
 14
1.0
 24
1.0
 15
0.0
 25
0.0
 16
0.0
 26
0.0
 36
1.0
 17
0.0
 27
0.0
 37
0.0
 40
210.0
 41
1.4142857143
 42
50.0
 43
0.0
 44
0.0
 50
0.0
 51
0.0
 71
0
 72
100
 73
1
 74
1
 75
0
 76
0
 77
0
 78
0
  0
ENDTAB
  0
TABLE
  2
LTYPE
  5
5
100
AcDbSymbolTable
 70
6
  0
LTYPE
  5
14
100
AcDbSymbolTableRecord
100
AcDbLinetypeTableRecord
  2
BYBLOCK
 70
0
  3

 72
65
 73
0
 40
0.0
  0
LTYPE
  5
15
100
AcDbSymbolTableRecord
100
AcDbLinetypeTableRecord
  2
BYLAYER
 70
0
  3

 72
65
 73
0
 40
0.0
  0
LTYPE
  5
16
100
AcDbSymbolTableRecord
100
AcDbLinetypeTableRecord
  2
CONTINUOUS
 70
64
  3
Solid line
 72
65
 73
0
 40
0.0
  0
LTYPE
  5
1F5
100
AcDbSymbolTableRecord
100
AcDbLinetypeTableRecord
  2
CENTER
 70
64
  3
____ _ ____ _ ____ _ ____ _ ____ _ ____ _ ____
 72
65
 73
4
 40
0.6
 49
0.375
 74
0
 49
-0.075
 74
0
 49
0.075
 74
0
 49
-0.075
 74
0
  0
LTYPE
  5
1F6
100
AcDbSymbolTableRecord
100
AcDbLinetypeTableRecord
  2
HIDDEN
 70
64
  3
- - - - - - - - - - - - - - - - - - - -
 72
65
 73
2
 40
0.2
 49
0.1
 74
0
 49
-0.1
 74
0
  0
LTYPE
  5
1F7
100
AcDbSymbolTableRecord
100
AcDbLinetypeTableRecord
  2
PHANTOM
 70
64
  3
_____ _ _ _____ _ _ _____ _ _ _____
 72
65
 73
6
 40
0.8
 49
0.45
 74
0
 49
-0.05
 74
0
 49
0.1
 74
0
 49
-0.05
 74
0
 49
0.1
 74
0
 49
-0.05
 74
0
  0
LTYPE
  5
1F8
100
AcDbSymbolTableRecord
100
AcDbLinetypeTableRecord
  2
DOT
 70
64
  3
. . . . . . . . . . . . . . . . . . . .
 72
65
 73
2
 40
0.2
 49
0.1
 74
0
 49
-0.1
 74
0
  0
LTYPE
  5
1F9
100
AcDbSymbolTableRecord
100
AcDbLinetypeTableRecord
  2
DASHED
 70
64
  3
- - - - - - - - - - - - - - - - - - - -
 72
65
 73
2
 40
0.2
 49
0.1
 74
0
 49
-0.1
 74
0
  0
ENDTAB
  0
TABLE
  2
LAYER
  5
2
100
AcDbSymbolTable
 70
36
  0
LAYER
  5
10
100
AcDbSymbolTableRecord
100
AcDbLayerTableRecord
  2
0
 70
0
 62
7
  6
CONTINUOUS
370
-3
390
F
  0
LAYER
  5
1FA
100
AcDbSymbolTableRecord
100
AcDbLayerTableRecord
  2
DEFAULT_1
 70
0
 62
7
  6
CENTER
370
-3
390
F
  0
LAYER
  5
1FB
100
AcDbSymbolTableRecord
100
AcDbLayerTableRecord
  2
DEFAULT_2
 70
0
 62
8
  6
HIDDEN
370
-3
390
F
  0
LAYER
  5
1FC
100
AcDbSymbolTableRecord
100
AcDbLayerTableRecord
  2
DEFAULT_3
 70
0
 62
7
  6
PHANTOM
370
-3
390
F
  0
LAYER
  5
1FD
100
AcDbSymbolTableRecord
100
AcDbLayerTableRecord
  2
DTM_ALL
 70
0
 62
7
  6
CONTINUOUS
370
-3
390
F
  0
LAYER
  5
1FE
100
AcDbSymbolTableRecord
100
AcDbLayerTableRecord
  2
DTM_AXIS
 70
0
 62
7
  6
CONTINUOUS
370
-3
390
F
  0
LAYER
  5
1FF
100
AcDbSymbolTableRecord
100
AcDbLayerTableRecord
  2
DTM_CSYS
 70
0
 62
7
  6
CONTINUOUS
370
-3
390
F
  0
LAYER
  5
200
100
AcDbSymbolTableRecord
100
AcDbLayerTableRecord
  2
DTM_CURVE
 70
0
 62
7
  6
CONTINUOUS
370
-3
390
F
  0
LAYER
  5
201
100
AcDbSymbolTableRecord
100
AcDbLayerTableRecord
  2
DTM_MASTER
 70
0
 62
7
  6
CONTINUOUS
370
-3
390
F
  0
LAYER
  5
202
100
AcDbSymbolTableRecord
100
AcDbLayerTableRecord
  2
DTM_POINT
 70
0
 62
7
  6
CONTINUOUS
370
-3
390
F
  0
LAYER
  5
203
100
AcDbSymbolTableRecord
100
AcDbLayerTableRecord
  2
DTM_QUILT
 70
0
 62
7
  6
CONTINUOUS
370
-3
390
F
  0
LAYER
  5
204
100
AcDbSymbolTableRecord
100
AcDbLayerTableRecord
  2
GTOL
 70
0
 62
7
  6
CONTINUOUS
370
-3
390
F
  0
LAYER
  5
205
100
AcDbSymbolTableRecord
100
AcDbLayerTableRecord
  2
NOTES
 70
0
 62
7
  6
CONTINUOUS
370
-3
390
F
  0
ENDTAB
  0
TABLE
  2
STYLE
  5
3
100
AcDbSymbolTable
 70
1
  0
STYLE
  5
11
100
AcDbSymbolTableRecord
100
AcDbTextStyleTableRecord
  2
STANDARD
 70
0
 40
0.0
 41
1.0
 50
0.0
 71
0
 42
0.2
  3
cgtime.ttf
  4

  0
STYLE
  5
206
100
AcDbSymbolTableRecord
100
AcDbTextStyleTableRecord
  2
TEXTSTYLE_1
 70
0
 40
0.0
 41
0.8
 50
0.0
 71
0
 42
0.2
  3
gdt
  4

  0
STYLE
  5
207
100
AcDbSymbolTableRecord
100
AcDbTextStyleTableRecord
  2
TEXTSTYLE_2
 70
0
 40
0.0
 41
1.0
 50
0.0
 71
0
 42
0.2
  3
cgtime.ttf
  4

  0
STYLE
  5
208
100
AcDbSymbolTableRecord
100
AcDbTextStyleTableRecord
  2
TEXTSTYLE_3
 70
0
 40
0.0
 41
1.0
 50
0.0
 71
0
 42
0.2
  3
cgtime.ttf
  4

  0
STYLE
  5
209
100
AcDbSymbolTableRecord
100
AcDbTextStyleTableRecord
  2
TEXTSTYLE_4
 70
0
 40
0.0
 41
0.85
 50
0.0
 71
0
 42
0.2
  3
gdt
  4

  0
ENDTAB
  0
TABLE
  2
VIEW
  5
6
100
AcDbSymbolTable
 70
0
  0
ENDTAB
  0
TABLE
  2
UCS
  5
7
100
AcDbSymbolTable
 70
0
  0
ENDTAB
  0
TABLE
  2
APPID
  5
9
100
AcDbSymbolTable
 70
1
  0
APPID
  5
20A
100
AcDbSymbolTableRecord
100
AcDbRegAppTableRecord
  2
ACAD
 70
0
  0
ENDTAB
  0
TABLE
  2
BLOCK_RECORD
  5
1
100
AcDbSymbolTable
 70
0
  0
BLOCK_RECORD
  5
20B
100
AcDbSymbolTableRecord
100
AcDbBlockTableRecord
  2
*Model_Space
  0
BLOCK_RECORD
  5
20C
100
AcDbSymbolTableRecord
100
AcDbBlockTableRecord
  2
*Paper_Space
  0
BLOCK_RECORD
  5
20D
100
AcDbSymbolTableRecord
100
AcDbBlockTableRecord
  2
_FILLED
  0
BLOCK_RECORD
  5
20E
100
AcDbSymbolTableRecord
100
AcDbBlockTableRecord
  2
*D0
  0
BLOCK_RECORD
  5
20F
100
AcDbSymbolTableRecord
100
AcDbBlockTableRecord
  2
*D1
  0
BLOCK_RECORD
  5
210
100
AcDbSymbolTableRecord
100
AcDbBlockTableRecord
  2
*D2
  0
BLOCK_RECORD
  5
211
100
AcDbSymbolTableRecord
100
AcDbBlockTableRecord
  2
SYMBOL_2_BL0
  0
BLOCK_RECORD
  5
212
100
AcDbSymbolTableRecord
100
AcDbBlockTableRecord
  2
*T1
  0
ENDTAB
  0
TABLE
  2
DIMSTYLE
  5
A
100
AcDbSymbolTable
 70
1
100
AcDbDimStyleTable
 71
0
  0
DIMSTYLE
105
213
100
AcDbSymbolTableRecord
100
AcDbDimStyleTableRecord
  2
STANDARD
 70
0
  3

  4

 40
1.0
 41
3.5
 42
1.0
 43
0.38
 44
1.5
 45
0.0
 46
0.0
 47
0.001
 48
0.001
140
2.5
141
0.09
142
0.0
143
25.4
144
1.0
145
0.0
146
1.0
147
0.625
 71
1.0
 72
0.0
 73
1
 74
1
 75
0
 76
0
 77
0
 78
8
170
0
171
2
172
0
173
0
174
0
175
0
176
0
177
0
178
0
270
2
271
3
272
3
273
2
274
2
275
0
280
0
281
0
282
0
283
1
284
8
285
0
286
0
287
3
288
0
340
11
278
44
341
20D
342
20D
343
20D
344
20D
  0
DIMSTYLE
105
214
100
AcDbSymbolTableRecord
100
AcDbDimStyleTableRecord
  2
DIMSTYLE_1
 70
0
  3

  4

 40
1.0
 41
3.5
 42
1.0
 43
0.38
 44
1.5
 45
0.0
 46
0.0
 47
0.0
 48
0.0
140
2.5
141
0.09
142
0.0
143
25.4
144
1.0
145
0.0
146
1.0
147
1.25
 71
0.0
 72
0.0
 73
1
 74
1
 75
0
 76
0
 77
0
 78
8
170
0
171
2
172
0
173
0
174
0
175
0
176
0
177
0
178
0
270
2
271
3
272
3
273
2
274
2
275
0
280
0
281
0
282
0
283
1
284
8
285
0
286
0
287
3
288
0
340
11
278
44
341
20D
342
20D
343
20D
344
20D
  0
ENDTAB
  0
ENDSEC
  0
SECTION
  2
BLOCKS
  0
BLOCK
  5
20
100
AcDbEntity
  8
0
100
AcDbBlockBegin
  2
*Model_Space
 70
0
 10
0.0
 20
0.0
 30
0.0
  3
*Model_Space
  1

  0
ENDBLK
  5
21
100
AcDbEntity
  8
0
100
AcDbBlockEnd
  0
BLOCK
  5
1C
100
AcDbEntity
  8
0
100
AcDbBlockBegin
  2
*Paper_Space
 70
0
 10
0.0
 20
0.0
 30
0.0
  3
*Paper_Space
  1

  0
ENDBLK
  5
1D
100
AcDbEntity
  8
0
100
AcDbBlockEnd
  0
BLOCK
  5
215
100
AcDbEntity
  8
0
100
AcDbBlockBegin
 62
7
  6
CONTINUOUS
  2
SYMBOL_2_BL0
 70
64
 10
200.6298462176
 20
16.2178244018
  3
SYMBOL_2_BL0
  1

  0
TEXT
  5
216
100
AcDbEntity
  8
0
100
AcDbText
 62
7
  6
CONTINUOUS
 10
194.3577811993
 20
12.7178244018
  7
TEXTSTYLE_2
 40
0.7334566062
  1
EUROPEAN PROJECTION
 72
5
 11
206.9549697578
 21
12.7178244018
100
AcDbText
  0
LINE
  5
217
100
AcDbEntity
  8
DEFAULT_1
100
AcDbLine
 62
7
  6
CENTER
 10
202.0967594299
 20
16.7839979772
 11
207.9644122791
 21
16.7839979772
  0
LINE
  5
218
100
AcDbEntity
  8
DEFAULT_1
100
AcDbLine
 62
7
  6
CENTER
 10
193.2952801561
 20
16.7839979772
 11
200.6298462176
 21
16.7839979772
  0
LINE
  5
219
100
AcDbEntity
  8
DEFAULT_1
100
AcDbLine
 62
7
  6
CENTER
 10
205.0305858545
 20
19.7178244018
 11
205.0305858545
 21
13.8501715526
  0
LINE
  5
21A
100
AcDbEntity
  8
0
100
AcDbLine
 62
7
  6
CONTINUOUS
 10
194.0427054433
 20
15.3153384047
 11
194.0427054433
 21
18.2526568162
  0
CIRCLE
  5
21B
100
AcDbEntity
  8
0
100
AcDbCircle
 62
7
  6
CONTINUOUS
 10
205.0305858545
 20
16.7839979772
 40
2.2003698185
  0
CIRCLE
  5
21C
100
AcDbEntity
  8
0
100
AcDbCircle
 62
7
  6
CONTINUOUS
 10
205.0305858545
 20
16.7839979772
 40
1.4669132123
  0
LINE
  5
21D
100
AcDbEntity
  8
0
100
AcDbLine
 62
7
  6
CONTINUOUS
 10
194.0287367622
 20
18.2509111895
 11
199.8963896115
 21
18.9843677957
  0
LINE
  5
21E
100
AcDbEntity
  8
0
100
AcDbLine
 62
7
  6
CONTINUOUS
 10
199.8963896115
 20
18.9843677957
 11
199.8963896115
 21
14.5836281587
  0
LINE
  5
21F
100
AcDbEntity
  8
0
100
AcDbLine
 62
7
  6
CONTINUOUS
 10
199.8963896115
 20
14.5836281587
 11
194.0287367622
 21
15.3170847649
  0
ENDBLK
  5
220
100
AcDbEntity
  8
0
  6
BYBLOCK
 62
0
100
AcDbBlockEnd
  0
BLOCK
  5
221
100
AcDbEntity
  8
0
100
AcDbBlockBegin
  2
_FILLED
 70
64
 10
0.0
 20
0.0
  3
_FILLED
  1

  0
SOLID
  5
222
100
AcDbEntity
  8
0
  6
BYBLOCK
 62
0
100
AcDbTrace
 10
0.0
 20
0.0
 11
-1.0
 21
0.2142857143
 12
-1.0
 22
-0.2142857143
 13
-1.0
 23
-0.2142857143
  0
ENDBLK
  5
223
100
AcDbEntity
  8
0
  6
BYBLOCK
 62
0
100
AcDbBlockEnd
  0
BLOCK
  5
224
100
AcDbEntity
  8
0
100
AcDbBlockBegin
 62
2
  6
CONTINUOUS
  2
*D0
 70
65
 10
0.0
 20
0.0
  3
*D0
  1

  0
TEXT
  5
225
100
AcDbEntity
  8
0
100
AcDbText
 62
2
  6
CONTINUOUS
 10
21.0260630144
 20
97.4452106527
  7
STANDARD
 40
2.5
  1
144
 72
5
 11
26.483261458
 21
97.4452106527
100
AcDbText
  0
LINE
  5
226
100
AcDbEntity
  8
0
100
AcDbLine
 62
2
  6
CONTINUOUS
 10
85.2579924419
 20
169.0690157689
 11
22.2546622362
 21
169.0690157689
  0
LINE
  5
227
100
AcDbEntity
  8
0
100
AcDbLine
 62
2
  6
CONTINUOUS
 10
42.2579924419
 20
28.3214055366
 11
22.2546622362
 21
28.3214055366
  0
LINE
  5
228
100
AcDbEntity
  8
0
100
AcDbLine
 62
2
  6
CONTINUOUS
 10
23.7546622362
 20
169.0690157689
 11
23.7546622362
 21
101.1952106527
  0
LINE
  5
229
100
AcDbEntity
  8
0
100
AcDbLine
 62
2
  6
CONTINUOUS
 10
23.7546622362
 20
28.3214055366
 11
23.7546622362
 21
96.1952106527
  0
INSERT
  5
22A
100
AcDbEntity
  8
0
100
AcDbBlockReference
 62
2
  6
CONTINUOUS
  2
_FILLED
 10
23.7546622362
 20
169.0690157689
 41
3.5
 42
3.5
 43
3.5
 50
90.0
  0
INSERT
  5
22B
100
AcDbEntity
  8
0
100
AcDbBlockReference
 62
2
  6
CONTINUOUS
  2
_FILLED
 10
23.7546622362
 20
28.3214055366
 41
3.5
 42
3.5
 43
3.5
 50
270.0
  0
ENDBLK
  5
22C
100
AcDbEntity
  8
0
  6
BYBLOCK
 62
0
100
AcDbBlockEnd
  0
BLOCK
  5
22D
100
AcDbEntity
  8
0
100
AcDbBlockBegin
 62
2
  6
CONTINUOUS
  2
*D1
 70
65
 10
0.0
 20
0.0
  3
*D1
  1

  0
TEXT
  5
22E
100
AcDbEntity
  8
0
100
AcDbText
 62
2
  6
CONTINUOUS
 10
72.9389262941
 20
182.6904770917
  7
STANDARD
 40
2.5
  1
65
 72
5
 11
76.5770585898
 21
182.6904770917
100
AcDbText
  0
LINE
  5
22F
100
AcDbEntity
  8
0
100
AcDbLine
 62
2
  6
CONTINUOUS
 10
43.2579924419
 20
49.3214055366
 11
43.2579924419
 21
185.4404770917
  0
LINE
  5
230
100
AcDbEntity
  8
0
100
AcDbLine
 62
2
  6
CONTINUOUS
 10
106.2579924419
 20
170.0690157689
 11
106.2579924419
 21
185.4404770917
  0
LINE
  5
231
100
AcDbEntity
  8
0
100
AcDbLine
 62
2
  6
CONTINUOUS
 10
43.2579924419
 20
183.9404770917
 11
71.6889262941
 21
183.9404770917
  0
LINE
  5
232
100
AcDbEntity
  8
0
100
AcDbLine
 62
2
  6
CONTINUOUS
 10
106.2579924419
 20
183.9404770917
 11
77.8270585898
 21
183.9404770917
  0
INSERT
  5
233
100
AcDbEntity
  8
0
100
AcDbBlockReference
 62
2
  6
CONTINUOUS
  2
_FILLED
 10
43.2579924419
 20
183.9404770917
 41
3.5
 42
3.5
 43
3.5
 50
180.0
  0
INSERT
  5
234
100
AcDbEntity
  8
0
100
AcDbBlockReference
 62
2
  6
CONTINUOUS
  2
_FILLED
 10
106.2579924419
 20
183.9404770917
 41
3.5
 42
3.5
 43
3.5
  0
ENDBLK
  5
235
100
AcDbEntity
  8
0
  6
BYBLOCK
 62
0
100
AcDbBlockEnd
  0
BLOCK
  5
236
100
AcDbEntity
  8
0
100
AcDbBlockBegin
 62
2
  6
CONTINUOUS
  2
*D2
 70
65
 10
0.0
 20
0.0
  3
*D2
  1

  0
TEXT
  5
237
100
AcDbEntity
  8
0
100
AcDbText
 62
2
  6
CONTINUOUS
 10
90.9060172436
 20
88.9958500453
  7
STANDARD
 40
2.5
  1
153
 72
5
 11
96.3632156872
 21
88.9958500453
100
AcDbText
  0
LINE
  5
238
100
AcDbEntity
  8
0
100
AcDbLine
 62
2
  6
CONTINUOUS
 10
107.1707285731
 20
168.6604661944
 11
126.5037206622
 21
160.0068307998
  0
LINE
  5
239
100
AcDbEntity
  8
0
100
AcDbLine
 62
2
  6
CONTINUOUS
 10
44.1707285731
 20
27.9128559621
 11
63.5037206622
 21
19.2592205675
  0
LINE
  5
23A
100
AcDbEntity
  8
0
100
AcDbLine
 62
2
  6
CONTINUOUS
 10
125.1346164654
 20
160.6196551615
 11
94.7536407937
 21
92.7458500453
  0
LINE
  5
23B
100
AcDbEntity
  8
0
100
AcDbLine
 62
2
  6
CONTINUOUS
 10
62.1346164654
 20
19.8720449292
 11
92.5155921371
 21
87.7458500453
  0
INSERT
  5
23C
100
AcDbEntity
  8
0
100
AcDbBlockReference
 62
2
  6
CONTINUOUS
  2
_FILLED
 10
125.1346164654
 20
160.6196551615
 41
3.5
 42
3.5
 43
3.5
 50
65.8862461483
  0
INSERT
  5
23D
100
AcDbEntity
  8
0
100
AcDbBlockReference
 62
2
  6
CONTINUOUS
  2
_FILLED
 10
62.1346164654
 20
19.8720449292
 41
3.5
 42
3.5
 43
3.5
 50
245.8862461483
  0
ENDBLK
  5
23E
100
AcDbEntity
  8
0
  6
BYBLOCK
 62
0
100
AcDbBlockEnd
  0
BLOCK
  5
23F
100
AcDbEntity
  8
0
100
AcDbBlockBegin
  2
*T1
 70
1
 10
0.0
 20
0.0
  3
*T1
  1

  0
LINE
  5
240
100
AcDbEntity
  8
0
100
AcDbLine
 62
7
  6
CONTINUOUS
 10
174.0
 20
0.0
 11
0.0
 21
0.0
  0
LINE
  5
241
100
AcDbEntity
  8
0
100
AcDbLine
 62
7
  6
CONTINUOUS
 10
174.0
 20
0.0
 11
174.0
 21
42.5
  0
LINE
  5
242
100
AcDbEntity
  8
0
100
AcDbLine
 62
7
  6
CONTINUOUS
 10
140.0
 20
6.5
 11
0.0
 21
6.5
  0
LINE
  5
243
100
AcDbEntity
  8
0
100
AcDbLine
 62
7
  6
CONTINUOUS
 10
174.0
 20
18.5
 11
91.0
 21
18.5
  0
LINE
  5
244
100
AcDbEntity
  8
0
100
AcDbLine
 62
7
  6
CONTINUOUS
 10
174.0
 20
27.5
 11
91.0
 21
27.5
  0
LINE
  5
245
100
AcDbEntity
  8
0
100
AcDbLine
 62
7
  6
CONTINUOUS
 10
91.0
 20
31.5
 11
59.0
 21
31.5
  0
LINE
  5
246
100
AcDbEntity
  8
0
100
AcDbLine
 62
7
  6
CONTINUOUS
 10
174.0
 20
42.5
 11
0.0
 21
42.5
  0
LINE
  5
247
100
AcDbEntity
  8
0
100
AcDbLine
 62
7
  6
CONTINUOUS
 10
140.0
 20
0.0
 11
140.0
 21
18.5
  0
LINE
  5
248
100
AcDbEntity
  8
0
100
AcDbLine
 62
7
  6
CONTINUOUS
 10
122.0
 20
0.0
 11
122.0
 21
6.5
  0
LINE
  5
249
100
AcDbEntity
  8
0
100
AcDbLine
 62
7
  6
CONTINUOUS
 10
91.0
 20
6.5
 11
91.0
 21
42.5
  0
LINE
  5
24A
100
AcDbEntity
  8
0
100
AcDbLine
 62
7
  6
CONTINUOUS
 10
59.0
 20
6.5
 11
59.0
 21
42.5
  0
LINE
  5
24B
100
AcDbEntity
  8
0
100
AcDbLine
 62
7
  6
CONTINUOUS
 10
10.0
 20
6.5
 11
10.0
 21
42.5
  0
LINE
  5
24C
100
AcDbEntity
  8
0
100
AcDbLine
 62
7
  6
CONTINUOUS
 10
0.0
 20
0.0
 11
0.0
 21
42.5
  0
TEXT
  5
24D
100
AcDbEntity
  8
0
100
AcDbText
 62
7
  6
CONTINUOUS
 10
166.0625
 20
15.45
  7
TEXTSTYLE_3
 40
1.8
  1
 
 72
5
 11
166.8399319066
 21
15.45
100
AcDbText
  0
TEXT
  5
24E
100
AcDbEntity
  8
0
100
AcDbText
 62
7
  6
CONTINUOUS
 10
166.8399319066
 20
15.45
  7
TEXTSTYLE_3
 40
1.8
  1
 
 72
5
 11
167.6173638132
 21
15.45
100
AcDbText
  0
TEXT
  5
24F
100
AcDbEntity
  8
0
100
AcDbText
 62
7
  6
CONTINUOUS
 10
166.0625
 20
11.976
  7
TEXTSTYLE_3
 40
1.8
  1
 
 72
5
 11
166.8399319066
 21
11.976
100
AcDbText
  0
TEXT
  5
250
100
AcDbEntity
  8
0
100
AcDbText
 62
7
  6
CONTINUOUS
 10
166.0625
 20
8.502
  7
TEXTSTYLE_3
 40
1.8
  1
 
 72
5
 11
166.8399319066
 21
8.502
100
AcDbText
  0
TEXT
  5
251
100
AcDbEntity
  8
0
100
AcDbText
 62
7
  6
CONTINUOUS
 10
166.0625
 20
5.028
  7
TEXTSTYLE_3
 40
1.8
  1
 
 72
5
 11
166.8399319066
 21
5.028
100
AcDbText
  0
TEXT
  5
252
100
AcDbEntity
  8
0
100
AcDbText
 62
7
  6
CONTINUOUS
 10
166.0625
 20
1.554
  7
TEXTSTYLE_3
 40
1.8
  1
dm²/m
 72
5
 11
173.2484922179
 21
1.554
100
AcDbText
  0
TEXT
  5
253
100
AcDbEntity
  8
0
100
AcDbText
 62
7
  6
CONTINUOUS
 10
162.9657101167
 20
15.0
  7
STANDARD
 40
2.25
  1
 
 72
5
 11
163.9375
 21
15.0
100
AcDbText
  0
TEXT
  5
254
100
AcDbEntity
  8
0
100
AcDbText
 62
7
  6
CONTINUOUS
 10
162.9657101167
 20
11.625
  7
STANDARD
 40
2.25
  1
 
 72
5
 11
163.9375
 21
11.625
100
AcDbText
  0
TEXT
  5
255
100
AcDbEntity
  8
0
100
AcDbText
 62
7
  6
CONTINUOUS
 10
162.9657101167
 20
8.25
  7
STANDARD
 40
2.25
  1
 
 72
5
 11
163.9375
 21
8.25
100
AcDbText
  0
TEXT
  5
256
100
AcDbEntity
  8
0
100
AcDbText
 62
7
  6
CONTINUOUS
 10
162.9657101167
 20
4.875
  7
STANDARD
 40
2.25
  1
 
 72
5
 11
163.9375
 21
4.875
100
AcDbText
  0
TEXT
  5
257
100
AcDbEntity
  8
0
100
AcDbText
 62
7
  6
CONTINUOUS
 10
157.9316634241
 20
1.5
  7
STANDARD
 40
2.25
  1
19,7
 72
5
 11
163.9375
 21
1.5
100
AcDbText
  0
TEXT
  5
258
100
AcDbEntity
  8
0
100
AcDbText
 62
7
  6
CONTINUOUS
 10
141.0625
 20
15.0
  7
STANDARD
 40
2.25
  1
 
 72
5
 11
142.0342898833
 21
15.0
100
AcDbText
  0
TEXT
  5
259
100
AcDbEntity
  8
0
100
AcDbText
 62
7
  6
CONTINUOUS
 10
141.0625
 20
11.625
  7
STANDARD
 40
2.25
  1
 
 72
5
 11
142.0342898833
 21
11.625
100
AcDbText
  0
TEXT
  5
25A
100
AcDbEntity
  8
0
100
AcDbText
 62
7
  6
CONTINUOUS
 10
141.0625
 20
8.25
  7
STANDARD
 40
2.25
  1
 
 72
5
 11
142.0342898833
 21
8.25
100
AcDbText
  0
TEXT
  5
25B
100
AcDbEntity
  8
0
100
AcDbText
 62
7
  6
CONTINUOUS
 10
141.0625
 20
4.875
  7
STANDARD
 40
2.25
  1
Painted Surface :
 72
5
 11
164.0352626459
 21
4.875
100
AcDbText
  0
TEXT
  5
25C
100
AcDbEntity
  8
0
100
AcDbText
 62
2
  6
CONTINUOUS
 10
123.0625
 20
2.0
  7
STANDARD
 40
2.5
  1
Rev:   
 72
5
 11
133.3737840467
 21
2.0
100
AcDbText
  0
TEXT
  5
25D
100
AcDbEntity
  8
0
100
AcDbText
 62
7
  6
CONTINUOUS
 10
2.3984435798
 20
3.7
  7
STANDARD
 40
1.8
  1
All information in this document is Orac's exclusive property.  It may in no case be reproduced, even partly,
 72
5
 11
119.6015564202
 21
3.7
100
AcDbText
  0
TEXT
  5
25E
100
AcDbEntity
  8
0
100
AcDbText
 62
7
  6
CONTINUOUS
 10
0.5424124514
 20
1.0
  7
STANDARD
 40
1.8
  1
be communicated to a third party or used for any possible purpose without ORAC's express written permission. 
 72
5
 11
121.4575875486
 21
1.0
100
AcDbText
  0
TEXT
  5
25F
100
AcDbEntity
  8
0
100
AcDbText
 62
2
  6
CONTINUOUS
 10
108.0625
 20
13.85
  7
STANDARD
 40
2.25
  1
Anton Smolko
 72
5
 11
127.3407101167
 21
13.85
100
AcDbText
  0
TEXT
  5
260
100
AcDbEntity
  8
0
100
AcDbText
 62
2
  6
CONTINUOUS
 10
108.0625
 20
8.9
  7
STANDARD
 40
2.25
  1
15-Jul-2014
 72
5
 11
123.8912937743
 21
8.9
100
AcDbText
  0
TEXT
  5
261
100
AcDbEntity
  8
0
100
AcDbText
 62
7
  6
CONTINUOUS
 10
92.0625
 20
13.85
  7
STANDARD
 40
2.25
  1
Drawn by:
 72
5
 11
106.4905155642
 21
13.85
100
AcDbText
  0
TEXT
  5
262
100
AcDbEntity
  8
0
100
AcDbText
 62
7
  6
CONTINUOUS
 10
92.0625
 20
8.9
  7
STANDARD
 40
2.25
  1
Drawn on:
 72
5
 11
106.4905155642
 21
8.9
100
AcDbText
  0
TEXT
  5
263
100
AcDbEntity
  8
0
100
AcDbText
 62
7
  6
CONTINUOUS
 10
77.0625
 20
24.25
  7
STANDARD
 40
2.0
  1
Creo 2.0
 72
5
 11
87.622811284
 21
24.25
100
AcDbText
  0
TEXT
  5
264
100
AcDbEntity
  8
0
100
AcDbText
 62
7
  6
CONTINUOUS
 10
77.0625
 20
21.25
  7
STANDARD
 40
2.0
  1
A4
 72
5
 11
80.6189202335
 21
21.25
100
AcDbText
  0
TEXT
  5
265
100
AcDbEntity
  8
0
100
AcDbText
 62
7
  6
CONTINUOUS
 10
77.0625
 20
18.25
  7
STANDARD
 40
2.0
  1
1:1
 72
5
 11
80.9457684825
 21
18.25
100
AcDbText
  0
TEXT
  5
266
100
AcDbEntity
  8
0
100
AcDbText
 62
7
  6
CONTINUOUS
 10
77.0625
 20
15.25
  7
STANDARD
 40
2.0
  1
1
 72
5
 11
78.5177529183
 21
15.25
100
AcDbText
  0
TEXT
  5
267
100
AcDbEntity
  8
0
100
AcDbText
 62
7
  6
CONTINUOUS
 10
78.5177529183
 20
15.25
  7
STANDARD
 40
2.0
  1
 / 
 72
5
 11
81.2181420233
 21
15.25
100
AcDbText
  0
TEXT
  5
268
100
AcDbEntity
  8
0
100
AcDbText
 62
7
  6
CONTINUOUS
 10
81.2181420233
 20
15.25
  7
STANDARD
 40
2.0
  1
1
 72
5
 11
82.6733949416
 21
15.25
100
AcDbText
  0
TEXT
  5
269
100
AcDbEntity
  8
0
100
AcDbText
 62
7
  6
CONTINUOUS
 10
59.8480058366
 20
24.25
  7
STANDARD
 40
2.0
  1
Drawn with:
 72
5
 11
74.9375
 21
24.25
100
AcDbText
  0
TEXT
  5
26A
100
AcDbEntity
  8
0
100
AcDbText
 62
7
  6
CONTINUOUS
 10
62.8752431907
 20
21.25
  7
STANDARD
 40
2.0
  1
Page size:
 72
5
 11
74.9375
 21
21.25
100
AcDbText
  0
TEXT
  5
26B
100
AcDbEntity
  8
0
100
AcDbText
 62
7
  6
CONTINUOUS
 10
61.5834143969
 20
18.25
  7
STANDARD
 40
2.0
  1
Page scale:
 72
5
 11
74.9375
 21
18.25
100
AcDbText
  0
TEXT
  5
26C
100
AcDbEntity
  8
0
100
AcDbText
 62
7
  6
CONTINUOUS
 10
64.1592898833
 20
15.25
  7
STANDARD
 40
2.0
  1
Sheet nr:
 72
5
 11
74.9375
 21
15.25
100
AcDbText
  0
TEXT
  5
26D
100
AcDbEntity
  8
0
100
AcDbText
 62
7
  6
CONTINUOUS
 10
61.8480058366
 20
12.25
  7
STANDARD
 40
2.0
  1
Projection:
 72
5
 11
74.9375
 21
12.25
100
AcDbText
  0
TEXT
  5
26E
100
AcDbEntity
  8
0
100
AcDbText
 62
7
  6
CONTINUOUS
 10
27.3015564202
 20
34.4375
  7
STANDARD
 40
5.0
  1
Orac
 72
5
 11
41.6984435798
 21
34.4375
100
AcDbText
  0
TEXT
  5
26F
100
AcDbEntity
  8
0
100
AcDbText
 62
7
  6
CONTINUOUS
 10
33.91692607
 20
29.8125
  7
STANDARD
 40
2.7
  1
 
 72
5
 11
35.08307393
 21
29.8125
100
AcDbText
  0
TEXT
  5
270
100
AcDbEntity
  8
0
100
AcDbText
 62
7
  6
CONTINUOUS
 10
21.6303501946
 20
25.7625
  7
STANDARD
 40
2.7
  1
Biekorfstraat 32
 72
5
 11
47.3696498054
 21
25.7625
100
AcDbText
  0
TEXT
  5
271
100
AcDbEntity
  8
0
100
AcDbText
 62
7
  6
CONTINUOUS
 10
14.0451361868
 20
21.7125
  7
STANDARD
 40
2.7
  1
8400 Oostende - Belgium
 72
5
 11
54.9548638132
 21
21.7125
100
AcDbText
  0
TEXT
  5
272
100
AcDbEntity
  8
0
100
AcDbText
 62
7
  6
CONTINUOUS
 10
14.486381323
 20
17.6625
  7
STANDARD
 40
2.7
  1
Tel  +32 (0)59 80 32 52
 72
5
 11
54.513618677
 21
17.6625
100
AcDbText
  0
TEXT
  5
273
100
AcDbEntity
  8
0
100
AcDbText
 62
7
  6
CONTINUOUS
 10
14.1239299611
 20
13.6125
  7
STANDARD
 40
2.7
  1
Fax  +32 (0)59 80 28 10
 72
5
 11
54.8760700389
 21
13.6125
100
AcDbText
  0
TEXT
  5
274
100
AcDbEntity
  8
0
100
AcDbText
 62
7
  6
CONTINUOUS
 10
17.6538910506
 20
9.5625
  7
STANDARD
 40
2.7
  1
www.oracdecor.com
 72
5
 11
51.3461089494
 21
9.5625
100
AcDbText
  0
TEXT
  5
275
100
AcDbEntity
  8
0
100
AcDbText
 62
7
  6
CONTINUOUS
 10
2.36
 20
19.7080090791
  7
TEXTSTYLE_4
 40
1.1
  1
u
 50
90.0
 72
5
 11
2.36
 21
22.3663424125
100
AcDbText
  0
TEXT
  5
276
100
AcDbEntity
  8
0
100
AcDbText
 62
7
  6
CONTINUOUS
 10
2.36
 20
22.3663424125
  7
STANDARD
 40
1.1
  1
ROHS
 50
90.0
 72
5
 11
2.36
 21
26.6336575875
100
AcDbText
  0
TEXT
  5
277
100
AcDbEntity
  8
0
100
AcDbText
 62
7
  6
CONTINUOUS
 10
2.36
 20
26.6336575875
  7
TEXTSTYLE_4
 40
1.1
  1
u
 50
90.0
 72
5
 11
2.36
 21
29.2919909209
100
AcDbText
  0
TEXT
  5
278
100
AcDbEntity
  8
0
100
AcDbText
 62
7
  6
CONTINUOUS
 10
4.23
 20
9.219844358
  7
STANDARD
 40
1.1
  1
Parts must be compliant to rohs regulations. If
 50
90.0
 72
5
 11
4.23
 21
39.780155642
100
AcDbText
  0
TEXT
  5
279
100
AcDbEntity
  8
0
100
AcDbText
 62
7
  6
CONTINUOUS
 10
6.1
 20
8.1048638132
  7
STANDARD
 40
1.1
  1
any notification on drawing is in contradictin with
 50
90.0
 72
5
 11
6.1
 21
40.8951361868
100
AcDbText
  0
TEXT
  5
27A
100
AcDbEntity
  8
0
100
AcDbText
 62
7
  6
CONTINUOUS
 10
7.97
 20
8.2011673152
  7
STANDARD
 40
1.1
  1
ROHS regulations, contact Orac before delivery! 
 50
90.0
 72
5
 11
7.97
 21
40.7988326848
100
AcDbText
  0
TEXT
  5
27B
100
AcDbEntity
  8
0
100
AcDbText
 62
2
  6
CONTINUOUS
 10
108.0625
 20
23.7875
  7
STANDARD
 40
2.25
  1
PUROTOUCH
 72
5
 11
128.4175583658
 21
23.7875
100
AcDbText
  0
TEXT
  5
27C
100
AcDbEntity
  8
0
100
AcDbText
 62
2
  6
CONTINUOUS
 10
128.4175583658
 20
23.7875
  7
STANDARD
 40
2.25
  1
 
 72
5
 11
129.389348249
 21
23.7875
100
AcDbText
  0
TEXT
  5
27D
100
AcDbEntity
  8
0
100
AcDbText
 62
2
  6
CONTINUOUS
 10
108.0625
 20
19.9625
  7
STANDARD
 40
2.25
  1
 
 72
5
 11
109.0342898833
 21
19.9625
100
AcDbText
  0
TEXT
  5
27E
100
AcDbEntity
  8
0
100
AcDbText
 62
7
  6
CONTINUOUS
 10
92.0625
 20
23.625
  7
STANDARD
 40
2.5
  1
Material:
 72
5
 11
105.7979085603
 21
23.625
100
AcDbText
  0
TEXT
  5
27F
100
AcDbEntity
  8
0
100
AcDbText
 62
7
  6
CONTINUOUS
 10
92.0625
 20
19.875
  7
STANDARD
 40
2.5
  1
Remarks:
 72
5
 11
106.3232003891
 21
19.875
100
AcDbText
  0
TEXT
  5
280
100
AcDbEntity
  8
0
100
AcDbText
 62
2
  6
CONTINUOUS
 10
108.0625
 20
37.525
  7
STANDARD
 40
1.8
  1
  
 72
5
 11
109.6173638132
 21
37.525
100
AcDbText
  0
TEXT
  5
281
100
AcDbEntity
  8
0
100
AcDbText
 62
2
  6
CONTINUOUS
 10
109.6173638132
 20
37.525
  7
STANDARD
 40
2.5
  1
C303-PROD-MM
 72
5
 11
136.4169747082
 21
37.525
100
AcDbText
  0
TEXT
  5
282
100
AcDbEntity
  8
0
100
AcDbText
 62
2
  6
CONTINUOUS
 10
108.0625
 20
33.575
  7
STANDARD
 40
1.8
  1
  
 72
5
 11
109.6173638132
 21
33.575
100
AcDbText
  0
TEXT
  5
283
100
AcDbEntity
  8
0
100
AcDbText
 62
2
  6
CONTINUOUS
 10
108.0625
 20
29.975
  7
STANDARD
 40
1.8
  1
  
 72
5
 11
109.6173638132
 21
29.975
100
AcDbText
  0
TEXT
  5
284
100
AcDbEntity
  8
0
100
AcDbText
 62
7
  6
CONTINUOUS
 10
92.0625
 20
37.35
  7
STANDARD
 40
2.5
  1
Part name:
 72
5
 11
108.2784533074
 21
37.35
100
AcDbText
  0
TEXT
  5
285
100
AcDbEntity
  8
0
100
AcDbText
 62
7
  6
CONTINUOUS
 10
92.0625
 20
33.55
  7
STANDARD
 40
1.7
  1
Part description:
 72
5
 11
108.8177529183
 21
33.55
100
AcDbText
  0
TEXT
  5
286
100
AcDbEntity
  8
0
100
AcDbText
 62
7
  6
CONTINUOUS
 10
92.0625
 20
30.15
  7
STANDARD
 40
1.7
  1
 
 72
5
 11
92.7967412451
 21
30.15
100
AcDbText
  0
TEXT
  5
287
100
AcDbEntity
  8
0
100
AcDbText
 62
7
  6
CONTINUOUS
 10
60.593385214
 20
27.75
  7
STANDARD
 40
2.5
  1
Drawing properties
 72
5
 11
89.406614786
 21
27.75
100
AcDbText
  0
TEXT
  5
288
100
AcDbEntity
  8
0
100
AcDbText
 62
7
  6
CONTINUOUS
 10
61.8287937743
 20
39.0
  7
STANDARD
 40
2.0
  1
All dimensions are in 
 72
5
 11
88.1712062257
 21
39.0
100
AcDbText
  0
TEXT
  5
289
100
AcDbEntity
  8
0
100
AcDbText
 62
7
  6
CONTINUOUS
 10
62.1050583658
 20
36.0
  7
STANDARD
 40
2.0
  1
mm unless otherwise 
 72
5
 11
87.8949416342
 21
36.0
100
AcDbText
  0
TEXT
  5
28A
100
AcDbEntity
  8
0
100
AcDbText
 62
7
  6
CONTINUOUS
 10
69.7470817121
 20
33.0
  7
STANDARD
 40
2.0
  1
specified
 72
5
 11
80.2529182879
 21
33.0
100
AcDbText
  0
ENDBLK
  5
28B
100
AcDbEntity
  8
0
  6
BYBLOCK
 62
0
100
AcDbBlockEnd
  0
ENDSEC
  0
SECTION
  2
ENTITIES
  0
INSERT
  5
28C
100
AcDbEntity
  8
0
100
AcDbBlockReference
 62
7
  6
CONTINUOUS
  2
SYMBOL_2_BL0
 10
200.6298462176
 20
16.2178244018
  0
DIMENSION
  5
28D
100
AcDbEntity
  8
0
100
AcDbDimension
 62
2
  6
CONTINUOUS
  2
*D0
 10
23.7546622362
 20
28.3214055366
 11
23.7546622362
 21
98.6952106527
 70
160
 71
2
 42
140.7476102323
  3
DIMSTYLE_1
100
AcDbAlignedDimension
 13
86.2579924419
 23
169.0690157689
 14
43.2579924419
 24
28.3214055366
 50
270.0
100
AcDbRotatedDimension
  0
DIMENSION
  5
28E
100
AcDbEntity
  8
0
100
AcDbDimension
 62
2
  6
CONTINUOUS
  2
*D1
 10
106.2579924419
 20
183.9404770917
 11
74.7579924419
 21
183.9404770917
 70
160
 71
2
 42
63.0
  3
DIMSTYLE_1
100
AcDbAlignedDimension
 13
43.2579924419
 23
48.3214055366
 14
106.2579924419
 24
169.0690157689
100
AcDbRotatedDimension
  0
DIMENSION
  5
28F
100
AcDbEntity
  8
0
100
AcDbDimension
 62
2
  6
CONTINUOUS
  2
*D2
 10
62.1346164654
 20
19.8720449292
 11
93.6346164654
 21
90.2458500453
 70
160
 71
2
 42
154.2040524309
  3
DIMSTYLE_1
100
AcDbAlignedDimension
 13
106.2579924419
 23
169.0690157689
 14
43.2579924419
 24
28.3214055366
 50
245.8862461483
100
AcDbRotatedDimension
  0
ACAD_TABLE
  5
290
100
AcDbEntity
  8
0
 62
2
  6
CONTINUOUS
100
AcDbBlockReference
  2
*T1
 10
117.9999793246
 20
4.9999996476
 30
0.0
100
AcDbTable
342
       2F3
343
212
 11
1.0
 21
0.0
 31
0.0
 90
6
 91
5
 92
10
 93
4
 94
0
 95
0
 96
0
 70
1
141
6.5
141
12.0
141
9.0
141
4.0
141
11.0
142
10.0
142
49.0
142
17.0
142
15.0
142
16.0
142
15.0
142
18.0
142
15.0
142
10.0
142
9.0
171
1
172
0
173
0
174
0
175
6
176
1
 91
33
178
0
145
0.0
301
CELL_VALUE
 90
4
  1
All information in this document is Orac's exclusive property.  It may in no case be reproduced, even partly,\Pbe communicated to a third party or used for any possible purpose without ORAC's express written permission. 
304
ACVALUE_END
170
5
140
1.8
171
1
172
0
173
1
174
0
175
1
176
1
 91
1
178
0
145
0.0
170
1
171
1
172
0
173
1
174
0
175
1
176
1
 91
1
178
0
145
0.0
170
1
171
1
172
0
173
1
174
0
175
1
176
1
 91
1
178
0
145
0.0
170
1
171
1
172
0
173
1
174
0
175
1
176
1
 91
1
178
0
145
0.0
170
1
171
1
172
0
173
1
174
0
175
1
176
1
 91
1
178
0
145
0.0
170
5
171
1
172
0
173
0
174
0
175
1
176
1
 91
33
178
0
145
0.0
301
CELL_VALUE
 90
4
  1
Rev:   
304
ACVALUE_END
170
4
140
2.5
171
1
172
0
173
0
174
0
175
1
176
2
 91
41
178
0
145
0.0
301
CELL_VALUE
 90
4
  1
 \P \P \PPainted Surface :
304
ACVALUE_END
170
1
140
2.25
 64
7
171
1
172
0
173
0
174
0
175
1
176
2
 91
41
178
0
145
0.0
301
CELL_VALUE
 90
4
  1
 \P \P \P \P19,7
304
ACVALUE_END
170
3
140
2.25
 64
7
171
1
172
0
173
0
174
0
175
1
176
2
 91
41
178
0
145
0.0
301
CELL_VALUE
 90
4
  1
  \P \P \P \Pdm²/m
304
ACVALUE_END
170
1
140
1.8
 64
7
171
1
172
0
173
0
174
0
175
1
176
4
 91
41
178
0
145
0.0
301
CELL_VALUE
 90
4
  1
{\Fgdt;u}\Fcgtime.ttf;ROHS\Fgdt;{\Fgdt;u}\P\Fcgtime.ttf;Parts must be compliant to rohs regulations. If\Pany notification on drawing is in contradictin with\PROHS regulations, contact Orac before delivery! 
304
ACVALUE_END
170
5
140
1.1
 64
7
171
1
172
0
173
0
174
0
175
1
176
4
 91
41
178
0
145
0.0
301
CELL_VALUE
 90
4
  1
Orac\P\H2.7; \PBiekorfstraat 32\P8400 Oostende - Belgium\PTel  +32 (0)59 80 32 52\PFax  +32 (0)59 80 28 10\Pwww.oracdecor.com
304
ACVALUE_END
170
5
140
5.0
 64
7
171
1
172
0
173
0
174
0
175
1
176
2
 91
41
178
0
145
0.0
301
CELL_VALUE
 90
4
  1
Drawn with:\PPage size:\PPage scale:\PSheet nr:\PProjection:
304
ACVALUE_END
170
3
140
2.0
 64
7
171
1
172
0
173
0
174
0
175
1
176
2
 91
41
178
0
145
0.0
301
CELL_VALUE
 90
4
  1
Creo 2.0\PA4\P1:1\P1 / 1
304
ACVALUE_END
170
1
140
2.0
 64
7
171
1
172
0
173
0
174
0
175
1
176
1
 91
41
178
0
145
0.0
301
CELL_VALUE
 90
4
  1
Drawn by:\PDrawn on:
304
ACVALUE_END
170
4
140
2.25
 64
7
171
1
172
0
173
0
174
0
175
2
176
1
 91
33
178
0
145
0.0
301
CELL_VALUE
 90
4
  1
Anton Smolko\P15-Jul-2014
304
ACVALUE_END
170
4
140
2.25
171
1
172
0
173
1
174
0
175
1
176
1
 91
1
178
0
145
0.0
170
4
171
1
172
0
173
1
174
0
175
1
176
1
 91
1
178
0
145
0.0
170
1
171
1
172
0
173
1
174
0
175
1
176
1
 91
1
178
0
145
0.0
170
1
171
1
172
0
173
1
174
0
175
1
176
1
 91
1
178
0
145
0.0
170
1
171
1
172
0
173
1
174
0
175
1
176
1
 91
1
178
0
145
0.0
170
1
171
1
172
0
173
1
174
0
175
1
176
1
 91
1
178
0
145
0.0
170
1
171
1
172
0
173
1
174
0
175
1
176
1
 91
1
178
0
145
0.0
170
1
171
1
172
0
173
1
174
0
175
1
176
1
 91
1
178
0
145
0.0
170
1
171
1
172
0
173
0
174
0
175
1
176
1
 91
41
178
0
145
0.0
301
CELL_VALUE
 90
4
  1
Material:\PRemarks:
304
ACVALUE_END
170
4
140
2.5
 64
7
171
1
172
0
173
0
174
0
175
5
176
1
 91
33
178
0
145
0.0
301
CELL_VALUE
 90
4
  1
PUROTOUCH \P 
304
ACVALUE_END
170
4
140
2.25
171
1
172
0
173
1
174
0
175
1
176
1
 91
1
178
0
145
0.0
170
1
171
1
172
0
173
1
174
0
175
1
176
1
 91
1
178
0
145
0.0
170
1
171
1
172
0
173
1
174
0
175
1
176
1
 91
1
178
0
145
0.0
170
1
171
1
172
0
173
1
174
0
175
1
176
1
 91
1
178
0
145
0.0
170
4
171
1
172
0
173
1
174
0
175
1
176
1
 91
1
178
0
145
0.0
170
1
171
1
172
0
173
1
174
0
175
1
176
1
 91
1
178
0
145
0.0
170
1
171
1
172
0
173
0
174
0
175
2
176
1
 91
33
178
0
145
0.0
301
CELL_VALUE
 90
4
  1
Drawing properties
304
ACVALUE_END
170
2
140
2.5
171
1
172
0
173
1
174
0
175
1
176
1
 91
1
178
0
145
0.0
170
2
171
1
172
0
173
0
174
0
175
1
176
2
 91
41
178
0
145
0.0
301
CELL_VALUE
 90
4
  1
Part name:\P\H1.7;Part description:\P 
304
ACVALUE_END
170
4
140
2.5
 64
7
171
1
172
0
173
0
174
0
175
5
176
2
 91
33
178
0
145
0.0
301
CELL_VALUE
 90
4
  1
  \H2.5;C303-PROD-MM\P\H1.8;  \P  
304
ACVALUE_END
170
4
140
1.8
171
1
172
0
173
1
174
0
175
1
176
1
 91
1
178
0
145
0.0
170
1
171
1
172
0
173
1
174
0
175
1
176
1
 91
1
178
0
145
0.0
170
1
171
1
172
0
173
1
174
0
175
1
176
1
 91
1
178
0
145
0.0
170
1
171
1
172
0
173
1
174
0
175
1
176
1
 91
1
178
0
145
0.0
170
4
171
1
172
0
173
1
174
0
175
1
176
1
 91
1
178
0
145
0.0
170
1
171
1
172
0
173
1
174
0
175
1
176
1
 91
1
178
0
145
0.0
170
1
171
1
172
0
173
0
174
0
175
2
176
1
 91
33
178
0
145
0.0
301
CELL_VALUE
 90
4
  1
All dimensions are in \Pmm unless otherwise \Pspecified
304
ACVALUE_END
170
5
140
2.0
171
1
172
0
173
1
174
0
175
1
176
1
 91
1
178
0
145
0.0
170
5
171
1
172
0
173
1
174
0
175
1
176
1
 91
1
178
0
145
0.0
170
1
171
1
172
0
173
1
174
0
175
1
176
1
 91
1
178
0
145
0.0
170
1
171
1
172
0
173
1
174
0
175
1
176
1
 91
1
178
0
145
0.0
170
1
171
1
172
0
173
1
174
0
175
1
176
1
 91
1
178
0
145
0.0
170
1
171
1
172
0
173
1
174
0
175
1
176
1
 91
1
178
0
145
0.0
170
1
171
1
172
0
173
1
174
0
175
1
176
1
 91
1
178
0
145
0.0
170
1
  0
TEXT
  5
291
100
AcDbEntity
  8
0
100
AcDbText
 62
2
  6
CONTINUOUS
 10
119.8060591603
 20
49.2780636587
  7
STANDARD
 40
3.5
  1
Please beware: Product is visualised in this drawing without ornamentation
 72
5
 11
276.3663704444
 21
49.2780636587
100
AcDbText
  0
TEXT
  5
292
100
AcDbEntity
  8
0
100
AcDbText
 62
2
  6
CONTINUOUS
 10
215.7147585766
 20
63.5770771352
  7
STANDARD
 40
2.5
  1
SCALE  
 72
5
 11
229.5182605221
 21
63.5770771352
100
AcDbText
  0
TEXT
  5
293
100
AcDbEntity
  8
0
100
AcDbText
 62
2
  6
CONTINUOUS
 10
229.5182605221
 20
63.5770771352
  7
STANDARD
 40
2.5
  1
1:2
 72
5
 11
234.3723461252
 21
63.5770771352
100
AcDbText
  0
TEXT
  5
294
100
AcDbEntity
  8
0
100
AcDbText
 62
2
  6
CONTINUOUS
 10
69.9372112553
 20
9.844439325
  7
STANDARD
 40
2.5
  1
SCALE  
 72
5
 11
83.7407132009
 21
9.844439325
100
AcDbText
  0
TEXT
  5
295
100
AcDbEntity
  8
0
100
AcDbText
 62
2
  6
CONTINUOUS
 10
83.7407132009
 20
9.844439325
  7
STANDARD
 40
2.5
  1
1:1
 72
5
 11
88.594798804
 21
9.844439325
100
AcDbText
  0
LINE
  5
296
100
AcDbEntity
  8
0
100
AcDbLine
 62
5
  6
CONTINUOUS
 10
0.0
 20
0.0
 11
0.0
 21
210.0
  0
LINE
  5
297
100
AcDbEntity
  8
0
100
AcDbLine
 62
7
  6
CONTINUOUS
 10
5.0
 20
5.0
 11
5.0
 21
195.0
  0
LINE
  5
298
100
AcDbEntity
  8
0
100
AcDbLine
 62
5
  6
CONTINUOUS
 10
0.0
 20
0.0
 11
297.0
 21
0.0
  0
LINE
  5
299
100
AcDbEntity
  8
0
100
AcDbLine
 62
7
  6
CONTINUOUS
 10
5.0
 20
5.0
 11
292.0
 21
5.0
  0
LINE
  5
29A
100
AcDbEntity
  8
0
100
AcDbLine
 62
4
  6
CONTINUOUS
 10
148.5
 20
195.0
 11
148.5
 21
205.0
  0
LINE
  5
29B
100
AcDbEntity
  8
0
100
AcDbLine
 62
7
  6
CONTINUOUS
 10
5.0
 20
195.0
 11
292.0
 21
195.0
  0
LINE
  5
29C
100
AcDbEntity
  8
0
100
AcDbLine
 62
5
  6
CONTINUOUS
 10
0.0
 20
210.0
 11
297.0
 21
210.0
  0
LINE
  5
29D
100
AcDbEntity
  8
0
100
AcDbLine
 62
7
  6
CONTINUOUS
 10
292.0
 20
5.0
 11
292.0
 21
195.0
  0
LINE
  5
29E
100
AcDbEntity
  8
0
100
AcDbLine
 62
5
  6
CONTINUOUS
 10
297.0
 20
0.0
 11
297.0
 21
210.0
  0
LINE
  5
29F
100
AcDbEntity
  8
0
100
AcDbLine
 62
7
  6
CONTINUOUS
 10
233.3539894913
 20
68.8120771352
 11
236.6026890751
 21
68.8946635385
  0
LINE
  5
2A0
100
AcDbEntity
  8
0
100
AcDbLine
 62
7
  6
CONTINUOUS
 10
206.9386603545
 20
141.1935807553
 11
223.8239751381
 21
157.124725306
  0
LINE
  5
2A1
100
AcDbEntity
  8
0
100
AcDbLine
 62
7
  6
CONTINUOUS
 10
233.3539894913
 20
68.8120771352
 11
203.803393214
 21
91.4360307421
  0
LINE
  5
2A2
100
AcDbEntity
  8
0
100
AcDbLine
 62
7
  6
CONTINUOUS
 10
236.6026890751
 20
68.8946635385
 11
207.0520927978
 21
91.5186171454
  0
LINE
  5
2A3
100
AcDbEntity
  8
0
100
AcDbLine
 62
7
  6
CONTINUOUS
 10
203.803393214
 20
91.4360307421
 11
203.8095137052
 21
95.695358189
  0
LINE
  5
2A4
100
AcDbEntity
  8
0
100
AcDbLine
 62
7
  6
CONTINUOUS
 10
203.8119978079
 20
97.4240767389
 11
203.8177591506
 21
101.4334682482
  0
LINE
  5
2A5
100
AcDbEntity
  8
0
100
AcDbLine
 62
7
  6
CONTINUOUS
 10
203.8119978079
 20
97.4240767389
 11
204.3290836549
 21
97.0281955153
  0
LINE
  5
2A6
100
AcDbEntity
  8
0
100
AcDbLine
 62
7
  6
CONTINUOUS
 10
205.3690199787
 20
137.5623267289
 11
205.3201500061
 21
103.5530929891
  0
LINE
  5
2A7
100
AcDbEntity
  8
0
100
AcDbLine
 62
7
  6
CONTINUOUS
 10
208.817545734
 20
102.8042758532
 11
208.8642350281
 21
135.295947748
  0
LINE
  5
2A8
100
AcDbEntity
  8
0
100
AcDbLine
 62
7
  6
CONTINUOUS
 10
211.3135781802
 20
100.802868326
 11
211.3164513676
 21
102.8023558272
  0
LINE
  5
2A9
100
AcDbEntity
  8
0
100
AcDbLine
 62
7
  6
CONTINUOUS
 10
211.3631406616
 20
135.294027722
 11
211.3667321458
 21
137.7933870985
  0
LINE
  5
2AA
100
AcDbEntity
  8
0
100
AcDbLine
 62
7
  6
CONTINUOUS
 10
203.803393214
 20
91.4360307421
 11
207.0520927978
 21
91.5186171454
  0
LINE
  5
2AB
100
AcDbEntity
  8
DTM_AXIS
100
AcDbLine
 62
7
  6
CONTINUOUS
 10
241.893663511
 20
77.7655806984
 11
212.3430672337
 21
100.3895343053
  0
LINE
  5
2AC
100
AcDbEntity
  8
0
100
AcDbLine
 62
7
  6
CONTINUOUS
 10
240.8670476448
 20
80.1784022203
 11
211.3164513676
 21
102.8023558272
  0
LINE
  5
2AD
100
AcDbEntity
  8
0
100
AcDbLine
 62
7
  6
CONTINUOUS
 10
204.8794787597
 20
102.4930420284
 11
203.8177591506
 21
101.4334682482
  0
LINE
  5
2AE
100
AcDbEntity
  8
0
100
AcDbLine
 62
7
  6
CONTINUOUS
 10
211.3164513676
 20
102.8023558272
 11
208.817545734
 21
102.8042758532
  0
LINE
  5
2AF
100
AcDbEntity
  8
0
100
AcDbLine
 62
7
  6
CONTINUOUS
 10
225.3936155139
 20
160.7559793324
 11
225.395080225
 21
161.7752903897
  0
LINE
  5
2B0
100
AcDbEntity
  8
0
100
AcDbLine
 62
7
  6
CONTINUOUS
 10
229.3800424638
 20
152.5257832326
 11
229.3822003116
 21
154.02745685
  0
LINE
  5
2B1
100
AcDbEntity
  8
0
100
AcDbLine
 62
7
  6
CONTINUOUS
 10
240.9173284231
 20
115.1694334916
 11
244.6659692059
 21
115.3630322644
  0
LINE
  5
2B2
100
AcDbEntity
  8
0
100
AcDbLine
 62
7
  6
CONTINUOUS
 10
238.4148313054
 20
112.6719941411
 11
240.9137369389
 21
112.6700741151
  0
LINE
  5
2B3
100
AcDbEntity
  8
0
100
AcDbLine
 62
7
  6
CONTINUOUS
 10
238.4148313054
 20
112.6719941411
 11
208.8642350281
 21
135.295947748
  0
LINE
  5
2B4
100
AcDbEntity
  8
0
100
AcDbLine
 62
7
  6
CONTINUOUS
 10
235.3853172495
 20
158.0197657985
 11
235.3907027592
 21
161.7676102856
  0
LINE
  5
2B5
100
AcDbEntity
  8
0
100
AcDbLine
 62
7
  6
CONTINUOUS
 10
238.3708853774
 20
82.0894654964
 11
238.4148313054
 21
112.6719941411
  0
LINE
  5
2B6
100
AcDbEntity
  8
0
100
AcDbLine
 62
7
  6
CONTINUOUS
 10
240.9137369389
 20
112.6700741151
 11
211.3631406616
 21
135.294027722
  0
LINE
  5
2B7
100
AcDbEntity
  8
0
100
AcDbLine
 62
7
  6
CONTINUOUS
 10
211.3667321458
 20
137.7933870985
 11
240.9173284231
 21
115.1694334916
  0
LINE
  5
2B8
100
AcDbEntity
  8
0
100
AcDbLine
 62
7
  6
CONTINUOUS
 10
240.8647125013
 20
78.5533461867
 11
240.8670476448
 21
80.1784022203
  0
LINE
  5
2B9
100
AcDbEntity
  8
0
100
AcDbLine
 62
7
  6
CONTINUOUS
 10
240.9137369389
 20
112.6700741151
 11
240.9173284231
 21
115.1694334916
  0
LINE
  5
2BA
100
AcDbEntity
  8
0
100
AcDbLine
 62
7
  6
CONTINUOUS
 10
248.4226648857
 20
121.1621359172
 11
249.9221211988
 21
121.2395754263
  0
LINE
  5
2BB
100
AcDbEntity
  8
0
100
AcDbLine
 62
7
  6
CONTINUOUS
 10
244.6659692059
 20
115.3630322644
 11
215.1153729287
 21
137.9869858713
  0
LINE
  5
2BC
100
AcDbEntity
  8
0
100
AcDbLine
 62
7
  6
CONTINUOUS
 10
248.4226648857
 20
121.1621359172
 11
218.8720686084
 21
143.7860895241
  0
LINE
  5
2BD
100
AcDbEntity
  8
0
100
AcDbLine
 62
7
  6
CONTINUOUS
 10
249.9221211988
 20
121.2395754263
 11
220.3715249216
 21
143.8635290332
  0
LINE
  5
2BE
100
AcDbEntity
  8
0
100
AcDbLine
 62
7
  6
CONTINUOUS
 10
208.8642350281
 20
135.295947748
 11
211.3631406616
 21
135.294027722
  0
LINE
  5
2BF
100
AcDbEntity
  8
0
100
AcDbLine
 62
7
  6
CONTINUOUS
 10
258.9306387411
 20
129.9018296257
 11
258.9327965889
 21
131.4035032431
  0
LINE
  5
2C0
100
AcDbEntity
  8
0
100
AcDbLine
 62
7
  6
CONTINUOUS
 10
211.3667321458
 20
137.7933870985
 11
215.1153729287
 21
137.9869858713
  0
LINE
  5
2C1
100
AcDbEntity
  8
0
100
AcDbLine
 62
7
  6
CONTINUOUS
 10
218.8720686084
 20
143.7860895241
 11
220.3715249216
 21
143.8635290332
  0
LINE
  5
2C2
100
AcDbEntity
  8
0
100
AcDbLine
 62
7
  6
CONTINUOUS
 10
258.9306387411
 20
129.9018296257
 11
229.3800424638
 21
152.5257832326
  0
LINE
  5
2C3
100
AcDbEntity
  8
0
100
AcDbLine
 62
7
  6
CONTINUOUS
 10
258.9327965889
 20
131.4035032431
 11
229.3822003116
 21
154.02745685
  0
LINE
  5
2C4
100
AcDbEntity
  8
0
100
AcDbLine
 62
7
  6
CONTINUOUS
 10
264.9359135268
 20
135.3958121916
 11
264.9412990365
 21
139.1436566787
  0
LINE
  5
2C5
100
AcDbEntity
  8
0
100
AcDbLine
 62
7
  6
CONTINUOUS
 10
264.9359135268
 20
135.3958121916
 11
235.3853172495
 21
158.0197657985
  0
LINE
  5
2C6
100
AcDbEntity
  8
0
100
AcDbLine
 62
7
  6
CONTINUOUS
 10
264.9412990365
 20
139.1436566787
 11
235.3907027592
 21
161.7676102856
  0
LINE
  5
2C7
100
AcDbEntity
  8
0
100
AcDbLine
 62
7
  6
CONTINUOUS
 10
225.395080225
 20
161.7752903897
 11
235.3907027592
 21
161.7676102856
  0
LINE
  5
2C8
100
AcDbEntity
  8
0
100
AcDbLine
 62
7
  6
CONTINUOUS
 10
43.2579924419
 20
28.3214055366
 11
49.7579924419
 21
28.4916140268
  0
LINE
  5
2C9
100
AcDbEntity
  8
0
100
AcDbLine
 62
7
  6
CONTINUOUS
 10
58.2579924419
 20
51.0714055366
 11
53.2579924419
 21
51.0714055366
  0
LINE
  5
2CA
100
AcDbEntity
  8
0
100
AcDbLine
 62
7
  6
CONTINUOUS
 10
49.3882040312
 20
127.866722056
 11
83.1277808527
 21
159.7630969303
  0
LINE
  5
2CB
100
AcDbEntity
  8
0
100
AcDbLine
 62
7
  6
CONTINUOUS
 10
43.2579924419
 20
28.3214055366
 11
43.2579924419
 21
36.84224389
  0
LINE
  5
2CC
100
AcDbEntity
  8
0
100
AcDbLine
 62
7
  6
CONTINUOUS
 10
43.2579924419
 20
40.3005671831
 11
43.2579924419
 21
48.3214055366
  0
LINE
  5
2CD
100
AcDbEntity
  8
0
100
AcDbLine
 62
7
  6
CONTINUOUS
 10
46.2579924419
 20
120.5999478616
 11
46.2579924419
 21
52.5640462237
  0
LINE
  5
2CE
100
AcDbEntity
  8
0
100
AcDbLine
 62
7
  6
CONTINUOUS
 10
53.2579924419
 20
51.0714055366
 11
53.2579924419
 21
116.0714055366
  0
LINE
  5
2CF
100
AcDbEntity
  8
0
100
AcDbLine
 62
7
  6
CONTINUOUS
 10
58.2579924419
 20
47.0714055366
 11
58.2579924419
 21
51.0714055366
  0
LINE
  5
2D0
100
AcDbEntity
  8
0
100
AcDbLine
 62
7
  6
CONTINUOUS
 10
58.2579924419
 20
116.0714055366
 11
58.2579924419
 21
121.0714055366
  0
LINE
  5
2D1
100
AcDbEntity
  8
0
100
AcDbLine
 62
7
  6
CONTINUOUS
 10
86.2579924419
 20
167.0298711247
 11
86.2579924419
 21
169.0690157689
  0
LINE
  5
2D2
100
AcDbEntity
  8
0
100
AcDbLine
 62
7
  6
CONTINUOUS
 10
45.3793127855
 20
50.4427258801
 11
43.2579924419
 21
48.3214055366
  0
LINE
  5
2D3
100
AcDbEntity
  8
0
100
AcDbLine
 62
7
  6
CONTINUOUS
 10
94.2579924419
 20
150.5714055366
 11
94.2579924419
 21
153.5755225746
  0
LINE
  5
2D4
100
AcDbEntity
  8
0
100
AcDbLine
 62
7
  6
CONTINUOUS
 10
53.2579924419
 20
116.0714055366
 11
58.2579924419
 21
116.0714055366
  0
LINE
  5
2D5
100
AcDbEntity
  8
0
100
AcDbLine
 62
7
  6
CONTINUOUS
 10
58.2579924419
 20
121.0714055366
 11
65.7579924419
 21
121.4644638812
  0
LINE
  5
2D6
100
AcDbEntity
  8
0
100
AcDbLine
 62
7
  6
CONTINUOUS
 10
106.2579924419
 20
161.5714055366
 11
106.2579924419
 21
169.0690157689
  0
LINE
  5
2D7
100
AcDbEntity
  8
0
100
AcDbLine
 62
7
  6
CONTINUOUS
 10
73.2579924419
 20
133.0714055366
 11
76.2579924419
 21
133.2286288744
  0
LINE
  5
2D8
100
AcDbEntity
  8
0
100
AcDbLine
 62
7
  6
CONTINUOUS
 10
86.2579924419
 20
169.0690157689
 11
106.2579924419
 21
169.0690157689
  0
ARC
  5
2D9
100
AcDbEntity
  8
0
100
AcDbCircle
 62
7
  6
CONTINUOUS
 10
210.3716074891
 20
137.5547655857
 40
5.0026026133
100
AcDbArc
 50
133.3325176
 51
179.9134005627
  0
ARC
  5
2DA
100
AcDbEntity
  8
0
100
AcDbCircle
 62
7
  6
CONTINUOUS
 10
220.3910280035
 20
160.7635404756
 40
5.0026026133
100
AcDbArc
 50
313.3325176
 51
359.9134005627
  0
ARC
  5
2DB
100
AcDbEntity
  8
0
100
AcDbCircle
 62
7
  6
CONTINUOUS
 10
203.8193809825
 20
103.5553534114
 40
1.5007707259
100
AcDbArc
 50
314.940242331
 51
359.9137025362
  0
ARC
  5
2DC
100
AcDbEntity
  8
0
100
AcDbCircle
 62
7
  6
CONTINUOUS
 10
203.5603989182
 20
96.5603085268
 40
0.9000485374
100
AcDbArc
 50
286.0669565343
 51
52.5211202703
  0
ARC
  5
2DD
100
AcDbEntity
  8
0
100
AcDbCircle
 62
7
  6
CONTINUOUS
 10
56.2579924419
 20
120.5999478616
 40
10.0
100
AcDbArc
 50
133.3914311949
 51
180.0
  0
ARC
  5
2DE
100
AcDbEntity
  8
0
100
AcDbCircle
 62
7
  6
CONTINUOUS
 10
76.2579924419
 20
167.0298711247
 40
10.0
100
AcDbArc
 50
313.3914311949
 51
360.0
  0
ARC
  5
2DF
100
AcDbEntity
  8
0
100
AcDbCircle
 62
7
  6
CONTINUOUS
 10
43.2579924419
 20
52.5640462237
 40
3.0
100
AcDbArc
 50
315.0
 51
360.0
  0
ARC
  5
2E0
100
AcDbEntity
  8
0
100
AcDbCircle
 62
7
  6
CONTINUOUS
 10
42.7579924419
 20
38.5714055366
 40
1.8
100
AcDbArc
 50
286.1276202132
 51
73.8723797868
  0
SPLINE
  5
2E1
100
AcDbEntity
  8
0
100
AcDbSpline
 62
7
  6
CONTINUOUS
 70
0
 71
3
 72
9
 73
5
 74
0
 42
0.0000001
 43
0.0000001
 44
0.0000000001
 40
0.0
 40
0.0
 40
0.0
 40
0.0
 40
0.498316096
 40
1.0
 40
1.0
 40
1.0
 40
1.0
 10
212.3430672265
 20
100.3895343109
 30
0.0
 10
212.195286819
 20
100.5026750753
 30
0.0
 10
211.8687653737
 20
100.6937700512
 30
0.0
 10
211.5001797019
 20
100.785852026
 30
0.0
 10
211.3135781802
 20
100.802868326
 30
0.0
  0
SPLINE
  5
2E2
100
AcDbEntity
  8
0
100
AcDbSpline
 62
7
  6
CONTINUOUS
 70
0
 71
3
 72
25
 73
21
 74
0
 42
0.0000001
 43
0.0000001
 44
0.0000000001
 40
0.0
 40
0.0
 40
0.0
 40
0.0
 40
0.062092411
 40
0.1245869631
 40
0.1556240391
 40
0.186467595
 40
0.2482173974
 40
0.3108660218
 40
0.3424894555
 40
0.3741572684
 40
0.4374612064
 40
0.5001510345
 40
0.5614558816
 40
0.6218732366
 40
0.6839281695
 40
0.7474058454
 40
0.8106990489
 40
0.8739337837
 40
0.9372833001
 40
1.0
 40
1.0
 40
1.0
 40
1.0
 10
236.6026890751
 20
68.8946635385
 30
0.0
 10
236.6195029509
 20
69.1475484215
 30
0.0
 10
236.6938942021
 20
69.653151429
 30
0.0
 10
236.8944618562
 20
70.2601906229
 30
0.0
 10
237.127327566
 20
70.7124413937
 30
0.0
 10
237.4105222392
 20
71.1314706568
 30
0.0
 10
237.8535893
 20
71.5914835075
 30
0.0
 10
238.3743629151
 20
71.9629117997
 30
0.0
 10
238.8232149536
 20
72.21410895
 30
0.0
 10
239.2904564979
 20
72.4356116803
 30
0.0
 10
239.890915714
 20
72.6681599607
 30
0.0
 10
240.6070287649
 20
72.935583317
 30
0.0
 10
241.2923808872
 20
73.2504029244
 30
0.0
 10
241.9165279282
 20
73.6780495999
 30
0.0
 10
242.4143625871
 20
74.2629524984
 30
0.0
 10
242.7566938689
 20
74.9622003726
 30
0.0
 10
242.9025096362
 20
75.7363932083
 30
0.0
 10
242.7891862889
 20
76.5169231737
 30
0.0
 10
242.4531811288
 20
77.2241769506
 30
0.0
 10
242.0969244906
 20
77.6099639761
 30
0.0
 10
241.8936635037
 20
77.7655807039
 30
0.0
  0
SPLINE
  5
2E3
100
AcDbEntity
  8
0
100
AcDbSpline
 62
7
  6
CONTINUOUS
 70
0
 71
3
 72
26
 73
22
 74
0
 42
0.0000001
 43
0.0000001
 44
0.0000000001
 40
0.0
 40
0.0
 40
0.0
 40
0.0
 40
0.0663440117
 40
0.1284805732
 40
0.188855468
 40
0.2493277316
 40
0.3107887118
 40
0.37286744
 40
0.4352178841
 40
0.4664993778
 40
0.4978840367
 40
0.5609422664
 40
0.6233853327
 40
0.6538666431
 40
0.6836964413
 40
0.7129521817
 40
0.7419307254
 40
0.8003780381
 40
0.8616913692
 40
0.92779628
 40
1.0
 40
1.0
 40
1.0
 40
1.0
 10
244.6659692059
 20
115.3630322644
 30
0.0
 10
244.657650146
 20
115.5262815217
 30
0.0
 10
244.6655632871
 20
115.8444101231
 30
0.0
 10
244.7546151618
 20
116.3031590082
 30
0.0
 10
244.9093628275
 20
116.728351197
 30
0.0
 10
245.1176584846
 20
117.1273793394
 30
0.0
 10
245.3676752231
 20
117.5065505469
 30
0.0
 10
245.661598743
 20
117.8591594819
 30
0.0
 10
245.9429298994
 20
118.1218031086
 30
0.0
 10
246.1889777446
 20
118.3075106252
 30
0.0
 10
246.4501194555
 20
118.474728204
 30
0.0
 10
246.795033792
 20
118.6503005311
 30
0.0
 10
247.1419687781
 20
118.8155545664
 30
0.0
 10
247.407409694
 20
118.9608396259
 30
0.0
 10
247.5937501082
 20
119.0794857395
 30
0.0
 10
247.764829953
 20
119.2137556378
 30
0.0
 10
247.9674780308
 20
119.4186164746
 30
0.0
 10
248.175019969
 20
119.7252028676
 30
0.0
 10
248.341058579
 20
120.1555253413
 30
0.0
 10
248.4271522729
 20
120.6422994571
 30
0.0
 10
248.4317187107
 20
120.9844679804
 30
0.0
 10
248.4226648857
 20
121.1621359172
 30
0.0
  0
SPLINE
  5
2E4
100
AcDbEntity
  8
0
100
AcDbSpline
 62
7
  6
CONTINUOUS
 70
0
 71
3
 72
18
 73
14
 74
0
 42
0.0000001
 43
0.0000001
 44
0.0000000001
 40
0.0
 40
0.0
 40
0.0
 40
0.0
 40
0.125024166
 40
0.2499869684
 40
0.3125262196
 40
0.3750573995
 40
0.4375814607
 40
0.5001008734
 40
0.5626196547
 40
0.6251412566
 40
0.7500181125
 40
0.8749855691
 40
1.0
 40
1.0
 40
1.0
 40
1.0
 10
249.9221211988
 20
121.2395754263
 30
0.0
 10
249.9229791902
 20
121.8366625261
 30
0.0
 10
249.9879215458
 20
123.0318692864
 30
0.0
 10
250.2879084456
 20
124.5026907855
 30
0.0
 10
250.7030316246
 20
125.6247720209
 30
0.0
 10
251.1122019255
 20
126.4244919783
 30
0.0
 10
251.6241018792
 20
127.1631476731
 30
0.0
 10
252.2358288033
 20
127.8217569368
 30
0.0
 10
252.9355158303
 20
128.3858640527
 30
0.0
 10
253.960469348
 20
129.0035931464
 30
0.0
 10
255.3696625621
 20
129.5312468084
 30
0.0
 10
257.1382083693
 20
129.8463807655
 30
0.0
 10
258.333597694
 20
129.9022883602
 30
0.0
 10
258.9306387411
 20
129.9018296257
 30
0.0
  0
SPLINE
  5
2E5
100
AcDbEntity
  8
0
100
AcDbSpline
 62
7
  6
CONTINUOUS
 70
0
 71
3
 72
22
 73
18
 74
0
 42
0.0000001
 43
0.0000001
 44
0.0000000001
 40
0.0
 40
0.0
 40
0.0
 40
0.0
 40
0.0690675999
 40
0.132928084
 40
0.1934789083
 40
0.2526780835
 40
0.3124702592
 40
0.3740793328
 40
0.4372976807
 40
0.5012925602
 40
0.5651500854
 40
0.6279040757
 40
0.7473884083
 40
0.8052141323
 40
0.8647795341
 40
0.9288697167
 40
1.0
 40
1.0
 40
1.0
 40
1.0
 10
258.9327965889
 20
131.4035032431
 30
0.0
 10
259.1085590775
 20
131.4033681966
 30
0.0
 10
259.4477933192
 20
131.4291123719
 30
0.0
 10
259.926646975
 20
131.5556313323
 30
0.0
 10
260.3487212359
 20
131.7635541039
 30
0.0
 10
260.7106727278
 20
132.0479998756
 30
0.0
 10
261.0091744989
 20
132.4002366272
 30
0.0
 10
261.2686014833
 20
132.7923730426
 30
0.0
 10
261.5148025998
 20
133.205000402
 30
0.0
 10
261.773531277
 20
133.6168597583
 30
0.0
 10
262.0598853944
 20
134.0091654948
 30
0.0
 10
262.4681859813
 20
134.4840277177
 30
0.0
 10
262.9376967956
 20
134.8880997443
 30
0.0
 10
263.4776168637
 20
135.1620051334
 30
0.0
 10
263.9196635638
 20
135.3021516359
 30
0.0
 10
264.4103802862
 20
135.3816198945
 30
0.0
 10
264.7549019436
 20
135.3959512712
 30
0.0
 10
264.9359135268
 20
135.3958121916
 30
0.0
  0
SPLINE
  5
2E6
100
AcDbEntity
  8
0
100
AcDbSpline
 62
7
  6
CONTINUOUS
 70
0
 71
3
 72
26
 73
22
 74
0
 42
0.0000001
 43
0.0000001
 44
0.0000000001
 40
0.0
 40
0.0
 40
0.0
 40
0.0
 40
0.0663440117
 40
0.1284805732
 40
0.188855468
 40
0.2493277316
 40
0.3107887118
 40
0.37286744
 40
0.4352178841
 40
0.4664993778
 40
0.4978840367
 40
0.5609422664
 40
0.6233853327
 40
0.6538666431
 40
0.6836964413
 40
0.7129521817
 40
0.7419307254
 40
0.8003780381
 40
0.8616913692
 40
0.92779628
 40
1.0
 40
1.0
 40
1.0
 40
1.0
 10
215.1153729287
 20
137.9869858713
 30
0.0
 10
215.1070538687
 20
138.1502351286
 30
0.0
 10
215.1149670099
 20
138.4683637301
 30
0.0
 10
215.2040188845
 20
138.9271126152
 30
0.0
 10
215.3587665503
 20
139.3523048039
 30
0.0
 10
215.5670622073
 20
139.7513329463
 30
0.0
 10
215.8170789458
 20
140.1305041539
 30
0.0
 10
216.1110024658
 20
140.4831130888
 30
0.0
 10
216.3923336222
 20
140.7457567156
 30
0.0
 10
216.6383814673
 20
140.9314642321
 30
0.0
 10
216.8995231783
 20
141.0986818109
 30
0.0
 10
217.2444375147
 20
141.2742541381
 30
0.0
 10
217.5913725008
 20
141.4395081734
 30
0.0
 10
217.8568134167
 20
141.5847932329
 30
0.0
 10
218.0431538309
 20
141.7034393465
 30
0.0
 10
218.2142336757
 20
141.8377092448
 30
0.0
 10
218.4168817535
 20
142.0425700815
 30
0.0
 10
218.6244236917
 20
142.3491564746
 30
0.0
 10
218.7904623017
 20
142.7794789483
 30
0.0
 10
218.8765559956
 20
143.266253064
 30
0.0
 10
218.8811224335
 20
143.6084215874
 30
0.0
 10
218.8720686084
 20
143.7860895241
 30
0.0
  0
SPLINE
  5
2E7
100
AcDbEntity
  8
0
100
AcDbSpline
 62
7
  6
CONTINUOUS
 70
0
 71
3
 72
18
 73
14
 74
0
 42
0.0000001
 43
0.0000001
 44
0.0000000001
 40
0.0
 40
0.0
 40
0.0
 40
0.0
 40
0.125024166
 40
0.2499869684
 40
0.3125262196
 40
0.3750573995
 40
0.4375814607
 40
0.5001008734
 40
0.5626196547
 40
0.6251412566
 40
0.7500181125
 40
0.8749855691
 40
1.0
 40
1.0
 40
1.0
 40
1.0
 10
220.3715249216
 20
143.8635290332
 30
0.0
 10
220.372382913
 20
144.460616133
 30
0.0
 10
220.4373252686
 20
145.6558228933
 30
0.0
 10
220.7373121684
 20
147.1266443925
 30
0.0
 10
221.1524353473
 20
148.2487256279
 30
0.0
 10
221.5616056482
 20
149.0484455853
 30
0.0
 10
222.0735056019
 20
149.78710128
 30
0.0
 10
222.6852325261
 20
150.4457105437
 30
0.0
 10
223.384919553
 20
151.0098176596
 30
0.0
 10
224.4098730707
 20
151.6275467533
 30
0.0
 10
225.8190662849
 20
152.1552004153
 30
0.0
 10
227.587612092
 20
152.4703343724
 30
0.0
 10
228.7830014167
 20
152.5262419672
 30
0.0
 10
229.3800424638
 20
152.5257832326
 30
0.0
  0
SPLINE
  5
2E8
100
AcDbEntity
  8
0
100
AcDbSpline
 62
7
  6
CONTINUOUS
 70
0
 71
3
 72
25
 73
21
 74
0
 42
0.0000001
 43
0.0000001
 44
0.0000000001
 40
0.0
 40
0.0
 40
0.0
 40
0.0
 40
0.062092411
 40
0.1245869631
 40
0.1556240391
 40
0.186467595
 40
0.2482173974
 40
0.3108660218
 40
0.3424894555
 40
0.3741572684
 40
0.4374612064
 40
0.5001510345
 40
0.5614558816
 40
0.6218732366
 40
0.6839281695
 40
0.7474058454
 40
0.8106990489
 40
0.8739337837
 40
0.9372833001
 40
1.0
 40
1.0
 40
1.0
 40
1.0
 10
207.0520927978
 20
91.5186171454
 30
0.0
 10
207.0689066736
 20
91.7715020285
 30
0.0
 10
207.1432979248
 20
92.2771050359
 30
0.0
 10
207.3438655789
 20
92.8841442298
 30
0.0
 10
207.5767312887
 20
93.3363950006
 30
0.0
 10
207.8599259619
 20
93.7554242637
 30
0.0
 10
208.3029930228
 20
94.2154371145
 30
0.0
 10
208.8237666378
 20
94.5868654066
 30
0.0
 10
209.2726186763
 20
94.8380625569
 30
0.0
 10
209.7398602207
 20
95.0595652873
 30
0.0
 10
210.3403194368
 20
95.2921135677
 30
0.0
 10
211.0564324876
 20
95.5595369239
 30
0.0
 10
211.7417846099
 20
95.8743565313
 30
0.0
 10
212.3659316509
 20
96.3020032069
 30
0.0
 10
212.8637663098
 20
96.8869061054
 30
0.0
 10
213.2060975917
 20
97.5861539795
 30
0.0
 10
213.3519133589
 20
98.3603468152
 30
0.0
 10
213.2385900116
 20
99.1408767807
 30
0.0
 10
212.9025848515
 20
99.8481305575
 30
0.0
 10
212.5463282133
 20
100.233917583
 30
0.0
 10
212.3430672265
 20
100.3895343109
 30
0.0
  0
SPLINE
  5
2E9
100
AcDbEntity
  8
0
100
AcDbSpline
 62
7
  6
CONTINUOUS
 70
0
 71
3
 72
22
 73
18
 74
0
 42
0.0000001
 43
0.0000001
 44
0.0000000001
 40
0.0
 40
0.0
 40
0.0
 40
0.0
 40
0.0690675999
 40
0.132928084
 40
0.1934789083
 40
0.2526780835
 40
0.3124702592
 40
0.3740793328
 40
0.4372976807
 40
0.5012925602
 40
0.5651500854
 40
0.6279040757
 40
0.7473884083
 40
0.8052141323
 40
0.8647795341
 40
0.9288697167
 40
1.0
 40
1.0
 40
1.0
 40
1.0
 10
229.3822003116
 20
154.02745685
 30
0.0
 10
229.5579628003
 20
154.0273218035
 30
0.0
 10
229.8971970419
 20
154.0530659788
 30
0.0
 10
230.3760506977
 20
154.1795849392
 30
0.0
 10
230.7981249586
 20
154.3875077109
 30
0.0
 10
231.1600764506
 20
154.6719534826
 30
0.0
 10
231.4585782216
 20
155.0241902341
 30
0.0
 10
231.7180052061
 20
155.4163266496
 30
0.0
 10
231.9642063225
 20
155.8289540089
 30
0.0
 10
232.2229349998
 20
156.2408133652
 30
0.0
 10
232.5092891172
 20
156.6331191017
 30
0.0
 10
232.917589704
 20
157.1079813247
 30
0.0
 10
233.3871005184
 20
157.5120533512
 30
0.0
 10
233.9270205865
 20
157.7859587403
 30
0.0
 10
234.3690672865
 20
157.9261052428
 30
0.0
 10
234.8597840089
 20
158.0055735014
 30
0.0
 10
235.2043056663
 20
158.0199048781
 30
0.0
 10
235.3853172495
 20
158.0197657985
 30
0.0
  0
SPLINE
  5
2EA
100
AcDbEntity
  8
0
100
AcDbSpline
 62
7
  6
CONTINUOUS
 70
0
 71
3
 72
8
 73
4
 74
0
 42
0.0000001
 43
0.0000001
 44
0.0000000001
 40
0.0
 40
0.0
 40
0.0
 40
0.0
 40
1.0
 40
1.0
 40
1.0
 40
1.0
 10
204.1080003452
 20
97.2745015497
 30
0.0
 10
204.0202234221
 20
97.3417053403
 30
0.0
 10
203.9181697246
 20
97.3932763851
 30
0.0
 10
203.8119978079
 20
97.4240767389
 30
0.0
  0
SPLINE
  5
2EB
100
AcDbEntity
  8
0
100
AcDbSpline
 62
7
  6
CONTINUOUS
 70
0
 71
3
 72
11
 73
7
 74
0
 42
0.0000001
 43
0.0000001
 44
0.0000000001
 40
0.0
 40
0.0
 40
0.0
 40
0.0
 40
0.2470450793
 40
0.4775069179
 40
0.7268135588
 40
1.0
 40
1.0
 40
1.0
 40
1.0
 10
94.2579924419
 20
153.5755225746
 30
0.0
 10
95.7139895604
 20
153.5755225746
 30
0.0
 10
97.9940712994
 20
154.4694538341
 30
0.0
 10
99.675937265
 20
157.8612643954
 30
0.0
 10
102.2263451727
 20
160.9327239775
 30
0.0
 10
104.5793131757
 20
161.5714055366
 30
0.0
 10
106.2579924419
 20
161.5714055366
 30
0.0
  0
SPLINE
  5
2EC
100
AcDbEntity
  8
0
100
AcDbSpline
 62
7
  6
CONTINUOUS
 70
0
 71
3
 72
13
 73
9
 74
0
 42
0.0000001
 43
0.0000001
 44
0.0000000001
 40
0.0
 40
0.0
 40
0.0
 40
0.0
 40
0.151222262
 40
0.3217631283
 40
0.5827336041
 40
0.7491708776
 40
0.9036504849
 40
1.0
 40
1.0
 40
1.0
 40
1.0
 10
49.7579924419
 20
28.4916140268
 30
0.0
 10
49.8438455222
 20
29.8112168981
 30
0.0
 10
50.6286587116
 20
32.7262977816
 30
0.0
 10
54.8899728281
 20
35.9839992373
 30
0.0
 10
60.4314787368
 20
36.959502424
 30
0.0
 10
62.9330129905
 20
42.2117882651
 30
0.0
 10
61.2153105977
 20
45.9862968595
 30
0.0
 10
59.1319924758
 20
46.9924012061
 30
0.0
 10
58.2579924419
 20
47.0714055366
 30
0.0
  0
SPLINE
  5
2ED
100
AcDbEntity
  8
0
100
AcDbSpline
 62
7
  6
CONTINUOUS
 70
0
 71
3
 72
9
 73
5
 74
0
 42
0.0000001
 43
0.0000001
 44
0.0000000001
 40
0.0
 40
0.0
 40
0.0
 40
0.0
 40
0.5
 40
1.0
 40
1.0
 40
1.0
 40
1.0
 10
76.2579924419
 20
133.2286288744
 30
0.0
 10
76.2579924419
 20
139.1190916514
 30
0.0
 10
79.3713484943
 20
147.7866611531
 30
0.0
 10
88.3675296649
 20
150.5714055366
 30
0.0
 10
94.2579924419
 20
150.5714055366
 30
0.0
  0
SPLINE
  5
2EE
100
AcDbEntity
  8
0
100
AcDbSpline
 62
7
  6
CONTINUOUS
 70
0
 71
3
 72
11
 73
7
 74
0
 42
0.0000001
 43
0.0000001
 44
0.0000000001
 40
0.0
 40
0.0
 40
0.0
 40
0.0
 40
0.2447491706
 40
0.4855978246
 40
0.7128686584
 40
1.0
 40
1.0
 40
1.0
 40
1.0
 10
65.7579924419
 20
121.4644638812
 30
0.0
 10
65.6878427839
 20
122.802999095
 30
0.0
 10
66.3947556964
 20
124.976282489
 30
0.0
 10
68.7558837856
 20
127.7248116982
 30
0.0
 10
72.5177126987
 20
128.8930663623
 30
0.0
 10
73.3476079169
 20
131.3614404088
 30
0.0
 10
73.2579924419
 20
133.0714055366
 30
0.0
  0
ENDSEC
  0
SECTION
  2
OBJECTS
  0
DICTIONARY
  5
C
100
AcDbDictionary
280
0
281
1
  3
ACAD_GROUP
350
D
  3
ACAD_MLINESTYLE
350
17
  3
ACAD_LAYOUT
350
1A
  3
ACAD_PLOTSETTINGS
350
19
  3
ACAD_PLOTSTYLENAME
350
E
  3
ACAD_TABLESTYLE
350
       2EF
  0
DICTIONARY
  5
D
102
{ACAD_REACTORS
330
C
102
}
100
AcDbDictionary
280
0
281
1
  0
ACDBDICTIONARYWDFLT
  5
E
102
{ACAD_REACTORS
330
C
102
}
100
AcDbDictionary
281
1
  3
Normal
350
F
100
AcDbDictionaryWithDefault
340
F
  0
DICTIONARY
  5
17
102
{ACAD_REACTORS
330
C
102
}
100
AcDbDictionary
280
0
281
1
  3
Standard
350
18
  0
DICTIONARY
  5
2EF
330
C
100
AcDbDictionary
281
1
  3
Standard
350
       2F2
  3
Standard1
350
       2F3
  0
DICTIONARY
  5
19
102
{ACAD_REACTORS
330
C
102
}
100
AcDbDictionary
281
1
  0
DICTIONARY
  5
1A
102
{ACAD_REACTORS
330
C
102
}
100
AcDbDictionary
281
1
  3
Model
350
2F0
  3
Layout1
350
2F1
  0
ACDBPLACEHOLDER
  5
F
102
{ACAD_REACTORS
330
E
102
}
  0
MLINESTYLE
  5
18
102
{ACAD_REACTORS
330
17
102
}
100
AcDbMlineStyle
  2
STANDARD
 70
0
  3

 62
256
 51
90.0
 52
90.0
 71
2
 49
0.5
 62
256
  6
BYLAYER
 49
-0.5
 62
256
  6
BYLAYER
  0
LAYOUT
  5
2F0
102
{ACAD_REACTORS
330
1A
102
}
100
AcDbPlotSettings
  1

  2
none_device
  4
ISO_A4_(297.00_x_210.00_MM)
  6

 40
0.0
 41
0.0
 42
0.0
 43
0.0
 44
297.0
 45
210.0
 46
0.0
 47
0.0
 48
0.0
 49
0.0
140
0.0
141
0.0
142
1.0
143
1.0
 70
1024
 72
1
 73
0
 74
0
  7

 75
0
147
1.0
148
0.0
149
0.0
100
AcDbLayout
  1
Model
 70
0
 71
0
 10
0.0
 20
0.0
 11
297.0
 21
210.0
 12
0.0
 22
0.0
 32
0.0
 14
0.0
 24
0.0
 34
0.0
 15
0.0
 25
0.0
 35
0.0
146
0.0
 13
0.0
 23
0.0
 33
0.0
 16
1.0
 26
0.0
 36
0.0
 17
0.0
 27
1.0
 37
0.0
 76
0
330
20B
345
0
346
0
  0
LAYOUT
  5
2F1
102
{ACAD_REACTORS
330
1A
102
}
100
AcDbPlotSettings
  1

  2
none_device
  4
ISO_A4_(297.00_x_210.00_MM)
  6

 40
0.0
 41
0.0
 42
0.0
 43
0.0
 44
297.0
 45
210.0
 46
0.0
 47
0.0
 48
0.0
 49
0.0
140
0.0
141
0.0
142
1.0
143
1.0
 70
0
 72
1
 73
0
 74
0
  7

 75
0
147
1.0
148
0.0
149
0.0
100
AcDbLayout
  1
Layout1
 70
0
 71
1
 10
0.0
 20
0.0
 11
297.0
 21
210.0
 12
0.0
 22
0.0
 32
0.0
 14
0.0
 24
0.0
 34
0.0
 15
0.0
 25
0.0
 35
0.0
146
0.0
 13
0.0
 23
0.0
 33
0.0
 16
1.0
 26
0.0
 36
0.0
 17
0.0
 27
1.0
 37
0.0
 76
0
330
20C
345
0
346
0
  0
TABLESTYLE
  5
2F2
102
{ACAD_REACTORS
330
2EF
102
}
330
2EF
100
AcDbTableStyle
  3
Standard
 70
0
 71
0
 40
0.06
 41
0.06
280
1
281
1
  7
Standard
140
0.18
170
1
 62
0
 63
7
283
0
  7
Standard
140
0.18
170
1
 62
0
 63
7
283
0
  7
Standard
140
0.18
170
1
 62
0
 63
7
283
0
  0
TABLESTYLE
  5
2F3
102
{ACAD_REACTORS
330
2EF
330
290
102
}
330
2EF
100
AcDbTableStyle
  3
Standard1
 70
1
 71
0
 40
0.06
 41
0.06
280
1
281
1
  7
Standard
140
0.18
170
1
 62
0
 63
7
283
0
  7
Standard
140
0.18
170
1
 62
0
 63
7
283
0
  7
Standard
140
0.18
170
1
 62
0
 63
7
283
0
  0
ENDSEC
  0
EOF
