999
DXF file: O:\ORAC_PRODUCTEN\ORAC_LIJN6\C-Type\C217\c217-prod-mm.dxf
999
Pro/ENGINEER 2013050 by Parametric Technology Corporation
  0
SECTION
  2
HEADER
  9
$ACADVER
  1
AC1024
  9
$DWGCODEPAGE
  3
ANSI_1252
  9
$EXTMAX
 10
297.0
 20
210.0
 30
0.0
  9
$EXTMIN
 10
0.0
 20
0.0
 30
0.0
  9
$LIMMIN
 10
0.0
 20
0.0
  9
$LIMMAX
 10
297.0
 20
210.0
  9
$VIEWCTR
 10
148.5
 20
105.0
  9
$VIEWSIZE
 40
210.0
  9
$CLAYER
  8
0
  9
$LTSCALE
 40
16.335
  9
$CELTYPE
  6
BYLAYER
  9
$DIMSCALE
 40
1.0
  9
$DIMASZ
 40
3.5
  9
$DIMEXO
 40
1.0
  9
$DIMDLI
 40
11.286
  9
$DIMEXE
 40
1.5
  9
$DIMCEN
 40
2.673
  9
$DIMLFAC
 40
1.0
  9
$DIMBLK
  1
_FILLED
  9
$DIMTXT
 40
2.5
  9
$DIMTOL
 70
1
  9
$DIMLIM
 70
0
  9
$DIMTFAC
 40
1.0
  9
$DIMTP
 40
0.001
  9
$DIMTM
 40
0.001
  9
$DIMGAP
 40
0.625
  9
$DIMDSEP
 70
44
  9
$PDMODE
 70
3
  9
$PDSIZE
 40
8.0
  9
$HANDSEED
  5
2CE
  9
$TILEMODE
 70
1
  9
$MEASUREMENT
 70
1
  9
$INSUNITS
 70
4
  0
ENDSEC
  0
SECTION
  2
CLASSES
  0
CLASS
  1
ACDBDICTIONARYWDFLT
  2
AcDbDictionaryWithDefault
  3
AutoCAD 2000
 90
0
 91
1
280
0
281
0
  0
CLASS
  1
ACDBPLACEHOLDER
  2
AcDbPlaceHolder
  3
AutoCAD 2000
 90
0
 91
1
280
0
281
0
  0
CLASS
  1
LAYOUT
  2
AcDbLayout
  3
AutoCAD 2000
 90
0
 91
0
280
0
281
0
  0
CLASS
  1
TABLESTYLE
  2
AcDbTableStyle
  3
ObjectDBX Classes
 90
2047
 91
1
280
0
281
0
  0
CLASS
  1
ACAD_TABLE
  2
AcDbTable
  3
ObjectDBX Classes
 90
1025
 91
1
280
0
281
1
  0
ENDSEC
  0
SECTION
  2
TABLES
  0
TABLE
  2
VPORT
  5
8
100
AcDbSymbolTable
 70
2
  0
VPORT
  5
1F4
100
AcDbSymbolTableRecord
100
AcDbViewportTableRecord
  2
*ACTIVE
 70
0
 10
0.0
 20
0.0
 11
1.0
 21
1.0
 12
148.5
 22
105.0
 13
0.0
 23
0.0
 14
1.0
 24
1.0
 15
0.0
 25
0.0
 16
0.0
 26
0.0
 36
1.0
 17
0.0
 27
0.0
 37
0.0
 40
210.0
 41
1.4142857143
 42
50.0
 43
0.0
 44
0.0
 50
0.0
 51
0.0
 71
0
 72
100
 73
1
 74
1
 75
0
 76
0
 77
0
 78
0
  0
ENDTAB
  0
TABLE
  2
LTYPE
  5
5
100
AcDbSymbolTable
 70
6
  0
LTYPE
  5
14
100
AcDbSymbolTableRecord
100
AcDbLinetypeTableRecord
  2
BYBLOCK
 70
0
  3

 72
65
 73
0
 40
0.0
  0
LTYPE
  5
15
100
AcDbSymbolTableRecord
100
AcDbLinetypeTableRecord
  2
BYLAYER
 70
0
  3

 72
65
 73
0
 40
0.0
  0
LTYPE
  5
16
100
AcDbSymbolTableRecord
100
AcDbLinetypeTableRecord
  2
CONTINUOUS
 70
64
  3
Solid line
 72
65
 73
0
 40
0.0
  0
LTYPE
  5
1F5
100
AcDbSymbolTableRecord
100
AcDbLinetypeTableRecord
  2
CENTER
 70
64
  3
____ _ ____ _ ____ _ ____ _ ____ _ ____ _ ____
 72
65
 73
4
 40
0.6
 49
0.375
 74
0
 49
-0.075
 74
0
 49
0.075
 74
0
 49
-0.075
 74
0
  0
LTYPE
  5
1F6
100
AcDbSymbolTableRecord
100
AcDbLinetypeTableRecord
  2
HIDDEN
 70
64
  3
- - - - - - - - - - - - - - - - - - - -
 72
65
 73
2
 40
0.2
 49
0.1
 74
0
 49
-0.1
 74
0
  0
LTYPE
  5
1F7
100
AcDbSymbolTableRecord
100
AcDbLinetypeTableRecord
  2
PHANTOM
 70
64
  3
_____ _ _ _____ _ _ _____ _ _ _____
 72
65
 73
6
 40
0.8
 49
0.45
 74
0
 49
-0.05
 74
0
 49
0.1
 74
0
 49
-0.05
 74
0
 49
0.1
 74
0
 49
-0.05
 74
0
  0
LTYPE
  5
1F8
100
AcDbSymbolTableRecord
100
AcDbLinetypeTableRecord
  2
DOT
 70
64
  3
. . . . . . . . . . . . . . . . . . . .
 72
65
 73
2
 40
0.2
 49
0.1
 74
0
 49
-0.1
 74
0
  0
LTYPE
  5
1F9
100
AcDbSymbolTableRecord
100
AcDbLinetypeTableRecord
  2
DASHED
 70
64
  3
- - - - - - - - - - - - - - - - - - - -
 72
65
 73
2
 40
0.2
 49
0.1
 74
0
 49
-0.1
 74
0
  0
ENDTAB
  0
TABLE
  2
LAYER
  5
2
100
AcDbSymbolTable
 70
36
  0
LAYER
  5
10
100
AcDbSymbolTableRecord
100
AcDbLayerTableRecord
  2
0
 70
0
 62
7
  6
CONTINUOUS
370
-3
390
F
  0
LAYER
  5
1FA
100
AcDbSymbolTableRecord
100
AcDbLayerTableRecord
  2
DEFAULT_1
 70
0
 62
7
  6
CENTER
370
-3
390
F
  0
LAYER
  5
1FB
100
AcDbSymbolTableRecord
100
AcDbLayerTableRecord
  2
DEFAULT_2
 70
0
 62
8
  6
HIDDEN
370
-3
390
F
  0
LAYER
  5
1FC
100
AcDbSymbolTableRecord
100
AcDbLayerTableRecord
  2
DEFAULT_3
 70
0
 62
7
  6
PHANTOM
370
-3
390
F
  0
LAYER
  5
1FD
100
AcDbSymbolTableRecord
100
AcDbLayerTableRecord
  2
CURVES
 70
0
 62
7
  6
CONTINUOUS
370
-3
390
F
  0
LAYER
  5
1FE
100
AcDbSymbolTableRecord
100
AcDbLayerTableRecord
  2
DTM_ALL
 70
0
 62
7
  6
CONTINUOUS
370
-3
390
F
  0
LAYER
  5
1FF
100
AcDbSymbolTableRecord
100
AcDbLayerTableRecord
  2
DTM_AXIS
 70
0
 62
7
  6
CONTINUOUS
370
-3
390
F
  0
LAYER
  5
200
100
AcDbSymbolTableRecord
100
AcDbLayerTableRecord
  2
DTM_CSYS
 70
0
 62
7
  6
CONTINUOUS
370
-3
390
F
  0
LAYER
  5
201
100
AcDbSymbolTableRecord
100
AcDbLayerTableRecord
  2
DTM_CURVE
 70
0
 62
7
  6
CONTINUOUS
370
-3
390
F
  0
LAYER
  5
202
100
AcDbSymbolTableRecord
100
AcDbLayerTableRecord
  2
DTM_MASTER
 70
0
 62
7
  6
CONTINUOUS
370
-3
390
F
  0
LAYER
  5
203
100
AcDbSymbolTableRecord
100
AcDbLayerTableRecord
  2
DTM_POINT
 70
0
 62
7
  6
CONTINUOUS
370
-3
390
F
  0
LAYER
  5
204
100
AcDbSymbolTableRecord
100
AcDbLayerTableRecord
  2
DTM_QUILT
 70
0
 62
7
  6
CONTINUOUS
370
-3
390
F
  0
LAYER
  5
205
100
AcDbSymbolTableRecord
100
AcDbLayerTableRecord
  2
GTOL
 70
0
 62
7
  6
CONTINUOUS
370
-3
390
F
  0
LAYER
  5
206
100
AcDbSymbolTableRecord
100
AcDbLayerTableRecord
  2
NOTES
 70
0
 62
7
  6
CONTINUOUS
370
-3
390
F
  0
LAYER
  5
207
100
AcDbSymbolTableRecord
100
AcDbLayerTableRecord
  2
SURFACES
 70
0
 62
7
  6
CONTINUOUS
370
-3
390
F
  0
ENDTAB
  0
TABLE
  2
STYLE
  5
3
100
AcDbSymbolTable
 70
1
  0
STYLE
  5
11
100
AcDbSymbolTableRecord
100
AcDbTextStyleTableRecord
  2
STANDARD
 70
0
 40
0.0
 41
1.0
 50
0.0
 71
0
 42
0.2
  3
cgtime.ttf
  4

  0
STYLE
  5
208
100
AcDbSymbolTableRecord
100
AcDbTextStyleTableRecord
  2
TEXTSTYLE_1
 70
0
 40
0.0
 41
0.8
 50
0.0
 71
0
 42
0.2
  3
gdt
  4

  0
STYLE
  5
209
100
AcDbSymbolTableRecord
100
AcDbTextStyleTableRecord
  2
TEXTSTYLE_2
 70
0
 40
0.0
 41
1.0
 50
0.0
 71
0
 42
0.2
  3
trium.ttf
  4

  0
STYLE
  5
20A
100
AcDbSymbolTableRecord
100
AcDbTextStyleTableRecord
  2
TEXTSTYLE_3
 70
0
 40
0.0
 41
1.0
 50
0.0
 71
0
 42
0.2
  3
calibri.ttf
  4

  0
ENDTAB
  0
TABLE
  2
VIEW
  5
6
100
AcDbSymbolTable
 70
0
  0
ENDTAB
  0
TABLE
  2
UCS
  5
7
100
AcDbSymbolTable
 70
0
  0
ENDTAB
  0
TABLE
  2
APPID
  5
9
100
AcDbSymbolTable
 70
1
  0
APPID
  5
20B
100
AcDbSymbolTableRecord
100
AcDbRegAppTableRecord
  2
ACAD
 70
0
  0
ENDTAB
  0
TABLE
  2
BLOCK_RECORD
  5
1
100
AcDbSymbolTable
 70
0
  0
BLOCK_RECORD
  5
20C
100
AcDbSymbolTableRecord
100
AcDbBlockTableRecord
  2
*Model_Space
  0
BLOCK_RECORD
  5
20D
100
AcDbSymbolTableRecord
100
AcDbBlockTableRecord
  2
*Paper_Space
  0
BLOCK_RECORD
  5
20E
100
AcDbSymbolTableRecord
100
AcDbBlockTableRecord
  2
_FILLED
  0
BLOCK_RECORD
  5
20F
100
AcDbSymbolTableRecord
100
AcDbBlockTableRecord
  2
*D0
  0
BLOCK_RECORD
  5
210
100
AcDbSymbolTableRecord
100
AcDbBlockTableRecord
  2
*D1
  0
BLOCK_RECORD
  5
211
100
AcDbSymbolTableRecord
100
AcDbBlockTableRecord
  2
*D2
  0
BLOCK_RECORD
  5
212
100
AcDbSymbolTableRecord
100
AcDbBlockTableRecord
  2
*T1
  0
ENDTAB
  0
TABLE
  2
DIMSTYLE
  5
A
100
AcDbSymbolTable
 70
1
100
AcDbDimStyleTable
 71
0
  0
DIMSTYLE
105
213
100
AcDbSymbolTableRecord
100
AcDbDimStyleTableRecord
  2
STANDARD
 70
0
  3

  4

 40
1.0
 41
3.5
 42
1.0
 43
0.38
 44
1.5
 45
0.0
 46
0.0
 47
0.001
 48
0.001
140
2.5
141
0.09
142
0.0
143
25.4
144
1.0
145
0.0
146
1.0
147
0.625
 71
1.0
 72
0.0
 73
1
 74
1
 75
0
 76
0
 77
0
 78
8
170
0
171
2
172
0
173
0
174
0
175
0
176
0
177
0
178
0
270
2
271
3
272
3
273
2
274
2
275
0
280
0
281
0
282
0
283
1
284
8
285
0
286
0
287
3
288
0
340
11
278
44
341
20E
342
20E
343
20E
344
20E
  0
DIMSTYLE
105
214
100
AcDbSymbolTableRecord
100
AcDbDimStyleTableRecord
  2
DIMSTYLE_1
 70
0
  3

  4

 40
1.0
 41
3.5
 42
1.0
 43
0.38
 44
1.5
 45
0.0
 46
0.0
 47
0.0
 48
0.0
140
2.5
141
0.09
142
0.0
143
25.4
144
1.0
145
0.0
146
1.0
147
1.25
 71
0.0
 72
0.0
 73
1
 74
1
 75
0
 76
0
 77
0
 78
8
170
0
171
2
172
0
173
0
174
0
175
0
176
0
177
0
178
0
270
2
271
0
272
0
273
2
274
2
275
0
280
0
281
0
282
0
283
1
284
8
285
0
286
0
287
3
288
0
340
11
278
44
341
20E
342
20E
343
20E
344
20E
  0
DIMSTYLE
105
215
100
AcDbSymbolTableRecord
100
AcDbDimStyleTableRecord
  2
DIMSTYLE_2
 70
0
  3

  4

 40
1.0
 41
3.5
 42
1.0
 43
0.38
 44
1.5
 45
0.0
 46
0.0
 47
0.0
 48
0.0
140
2.5
141
0.09
142
0.0
143
25.4
144
1.0
145
0.0
146
1.0
147
1.25
 71
0.0
 72
0.0
 73
1
 74
1
 75
0
 76
0
 77
0
 78
8
170
0
171
2
172
0
173
0
174
0
175
0
176
0
177
0
178
0
270
2
271
3
272
3
273
2
274
2
275
0
280
0
281
0
282
0
283
1
284
8
285
0
286
0
287
3
288
0
340
11
278
44
341
20E
342
20E
343
20E
344
20E
  0
ENDTAB
  0
ENDSEC
  0
SECTION
  2
BLOCKS
  0
BLOCK
  5
20
100
AcDbEntity
  8
0
100
AcDbBlockBegin
  2
*Model_Space
 70
0
 10
0.0
 20
0.0
 30
0.0
  3
*Model_Space
  1

  0
ENDBLK
  5
21
100
AcDbEntity
  8
0
100
AcDbBlockEnd
  0
BLOCK
  5
1C
100
AcDbEntity
  8
0
100
AcDbBlockBegin
  2
*Paper_Space
 70
0
 10
0.0
 20
0.0
 30
0.0
  3
*Paper_Space
  1

  0
ENDBLK
  5
1D
100
AcDbEntity
  8
0
100
AcDbBlockEnd
  0
BLOCK
  5
216
100
AcDbEntity
  8
0
100
AcDbBlockBegin
  2
_FILLED
 70
64
 10
0.0
 20
0.0
  3
_FILLED
  1

  0
SOLID
  5
217
100
AcDbEntity
  8
0
  6
BYBLOCK
 62
0
100
AcDbTrace
 10
0.0
 20
0.0
 11
-1.0
 21
0.2142857143
 12
-1.0
 22
-0.2142857143
 13
-1.0
 23
-0.2142857143
  0
ENDBLK
  5
218
100
AcDbEntity
  8
0
  6
BYBLOCK
 62
0
100
AcDbBlockEnd
  0
BLOCK
  5
219
100
AcDbEntity
  8
0
100
AcDbBlockBegin
 62
2
  6
CONTINUOUS
  2
*D0
 70
65
 10
0.0
 20
0.0
  3
*D0
  1

  0
TEXT
  5
21A
100
AcDbEntity
  8
0
100
AcDbText
 62
2
  6
CONTINUOUS
 10
79.1954060496
 20
184.2048918271
  7
STANDARD
 40
2.5
  1
103
 72
5
 11
84.6526044932
 21
184.2048918271
100
AcDbText
  0
LINE
  5
21B
100
AcDbEntity
  8
0
100
AcDbLine
 62
2
  6
CONTINUOUS
 10
30.231200616
 20
45.7010821508
 11
30.231200616
 21
186.9548918271
  0
LINE
  5
21C
100
AcDbEntity
  8
0
100
AcDbLine
 62
2
  6
CONTINUOUS
 10
133.6168099268
 20
176.8491754274
 11
133.6168099268
 21
186.9548918271
  0
LINE
  5
21D
100
AcDbEntity
  8
0
100
AcDbLine
 62
2
  6
CONTINUOUS
 10
30.231200616
 20
185.4548918271
 11
77.9454060496
 21
185.4548918271
  0
LINE
  5
21E
100
AcDbEntity
  8
0
100
AcDbLine
 62
2
  6
CONTINUOUS
 10
133.6168099268
 20
185.4548918271
 11
85.9026044932
 21
185.4548918271
  0
INSERT
  5
21F
100
AcDbEntity
  8
0
100
AcDbBlockReference
 62
2
  6
CONTINUOUS
  2
_FILLED
 10
30.231200616
 20
185.4548918271
 41
3.5
 42
3.5
 43
3.5
 50
180.0
  0
INSERT
  5
220
100
AcDbEntity
  8
0
100
AcDbBlockReference
 62
2
  6
CONTINUOUS
  2
_FILLED
 10
133.6168099268
 20
185.4548918271
 41
3.5
 42
3.5
 43
3.5
  0
ENDBLK
  5
221
100
AcDbEntity
  8
0
  6
BYBLOCK
 62
0
100
AcDbBlockEnd
  0
BLOCK
  5
222
100
AcDbEntity
  8
0
100
AcDbBlockBegin
 62
2
  6
CONTINUOUS
  2
*D1
 70
65
 10
0.0
 20
0.0
  3
*D1
  1

  0
TEXT
  5
223
100
AcDbEntity
  8
0
100
AcDbText
 62
2
  6
CONTINUOUS
 10
93.2164837956
 20
87.3030159822
  7
STANDARD
 40
2.5
  1
183
 72
5
 11
98.6736822392
 21
87.3030159822
100
AcDbText
  0
LINE
  5
224
100
AcDbEntity
  8
0
100
AcDbLine
 62
2
  6
CONTINUOUS
 10
31.0647777822
 20
19.2877020692
 11
45.5026441112
 21
9.7198762726
  0
LINE
  5
225
100
AcDbEntity
  8
0
100
AcDbLine
 62
2
  6
CONTINUOUS
 10
134.450387093
 20
175.296772397
 11
148.888253422
 21
165.7289466004
  0
LINE
  5
226
100
AcDbEntity
  8
0
100
AcDbLine
 62
2
  6
CONTINUOUS
 10
44.252278362
 20
10.5484808184
 11
94.2883586825
 21
86.0530159822
  0
LINE
  5
227
100
AcDbEntity
  8
0
100
AcDbLine
 62
2
  6
CONTINUOUS
 10
147.6378876728
 20
166.5575511461
 11
97.6018073523
 21
91.0530159822
  0
INSERT
  5
228
100
AcDbEntity
  8
0
100
AcDbBlockReference
 62
2
  6
CONTINUOUS
  2
_FILLED
 10
44.252278362
 20
10.5484808184
 41
3.5
 42
3.5
 43
3.5
 50
236.4679723986
  0
INSERT
  5
229
100
AcDbEntity
  8
0
100
AcDbBlockReference
 62
2
  6
CONTINUOUS
  2
_FILLED
 10
147.6378876728
 20
166.5575511461
 41
3.5
 42
3.5
 43
3.5
 50
56.4679723986
  0
ENDBLK
  5
22A
100
AcDbEntity
  8
0
  6
BYBLOCK
 62
0
100
AcDbBlockEnd
  0
BLOCK
  5
22B
100
AcDbEntity
  8
0
100
AcDbBlockBegin
 62
2
  6
CONTINUOUS
  2
*D2
 70
65
 10
0.0
 20
0.0
  3
*D2
  1

  0
TEXT
  5
22C
100
AcDbEntity
  8
0
100
AcDbText
 62
2
  6
CONTINUOUS
 10
13.7309851123
 20
96.5946402635
  7
STANDARD
 40
2.5
  1
156
 72
5
 11
19.1881835559
 21
96.5946402635
100
AcDbText
  0
LINE
  5
22D
100
AcDbEntity
  8
0
100
AcDbLine
 62
2
  6
CONTINUOUS
 10
29.231200616
 20
19.8401050997
 11
14.9595843341
 21
19.8401050997
  0
LINE
  5
22E
100
AcDbEntity
  8
0
100
AcDbLine
 62
2
  6
CONTINUOUS
 10
107.4609099268
 20
175.8491754274
 11
14.9595843341
 21
175.8491754274
  0
LINE
  5
22F
100
AcDbEntity
  8
0
100
AcDbLine
 62
2
  6
CONTINUOUS
 10
16.4595843341
 20
19.8401050997
 11
16.4595843341
 21
95.3446402635
  0
LINE
  5
230
100
AcDbEntity
  8
0
100
AcDbLine
 62
2
  6
CONTINUOUS
 10
16.4595843341
 20
175.8491754274
 11
16.4595843341
 21
100.3446402635
  0
INSERT
  5
231
100
AcDbEntity
  8
0
100
AcDbBlockReference
 62
2
  6
CONTINUOUS
  2
_FILLED
 10
16.4595843341
 20
19.8401050997
 41
3.5
 42
3.5
 43
3.5
 50
270.0
  0
INSERT
  5
232
100
AcDbEntity
  8
0
100
AcDbBlockReference
 62
2
  6
CONTINUOUS
  2
_FILLED
 10
16.4595843341
 20
175.8491754274
 41
3.5
 42
3.5
 43
3.5
 50
90.0
  0
ENDBLK
  5
233
100
AcDbEntity
  8
0
  6
BYBLOCK
 62
0
100
AcDbBlockEnd
  0
BLOCK
  5
234
100
AcDbEntity
  8
0
100
AcDbBlockBegin
  2
*T1
 70
1
 10
0.0
 20
0.0
  3
*T1
  1

  0
LINE
  5
235
100
AcDbEntity
  8
0
100
AcDbLine
 62
7
  6
CONTINUOUS
 10
0.0
 20
0.0
 11
148.0
 21
0.0
  0
LINE
  5
236
100
AcDbEntity
  8
0
100
AcDbLine
 62
7
  6
CONTINUOUS
 10
0.0
 20
0.0
 11
0.0
 21
-43.0
  0
LINE
  5
237
100
AcDbEntity
  8
0
100
AcDbLine
 62
7
  6
CONTINUOUS
 10
45.0
 20
-23.0
 11
148.0
 21
-23.0
  0
LINE
  5
238
100
AcDbEntity
  8
0
100
AcDbLine
 62
7
  6
CONTINUOUS
 10
45.0
 20
-28.0
 11
148.0
 21
-28.0
  0
LINE
  5
239
100
AcDbEntity
  8
0
100
AcDbLine
 62
7
  6
CONTINUOUS
 10
0.0
 20
-43.0
 11
148.0
 21
-43.0
  0
LINE
  5
23A
100
AcDbEntity
  8
0
100
AcDbLine
 62
7
  6
CONTINUOUS
 10
45.0
 20
0.0
 11
45.0
 21
-43.0
  0
LINE
  5
23B
100
AcDbEntity
  8
0
100
AcDbLine
 62
7
  6
CONTINUOUS
 10
143.0
 20
0.0
 11
143.0
 21
-23.0
  0
LINE
  5
23C
100
AcDbEntity
  8
0
100
AcDbLine
 62
7
  6
CONTINUOUS
 10
148.0
 20
0.0
 11
148.0
 21
-43.0
  0
TEXT
  5
23D
100
AcDbEntity
  8
0
100
AcDbText
 62
7
  6
CONTINUOUS
 10
8.9659749243
 20
-10.675
  7
STANDARD
 40
8.0
  1
O
 72
5
 11
17.370644185
 21
-10.675
100
AcDbText
  0
TEXT
  5
23E
100
AcDbEntity
  8
0
100
AcDbText
 62
7
  6
CONTINUOUS
 10
17.370644185
 20
-10.675
  7
STANDARD
 40
5.5
  1
RAC
 72
5
 11
33.9562472979
 21
-10.675
100
AcDbText
  0
TEXT
  5
23F
100
AcDbEntity
  8
0
100
AcDbText
 62
7
  6
CONTINUOUS
 10
33.9562472979
 20
-5.925
  7
TEXTSTYLE_2
 40
3.0
  1
®
 72
5
 11
36.0340250757
 21
-5.925
100
AcDbText
  0
TEXT
  5
240
100
AcDbEntity
  8
0
100
AcDbText
 62
7
  6
CONTINUOUS
 10
9.5323389537
 20
-15.325
  7
TEXTSTYLE_2
 40
3.0
  1
D  E  C  O  R
 72
5
 11
34.3878945093
 21
-15.325
100
AcDbText
  0
TEXT
  5
241
100
AcDbEntity
  8
0
100
AcDbText
 62
7
  6
CONTINUOUS
 10
34.3878945093
 20
-15.325
  7
STANDARD
 40
2.5
  1
 
 72
5
 11
35.4676610463
 21
-15.325
100
AcDbText
  0
TEXT
  5
242
100
AcDbEntity
  8
0
100
AcDbText
 62
7
  6
CONTINUOUS
 10
52.5257352941
 20
-6.0
  7
TEXTSTYLE_3
 40
2.75
  1
Part name:
 72
5
 11
71.9375
 21
-6.0
100
AcDbText
  0
TEXT
  5
243
100
AcDbEntity
  8
0
100
AcDbText
 62
7
  6
CONTINUOUS
 10
49.2788865546
 20
-12.875
  7
TEXTSTYLE_3
 40
2.75
  1
Designed by:
 72
5
 11
71.9375
 21
-12.875
100
AcDbText
  0
TEXT
  5
244
100
AcDbEntity
  8
0
100
AcDbText
 62
7
  6
CONTINUOUS
 10
48.9553571429
 20
-19.75
  7
TEXTSTYLE_3
 40
2.75
  1
Designed on:
 72
5
 11
71.9375
 21
-19.75
100
AcDbText
  0
TEXT
  5
245
100
AcDbEntity
  8
0
100
AcDbText
 62
2
  6
CONTINUOUS
 10
74.0625
 20
-6.0
  7
TEXTSTYLE_3
 40
2.75
  1
C217
 72
5
 11
82.9595588235
 21
-6.0
100
AcDbText
  0
TEXT
  5
246
100
AcDbEntity
  8
0
100
AcDbText
 62
2
  6
CONTINUOUS
 10
74.0625
 20
-12.875
  7
TEXTSTYLE_3
 40
2.75
  1
ORAC
 72
5
 11
84.1034663866
 21
-12.875
100
AcDbText
  0
TEXT
  5
247
100
AcDbEntity
  8
0
100
AcDbText
 62
2
  6
CONTINUOUS
 10
74.0625
 20
-19.75
  7
TEXTSTYLE_3
 40
2.75
  1
29-Jul-1977
 72
5
 11
94.5488445378
 21
-19.75
100
AcDbText
  0
TEXT
  5
248
100
AcDbEntity
  8
0
100
AcDbText
 62
2
  6
CONTINUOUS
 10
94.5488445378
 20
-19.75
  7
TEXTSTYLE_3
 40
2.75
  1
 
 72
5
 11
95.530987395
 21
-19.75
100
AcDbText
  0
TEXT
  5
249
100
AcDbEntity
  8
0
100
AcDbText
 62
2
  6
CONTINUOUS
 10
146.5625
 20
-17.5
  7
TEXTSTYLE_3
 40
1.5
  1
Version: 
 50
90.0
 72
5
 11
146.5625
 21
-9.0294117647
100
AcDbText
  0
TEXT
  5
24A
100
AcDbEntity
  8
0
100
AcDbText
 62
2
  6
CONTINUOUS
 10
146.5625
 20
-9.0294117647
  7
TEXTSTYLE_3
 40
1.5
  1
1.0
 50
90.0
 72
5
 11
146.5625
 21
-6.0357142857
100
AcDbText
  0
TEXT
  5
24B
100
AcDbEntity
  8
0
100
AcDbText
 62
2
  6
CONTINUOUS
 10
146.5625
 20
-6.0357142857
  7
TEXTSTYLE_3
 40
1.5
  1
 
 50
90.0
 72
5
 11
146.5625
 21
-5.5
100
AcDbText
  0
TEXT
  5
24C
100
AcDbEntity
  8
0
100
AcDbText
 62
7
  6
CONTINUOUS
 10
9.6586134454
 20
-24.25
  7
TEXTSTYLE_3
 40
2.5
  1
Biekorfstraat 32
 72
5
 11
35.3413865546
 21
-24.25
100
AcDbText
  0
TEXT
  5
24D
100
AcDbEntity
  8
0
100
AcDbText
 62
7
  6
CONTINUOUS
 10
2.2584033613
 20
-28.0
  7
TEXTSTYLE_3
 40
2.5
  1
8400 Oostende - Belgium
 72
5
 11
42.7415966387
 21
-28.0
100
AcDbText
  0
TEXT
  5
24E
100
AcDbEntity
  8
0
100
AcDbText
 62
7
  6
CONTINUOUS
 10
4.2699579832
 20
-31.75
  7
TEXTSTYLE_3
 40
2.5
  1
Tel  +32 (0)59 80 32 52
 72
5
 11
40.7300420168
 21
-31.75
100
AcDbText
  0
TEXT
  5
24F
100
AcDbEntity
  8
0
100
AcDbText
 62
7
  6
CONTINUOUS
 10
5.7405462185
 20
-35.5
  7
TEXTSTYLE_3
 40
2.5
  1
www.oracdecor.com
 72
5
 11
39.2594537815
 21
-35.5
100
AcDbText
  0
TEXT
  5
250
100
AcDbEntity
  8
0
100
AcDbText
 62
7
  6
CONTINUOUS
 10
5.5777310924
 20
-39.25
  7
TEXTSTYLE_3
 40
2.5
  1
info@oracdecor.com
 72
5
 11
39.4222689076
 21
-39.25
100
AcDbText
  0
TEXT
  5
251
100
AcDbEntity
  8
0
100
AcDbText
 62
7
  6
CONTINUOUS
 10
46.0625
 20
-26.75
  7
TEXTSTYLE_3
 40
2.5
  1
All dimensions are in mm unless otherwise specified   
 72
5
 11
132.3019957983
 21
-26.75
100
AcDbText
  0
TEXT
  5
252
100
AcDbEntity
  8
0
100
AcDbText
 62
7
  6
CONTINUOUS
 10
46.0625
 20
-31.7075
  7
TEXTSTYLE_3
 40
1.85
  1
All information in this document is Orac's exclusive property.  It may in no case 
 72
5
 11
140.0471638655
 21
-31.7075
100
AcDbText
  0
TEXT
  5
253
100
AcDbEntity
  8
0
100
AcDbText
 62
7
  6
CONTINUOUS
 10
46.0625
 20
-34.8525
  7
TEXTSTYLE_3
 40
1.85
  1
be reproduced, even partly, be communicated to a third party or used for any 
 72
5
 11
138.8345588235
 21
-34.8525
100
AcDbText
  0
TEXT
  5
254
100
AcDbEntity
  8
0
100
AcDbText
 62
7
  6
CONTINUOUS
 10
46.0625
 20
-37.9975
  7
TEXTSTYLE_3
 40
1.85
  1
possible purpose without ORAC's express written permission. 
 72
5
 11
119.4484243697
 21
-37.9975
100
AcDbText
  0
TEXT
  5
255
100
AcDbEntity
  8
0
100
AcDbText
 62
7
  6
CONTINUOUS
 10
46.0625
 20
-41.1425
  7
TEXTSTYLE_3
 40
1.85
  1
Further legal information can be found at http://www.oracdecor.be/nl/disclaimer 
 72
5
 11
143.7316176471
 21
-41.1425
100
AcDbText
  0
ENDBLK
  5
256
100
AcDbEntity
  8
0
  6
BYBLOCK
 62
0
100
AcDbBlockEnd
  0
ENDSEC
  0
SECTION
  2
ENTITIES
  0
DIMENSION
  5
257
100
AcDbEntity
  8
0
100
AcDbDimension
 62
2
  6
CONTINUOUS
  2
*D0
 10
133.6168099268
 20
185.4548918271
 11
81.9240052714
 21
185.4548918271
 70
160
 71
2
 42
103.3856093108
  3
DIMSTYLE_1
100
AcDbAlignedDimension
 13
30.231200616
 23
44.7010821508
 14
133.6168099268
 24
175.8491754274
100
AcDbRotatedDimension
  0
DIMENSION
  5
258
100
AcDbEntity
  8
0
100
AcDbDimension
 62
2
  6
CONTINUOUS
  2
*D1
 10
147.6378876728
 20
166.5575511461
 11
95.9450830174
 21
88.5530159822
 70
160
 71
2
 42
187.1561226279
  3
DIMSTYLE_2
100
AcDbAlignedDimension
 13
30.231200616
 23
19.8401050997
 14
133.6168099268
 24
175.8491754274
 50
56.4679723986
100
AcDbRotatedDimension
  0
DIMENSION
  5
259
100
AcDbEntity
  8
0
100
AcDbDimension
 62
2
  6
CONTINUOUS
  2
*D2
 10
16.4595843341
 20
175.8491754274
 11
16.4595843341
 21
97.8446402635
 70
160
 71
2
 42
156.0090703278
  3
DIMSTYLE_1
100
AcDbAlignedDimension
 13
30.231200616
 23
19.8401050997
 14
108.4609099268
 24
175.8491754274
 50
90.0
100
AcDbRotatedDimension
  0
ACAD_TABLE
  5
25A
100
AcDbEntity
  8
0
 62
2
  6
CONTINUOUS
100
AcDbBlockReference
  2
*T1
 10
143.9999958937
 20
47.9999925619
 30
0.0
100
AcDbTable
342
       2CC
343
212
 11
1.0
 21
0.0
 31
0.0
 90
22
 91
4
 92
4
 93
0
 94
0
 95
0
 96
0
141
18.0
141
5.0
141
5.0
141
15.0
142
45.0
142
28.0
142
70.0
142
5.0
171
1
172
0
173
0
174
0
175
1
176
1
 91
41
178
0
145
0.0
301
CELL_VALUE
 90
4
  1
O\H5.5;RAC\P\Ftrium.ttf;\H3.0;®\PD  E  C  O  R\Fcgtime.ttf;\H2.5; 
304
ACVALUE_END
170
5
140
8.0
 64
7
171
1
172
0
173
0
174
0
175
1
176
2
 91
41
178
0
145
0.0
301
CELL_VALUE
 90
4
  1
Part name:\PDesigned by:\PDesigned on:
304
ACVALUE_END
170
6
140
2.75
 64
7
171
1
172
0
173
0
174
0
175
1
176
2
 91
33
178
0
145
0.0
301
CELL_VALUE
 90
4
  1
C217\PORAC\P29-Jul-1977 
304
ACVALUE_END
170
4
140
2.75
171
1
172
0
173
0
174
0
175
1
176
2
 91
33
178
0
145
0.0
301
CELL_VALUE
 90
4
  1
Version: 1.0 
304
ACVALUE_END
170
6
140
1.5
171
1
172
0
173
0
174
0
175
1
176
3
 91
41
178
0
145
0.0
301
CELL_VALUE
 90
4
  1
Biekorfstraat 32\P8400 Oostende - Belgium\PTel  +32 (0)59 80 32 52\Pwww.oracdecor.com\Pinfo@oracdecor.com
304
ACVALUE_END
170
5
140
2.5
 64
7
171
1
172
0
173
1
174
0
175
1
176
1
 91
1
178
0
145
0.0
170
1
171
1
172
0
173
1
174
0
175
1
176
1
 91
1
178
0
145
0.0
170
1
171
1
172
0
173
1
174
0
175
1
176
1
 91
1
178
0
145
0.0
170
1
171
1
172
0
173
1
174
0
175
1
176
1
 91
1
178
0
145
0.0
170
1
171
1
172
0
173
0
174
0
175
3
176
1
 91
41
178
0
145
0.0
301
CELL_VALUE
 90
4
  1
All dimensions are in mm unless otherwise specified   
304
ACVALUE_END
170
1
140
2.5
 64
7
171
1
172
0
173
1
174
0
175
1
176
1
 91
1
178
0
145
0.0
170
1
171
1
172
0
173
1
174
0
175
1
176
1
 91
1
178
0
145
0.0
170
1
171
1
172
0
173
1
174
0
175
1
176
1
 91
1
178
0
145
0.0
170
1
171
1
172
0
173
0
174
0
175
3
176
1
 91
41
178
0
145
0.0
301
CELL_VALUE
 90
4
  2
All information in this document is Orac's exclusive property.  It may in no case \Pbe reproduced, even partly, be communicated to a third party or used for any \Ppossible purpose without ORAC's express written permission. \PFurther legal information
  1
 can be found at http://www.oracdecor.be/nl/disclaimer 
304
ACVALUE_END
170
4
140
1.85
 64
7
171
1
172
0
173
1
174
0
175
1
176
1
 91
1
178
0
145
0.0
170
1
171
1
172
0
173
1
174
0
175
1
176
1
 91
1
178
0
145
0.0
170
1
  0
LINE
  5
25B
100
AcDbEntity
  8
0
100
AcDbLine
 62
5
  6
CONTINUOUS
 10
0.0
 20
0.0
 11
0.0
 21
210.0
  0
LINE
  5
25C
100
AcDbEntity
  8
0
100
AcDbLine
 62
7
  6
CONTINUOUS
 10
5.0
 20
5.0
 11
5.0
 21
195.0
  0
LINE
  5
25D
100
AcDbEntity
  8
0
100
AcDbLine
 62
5
  6
CONTINUOUS
 10
0.0
 20
0.0
 11
297.0
 21
0.0
  0
LINE
  5
25E
100
AcDbEntity
  8
0
100
AcDbLine
 62
7
  6
CONTINUOUS
 10
5.0
 20
5.0
 11
292.0
 21
5.0
  0
LINE
  5
25F
100
AcDbEntity
  8
0
100
AcDbLine
 62
4
  6
CONTINUOUS
 10
148.5
 20
195.0
 11
148.5
 21
205.0
  0
LINE
  5
260
100
AcDbEntity
  8
0
100
AcDbLine
 62
7
  6
CONTINUOUS
 10
5.0
 20
195.0
 11
292.0
 21
195.0
  0
LINE
  5
261
100
AcDbEntity
  8
0
100
AcDbLine
 62
5
  6
CONTINUOUS
 10
0.0
 20
210.0
 11
297.0
 21
210.0
  0
LINE
  5
262
100
AcDbEntity
  8
0
100
AcDbLine
 62
7
  6
CONTINUOUS
 10
292.0
 20
5.0
 11
292.0
 21
195.0
  0
LINE
  5
263
100
AcDbEntity
  8
0
100
AcDbLine
 62
5
  6
CONTINUOUS
 10
297.0
 20
0.0
 11
297.0
 21
210.0
  0
LINE
  5
264
100
AcDbEntity
  8
0
100
AcDbLine
 62
7
  6
CONTINUOUS
 10
220.4009633521
 20
60.7573702905
 11
216.3480934691
 21
60.5733430027
  0
LINE
  5
265
100
AcDbEntity
  8
0
100
AcDbLine
 62
7
  6
CONTINUOUS
 10
168.5501015042
 20
105.941764402
 11
168.5628762263
 21
100.730037288
  0
LINE
  5
266
100
AcDbEntity
  8
0
100
AcDbLine
 62
7
  6
CONTINUOUS
 10
168.5691288499
 20
98.1791428179
 11
168.5805537029
 21
93.5181243102
  0
LINE
  5
267
100
AcDbEntity
  8
0
100
AcDbLine
 62
7
  6
CONTINUOUS
 10
175.2011720855
 20
135.93285954
 11
182.8904603515
 21
147.5954325159
  0
LINE
  5
268
100
AcDbEntity
  8
0
100
AcDbLine
 62
7
  6
CONTINUOUS
 10
225.4683143428
 20
69.6468063223
 11
223.8420190399
 21
69.6865818202
  0
LINE
  5
269
100
AcDbEntity
  8
0
100
AcDbLine
 62
7
  6
CONTINUOUS
 10
168.5805537029
 20
93.5181243102
 11
216.3480934691
 21
60.5733430027
  0
LINE
  5
26A
100
AcDbEntity
  8
0
100
AcDbLine
 62
7
  6
CONTINUOUS
 10
172.6334235859
 20
93.7021515981
 11
220.4009633521
 21
60.7573702905
  0
LINE
  5
26B
100
AcDbEntity
  8
0
100
AcDbLine
 62
7
  6
CONTINUOUS
 10
168.5628762263
 20
100.730037288
 11
169.5843413718
 21
99.7821897283
  0
LINE
  5
26C
100
AcDbEntity
  8
0
100
AcDbLine
 62
7
  6
CONTINUOUS
 10
177.8215609014
 20
105.304584121
 11
177.7007745766
 21
102.5915876298
  0
LINE
  5
26D
100
AcDbEntity
  8
0
100
AcDbLine
 62
7
  6
CONTINUOUS
 10
179.4855191034
 20
112.503935238
 11
179.448758048
 21
111.6782406537
  0
LINE
  5
26E
100
AcDbEntity
  8
0
100
AcDbLine
 62
7
  6
CONTINUOUS
 10
176.0744792736
 20
102.6313631278
 11
223.8420190399
 21
69.6865818202
  0
LINE
  5
26F
100
AcDbEntity
  8
0
100
AcDbLine
 62
7
  6
CONTINUOUS
 10
177.7007745766
 20
102.5915876298
 11
225.4683143428
 21
69.6468063223
  0
LINE
  5
270
100
AcDbEntity
  8
0
100
AcDbLine
 62
7
  6
CONTINUOUS
 10
177.8215609014
 20
105.304584121
 11
225.5891006677
 21
72.3598028134
  0
LINE
  5
271
100
AcDbEntity
  8
0
100
AcDbLine
 62
7
  6
CONTINUOUS
 10
175.1941759245
 20
134.8014944972
 11
175.1353206692
 21
134.922533674
  0
LINE
  5
272
100
AcDbEntity
  8
0
100
AcDbLine
 62
7
  6
CONTINUOUS
 10
207.6568227148
 20
171.6379847859
 11
204.2758795633
 21
159.2043520998
  0
LINE
  5
273
100
AcDbEntity
  8
0
100
AcDbLine
 62
7
  6
CONTINUOUS
 10
179.448758048
 20
111.6782406537
 11
227.2162978143
 21
78.7334593461
  0
LINE
  5
274
100
AcDbEntity
  8
0
100
AcDbLine
 62
7
  6
CONTINUOUS
 10
179.4855191034
 20
112.503935238
 11
227.2530588697
 21
79.5591539304
  0
LINE
  5
275
100
AcDbEntity
  8
0
100
AcDbLine
 62
7
  6
CONTINUOUS
 10
172.6334235859
 20
93.7021515981
 11
168.5805537029
 21
93.5181243102
  0
LINE
  5
276
100
AcDbEntity
  8
0
100
AcDbLine
 62
7
  6
CONTINUOUS
 10
177.6290459679
 20
118.2921237156
 11
225.3965857341
 21
85.3473424081
  0
LINE
  5
277
100
AcDbEntity
  8
0
100
AcDbLine
 62
7
  6
CONTINUOUS
 10
169.0156625931
 20
98.1994184241
 11
168.5691288499
 21
98.1791428179
  0
LINE
  5
278
100
AcDbEntity
  8
0
100
AcDbLine
 62
7
  6
CONTINUOUS
 10
177.7007745766
 20
102.5915876298
 11
176.0744792736
 21
102.6313631278
  0
LINE
  5
279
100
AcDbEntity
  8
0
100
AcDbLine
 62
7
  6
CONTINUOUS
 10
209.0158585472
 20
155.5542028715
 11
209.1243916274
 21
153.6592532946
  0
LINE
  5
27A
100
AcDbEntity
  8
0
100
AcDbLine
 62
7
  6
CONTINUOUS
 10
171.5148750927
 20
107.1140571134
 11
168.6213303573
 21
105.9844330125
  0
LINE
  5
27B
100
AcDbEntity
  8
0
100
AcDbLine
 62
7
  6
CONTINUOUS
 10
215.9277917859
 20
171.6713280662
 11
215.9282370552
 21
171.4896707234
  0
LINE
  5
27C
100
AcDbEntity
  8
0
100
AcDbLine
 62
7
  6
CONTINUOUS
 10
218.1305776784
 20
166.7526717261
 11
217.9291696898
 21
164.1544774369
  0
LINE
  5
27D
100
AcDbEntity
  8
0
100
AcDbLine
 62
7
  6
CONTINUOUS
 10
220.0230992348
 20
171.6878377379
 11
220.0353493119
 21
166.6901510296
  0
LINE
  5
27E
100
AcDbEntity
  8
0
100
AcDbLine
 62
7
  6
CONTINUOUS
 10
225.5891006677
 20
72.3598028134
 11
225.4683143428
 21
69.6468063223
  0
LINE
  5
27F
100
AcDbEntity
  8
0
100
AcDbLine
 62
7
  6
CONTINUOUS
 10
227.2530588697
 20
79.5591539304
 11
227.2162978143
 21
78.7334593461
  0
LINE
  5
280
100
AcDbEntity
  8
0
100
AcDbLine
 62
7
  6
CONTINUOUS
 10
267.8028890781
 20
133.745369722
 11
265.8981174447
 21
133.8078904185
  0
LINE
  5
281
100
AcDbEntity
  8
0
100
AcDbLine
 62
7
  6
CONTINUOUS
 10
183.7865410327
 20
148.044097768
 11
183.9259105501
 21
148.0349753569
  0
LINE
  5
282
100
AcDbEntity
  8
0
100
AcDbLine
 62
7
  6
CONTINUOUS
 10
209.1243916274
 20
153.6592532946
 11
256.8919313937
 21
120.714471987
  0
LINE
  5
283
100
AcDbEntity
  8
0
100
AcDbLine
 62
7
  6
CONTINUOUS
 10
209.0158585472
 20
155.5542028715
 11
256.7833983134
 21
122.609421564
  0
LINE
  5
284
100
AcDbEntity
  8
0
100
AcDbLine
 62
7
  6
CONTINUOUS
 10
256.7833983134
 20
122.609421564
 11
256.8919313937
 21
120.714471987
  0
LINE
  5
285
100
AcDbEntity
  8
0
100
AcDbLine
 62
7
  6
CONTINUOUS
 10
217.9291696898
 20
164.1544774369
 11
265.696709456
 21
131.2096961294
  0
LINE
  5
286
100
AcDbEntity
  8
0
100
AcDbLine
 62
7
  6
CONTINUOUS
 10
218.1305776784
 20
166.7526717261
 11
265.8981174447
 21
133.8078904185
  0
LINE
  5
287
100
AcDbEntity
  8
0
100
AcDbLine
 62
7
  6
CONTINUOUS
 10
220.0353493119
 20
166.6901510296
 11
267.8028890781
 21
133.745369722
  0
LINE
  5
288
100
AcDbEntity
  8
0
100
AcDbLine
 62
7
  6
CONTINUOUS
 10
267.7906390011
 20
138.7430564303
 11
267.8028890781
 21
133.745369722
  0
LINE
  5
289
100
AcDbEntity
  8
0
100
AcDbLine
 62
7
  6
CONTINUOUS
 10
265.8981174447
 20
133.8078904185
 11
265.696709456
 21
131.2096961294
  0
LINE
  5
28A
100
AcDbEntity
  8
0
100
AcDbLine
 62
7
  6
CONTINUOUS
 10
214.5817163772
 20
170.6951298276
 11
212.920458422
 21
171.6592044131
  0
LINE
  5
28B
100
AcDbEntity
  8
0
100
AcDbLine
 62
7
  6
CONTINUOUS
 10
220.0230992348
 20
171.6878377379
 11
267.7906390011
 21
138.7430564303
  0
LINE
  5
28C
100
AcDbEntity
  8
0
100
AcDbLine
 62
7
  6
CONTINUOUS
 10
220.0353493119
 20
166.6901510296
 11
218.1305776784
 21
166.7526717261
  0
LINE
  5
28D
100
AcDbEntity
  8
0
100
AcDbLine
 62
7
  6
CONTINUOUS
 10
220.0230992348
 20
171.6878377379
 11
215.9277917859
 21
171.6713280662
  0
LINE
  5
28E
100
AcDbEntity
  8
0
100
AcDbLine
 62
7
  6
CONTINUOUS
 10
212.920458422
 20
171.6592044131
 11
207.6568227148
 21
171.6379847859
  0
LINE
  5
28F
100
AcDbEntity
  8
0
100
AcDbLine
 62
7
  6
CONTINUOUS
 10
30.231200616
 20
34.2718820757
 11
32.2717996499
 21
32.3669204593
  0
LINE
  5
290
100
AcDbEntity
  8
0
100
AcDbLine
 62
7
  6
CONTINUOUS
 10
38.3470512251
 20
20.1756640527
 11
30.231200616
 21
19.8401050997
  0
LINE
  5
291
100
AcDbEntity
  8
0
100
AcDbLine
 62
7
  6
CONTINUOUS
 10
31.1253820865
 20
29.2042517511
 11
30.231200616
 21
29.1672808146
  0
LINE
  5
292
100
AcDbEntity
  8
0
100
AcDbLine
 62
7
  6
CONTINUOUS
 10
48.5368938298
 20
37.9232820205
 11
45.280803678
 21
38.0159955542
  0
LINE
  5
293
100
AcDbEntity
  8
0
100
AcDbLine
 62
7
  6
CONTINUOUS
 10
30.231200616
 20
44.7010821508
 11
30.231200616
 21
34.2718820757
  0
LINE
  5
294
100
AcDbEntity
  8
0
100
AcDbLine
 62
7
  6
CONTINUOUS
 10
30.231200616
 20
29.1672808146
 11
30.231200616
 21
19.8401050997
  0
LINE
  5
295
100
AcDbEntity
  8
0
100
AcDbLine
 62
7
  6
CONTINUOUS
 10
48.7920559201
 20
43.3512379986
 11
48.5368938298
 21
37.9232820205
  0
LINE
  5
296
100
AcDbEntity
  8
0
100
AcDbLine
 62
7
  6
CONTINUOUS
 10
43.6956445835
 20
104.6620893108
 11
59.1489286726
 21
127.9378322647
  0
LINE
  5
297
100
AcDbEntity
  8
0
100
AcDbLine
 62
7
  6
CONTINUOUS
 10
43.6760837772
 20
102.398190723
 11
43.5588335984
 21
102.6408749178
  0
LINE
  5
298
100
AcDbEntity
  8
0
100
AcDbLine
 62
7
  6
CONTINUOUS
 10
52.1590861112
 20
57.7443117438
 11
52.0814280837
 21
56.0923251418
  0
LINE
  5
299
100
AcDbEntity
  8
0
100
AcDbLine
 62
7
  6
CONTINUOUS
 10
108.855917435
 20
175.8491754274
 11
102.0253273882
 21
150.9957224059
  0
LINE
  5
29A
100
AcDbEntity
  8
0
100
AcDbLine
 62
7
  6
CONTINUOUS
 10
36.1732368804
 20
47.0230197285
 11
30.374029558
 21
44.7858909599
  0
LINE
  5
29B
100
AcDbEntity
  8
0
100
AcDbLine
 62
7
  6
CONTINUOUS
 10
60.9453278184
 20
128.8284197789
 11
61.2243387133
 21
128.8090407731
  0
LINE
  5
29C
100
AcDbEntity
  8
0
100
AcDbLine
 62
7
  6
CONTINUOUS
 10
111.4981396023
 20
143.6532340514
 11
111.7061521759
 21
139.8604076692
  0
LINE
  5
29D
100
AcDbEntity
  8
0
100
AcDbLine
 62
7
  6
CONTINUOUS
 10
125.4168099268
 20
175.8491754274
 11
125.4168099268
 21
175.4856604675
  0
LINE
  5
29E
100
AcDbEntity
  8
0
100
AcDbLine
 62
7
  6
CONTINUOUS
 10
129.8032460778
 20
165.9887671911
 11
129.3872209306
 21
160.791190297
  0
LINE
  5
29F
100
AcDbEntity
  8
0
100
AcDbLine
 62
7
  6
CONTINUOUS
 10
133.6168099268
 20
175.8491754274
 11
133.6168099268
 21
165.8482921399
  0
LINE
  5
2A0
100
AcDbEntity
  8
0
100
AcDbLine
 62
7
  6
CONTINUOUS
 10
133.6168099268
 20
165.8482921399
 11
129.8032460778
 21
165.9887671911
  0
LINE
  5
2A1
100
AcDbEntity
  8
0
100
AcDbLine
 62
7
  6
CONTINUOUS
 10
133.6168099268
 20
175.8491754274
 11
125.4168099268
 21
175.8491754274
  0
LINE
  5
2A2
100
AcDbEntity
  8
0
100
AcDbLine
 62
7
  6
CONTINUOUS
 10
119.3952513768
 20
175.8491754274
 11
108.855917435
 21
175.8491754274
  0
LINE
  5
2A3
100
AcDbEntity
  8
0
100
AcDbLine
 62
7
  6
CONTINUOUS
 10
122.7168099268
 20
173.9065809231
 11
119.3952513768
 21
175.8491754274
  0
SPLINE
  5
2A4
100
AcDbEntity
  8
0
100
AcDbSpline
 62
7
  6
CONTINUOUS
 70
0
 71
3
 72
25
 73
21
 74
0
 42
0.0000001
 43
0.0000001
 44
0.0000000001
 40
0.0
 40
0.0
 40
0.0
 40
0.0
 40
0.0768610247
 40
0.1402387778
 40
0.1688331646
 40
0.196307431
 40
0.2233137715
 40
0.2503801817
 40
0.3059849707
 40
0.3644221278
 40
0.4251252476
 40
0.4865608888
 40
0.5470036543
 40
0.6052859937
 40
0.6612651255
 40
0.7165139163
 40
0.7739695142
 40
0.8375466814
 40
0.9115331841
 40
1.0
 40
1.0
 40
1.0
 40
1.0
 10
256.7833983134
 20
122.609421564
 30
0.0
 10
257.1388621808
 20
122.6049803444
 30
0.0
 10
257.7911755017
 20
122.6467798346
 30
0.0
 10
258.5457587407
 20
122.8845805198
 30
0.0
 10
259.0237373873
 20
123.1654381995
 30
0.0
 10
259.3239443511
 20
123.4074403515
 30
0.0
 10
259.5817820387
 20
123.6843279326
 30
0.0
 10
259.877082779
 20
124.098311484
 30
0.0
 10
260.1616452956
 20
124.6905186156
 30
0.0
 10
260.4025770376
 20
125.4633015449
 30
0.0
 10
260.5885157342
 20
126.2778547876
 30
0.0
 10
260.7588888233
 20
127.1048827373
 30
0.0
 10
260.9529976095
 20
127.9155909474
 30
0.0
 10
261.2064493603
 20
128.6846602394
 30
0.0
 10
261.5601309335
 20
129.3887682364
 30
0.0
 10
262.04485061
 20
130.0080274365
 30
0.0
 10
262.6885721571
 20
130.5209963254
 30
0.0
 10
263.5127292721
 20
130.9056069386
 30
0.0
 10
264.5354089265
 20
131.1479214489
 30
0.0
 10
265.2876033197
 20
131.2024778877
 30
0.0
 10
265.696709456
 20
131.2096961294
 30
0.0
  0
SPLINE
  5
2A5
100
AcDbEntity
  8
0
100
AcDbSpline
 62
7
  6
CONTINUOUS
 70
0
 71
3
 72
20
 73
16
 74
0
 42
0.0000001
 43
0.0000001
 44
0.0000000001
 40
0.0
 40
0.0
 40
0.0
 40
0.0
 40
0.1372287824
 40
0.2625353365
 40
0.3219037918
 40
0.3797383553
 40
0.4366097132
 40
0.4931126117
 40
0.5498512706
 40
0.6074315959
 40
0.6664371947
 40
0.7274118242
 40
0.7908496516
 40
0.857190802
 40
1.0
 40
1.0
 40
1.0
 40
1.0
 10
225.3965857341
 20
85.3473424081
 30
0.0
 10
225.4206758886
 20
87.7430219157
 30
0.0
 10
225.7505785509
 20
92.3320003054
 30
0.0
 10
227.0407880271
 20
97.833063617
 30
0.0
 10
228.5815856862
 20
101.7829954272
 30
0.0
 10
229.9602927515
 20
104.4971518735
 30
0.0
 10
231.5818420587
 20
107.0144509338
 30
0.0
 10
233.444953942
 20
109.3342355417
 30
0.0
 10
235.5482537667
 20
111.4560292331
 30
0.0
 10
237.8910662593
 20
113.3792290398
 30
0.0
 10
240.4727188164
 20
115.1037832508
 30
0.0
 10
243.292632674
 20
116.6300014952
 30
0.0
 10
246.3507100968
 20
117.958547407
 30
0.0
 10
250.8554446716
 20
119.5047565132
 30
0.0
 10
254.4324925472
 20
120.3054043034
 30
0.0
 10
256.8919313937
 20
120.714471987
 30
0.0
  0
SPLINE
  5
2A6
100
AcDbEntity
  8
0
100
AcDbSpline
 62
7
  6
CONTINUOUS
 70
0
 71
3
 72
21
 73
17
 74
0
 42
0.0000001
 43
0.0000001
 44
0.0000000001
 40
0.0
 40
0.0
 40
0.0
 40
0.0
 40
0.1269750983
 40
0.1830477396
 40
0.2361169699
 40
0.2877689177
 40
0.3394505719
 40
0.4471548805
 40
0.5047857754
 40
0.5645661928
 40
0.6262386138
 40
0.6900663153
 40
0.757020786
 40
0.829110191
 40
0.9090689331
 40
1.0
 40
1.0
 40
1.0
 40
1.0
 10
225.5891006677
 20
72.3598028134
 30
0.0
 10
225.9688083712
 20
72.3541853439
 30
0.0
 10
226.5236190946
 20
72.4050333128
 30
0.0
 10
227.1926576866
 20
72.6398254717
 30
0.0
 10
227.6145181092
 20
72.8760119977
 30
0.0
 10
227.977149415
 20
73.1754213819
 30
0.0
 10
228.3886382584
 20
73.6576604078
 30
0.0
 10
228.6818986624
 20
74.2483902668
 30
0.0
 10
228.8672268145
 20
74.8965366656
 30
0.0
 10
228.9457080217
 20
75.4282955604
 30
0.0
 10
228.9454386371
 20
75.9845814946
 30
0.0
 10
228.8514542931
 20
76.5552742722
 30
0.0
 10
228.6472963991
 20
77.1302852879
 30
0.0
 10
228.313960875
 20
77.6986701329
 30
0.0
 10
227.8348123667
 20
78.2499315796
 30
0.0
 10
227.4377156119
 20
78.5755622126
 30
0.0
 10
227.2162978143
 20
78.7334593461
 30
0.0
  0
SPLINE
  5
2A7
100
AcDbEntity
  8
0
100
AcDbSpline
 62
7
  6
CONTINUOUS
 70
0
 71
3
 72
20
 73
16
 74
0
 42
0.0000001
 43
0.0000001
 44
0.0000000001
 40
0.0
 40
0.0
 40
0.0
 40
0.0
 40
0.0679774924
 40
0.1309232046
 40
0.1912316956
 40
0.2507926613
 40
0.3108775346
 40
0.3720467986
 40
0.4967242772
 40
0.62158333
 40
0.7443976034
 40
0.805285162
 40
0.8668866325
 40
0.9309578442
 40
1.0
 40
1.0
 40
1.0
 40
1.0
 10
220.4009633521
 20
60.7573702905
 30
0.0
 10
220.3586870465
 20
60.9779123328
 30
0.0
 10
220.3107178924
 20
61.4103188124
 30
0.0
 10
220.3550598606
 20
62.0438394705
 30
0.0
 10
220.5047910478
 20
62.6320231219
 30
0.0
 10
220.7441799691
 20
63.1786780929
 30
0.0
 10
221.0572814625
 20
63.6888466311
 30
0.0
 10
221.5401269821
 20
64.3426709373
 30
0.0
 10
222.1945799442
 20
65.1339951103
 30
0.0
 10
222.9058151284
 20
66.1384184107
 30
0.0
 10
223.4216215278
 20
67.0221303798
 30
0.0
 10
223.7214078918
 20
67.7770182012
 30
0.0
 10
223.8702731449
 20
68.3774494024
 30
0.0
 10
223.9224720466
 20
69.0215449549
 30
0.0
 10
223.8812365693
 20
69.4619043189
 30
0.0
 10
223.8420190399
 20
69.6865818202
 30
0.0
  0
SPLINE
  5
2A8
100
AcDbEntity
  8
0
100
AcDbSpline
 62
7
  6
CONTINUOUS
 70
0
 71
3
 72
13
 73
9
 74
0
 42
0.0000001
 43
0.0000001
 44
0.0000000001
 40
0.0
 40
0.0
 40
0.0
 40
0.0
 40
0.1267720684
 40
0.2474084102
 40
0.3670792544
 40
0.4881246071
 40
0.7378377751
 40
1.0
 40
1.0
 40
1.0
 40
1.0
 10
227.2530588697
 20
79.5591539304
 30
0.0
 10
227.0435975081
 20
79.7222407736
 30
0.0
 10
226.6697775417
 20
80.0888149254
 30
0.0
 10
226.2466769135
 20
80.7354067382
 30
0.0
 10
225.933851853
 20
81.4269897569
 30
0.0
 10
225.6299133782
 20
82.4099969097
 30
0.0
 10
225.4215049601
 20
83.7251672222
 30
0.0
 10
225.3910656991
 20
84.7983947065
 30
0.0
 10
225.3965857341
 20
85.3473424081
 30
0.0
  0
SPLINE
  5
2A9
100
AcDbEntity
  8
0
100
AcDbSpline
 62
7
  6
CONTINUOUS
 70
0
 71
3
 72
11
 73
7
 74
0
 42
0.0000001
 43
0.0000001
 44
0.0000000001
 40
0.0
 40
0.0
 40
0.0
 40
0.0
 40
0.2638061734
 40
0.5165558917
 40
0.7611042972
 40
1.0
 40
1.0
 40
1.0
 40
1.0
 10
202.4889390015
 20
157.4227064304
 30
0.0
 10
200.7687505187
 20
156.9729266255
 30
0.0
 10
197.4374716601
 20
155.9379943388
 30
0.0
 10
192.7221513211
 20
153.8898963343
 30
0.0
 10
188.4318283774
 20
151.3726812691
 30
0.0
 10
185.8509812461
 20
149.3643753408
 30
0.0
 10
184.6530717909
 20
148.2884958634
 30
0.0
  0
SPLINE
  5
2AA
100
AcDbEntity
  8
0
100
AcDbSpline
 62
7
  6
CONTINUOUS
 70
0
 71
3
 72
11
 73
7
 74
0
 42
0.0000001
 43
0.0000001
 44
0.0000000001
 40
0.0
 40
0.0
 40
0.0
 40
0.0
 40
0.2314137075
 40
0.4732683006
 40
0.7286666053
 40
1.0
 40
1.0
 40
1.0
 40
1.0
 10
175.2384496249
 20
134.0127484682
 30
0.0
 10
174.6080605928
 20
132.2270025978
 30
0.0
 10
173.5842151876
 20
128.4769968642
 30
0.0
 10
172.7625839789
 20
122.5574626069
 30
0.0
 10
172.5912147384
 20
116.2594203843
 30
0.0
 10
172.8751087796
 20
111.9524198749
 30
0.0
 10
173.1038755904
 20
109.7438106682
 30
0.0
  0
SPLINE
  5
2AB
100
AcDbEntity
  8
0
100
AcDbSpline
 62
7
  6
CONTINUOUS
 70
0
 71
3
 72
21
 73
17
 74
0
 42
0.0000001
 43
0.0000001
 44
0.0000000001
 40
0.0
 40
0.0
 40
0.0
 40
0.0
 40
0.1269750983
 40
0.1830477396
 40
0.2361169699
 40
0.2877689177
 40
0.3394505719
 40
0.4471548805
 40
0.5047857754
 40
0.5645661928
 40
0.6262386138
 40
0.6900663153
 40
0.757020786
 40
0.829110191
 40
0.9090689331
 40
1.0
 40
1.0
 40
1.0
 40
1.0
 10
177.8215609014
 20
105.304584121
 30
0.0
 10
178.201268605
 20
105.2989666515
 30
0.0
 10
178.7560793283
 20
105.3498146203
 30
0.0
 10
179.4251179203
 20
105.5846067793
 30
0.0
 10
179.8469783429
 20
105.8207933052
 30
0.0
 10
180.2096096488
 20
106.1202026895
 30
0.0
 10
180.6210984922
 20
106.6024417154
 30
0.0
 10
180.9143588961
 20
107.1931715744
 30
0.0
 10
181.0996870483
 20
107.8413179732
 30
0.0
 10
181.1781682554
 20
108.3730768679
 30
0.0
 10
181.1778988708
 20
108.9293628022
 30
0.0
 10
181.0839145269
 20
109.5000555797
 30
0.0
 10
180.8797566328
 20
110.0750665954
 30
0.0
 10
180.5464211087
 20
110.6434514405
 30
0.0
 10
180.0672726005
 20
111.1947128872
 30
0.0
 10
179.6701758457
 20
111.5203435202
 30
0.0
 10
179.448758048
 20
111.6782406537
 30
0.0
  0
SPLINE
  5
2AC
100
AcDbEntity
  8
0
100
AcDbSpline
 62
7
  6
CONTINUOUS
 70
0
 71
3
 72
25
 73
21
 74
0
 42
0.0000001
 43
0.0000001
 44
0.0000000001
 40
0.0
 40
0.0
 40
0.0
 40
0.0
 40
0.0768610247
 40
0.1402387778
 40
0.1688331646
 40
0.196307431
 40
0.2233137715
 40
0.2503801817
 40
0.3059849707
 40
0.3644221278
 40
0.4251252476
 40
0.4865608888
 40
0.5470036543
 40
0.6052859937
 40
0.6612651255
 40
0.7165139163
 40
0.7739695142
 40
0.8375466814
 40
0.9115331841
 40
1.0
 40
1.0
 40
1.0
 40
1.0
 10
209.0158585472
 20
155.5542028715
 30
0.0
 10
209.3713224145
 20
155.549761652
 30
0.0
 10
210.0236357355
 20
155.5915611422
 30
0.0
 10
210.7782189745
 20
155.8293618274
 30
0.0
 10
211.2561976211
 20
156.1102195071
 30
0.0
 10
211.5564045848
 20
156.3522216591
 30
0.0
 10
211.8142422724
 20
156.6291092401
 30
0.0
 10
212.1095430127
 20
157.0430927916
 30
0.0
 10
212.3941055294
 20
157.6352999232
 30
0.0
 10
212.6350372714
 20
158.4080828525
 30
0.0
 10
212.8209759679
 20
159.2226360951
 30
0.0
 10
212.9913490571
 20
160.0496640449
 30
0.0
 10
213.1854578432
 20
160.8603722549
 30
0.0
 10
213.438909594
 20
161.6294415469
 30
0.0
 10
213.7925911673
 20
162.3335495439
 30
0.0
 10
214.2773108437
 20
162.9528087441
 30
0.0
 10
214.9210323909
 20
163.465777633
 30
0.0
 10
215.7451895059
 20
163.8503882462
 30
0.0
 10
216.7678691603
 20
164.0927027565
 30
0.0
 10
217.5200635534
 20
164.1472591953
 30
0.0
 10
217.9291696898
 20
164.1544774369
 30
0.0
  0
SPLINE
  5
2AD
100
AcDbEntity
  8
0
100
AcDbSpline
 62
7
  6
CONTINUOUS
 70
0
 71
3
 72
20
 73
16
 74
0
 42
0.0000001
 43
0.0000001
 44
0.0000000001
 40
0.0
 40
0.0
 40
0.0
 40
0.0
 40
0.0679774924
 40
0.1309232046
 40
0.1912316956
 40
0.2507926613
 40
0.3108775346
 40
0.3720467986
 40
0.4967242772
 40
0.62158333
 40
0.7443976034
 40
0.805285162
 40
0.8668866325
 40
0.9309578442
 40
1.0
 40
1.0
 40
1.0
 40
1.0
 10
172.6334235859
 20
93.7021515981
 30
0.0
 10
172.5911472802
 20
93.9226936403
 30
0.0
 10
172.5431781261
 20
94.35510012
 30
0.0
 10
172.5875200944
 20
94.988620778
 30
0.0
 10
172.7372512815
 20
95.5768044294
 30
0.0
 10
172.9766402028
 20
96.1234594005
 30
0.0
 10
173.2897416962
 20
96.6336279386
 30
0.0
 10
173.7725872158
 20
97.2874522448
 30
0.0
 10
174.4270401779
 20
98.0787764179
 30
0.0
 10
175.1382753621
 20
99.0831997183
 30
0.0
 10
175.6540817615
 20
99.9669116874
 30
0.0
 10
175.9538681256
 20
100.7217995088
 30
0.0
 10
176.1027333786
 20
101.32223071
 30
0.0
 10
176.1549322803
 20
101.9663262625
 30
0.0
 10
176.113696803
 20
102.4066856264
 30
0.0
 10
176.0744792736
 20
102.6313631278
 30
0.0
  0
SPLINE
  5
2AE
100
AcDbEntity
  8
0
100
AcDbSpline
 62
7
  6
CONTINUOUS
 70
0
 71
3
 72
13
 73
9
 74
0
 42
0.0000001
 43
0.0000001
 44
0.0000000001
 40
0.0
 40
0.0
 40
0.0
 40
0.0
 40
0.1267720684
 40
0.2474084102
 40
0.3670792544
 40
0.4881246071
 40
0.7378377751
 40
1.0
 40
1.0
 40
1.0
 40
1.0
 10
179.4855191034
 20
112.503935238
 30
0.0
 10
179.2760577419
 20
112.6670220811
 30
0.0
 10
178.9022377755
 20
113.033596233
 30
0.0
 10
178.4791371472
 20
113.6801880458
 30
0.0
 10
178.1663120867
 20
114.3717710645
 30
0.0
 10
177.8623736119
 20
115.3547782173
 30
0.0
 10
177.6539651938
 20
116.6699485297
 30
0.0
 10
177.6235259328
 20
117.7431760141
 30
0.0
 10
177.6290459679
 20
118.2921237156
 30
0.0
  0
SPLINE
  5
2AF
100
AcDbEntity
  8
0
100
AcDbSpline
 62
7
  6
CONTINUOUS
 70
0
 71
3
 72
20
 73
16
 74
0
 42
0.0000001
 43
0.0000001
 44
0.0000000001
 40
0.0
 40
0.0
 40
0.0
 40
0.0
 40
0.1372287824
 40
0.2625353365
 40
0.3219037918
 40
0.3797383553
 40
0.4366097132
 40
0.4931126117
 40
0.5498512706
 40
0.6074315959
 40
0.6664371947
 40
0.7274118242
 40
0.7908496516
 40
0.857190802
 40
1.0
 40
1.0
 40
1.0
 40
1.0
 10
177.6290459679
 20
118.2921237156
 30
0.0
 10
177.6531361223
 20
120.6878032233
 30
0.0
 10
177.9830387846
 20
125.276781613
 30
0.0
 10
179.2732482608
 20
130.7778449246
 30
0.0
 10
180.8140459199
 20
134.7277767347
 30
0.0
 10
182.1927529853
 20
137.4419331811
 30
0.0
 10
183.8143022925
 20
139.9592322414
 30
0.0
 10
185.6774141757
 20
142.2790168493
 30
0.0
 10
187.7807140004
 20
144.4008105407
 30
0.0
 10
190.123526493
 20
146.3240103474
 30
0.0
 10
192.7051790502
 20
148.0485645584
 30
0.0
 10
195.5250929078
 20
149.5747828028
 30
0.0
 10
198.5831703305
 20
150.9033287145
 30
0.0
 10
203.0879049054
 20
152.4495378208
 30
0.0
 10
206.664952781
 20
153.2501856109
 30
0.0
 10
209.1243916274
 20
153.6592532946
 30
0.0
  0
SPLINE
  5
2B0
100
AcDbEntity
  8
0
100
AcDbSpline
 62
7
  6
CONTINUOUS
 70
0
 71
3
 72
13
 73
9
 74
0
 42
0.0000001
 43
0.0000001
 44
0.0000000001
 40
0.0
 40
0.0
 40
0.0
 40
0.0
 40
0.25
 40
0.375
 40
0.5
 40
0.625
 40
0.75
 40
1.0
 40
1.0
 40
1.0
 40
1.0
 10
111.4981396023
 20
143.6532340514
 30
0.0
 10
114.6688770618
 20
143.6008654982
 30
0.0
 10
117.3425345422
 20
145.2474333005
 30
0.0
 10
118.8066267672
 20
149.2547971253
 30
0.0
 10
119.4593388218
 20
152.6516461288
 30
0.0
 10
120.3022273047
 20
155.8830224278
 30
0.0
 10
122.4374850552
 20
159.3668945875
 30
0.0
 10
125.7938989173
 20
160.7423071116
 30
0.0
 10
129.3872209306
 20
160.791190297
 30
0.0
  0
SPLINE
  5
2B1
100
AcDbEntity
  8
0
100
AcDbSpline
 62
7
  6
CONTINUOUS
 70
0
 71
3
 72
9
 73
5
 74
0
 42
0.0000001
 43
0.0000001
 44
0.0000000001
 40
0.0
 40
0.0
 40
0.0
 40
0.0
 40
0.5
 40
1.0
 40
1.0
 40
1.0
 40
1.0
 10
48.4703298063
 20
69.3419319703
 30
0.0
 10
48.7226931345
 20
89.5071939166
 30
0.0
 10
59.7082016343
 20
121.4010012047
 30
0.0
 10
90.9590138414
 20
136.4966374969
 30
0.0
 10
111.7061521759
 20
139.8604076692
 30
0.0
  0
SPLINE
  5
2B2
100
AcDbEntity
  8
0
100
AcDbSpline
 62
7
  6
CONTINUOUS
 70
0
 71
3
 72
11
 73
7
 74
0
 42
0.0000001
 43
0.0000001
 44
0.0000000001
 40
0.0
 40
0.0
 40
0.0
 40
0.0
 40
0.25
 40
0.5
 40
0.75
 40
1.0
 40
1.0
 40
1.0
 40
1.0
 10
48.7920559201
 20
43.3512379986
 30
0.0
 10
50.4714079652
 20
43.3196408908
 30
0.0
 10
53.1466742818
 20
44.0673235333
 30
0.0
 10
55.3262131836
 20
47.1612168246
 30
0.0
 10
55.8842960327
 20
51.6882471347
 30
0.0
 10
53.980962691
 20
54.7284992544
 30
0.0
 10
52.0814280837
 20
56.0923251418
 30
0.0
  0
SPLINE
  5
2B3
100
AcDbEntity
  8
0
100
AcDbSpline
 62
7
  6
CONTINUOUS
 70
0
 71
3
 72
13
 73
9
 74
0
 42
0.0000001
 43
0.0000001
 44
0.0000000001
 40
0.0
 40
0.0
 40
0.0
 40
0.0
 40
0.25
 40
0.375
 40
0.5
 40
0.625
 40
0.75
 40
1.0
 40
1.0
 40
1.0
 40
1.0
 10
38.3470512251
 20
20.1756640527
 30
0.0
 10
37.9957054738
 20
22.0325944307
 30
0.0
 10
38.5027880283
 20
24.3921640039
 30
0.0
 10
40.3690690912
 20
27.0082755573
 30
0.0
 10
41.9593412838
 20
28.9181623236
 30
0.0
 10
43.4014226315
 20
30.941912716
 30
0.0
 10
45.0464081826
 20
33.748735147
 30
0.0
 10
45.6064070957
 20
36.1238363846
 30
0.0
 10
45.280803678
 20
38.0159955542
 30
0.0
  0
SPLINE
  5
2B4
100
AcDbEntity
  8
0
100
AcDbSpline
 62
7
  6
CONTINUOUS
 70
0
 71
3
 72
9
 73
5
 74
0
 42
0.0000001
 43
0.0000001
 44
0.0000000001
 40
0.0
 40
0.0
 40
0.0
 40
0.0
 40
0.329452965
 40
1.0
 40
1.0
 40
1.0
 40
1.0
 10
43.7608607016
 20
100.8194875215
 30
0.0
 10
42.1140099182
 20
96.1958515348
 30
0.0
 10
38.3402972804
 20
81.4116172629
 30
0.0
 10
38.130116023
 20
64.5086775724
 30
0.0
 10
39.3677543874
 20
52.2725554884
 30
0.0
  0
SPLINE
  5
2B5
100
AcDbEntity
  8
0
100
AcDbSpline
 62
7
  6
CONTINUOUS
 70
0
 71
3
 72
10
 73
6
 74
0
 42
0.0000001
 43
0.0000001
 44
0.0000000001
 40
0.0
 40
0.0
 40
0.0
 40
0.0
 40
0.3783123314
 40
0.7566246629
 40
1.0
 40
1.0
 40
1.0
 40
1.0
 10
98.4386424568
 20
147.444917473
 30
0.0
 10
93.0919685373
 20
146.0701690047
 30
0.0
 10
83.0120394497
 20
142.6712649874
 30
0.0
 10
71.3351012115
 20
136.3007915012
 30
0.0
 10
65.0038395345
 20
131.3810500678
 30
0.0
 10
62.6815574682
 20
129.3104901994
 30
0.0
  0
SPLINE
  5
2B6
100
AcDbEntity
  8
0
100
AcDbSpline
 62
7
  6
CONTINUOUS
 70
0
 71
3
 72
10
 73
6
 74
0
 42
0.0000001
 43
0.0000001
 44
0.0000000001
 40
0.0
 40
0.0
 40
0.0
 40
0.0
 40
0.25
 40
0.5
 40
1.0
 40
1.0
 40
1.0
 40
1.0
 10
52.1590861112
 20
57.7443117438
 30
0.0
 10
51.2816216015
 20
58.4319484132
 30
0.0
 10
50.0446598542
 20
60.0605698577
 30
0.0
 10
48.6728509985
 20
63.8568789597
 30
0.0
 10
48.442204133
 20
67.0945310803
 30
0.0
 10
48.4703298063
 20
69.3419319703
 30
0.0
  0
ELLIPSE
  5
2B7
100
AcDbEntity
  8
0
100
AcDbEllipse
 62
7
  6
CONTINUOUS
 10
215.0292671274
 20
171.4860466491
 30
0.0
 11
0.0501696582
 21
0.9098417723
 31
0.0
 40
0.9865140396
 41
-3.6068702177
 42
-1.5124751153
  0
ELLIPSE
  5
2B8
100
AcDbEntity
  8
0
100
AcDbEllipse
 62
7
  6
CONTINUOUS
 10
168.9767688897
 20
99.109692292
 30
0.0
 11
0.0501696582
 21
0.9098417723
 31
0.0
 40
0.9865140396
 41
-3.0424777593
 42
-0.6862832691
  0
ELLIPSE
  5
2B9
100
AcDbEntity
  8
0
100
AcDbEllipse
 62
7
  6
CONTINUOUS
 10
168.710780439
 20
105.7482570204
 30
0.0
 11
0.0139360162
 21
0.2527338256
 31
0.0
 40
0.9865140396
 41
0.4221858823
 42
0.7548337413
  0
ELLIPSE
  5
2BA
100
AcDbEntity
  8
0
100
AcDbEllipse
 62
7
  6
CONTINUOUS
 10
176.0314013504
 20
135.3711989261
 30
0.0
 11
0.0557440647
 21
1.0109353026
 31
0.0
 40
0.9865140396
 41
1.037059809
 42
2.0842573602
  0
ELLIPSE
  5
2BB
100
AcDbEntity
  8
0
100
AcDbEllipse
 62
7
  6
CONTINUOUS
 10
201.8685654436
 20
159.8734882492
 30
0.0
 11
0.1393601617
 21
2.5273382565
 31
0.0
 40
0.9865140396
 41
-2.8346936813
 42
-1.7840013824
  0
ELLIPSE
  5
2BC
100
AcDbEntity
  8
0
100
AcDbEllipse
 62
7
  6
CONTINUOUS
 10
183.7206896164
 20
147.0337719021
 30
0.0
 11
0.0557440647
 21
1.0109353026
 31
0.0
 40
0.9865140396
 41
-0.0101377422
 42
1.037059809
  0
ELLIPSE
  5
2BD
100
AcDbEntity
  8
0
100
AcDbEllipse
 62
7
  6
CONTINUOUS
 10
170.6203742757
 20
109.4758170343
 30
0.0
 11
0.1393601617
 21
2.5273382565
 31
0.0
 40
0.9865140396
 41
-2.7194067713
 42
-1.4103722388
  0
ELLIPSE
  5
2BE
100
AcDbEntity
  8
0
100
AcDbEllipse
 62
7
  6
CONTINUOUS
 10
174.2980952434
 20
134.3528292451
 30
0.0
 11
0.0557440647
 21
1.0109353026
 31
0.0
 40
0.9865140396
 41
-1.8590071218
 42
-1.0573352934
  0
ELLIPSE
  5
2BF
100
AcDbEntity
  8
0
100
AcDbEllipse
 62
7
  6
CONTINUOUS
 10
183.9917619663
 20
149.0453012229
 30
0.0
 11
0.0557440647
 21
1.0109353026
 31
0.0
 40
0.9865140396
 41
-3.1517303958
 42
-2.3615505919
  0
ELLIPSE
  5
2C0
100
AcDbEntity
  8
0
100
AcDbEllipse
 62
7
  6
CONTINUOUS
 10
123.6168099268
 20
175.4856604675
 30
0.0
 11
0.0
 21
1.823364
 31
0.0
 40
0.9871863215
 41
-3.6651914292
 42
-1.5707963268
  0
ELLIPSE
  5
2C1
100
AcDbEntity
  8
0
100
AcDbEllipse
 62
7
  6
CONTINUOUS
 10
31.0519738214
 20
31.0260988091
 30
0.0
 11
0.0
 21
1.823364
 31
0.0
 40
0.9871863215
 41
-3.1007989707
 42
-0.7446044805
  0
ELLIPSE
  5
2C2
100
AcDbEntity
  8
0
100
AcDbEllipse
 62
7
  6
CONTINUOUS
 10
30.5519738214
 20
44.3125616635
 30
0.0
 11
-0.0
 21
-0.50649
 31
0.0
 40
0.9871863215
 41
-2.7777279828
 42
-2.4450801237
  0
ELLIPSE
  5
2C3
100
AcDbEntity
  8
0
100
AcDbEllipse
 62
7
  6
CONTINUOUS
 10
45.3552327442
 20
103.531462432
 30
0.0
 11
0.0
 21
-2.02596
 31
0.0
 40
0.9871863215
 41
-2.1628540561
 42
-1.1156565049
  0
ELLIPSE
  5
2C4
100
AcDbEntity
  8
0
100
AcDbEllipse
 62
7
  6
CONTINUOUS
 10
60.8085168333
 20
126.8072053858
 30
0.0
 11
0.0
 21
2.02596
 31
0.0
 40
0.9871863215
 41
-0.0684589537
 42
0.9787385975
  0
ELLIPSE
  5
2C5
100
AcDbEntity
  8
0
100
AcDbEllipse
 62
7
  6
CONTINUOUS
 10
41.8796846313
 20
101.5076032087
 30
0.0
 11
0.0
 21
2.02596
 31
0.0
 40
0.9871863215
 41
-1.9173283332
 42
-1.1156565049
  0
ELLIPSE
  5
2C6
100
AcDbEntity
  8
0
100
AcDbEllipse
 62
7
  6
CONTINUOUS
 10
61.3611496985
 20
130.8302551662
 30
0.0
 11
0.0
 21
2.02596
 31
0.0
 40
0.9871863215
 41
-3.2100516072
 42
-2.4198718033
  0
ELLIPSE
  5
2C7
100
AcDbEntity
  8
0
100
AcDbEllipse
 62
7
  6
CONTINUOUS
 10
34.393794247
 20
51.7563126925
 30
0.0
 11
0.0
 21
5.0649
 31
0.0
 40
0.9871863215
 41
-2.7777279828
 42
-1.4686934502
  0
ELLIPSE
  5
2C8
100
AcDbEntity
  8
0
100
AcDbEllipse
 62
7
  6
CONTINUOUS
 10
97.2085140354
 20
152.3541392081
 30
0.0
 11
0.0
 21
5.0649
 31
0.0
 40
0.9871863215
 41
-2.8930148928
 42
-1.8423225939
  0
ENDSEC
  0
SECTION
  2
OBJECTS
  0
DICTIONARY
  5
C
100
AcDbDictionary
280
0
281
1
  3
ACAD_GROUP
350
D
  3
ACAD_MLINESTYLE
350
17
  3
ACAD_LAYOUT
350
1A
  3
ACAD_PLOTSETTINGS
350
19
  3
ACAD_PLOTSTYLENAME
350
E
  3
ACAD_TABLESTYLE
350
       2C9
  0
DICTIONARY
  5
D
102
{ACAD_REACTORS
330
C
102
}
100
AcDbDictionary
280
0
281
1
  0
ACDBDICTIONARYWDFLT
  5
E
102
{ACAD_REACTORS
330
C
102
}
100
AcDbDictionary
281
1
  3
Normal
350
F
100
AcDbDictionaryWithDefault
340
F
  0
DICTIONARY
  5
17
102
{ACAD_REACTORS
330
C
102
}
100
AcDbDictionary
280
0
281
1
  3
Standard
350
18
  0
DICTIONARY
  5
2C9
330
C
100
AcDbDictionary
281
1
  3
Standard
350
       2CC
  3
Standard1
350
       2CD
  0
DICTIONARY
  5
19
102
{ACAD_REACTORS
330
C
102
}
100
AcDbDictionary
281
1
  0
DICTIONARY
  5
1A
102
{ACAD_REACTORS
330
C
102
}
100
AcDbDictionary
281
1
  3
Model
350
2CA
  3
Layout1
350
2CB
  0
ACDBPLACEHOLDER
  5
F
102
{ACAD_REACTORS
330
E
102
}
  0
MLINESTYLE
  5
18
102
{ACAD_REACTORS
330
17
102
}
100
AcDbMlineStyle
  2
STANDARD
 70
0
  3

 62
256
 51
90.0
 52
90.0
 71
2
 49
0.5
 62
256
  6
BYLAYER
 49
-0.5
 62
256
  6
BYLAYER
  0
LAYOUT
  5
2CA
102
{ACAD_REACTORS
330
1A
102
}
100
AcDbPlotSettings
  1

  2
none_device
  4
ISO_A4_(297.00_x_210.00_MM)
  6

 40
0.0
 41
0.0
 42
0.0
 43
0.0
 44
297.0
 45
210.0
 46
0.0
 47
0.0
 48
0.0
 49
0.0
140
0.0
141
0.0
142
1.0
143
1.0
 70
1024
 72
1
 73
0
 74
0
  7

 75
0
147
1.0
148
0.0
149
0.0
100
AcDbLayout
  1
Model
 70
0
 71
0
 10
0.0
 20
0.0
 11
297.0
 21
210.0
 12
0.0
 22
0.0
 32
0.0
 14
0.0
 24
0.0
 34
0.0
 15
0.0
 25
0.0
 35
0.0
146
0.0
 13
0.0
 23
0.0
 33
0.0
 16
1.0
 26
0.0
 36
0.0
 17
0.0
 27
1.0
 37
0.0
 76
0
330
20C
345
0
346
0
  0
LAYOUT
  5
2CB
102
{ACAD_REACTORS
330
1A
102
}
100
AcDbPlotSettings
  1

  2
none_device
  4
ISO_A4_(297.00_x_210.00_MM)
  6

 40
0.0
 41
0.0
 42
0.0
 43
0.0
 44
297.0
 45
210.0
 46
0.0
 47
0.0
 48
0.0
 49
0.0
140
0.0
141
0.0
142
1.0
143
1.0
 70
0
 72
1
 73
0
 74
0
  7

 75
0
147
1.0
148
0.0
149
0.0
100
AcDbLayout
  1
Layout1
 70
0
 71
1
 10
0.0
 20
0.0
 11
297.0
 21
210.0
 12
0.0
 22
0.0
 32
0.0
 14
0.0
 24
0.0
 34
0.0
 15
0.0
 25
0.0
 35
0.0
146
0.0
 13
0.0
 23
0.0
 33
0.0
 16
1.0
 26
0.0
 36
0.0
 17
0.0
 27
1.0
 37
0.0
 76
0
330
20D
345
0
346
0
  0
TABLESTYLE
  5
2CC
102
{ACAD_REACTORS
330
2C9
330
25A
102
}
330
2C9
100
AcDbTableStyle
  3
Standard
 70
0
 71
0
 40
0.06
 41
0.06
280
1
281
1
  7
Standard
140
0.18
170
1
 62
0
 63
7
283
0
  7
Standard
140
0.18
170
1
 62
0
 63
7
283
0
  7
Standard
140
0.18
170
1
 62
0
 63
7
283
0
  0
TABLESTYLE
  5
2CD
102
{ACAD_REACTORS
330
2C9
102
}
330
2C9
100
AcDbTableStyle
  3
Standard1
 70
1
 71
0
 40
0.06
 41
0.06
280
1
281
1
  7
Standard
140
0.18
170
1
 62
0
 63
7
283
0
  7
Standard
140
0.18
170
1
 62
0
 63
7
283
0
  7
Standard
140
0.18
170
1
 62
0
 63
7
283
0
  0
ENDSEC
  0
EOF
