999
DXF file: O:\ORAC_PRODUCTEN\ORAC_LIJN6\C-Type\C216\c216-prod-mm.dxf
999
Pro/ENGINEER 2013050 by Parametric Technology Corporation
  0
SECTION
  2
HEADER
  9
$ACADVER
  1
AC1024
  9
$DWGCODEPAGE
  3
ANSI_1252
  9
$EXTMAX
 10
297.0
 20
210.0
 30
0.0
  9
$EXTMIN
 10
0.0
 20
0.0
 30
0.0
  9
$LIMMIN
 10
0.0
 20
0.0
  9
$LIMMAX
 10
297.0
 20
210.0
  9
$VIEWCTR
 10
148.5
 20
105.0
  9
$VIEWSIZE
 40
210.0
  9
$CLAYER
  8
0
  9
$LTSCALE
 40
16.335
  9
$CELTYPE
  6
BYLAYER
  9
$DIMSCALE
 40
1.0
  9
$DIMASZ
 40
3.5
  9
$DIMEXO
 40
1.0
  9
$DIMDLI
 40
11.286
  9
$DIMEXE
 40
1.5
  9
$DIMCEN
 40
2.673
  9
$DIMLFAC
 40
1.0
  9
$DIMBLK
  1
_FILLED
  9
$DIMTXT
 40
2.5
  9
$DIMTOL
 70
1
  9
$DIMLIM
 70
0
  9
$DIMTFAC
 40
1.0
  9
$DIMTP
 40
0.001
  9
$DIMTM
 40
0.001
  9
$DIMGAP
 40
0.625
  9
$DIMDSEP
 70
44
  9
$PDMODE
 70
3
  9
$PDSIZE
 40
8.0
  9
$HANDSEED
  5
489
  9
$TILEMODE
 70
1
  9
$MEASUREMENT
 70
1
  9
$INSUNITS
 70
4
  0
ENDSEC
  0
SECTION
  2
CLASSES
  0
CLASS
  1
ACDBDICTIONARYWDFLT
  2
AcDbDictionaryWithDefault
  3
AutoCAD 2000
 90
0
 91
1
280
0
281
0
  0
CLASS
  1
ACDBPLACEHOLDER
  2
AcDbPlaceHolder
  3
AutoCAD 2000
 90
0
 91
1
280
0
281
0
  0
CLASS
  1
LAYOUT
  2
AcDbLayout
  3
AutoCAD 2000
 90
0
 91
0
280
0
281
0
  0
CLASS
  1
TABLESTYLE
  2
AcDbTableStyle
  3
ObjectDBX Classes
 90
2047
 91
1
280
0
281
0
  0
CLASS
  1
ACAD_TABLE
  2
AcDbTable
  3
ObjectDBX Classes
 90
1025
 91
1
280
0
281
1
  0
ENDSEC
  0
SECTION
  2
TABLES
  0
TABLE
  2
VPORT
  5
8
100
AcDbSymbolTable
 70
2
  0
VPORT
  5
1F4
100
AcDbSymbolTableRecord
100
AcDbViewportTableRecord
  2
*ACTIVE
 70
0
 10
0.0
 20
0.0
 11
1.0
 21
1.0
 12
148.5
 22
105.0
 13
0.0
 23
0.0
 14
1.0
 24
1.0
 15
0.0
 25
0.0
 16
0.0
 26
0.0
 36
1.0
 17
0.0
 27
0.0
 37
0.0
 40
210.0
 41
1.4142857143
 42
50.0
 43
0.0
 44
0.0
 50
0.0
 51
0.0
 71
0
 72
100
 73
1
 74
1
 75
0
 76
0
 77
0
 78
0
  0
ENDTAB
  0
TABLE
  2
LTYPE
  5
5
100
AcDbSymbolTable
 70
6
  0
LTYPE
  5
14
100
AcDbSymbolTableRecord
100
AcDbLinetypeTableRecord
  2
BYBLOCK
 70
0
  3

 72
65
 73
0
 40
0.0
  0
LTYPE
  5
15
100
AcDbSymbolTableRecord
100
AcDbLinetypeTableRecord
  2
BYLAYER
 70
0
  3

 72
65
 73
0
 40
0.0
  0
LTYPE
  5
16
100
AcDbSymbolTableRecord
100
AcDbLinetypeTableRecord
  2
CONTINUOUS
 70
64
  3
Solid line
 72
65
 73
0
 40
0.0
  0
LTYPE
  5
1F5
100
AcDbSymbolTableRecord
100
AcDbLinetypeTableRecord
  2
CENTER
 70
64
  3
____ _ ____ _ ____ _ ____ _ ____ _ ____ _ ____
 72
65
 73
4
 40
0.6
 49
0.375
 74
0
 49
-0.075
 74
0
 49
0.075
 74
0
 49
-0.075
 74
0
  0
LTYPE
  5
1F6
100
AcDbSymbolTableRecord
100
AcDbLinetypeTableRecord
  2
HIDDEN
 70
64
  3
- - - - - - - - - - - - - - - - - - - -
 72
65
 73
2
 40
0.2
 49
0.1
 74
0
 49
-0.1
 74
0
  0
LTYPE
  5
1F7
100
AcDbSymbolTableRecord
100
AcDbLinetypeTableRecord
  2
PHANTOM
 70
64
  3
_____ _ _ _____ _ _ _____ _ _ _____
 72
65
 73
6
 40
0.8
 49
0.45
 74
0
 49
-0.05
 74
0
 49
0.1
 74
0
 49
-0.05
 74
0
 49
0.1
 74
0
 49
-0.05
 74
0
  0
LTYPE
  5
1F8
100
AcDbSymbolTableRecord
100
AcDbLinetypeTableRecord
  2
DOT
 70
64
  3
. . . . . . . . . . . . . . . . . . . .
 72
65
 73
2
 40
0.2
 49
0.1
 74
0
 49
-0.1
 74
0
  0
LTYPE
  5
1F9
100
AcDbSymbolTableRecord
100
AcDbLinetypeTableRecord
  2
DASHED
 70
64
  3
- - - - - - - - - - - - - - - - - - - -
 72
65
 73
2
 40
0.2
 49
0.1
 74
0
 49
-0.1
 74
0
  0
ENDTAB
  0
TABLE
  2
LAYER
  5
2
100
AcDbSymbolTable
 70
36
  0
LAYER
  5
10
100
AcDbSymbolTableRecord
100
AcDbLayerTableRecord
  2
0
 70
0
 62
7
  6
CONTINUOUS
370
-3
390
F
  0
LAYER
  5
1FA
100
AcDbSymbolTableRecord
100
AcDbLayerTableRecord
  2
DEFAULT_1
 70
0
 62
7
  6
CENTER
370
-3
390
F
  0
LAYER
  5
1FB
100
AcDbSymbolTableRecord
100
AcDbLayerTableRecord
  2
DEFAULT_2
 70
0
 62
8
  6
HIDDEN
370
-3
390
F
  0
LAYER
  5
1FC
100
AcDbSymbolTableRecord
100
AcDbLayerTableRecord
  2
DEFAULT_3
 70
0
 62
7
  6
PHANTOM
370
-3
390
F
  0
LAYER
  5
1FD
100
AcDbSymbolTableRecord
100
AcDbLayerTableRecord
  2
CURVES
 70
0
 62
7
  6
CONTINUOUS
370
-3
390
F
  0
LAYER
  5
1FE
100
AcDbSymbolTableRecord
100
AcDbLayerTableRecord
  2
DTM_ALL
 70
0
 62
7
  6
CONTINUOUS
370
-3
390
F
  0
LAYER
  5
1FF
100
AcDbSymbolTableRecord
100
AcDbLayerTableRecord
  2
DTM_AXIS
 70
0
 62
7
  6
CONTINUOUS
370
-3
390
F
  0
LAYER
  5
200
100
AcDbSymbolTableRecord
100
AcDbLayerTableRecord
  2
DTM_CSYS
 70
0
 62
7
  6
CONTINUOUS
370
-3
390
F
  0
LAYER
  5
201
100
AcDbSymbolTableRecord
100
AcDbLayerTableRecord
  2
DTM_CURVE
 70
0
 62
7
  6
CONTINUOUS
370
-3
390
F
  0
LAYER
  5
202
100
AcDbSymbolTableRecord
100
AcDbLayerTableRecord
  2
DTM_MASTER
 70
0
 62
7
  6
CONTINUOUS
370
-3
390
F
  0
LAYER
  5
203
100
AcDbSymbolTableRecord
100
AcDbLayerTableRecord
  2
DTM_POINT
 70
0
 62
7
  6
CONTINUOUS
370
-3
390
F
  0
LAYER
  5
204
100
AcDbSymbolTableRecord
100
AcDbLayerTableRecord
  2
DTM_QUILT
 70
0
 62
7
  6
CONTINUOUS
370
-3
390
F
  0
LAYER
  5
205
100
AcDbSymbolTableRecord
100
AcDbLayerTableRecord
  2
GTOL
 70
0
 62
7
  6
CONTINUOUS
370
-3
390
F
  0
LAYER
  5
206
100
AcDbSymbolTableRecord
100
AcDbLayerTableRecord
  2
NOTES
 70
0
 62
7
  6
CONTINUOUS
370
-3
390
F
  0
LAYER
  5
207
100
AcDbSymbolTableRecord
100
AcDbLayerTableRecord
  2
SURFACES
 70
0
 62
7
  6
CONTINUOUS
370
-3
390
F
  0
ENDTAB
  0
TABLE
  2
STYLE
  5
3
100
AcDbSymbolTable
 70
1
  0
STYLE
  5
11
100
AcDbSymbolTableRecord
100
AcDbTextStyleTableRecord
  2
STANDARD
 70
0
 40
0.0
 41
1.0
 50
0.0
 71
0
 42
0.2
  3
cgtime.ttf
  4

  0
STYLE
  5
208
100
AcDbSymbolTableRecord
100
AcDbTextStyleTableRecord
  2
TEXTSTYLE_1
 70
0
 40
0.0
 41
0.8
 50
0.0
 71
0
 42
0.2
  3
gdt
  4

  0
STYLE
  5
209
100
AcDbSymbolTableRecord
100
AcDbTextStyleTableRecord
  2
TEXTSTYLE_2
 70
0
 40
0.0
 41
1.0
 50
0.0
 71
0
 42
0.2
  3
cgtime.ttf
  4

  0
STYLE
  5
20A
100
AcDbSymbolTableRecord
100
AcDbTextStyleTableRecord
  2
TEXTSTYLE_3
 70
0
 40
0.0
 41
1.0
 50
0.0
 71
0
 42
0.2
  3
cgtime.ttf
  4

  0
STYLE
  5
20B
100
AcDbSymbolTableRecord
100
AcDbTextStyleTableRecord
  2
TEXTSTYLE_4
 70
0
 40
0.0
 41
0.85
 50
0.0
 71
0
 42
0.2
  3
gdt
  4

  0
ENDTAB
  0
TABLE
  2
VIEW
  5
6
100
AcDbSymbolTable
 70
0
  0
ENDTAB
  0
TABLE
  2
UCS
  5
7
100
AcDbSymbolTable
 70
0
  0
ENDTAB
  0
TABLE
  2
APPID
  5
9
100
AcDbSymbolTable
 70
1
  0
APPID
  5
20C
100
AcDbSymbolTableRecord
100
AcDbRegAppTableRecord
  2
ACAD
 70
0
  0
ENDTAB
  0
TABLE
  2
BLOCK_RECORD
  5
1
100
AcDbSymbolTable
 70
0
  0
BLOCK_RECORD
  5
20D
100
AcDbSymbolTableRecord
100
AcDbBlockTableRecord
  2
*Model_Space
  0
BLOCK_RECORD
  5
20E
100
AcDbSymbolTableRecord
100
AcDbBlockTableRecord
  2
*Paper_Space
  0
BLOCK_RECORD
  5
20F
100
AcDbSymbolTableRecord
100
AcDbBlockTableRecord
  2
_FILLED
  0
BLOCK_RECORD
  5
210
100
AcDbSymbolTableRecord
100
AcDbBlockTableRecord
  2
*D0
  0
BLOCK_RECORD
  5
211
100
AcDbSymbolTableRecord
100
AcDbBlockTableRecord
  2
*D1
  0
BLOCK_RECORD
  5
212
100
AcDbSymbolTableRecord
100
AcDbBlockTableRecord
  2
*D2
  0
BLOCK_RECORD
  5
213
100
AcDbSymbolTableRecord
100
AcDbBlockTableRecord
  2
SYMBOL_2_BL0
  0
BLOCK_RECORD
  5
214
100
AcDbSymbolTableRecord
100
AcDbBlockTableRecord
  2
*T1
  0
ENDTAB
  0
TABLE
  2
DIMSTYLE
  5
A
100
AcDbSymbolTable
 70
1
100
AcDbDimStyleTable
 71
0
  0
DIMSTYLE
105
215
100
AcDbSymbolTableRecord
100
AcDbDimStyleTableRecord
  2
STANDARD
 70
0
  3

  4

 40
1.0
 41
3.5
 42
1.0
 43
0.38
 44
1.5
 45
0.0
 46
0.0
 47
0.001
 48
0.001
140
2.5
141
0.09
142
0.0
143
25.4
144
1.0
145
0.0
146
1.0
147
0.625
 71
1.0
 72
0.0
 73
1
 74
1
 75
0
 76
0
 77
0
 78
8
170
0
171
2
172
0
173
0
174
0
175
0
176
0
177
0
178
0
270
2
271
3
272
3
273
2
274
2
275
0
280
0
281
0
282
0
283
1
284
8
285
0
286
0
287
3
288
0
340
11
278
44
341
20F
342
20F
343
20F
344
20F
  0
DIMSTYLE
105
216
100
AcDbSymbolTableRecord
100
AcDbDimStyleTableRecord
  2
DIMSTYLE_1
 70
0
  3

  4

 40
1.0
 41
3.5
 42
1.0
 43
0.38
 44
1.5
 45
0.0
 46
0.0
 47
0.0
 48
0.0
140
2.5
141
0.09
142
0.0
143
25.4
144
1.0
145
0.0
146
1.0
147
1.25
 71
0.0
 72
0.0
 73
1
 74
1
 75
0
 76
0
 77
0
 78
8
170
0
171
2
172
0
173
0
174
0
175
0
176
0
177
0
178
0
270
2
271
3
272
3
273
2
274
2
275
0
280
0
281
0
282
0
283
1
284
8
285
0
286
0
287
3
288
0
340
11
278
44
341
20F
342
20F
343
20F
344
20F
  0
DIMSTYLE
105
217
100
AcDbSymbolTableRecord
100
AcDbDimStyleTableRecord
  2
DIMSTYLE_2
 70
0
  3

  4

 40
1.0
 41
3.5
 42
1.0
 43
0.38
 44
1.5
 45
0.0
 46
0.0
 47
0.0
 48
0.0
140
2.5
141
0.09
142
0.0
143
25.4
144
1.0
145
0.0
146
1.0
147
1.25
 71
0.0
 72
0.0
 73
1
 74
1
 75
0
 76
0
 77
0
 78
8
170
0
171
2
172
0
173
0
174
0
175
0
176
0
177
0
178
0
270
2
271
0
272
0
273
2
274
2
275
0
280
0
281
0
282
0
283
1
284
8
285
0
286
0
287
3
288
0
340
11
278
44
341
20F
342
20F
343
20F
344
20F
  0
ENDTAB
  0
ENDSEC
  0
SECTION
  2
BLOCKS
  0
BLOCK
  5
20
100
AcDbEntity
  8
0
100
AcDbBlockBegin
  2
*Model_Space
 70
0
 10
0.0
 20
0.0
 30
0.0
  3
*Model_Space
  1

  0
ENDBLK
  5
21
100
AcDbEntity
  8
0
100
AcDbBlockEnd
  0
BLOCK
  5
1C
100
AcDbEntity
  8
0
100
AcDbBlockBegin
  2
*Paper_Space
 70
0
 10
0.0
 20
0.0
 30
0.0
  3
*Paper_Space
  1

  0
ENDBLK
  5
1D
100
AcDbEntity
  8
0
100
AcDbBlockEnd
  0
BLOCK
  5
218
100
AcDbEntity
  8
0
100
AcDbBlockBegin
 62
7
  6
CONTINUOUS
  2
SYMBOL_2_BL0
 70
64
 10
200.6298462176
 20
16.2178244018
  3
SYMBOL_2_BL0
  1

  0
TEXT
  5
219
100
AcDbEntity
  8
0
100
AcDbText
 62
7
  6
CONTINUOUS
 10
194.3577811993
 20
12.7178244018
  7
TEXTSTYLE_2
 40
0.7334566062
  1
EUROPEAN PROJECTION
 72
5
 11
206.9549697578
 21
12.7178244018
100
AcDbText
  0
LINE
  5
21A
100
AcDbEntity
  8
DEFAULT_1
100
AcDbLine
 62
7
  6
CENTER
 10
202.0967594299
 20
16.7839979772
 11
207.9644122791
 21
16.7839979772
  0
LINE
  5
21B
100
AcDbEntity
  8
DEFAULT_1
100
AcDbLine
 62
7
  6
CENTER
 10
193.2952801561
 20
16.7839979772
 11
200.6298462176
 21
16.7839979772
  0
LINE
  5
21C
100
AcDbEntity
  8
DEFAULT_1
100
AcDbLine
 62
7
  6
CENTER
 10
205.0305858545
 20
19.7178244018
 11
205.0305858545
 21
13.8501715526
  0
LINE
  5
21D
100
AcDbEntity
  8
0
100
AcDbLine
 62
7
  6
CONTINUOUS
 10
194.0427054433
 20
15.3153384047
 11
194.0427054433
 21
18.2526568162
  0
CIRCLE
  5
21E
100
AcDbEntity
  8
0
100
AcDbCircle
 62
7
  6
CONTINUOUS
 10
205.0305858545
 20
16.7839979772
 40
2.2003698185
  0
CIRCLE
  5
21F
100
AcDbEntity
  8
0
100
AcDbCircle
 62
7
  6
CONTINUOUS
 10
205.0305858545
 20
16.7839979772
 40
1.4669132123
  0
LINE
  5
220
100
AcDbEntity
  8
0
100
AcDbLine
 62
7
  6
CONTINUOUS
 10
194.0287367622
 20
18.2509111895
 11
199.8963896115
 21
18.9843677957
  0
LINE
  5
221
100
AcDbEntity
  8
0
100
AcDbLine
 62
7
  6
CONTINUOUS
 10
199.8963896115
 20
18.9843677957
 11
199.8963896115
 21
14.5836281587
  0
LINE
  5
222
100
AcDbEntity
  8
0
100
AcDbLine
 62
7
  6
CONTINUOUS
 10
199.8963896115
 20
14.5836281587
 11
194.0287367622
 21
15.3170847649
  0
ENDBLK
  5
223
100
AcDbEntity
  8
0
  6
BYBLOCK
 62
0
100
AcDbBlockEnd
  0
BLOCK
  5
224
100
AcDbEntity
  8
0
100
AcDbBlockBegin
  2
_FILLED
 70
64
 10
0.0
 20
0.0
  3
_FILLED
  1

  0
SOLID
  5
225
100
AcDbEntity
  8
0
  6
BYBLOCK
 62
0
100
AcDbTrace
 10
0.0
 20
0.0
 11
-1.0
 21
0.2142857143
 12
-1.0
 22
-0.2142857143
 13
-1.0
 23
-0.2142857143
  0
ENDBLK
  5
226
100
AcDbEntity
  8
0
  6
BYBLOCK
 62
0
100
AcDbBlockEnd
  0
BLOCK
  5
227
100
AcDbEntity
  8
0
100
AcDbBlockBegin
 62
2
  6
CONTINUOUS
  2
*D0
 70
65
 10
0.0
 20
0.0
  3
*D0
  1

  0
TEXT
  5
228
100
AcDbEntity
  8
0
100
AcDbText
 62
2
  6
CONTINUOUS
 10
11.1031453016
 20
108.929448082
  7
STANDARD
 40
2.5
  1
116
 72
5
 11
16.5603437451
 21
108.929448082
100
AcDbText
  0
LINE
  5
229
100
AcDbEntity
  8
0
100
AcDbLine
 62
2
  6
CONTINUOUS
 10
29.5376239254
 20
53.679448082
 11
12.3317445234
 21
53.679448082
  0
LINE
  5
22A
100
AcDbEntity
  8
0
100
AcDbLine
 62
2
  6
CONTINUOUS
 10
140.5310210261
 20
166.679448082
 11
12.3317445234
 21
166.679448082
  0
LINE
  5
22B
100
AcDbEntity
  8
0
100
AcDbLine
 62
2
  6
CONTINUOUS
 10
13.8317445234
 20
53.679448082
 11
13.8317445234
 21
107.679448082
  0
LINE
  5
22C
100
AcDbEntity
  8
0
100
AcDbLine
 62
2
  6
CONTINUOUS
 10
13.8317445234
 20
166.679448082
 11
13.8317445234
 21
112.679448082
  0
INSERT
  5
22D
100
AcDbEntity
  8
0
100
AcDbBlockReference
 62
2
  6
CONTINUOUS
  2
_FILLED
 10
13.8317445234
 20
53.679448082
 41
3.5
 42
3.5
 43
3.5
 50
270.0
  0
INSERT
  5
22E
100
AcDbEntity
  8
0
100
AcDbBlockReference
 62
2
  6
CONTINUOUS
  2
_FILLED
 10
13.8317445234
 20
166.679448082
 41
3.5
 42
3.5
 43
3.5
 50
90.0
  0
ENDBLK
  5
22F
100
AcDbEntity
  8
0
  6
BYBLOCK
 62
0
100
AcDbBlockEnd
  0
BLOCK
  5
230
100
AcDbEntity
  8
0
100
AcDbBlockBegin
 62
2
  6
CONTINUOUS
  2
*D1
 70
65
 10
0.0
 20
0.0
  3
*D1
  1

  0
TEXT
  5
231
100
AcDbEntity
  8
0
100
AcDbText
 62
2
  6
CONTINUOUS
 10
93.3090247036
 20
177.8197244785
  7
STANDARD
 40
2.5
  1
133
 72
5
 11
98.7662231472
 21
177.8197244785
100
AcDbText
  0
LINE
  5
232
100
AcDbEntity
  8
0
100
AcDbLine
 62
2
  6
CONTINUOUS
 10
161.5376239254
 20
167.679448082
 11
161.5376239254
 21
180.5697244785
  0
LINE
  5
233
100
AcDbEntity
  8
0
100
AcDbLine
 62
2
  6
CONTINUOUS
 10
30.5376239254
 20
69.679448082
 11
30.5376239254
 21
180.5697244785
  0
LINE
  5
234
100
AcDbEntity
  8
0
100
AcDbLine
 62
2
  6
CONTINUOUS
 10
161.5376239254
 20
179.0697244785
 11
100.0162231472
 21
179.0697244785
  0
LINE
  5
235
100
AcDbEntity
  8
0
100
AcDbLine
 62
2
  6
CONTINUOUS
 10
30.5376239254
 20
179.0697244785
 11
92.0590247036
 21
179.0697244785
  0
INSERT
  5
236
100
AcDbEntity
  8
0
100
AcDbBlockReference
 62
2
  6
CONTINUOUS
  2
_FILLED
 10
161.5376239254
 20
179.0697244785
 41
3.5
 42
3.5
 43
3.5
  0
INSERT
  5
237
100
AcDbEntity
  8
0
100
AcDbBlockReference
 62
2
  6
CONTINUOUS
  2
_FILLED
 10
30.5376239254
 20
179.0697244785
 41
3.5
 42
3.5
 43
3.5
 50
180.0
  0
ENDBLK
  5
238
100
AcDbEntity
  8
0
  6
BYBLOCK
 62
0
100
AcDbBlockEnd
  0
BLOCK
  5
239
100
AcDbEntity
  8
0
100
AcDbBlockBegin
 62
2
  6
CONTINUOUS
  2
*D2
 70
65
 10
0.0
 20
0.0
  3
*D2
  1

  0
TEXT
  5
23A
100
AcDbEntity
  8
0
100
AcDbText
 62
2
  6
CONTINUOUS
 10
102.1656303021
 20
98.6620557509
  7
STANDARD
 40
2.5
  1
173
 72
5
 11
107.6228287457
 21
98.6620557509
100
AcDbText
  0
LINE
  5
23B
100
AcDbEntity
  8
0
100
AcDbLine
 62
2
  6
CONTINUOUS
 10
162.1907922043
 20
165.9222352985
 11
171.3739819423
 21
155.2762365757
  0
LINE
  5
23C
100
AcDbEntity
  8
0
100
AcDbLine
 62
2
  6
CONTINUOUS
 10
31.1907922043
 20
52.9222352985
 11
40.3739819423
 21
42.2762365757
  0
LINE
  5
23D
100
AcDbEntity
  8
0
100
AcDbLine
 62
2
  6
CONTINUOUS
 10
170.3942295239
 20
156.4120557509
 11
107.7924596124
 21
102.4120557509
  0
LINE
  5
23E
100
AcDbEntity
  8
0
100
AcDbLine
 62
2
  6
CONTINUOUS
 10
39.3942295239
 20
43.4120557509
 11
101.9959994354
 21
97.4120557509
  0
INSERT
  5
23F
100
AcDbEntity
  8
0
100
AcDbBlockReference
 62
2
  6
CONTINUOUS
  2
_FILLED
 10
170.3942295239
 20
156.4120557509
 41
3.5
 42
3.5
 43
3.5
 50
40.7809046508
  0
INSERT
  5
240
100
AcDbEntity
  8
0
100
AcDbBlockReference
 62
2
  6
CONTINUOUS
  2
_FILLED
 10
39.3942295239
 20
43.4120557509
 41
3.5
 42
3.5
 43
3.5
 50
220.7809046508
  0
ENDBLK
  5
241
100
AcDbEntity
  8
0
  6
BYBLOCK
 62
0
100
AcDbBlockEnd
  0
BLOCK
  5
242
100
AcDbEntity
  8
0
100
AcDbBlockBegin
  2
*T1
 70
1
 10
0.0
 20
0.0
  3
*T1
  1

  0
LINE
  5
243
100
AcDbEntity
  8
0
100
AcDbLine
 62
7
  6
CONTINUOUS
 10
174.0
 20
0.0
 11
0.0
 21
0.0
  0
LINE
  5
244
100
AcDbEntity
  8
0
100
AcDbLine
 62
7
  6
CONTINUOUS
 10
174.0
 20
0.0
 11
174.0
 21
42.5
  0
LINE
  5
245
100
AcDbEntity
  8
0
100
AcDbLine
 62
7
  6
CONTINUOUS
 10
140.0
 20
6.5
 11
0.0
 21
6.5
  0
LINE
  5
246
100
AcDbEntity
  8
0
100
AcDbLine
 62
7
  6
CONTINUOUS
 10
174.0
 20
18.5
 11
91.0
 21
18.5
  0
LINE
  5
247
100
AcDbEntity
  8
0
100
AcDbLine
 62
7
  6
CONTINUOUS
 10
174.0
 20
27.5
 11
91.0
 21
27.5
  0
LINE
  5
248
100
AcDbEntity
  8
0
100
AcDbLine
 62
7
  6
CONTINUOUS
 10
91.0
 20
31.5
 11
59.0
 21
31.5
  0
LINE
  5
249
100
AcDbEntity
  8
0
100
AcDbLine
 62
7
  6
CONTINUOUS
 10
174.0
 20
42.5
 11
0.0
 21
42.5
  0
LINE
  5
24A
100
AcDbEntity
  8
0
100
AcDbLine
 62
7
  6
CONTINUOUS
 10
140.0
 20
0.0
 11
140.0
 21
18.5
  0
LINE
  5
24B
100
AcDbEntity
  8
0
100
AcDbLine
 62
7
  6
CONTINUOUS
 10
122.0
 20
0.0
 11
122.0
 21
6.5
  0
LINE
  5
24C
100
AcDbEntity
  8
0
100
AcDbLine
 62
7
  6
CONTINUOUS
 10
91.0
 20
6.5
 11
91.0
 21
42.5
  0
LINE
  5
24D
100
AcDbEntity
  8
0
100
AcDbLine
 62
7
  6
CONTINUOUS
 10
59.0
 20
6.5
 11
59.0
 21
42.5
  0
LINE
  5
24E
100
AcDbEntity
  8
0
100
AcDbLine
 62
7
  6
CONTINUOUS
 10
10.0
 20
6.5
 11
10.0
 21
42.5
  0
LINE
  5
24F
100
AcDbEntity
  8
0
100
AcDbLine
 62
7
  6
CONTINUOUS
 10
0.0
 20
0.0
 11
0.0
 21
42.5
  0
TEXT
  5
250
100
AcDbEntity
  8
0
100
AcDbText
 62
7
  6
CONTINUOUS
 10
166.0625
 20
15.45
  7
TEXTSTYLE_3
 40
1.8
  1
 
 72
5
 11
166.8399319066
 21
15.45
100
AcDbText
  0
TEXT
  5
251
100
AcDbEntity
  8
0
100
AcDbText
 62
7
  6
CONTINUOUS
 10
166.8399319066
 20
15.45
  7
TEXTSTYLE_3
 40
1.8
  1
 
 72
5
 11
167.6173638132
 21
15.45
100
AcDbText
  0
TEXT
  5
252
100
AcDbEntity
  8
0
100
AcDbText
 62
7
  6
CONTINUOUS
 10
166.0625
 20
11.976
  7
TEXTSTYLE_3
 40
1.8
  1
 
 72
5
 11
166.8399319066
 21
11.976
100
AcDbText
  0
TEXT
  5
253
100
AcDbEntity
  8
0
100
AcDbText
 62
7
  6
CONTINUOUS
 10
166.0625
 20
8.502
  7
TEXTSTYLE_3
 40
1.8
  1
 
 72
5
 11
166.8399319066
 21
8.502
100
AcDbText
  0
TEXT
  5
254
100
AcDbEntity
  8
0
100
AcDbText
 62
7
  6
CONTINUOUS
 10
166.0625
 20
5.028
  7
TEXTSTYLE_3
 40
1.8
  1
 
 72
5
 11
166.8399319066
 21
5.028
100
AcDbText
  0
TEXT
  5
255
100
AcDbEntity
  8
0
100
AcDbText
 62
7
  6
CONTINUOUS
 10
166.0625
 20
1.554
  7
TEXTSTYLE_3
 40
1.8
  1
dm²/m
 72
5
 11
173.2484922179
 21
1.554
100
AcDbText
  0
TEXT
  5
256
100
AcDbEntity
  8
0
100
AcDbText
 62
7
  6
CONTINUOUS
 10
162.9657101167
 20
15.0
  7
STANDARD
 40
2.25
  1
 
 72
5
 11
163.9375
 21
15.0
100
AcDbText
  0
TEXT
  5
257
100
AcDbEntity
  8
0
100
AcDbText
 62
7
  6
CONTINUOUS
 10
162.9657101167
 20
11.625
  7
STANDARD
 40
2.25
  1
 
 72
5
 11
163.9375
 21
11.625
100
AcDbText
  0
TEXT
  5
258
100
AcDbEntity
  8
0
100
AcDbText
 62
7
  6
CONTINUOUS
 10
162.9657101167
 20
8.25
  7
STANDARD
 40
2.25
  1
 
 72
5
 11
163.9375
 21
8.25
100
AcDbText
  0
TEXT
  5
259
100
AcDbEntity
  8
0
100
AcDbText
 62
7
  6
CONTINUOUS
 10
162.9657101167
 20
4.875
  7
STANDARD
 40
2.25
  1
 
 72
5
 11
163.9375
 21
4.875
100
AcDbText
  0
TEXT
  5
25A
100
AcDbEntity
  8
0
100
AcDbText
 62
7
  6
CONTINUOUS
 10
157.9316634241
 20
1.5
  7
STANDARD
 40
2.25
  1
20,7
 72
5
 11
163.9375
 21
1.5
100
AcDbText
  0
TEXT
  5
25B
100
AcDbEntity
  8
0
100
AcDbText
 62
7
  6
CONTINUOUS
 10
141.0625
 20
15.0
  7
STANDARD
 40
2.25
  1
 
 72
5
 11
142.0342898833
 21
15.0
100
AcDbText
  0
TEXT
  5
25C
100
AcDbEntity
  8
0
100
AcDbText
 62
7
  6
CONTINUOUS
 10
141.0625
 20
11.625
  7
STANDARD
 40
2.25
  1
 
 72
5
 11
142.0342898833
 21
11.625
100
AcDbText
  0
TEXT
  5
25D
100
AcDbEntity
  8
0
100
AcDbText
 62
7
  6
CONTINUOUS
 10
141.0625
 20
8.25
  7
STANDARD
 40
2.25
  1
 
 72
5
 11
142.0342898833
 21
8.25
100
AcDbText
  0
TEXT
  5
25E
100
AcDbEntity
  8
0
100
AcDbText
 62
7
  6
CONTINUOUS
 10
141.0625
 20
4.875
  7
STANDARD
 40
2.25
  1
Painted Surface :
 72
5
 11
164.0352626459
 21
4.875
100
AcDbText
  0
TEXT
  5
25F
100
AcDbEntity
  8
0
100
AcDbText
 62
2
  6
CONTINUOUS
 10
123.0625
 20
2.0
  7
STANDARD
 40
2.5
  1
Rev:   
 72
5
 11
133.3737840467
 21
2.0
100
AcDbText
  0
TEXT
  5
260
100
AcDbEntity
  8
0
100
AcDbText
 62
7
  6
CONTINUOUS
 10
2.3984435798
 20
3.7
  7
STANDARD
 40
1.8
  1
All information in this document is Orac's exclusive property.  It may in no case be reproduced, even partly,
 72
5
 11
119.6015564202
 21
3.7
100
AcDbText
  0
TEXT
  5
261
100
AcDbEntity
  8
0
100
AcDbText
 62
7
  6
CONTINUOUS
 10
0.5424124514
 20
1.0
  7
STANDARD
 40
1.8
  1
be communicated to a third party or used for any possible purpose without ORAC's express written permission. 
 72
5
 11
121.4575875486
 21
1.0
100
AcDbText
  0
TEXT
  5
262
100
AcDbEntity
  8
0
100
AcDbText
 62
2
  6
CONTINUOUS
 10
108.0625
 20
13.85
  7
STANDARD
 40
2.25
  1
Anton Smolko
 72
5
 11
127.3407101167
 21
13.85
100
AcDbText
  0
TEXT
  5
263
100
AcDbEntity
  8
0
100
AcDbText
 62
2
  6
CONTINUOUS
 10
108.0625
 20
8.9
  7
STANDARD
 40
2.25
  1
15-Jul-2014
 72
5
 11
123.8912937743
 21
8.9
100
AcDbText
  0
TEXT
  5
264
100
AcDbEntity
  8
0
100
AcDbText
 62
7
  6
CONTINUOUS
 10
92.0625
 20
13.85
  7
STANDARD
 40
2.25
  1
Drawn by:
 72
5
 11
106.4905155642
 21
13.85
100
AcDbText
  0
TEXT
  5
265
100
AcDbEntity
  8
0
100
AcDbText
 62
7
  6
CONTINUOUS
 10
92.0625
 20
8.9
  7
STANDARD
 40
2.25
  1
Drawn on:
 72
5
 11
106.4905155642
 21
8.9
100
AcDbText
  0
TEXT
  5
266
100
AcDbEntity
  8
0
100
AcDbText
 62
7
  6
CONTINUOUS
 10
77.0625
 20
24.25
  7
STANDARD
 40
2.0
  1
Creo 2.0
 72
5
 11
87.622811284
 21
24.25
100
AcDbText
  0
TEXT
  5
267
100
AcDbEntity
  8
0
100
AcDbText
 62
7
  6
CONTINUOUS
 10
77.0625
 20
21.25
  7
STANDARD
 40
2.0
  1
A4
 72
5
 11
80.6189202335
 21
21.25
100
AcDbText
  0
TEXT
  5
268
100
AcDbEntity
  8
0
100
AcDbText
 62
7
  6
CONTINUOUS
 10
77.0625
 20
18.25
  7
STANDARD
 40
2.0
  1
1:1
 72
5
 11
80.9457684825
 21
18.25
100
AcDbText
  0
TEXT
  5
269
100
AcDbEntity
  8
0
100
AcDbText
 62
7
  6
CONTINUOUS
 10
77.0625
 20
15.25
  7
STANDARD
 40
2.0
  1
1
 72
5
 11
78.5177529183
 21
15.25
100
AcDbText
  0
TEXT
  5
26A
100
AcDbEntity
  8
0
100
AcDbText
 62
7
  6
CONTINUOUS
 10
78.5177529183
 20
15.25
  7
STANDARD
 40
2.0
  1
 / 
 72
5
 11
81.2181420233
 21
15.25
100
AcDbText
  0
TEXT
  5
26B
100
AcDbEntity
  8
0
100
AcDbText
 62
7
  6
CONTINUOUS
 10
81.2181420233
 20
15.25
  7
STANDARD
 40
2.0
  1
1
 72
5
 11
82.6733949416
 21
15.25
100
AcDbText
  0
TEXT
  5
26C
100
AcDbEntity
  8
0
100
AcDbText
 62
7
  6
CONTINUOUS
 10
59.8480058366
 20
24.25
  7
STANDARD
 40
2.0
  1
Drawn with:
 72
5
 11
74.9375
 21
24.25
100
AcDbText
  0
TEXT
  5
26D
100
AcDbEntity
  8
0
100
AcDbText
 62
7
  6
CONTINUOUS
 10
62.8752431907
 20
21.25
  7
STANDARD
 40
2.0
  1
Page size:
 72
5
 11
74.9375
 21
21.25
100
AcDbText
  0
TEXT
  5
26E
100
AcDbEntity
  8
0
100
AcDbText
 62
7
  6
CONTINUOUS
 10
61.5834143969
 20
18.25
  7
STANDARD
 40
2.0
  1
Page scale:
 72
5
 11
74.9375
 21
18.25
100
AcDbText
  0
TEXT
  5
26F
100
AcDbEntity
  8
0
100
AcDbText
 62
7
  6
CONTINUOUS
 10
64.1592898833
 20
15.25
  7
STANDARD
 40
2.0
  1
Sheet nr:
 72
5
 11
74.9375
 21
15.25
100
AcDbText
  0
TEXT
  5
270
100
AcDbEntity
  8
0
100
AcDbText
 62
7
  6
CONTINUOUS
 10
61.8480058366
 20
12.25
  7
STANDARD
 40
2.0
  1
Projection:
 72
5
 11
74.9375
 21
12.25
100
AcDbText
  0
TEXT
  5
271
100
AcDbEntity
  8
0
100
AcDbText
 62
7
  6
CONTINUOUS
 10
27.3015564202
 20
34.4375
  7
STANDARD
 40
5.0
  1
Orac
 72
5
 11
41.6984435798
 21
34.4375
100
AcDbText
  0
TEXT
  5
272
100
AcDbEntity
  8
0
100
AcDbText
 62
7
  6
CONTINUOUS
 10
33.91692607
 20
29.8125
  7
STANDARD
 40
2.7
  1
 
 72
5
 11
35.08307393
 21
29.8125
100
AcDbText
  0
TEXT
  5
273
100
AcDbEntity
  8
0
100
AcDbText
 62
7
  6
CONTINUOUS
 10
21.6303501946
 20
25.7625
  7
STANDARD
 40
2.7
  1
Biekorfstraat 32
 72
5
 11
47.3696498054
 21
25.7625
100
AcDbText
  0
TEXT
  5
274
100
AcDbEntity
  8
0
100
AcDbText
 62
7
  6
CONTINUOUS
 10
14.0451361868
 20
21.7125
  7
STANDARD
 40
2.7
  1
8400 Oostende - Belgium
 72
5
 11
54.9548638132
 21
21.7125
100
AcDbText
  0
TEXT
  5
275
100
AcDbEntity
  8
0
100
AcDbText
 62
7
  6
CONTINUOUS
 10
14.486381323
 20
17.6625
  7
STANDARD
 40
2.7
  1
Tel  +32 (0)59 80 32 52
 72
5
 11
54.513618677
 21
17.6625
100
AcDbText
  0
TEXT
  5
276
100
AcDbEntity
  8
0
100
AcDbText
 62
7
  6
CONTINUOUS
 10
14.1239299611
 20
13.6125
  7
STANDARD
 40
2.7
  1
Fax  +32 (0)59 80 28 10
 72
5
 11
54.8760700389
 21
13.6125
100
AcDbText
  0
TEXT
  5
277
100
AcDbEntity
  8
0
100
AcDbText
 62
7
  6
CONTINUOUS
 10
17.6538910506
 20
9.5625
  7
STANDARD
 40
2.7
  1
www.oracdecor.com
 72
5
 11
51.3461089494
 21
9.5625
100
AcDbText
  0
TEXT
  5
278
100
AcDbEntity
  8
0
100
AcDbText
 62
7
  6
CONTINUOUS
 10
2.36
 20
19.7080090791
  7
TEXTSTYLE_4
 40
1.1
  1
u
 50
90.0
 72
5
 11
2.36
 21
22.3663424125
100
AcDbText
  0
TEXT
  5
279
100
AcDbEntity
  8
0
100
AcDbText
 62
7
  6
CONTINUOUS
 10
2.36
 20
22.3663424125
  7
STANDARD
 40
1.1
  1
ROHS
 50
90.0
 72
5
 11
2.36
 21
26.6336575875
100
AcDbText
  0
TEXT
  5
27A
100
AcDbEntity
  8
0
100
AcDbText
 62
7
  6
CONTINUOUS
 10
2.36
 20
26.6336575875
  7
TEXTSTYLE_4
 40
1.1
  1
u
 50
90.0
 72
5
 11
2.36
 21
29.2919909209
100
AcDbText
  0
TEXT
  5
27B
100
AcDbEntity
  8
0
100
AcDbText
 62
7
  6
CONTINUOUS
 10
4.23
 20
9.219844358
  7
STANDARD
 40
1.1
  1
Parts must be compliant to rohs regulations. If
 50
90.0
 72
5
 11
4.23
 21
39.780155642
100
AcDbText
  0
TEXT
  5
27C
100
AcDbEntity
  8
0
100
AcDbText
 62
7
  6
CONTINUOUS
 10
6.1
 20
8.1048638132
  7
STANDARD
 40
1.1
  1
any notification on drawing is in contradictin with
 50
90.0
 72
5
 11
6.1
 21
40.8951361868
100
AcDbText
  0
TEXT
  5
27D
100
AcDbEntity
  8
0
100
AcDbText
 62
7
  6
CONTINUOUS
 10
7.97
 20
8.2011673152
  7
STANDARD
 40
1.1
  1
ROHS regulations, contact Orac before delivery! 
 50
90.0
 72
5
 11
7.97
 21
40.7988326848
100
AcDbText
  0
TEXT
  5
27E
100
AcDbEntity
  8
0
100
AcDbText
 62
2
  6
CONTINUOUS
 10
108.0625
 20
23.7875
  7
STANDARD
 40
2.25
  1
PUROTOUCH
 72
5
 11
128.4175583658
 21
23.7875
100
AcDbText
  0
TEXT
  5
27F
100
AcDbEntity
  8
0
100
AcDbText
 62
2
  6
CONTINUOUS
 10
128.4175583658
 20
23.7875
  7
STANDARD
 40
2.25
  1
 
 72
5
 11
129.389348249
 21
23.7875
100
AcDbText
  0
TEXT
  5
280
100
AcDbEntity
  8
0
100
AcDbText
 62
2
  6
CONTINUOUS
 10
108.0625
 20
19.9625
  7
STANDARD
 40
2.25
  1
 
 72
5
 11
109.0342898833
 21
19.9625
100
AcDbText
  0
TEXT
  5
281
100
AcDbEntity
  8
0
100
AcDbText
 62
7
  6
CONTINUOUS
 10
92.0625
 20
23.625
  7
STANDARD
 40
2.5
  1
Material:
 72
5
 11
105.7979085603
 21
23.625
100
AcDbText
  0
TEXT
  5
282
100
AcDbEntity
  8
0
100
AcDbText
 62
7
  6
CONTINUOUS
 10
92.0625
 20
19.875
  7
STANDARD
 40
2.5
  1
Remarks:
 72
5
 11
106.3232003891
 21
19.875
100
AcDbText
  0
TEXT
  5
283
100
AcDbEntity
  8
0
100
AcDbText
 62
2
  6
CONTINUOUS
 10
108.0625
 20
37.525
  7
STANDARD
 40
1.8
  1
  
 72
5
 11
109.6173638132
 21
37.525
100
AcDbText
  0
TEXT
  5
284
100
AcDbEntity
  8
0
100
AcDbText
 62
2
  6
CONTINUOUS
 10
109.6173638132
 20
37.525
  7
STANDARD
 40
2.5
  1
C216-PROD-MM
 72
5
 11
136.4169747082
 21
37.525
100
AcDbText
  0
TEXT
  5
285
100
AcDbEntity
  8
0
100
AcDbText
 62
2
  6
CONTINUOUS
 10
108.0625
 20
33.575
  7
STANDARD
 40
1.8
  1
  
 72
5
 11
109.6173638132
 21
33.575
100
AcDbText
  0
TEXT
  5
286
100
AcDbEntity
  8
0
100
AcDbText
 62
2
  6
CONTINUOUS
 10
108.0625
 20
29.975
  7
STANDARD
 40
1.8
  1
  
 72
5
 11
109.6173638132
 21
29.975
100
AcDbText
  0
TEXT
  5
287
100
AcDbEntity
  8
0
100
AcDbText
 62
7
  6
CONTINUOUS
 10
92.0625
 20
37.35
  7
STANDARD
 40
2.5
  1
Part name:
 72
5
 11
108.2784533074
 21
37.35
100
AcDbText
  0
TEXT
  5
288
100
AcDbEntity
  8
0
100
AcDbText
 62
7
  6
CONTINUOUS
 10
92.0625
 20
33.55
  7
STANDARD
 40
1.7
  1
Part description:
 72
5
 11
108.8177529183
 21
33.55
100
AcDbText
  0
TEXT
  5
289
100
AcDbEntity
  8
0
100
AcDbText
 62
7
  6
CONTINUOUS
 10
92.0625
 20
30.15
  7
STANDARD
 40
1.7
  1
 
 72
5
 11
92.7967412451
 21
30.15
100
AcDbText
  0
TEXT
  5
28A
100
AcDbEntity
  8
0
100
AcDbText
 62
7
  6
CONTINUOUS
 10
60.593385214
 20
27.75
  7
STANDARD
 40
2.5
  1
Drawing properties
 72
5
 11
89.406614786
 21
27.75
100
AcDbText
  0
TEXT
  5
28B
100
AcDbEntity
  8
0
100
AcDbText
 62
7
  6
CONTINUOUS
 10
61.8287937743
 20
39.0
  7
STANDARD
 40
2.0
  1
All dimensions are in 
 72
5
 11
88.1712062257
 21
39.0
100
AcDbText
  0
TEXT
  5
28C
100
AcDbEntity
  8
0
100
AcDbText
 62
7
  6
CONTINUOUS
 10
62.1050583658
 20
36.0
  7
STANDARD
 40
2.0
  1
mm unless otherwise 
 72
5
 11
87.8949416342
 21
36.0
100
AcDbText
  0
TEXT
  5
28D
100
AcDbEntity
  8
0
100
AcDbText
 62
7
  6
CONTINUOUS
 10
69.7470817121
 20
33.0
  7
STANDARD
 40
2.0
  1
specified
 72
5
 11
80.2529182879
 21
33.0
100
AcDbText
  0
ENDBLK
  5
28E
100
AcDbEntity
  8
0
  6
BYBLOCK
 62
0
100
AcDbBlockEnd
  0
ENDSEC
  0
SECTION
  2
ENTITIES
  0
INSERT
  5
28F
100
AcDbEntity
  8
0
100
AcDbBlockReference
 62
7
  6
CONTINUOUS
  2
SYMBOL_2_BL0
 10
200.6298462176
 20
16.2178244018
  0
DIMENSION
  5
290
100
AcDbEntity
  8
0
100
AcDbDimension
 62
2
  6
CONTINUOUS
  2
*D0
 10
13.8317445234
 20
166.679448082
 11
13.8317445234
 21
110.179448082
 70
160
 71
2
 42
113.0
  3
DIMSTYLE_1
100
AcDbAlignedDimension
 13
30.5376239254
 23
53.679448082
 14
141.5310210261
 24
166.679448082
 50
90.0
100
AcDbRotatedDimension
  0
DIMENSION
  5
291
100
AcDbEntity
  8
0
100
AcDbDimension
 62
2
  6
CONTINUOUS
  2
*D1
 10
30.5376239254
 20
179.0697244785
 11
96.0376239254
 21
179.0697244785
 70
160
 71
2
 42
131.0
  3
DIMSTYLE_1
100
AcDbAlignedDimension
 13
161.5376239254
 23
166.679448082
 14
30.5376239254
 24
68.679448082
 50
180.0
100
AcDbRotatedDimension
  0
DIMENSION
  5
292
100
AcDbEntity
  8
0
100
AcDbDimension
 62
2
  6
CONTINUOUS
  2
*D2
 10
39.3942295239
 20
43.4120557509
 11
104.8942295239
 21
99.9120557509
 70
160
 71
2
 42
173.0028901493
  3
DIMSTYLE_2
100
AcDbAlignedDimension
 13
161.5376239254
 23
166.679448082
 14
30.5376239254
 24
53.679448082
 50
220.7809046508
100
AcDbRotatedDimension
  0
ACAD_TABLE
  5
293
100
AcDbEntity
  8
0
 62
2
  6
CONTINUOUS
100
AcDbBlockReference
  2
*T1
 10
117.9999793246
 20
4.9999996476
 30
0.0
100
AcDbTable
342
       488
343
214
 11
1.0
 21
0.0
 31
0.0
 90
6
 91
5
 92
10
 93
4
 94
0
 95
0
 96
0
 70
1
141
6.5
141
12.0
141
9.0
141
4.0
141
11.0
142
10.0
142
49.0
142
17.0
142
15.0
142
16.0
142
15.0
142
18.0
142
15.0
142
10.0
142
9.0
171
1
172
0
173
0
174
0
175
6
176
1
 91
33
178
0
145
0.0
301
CELL_VALUE
 90
4
  1
All information in this document is Orac's exclusive property.  It may in no case be reproduced, even partly,\Pbe communicated to a third party or used for any possible purpose without ORAC's express written permission. 
304
ACVALUE_END
170
5
140
1.8
171
1
172
0
173
1
174
0
175
1
176
1
 91
1
178
0
145
0.0
170
1
171
1
172
0
173
1
174
0
175
1
176
1
 91
1
178
0
145
0.0
170
1
171
1
172
0
173
1
174
0
175
1
176
1
 91
1
178
0
145
0.0
170
1
171
1
172
0
173
1
174
0
175
1
176
1
 91
1
178
0
145
0.0
170
1
171
1
172
0
173
1
174
0
175
1
176
1
 91
1
178
0
145
0.0
170
5
171
1
172
0
173
0
174
0
175
1
176
1
 91
33
178
0
145
0.0
301
CELL_VALUE
 90
4
  1
Rev:   
304
ACVALUE_END
170
4
140
2.5
171
1
172
0
173
0
174
0
175
1
176
2
 91
41
178
0
145
0.0
301
CELL_VALUE
 90
4
  1
 \P \P \PPainted Surface :
304
ACVALUE_END
170
1
140
2.25
 64
7
171
1
172
0
173
0
174
0
175
1
176
2
 91
41
178
0
145
0.0
301
CELL_VALUE
 90
4
  1
 \P \P \P \P20,7
304
ACVALUE_END
170
3
140
2.25
 64
7
171
1
172
0
173
0
174
0
175
1
176
2
 91
41
178
0
145
0.0
301
CELL_VALUE
 90
4
  1
  \P \P \P \Pdm²/m
304
ACVALUE_END
170
1
140
1.8
 64
7
171
1
172
0
173
0
174
0
175
1
176
4
 91
41
178
0
145
0.0
301
CELL_VALUE
 90
4
  1
{\Fgdt;u}\Fcgtime.ttf;ROHS\Fgdt;{\Fgdt;u}\P\Fcgtime.ttf;Parts must be compliant to rohs regulations. If\Pany notification on drawing is in contradictin with\PROHS regulations, contact Orac before delivery! 
304
ACVALUE_END
170
5
140
1.1
 64
7
171
1
172
0
173
0
174
0
175
1
176
4
 91
41
178
0
145
0.0
301
CELL_VALUE
 90
4
  1
Orac\P\H2.7; \PBiekorfstraat 32\P8400 Oostende - Belgium\PTel  +32 (0)59 80 32 52\PFax  +32 (0)59 80 28 10\Pwww.oracdecor.com
304
ACVALUE_END
170
5
140
5.0
 64
7
171
1
172
0
173
0
174
0
175
1
176
2
 91
41
178
0
145
0.0
301
CELL_VALUE
 90
4
  1
Drawn with:\PPage size:\PPage scale:\PSheet nr:\PProjection:
304
ACVALUE_END
170
3
140
2.0
 64
7
171
1
172
0
173
0
174
0
175
1
176
2
 91
41
178
0
145
0.0
301
CELL_VALUE
 90
4
  1
Creo 2.0\PA4\P1:1\P1 / 1
304
ACVALUE_END
170
1
140
2.0
 64
7
171
1
172
0
173
0
174
0
175
1
176
1
 91
41
178
0
145
0.0
301
CELL_VALUE
 90
4
  1
Drawn by:\PDrawn on:
304
ACVALUE_END
170
4
140
2.25
 64
7
171
1
172
0
173
0
174
0
175
2
176
1
 91
33
178
0
145
0.0
301
CELL_VALUE
 90
4
  1
Anton Smolko\P15-Jul-2014
304
ACVALUE_END
170
4
140
2.25
171
1
172
0
173
1
174
0
175
1
176
1
 91
1
178
0
145
0.0
170
4
171
1
172
0
173
1
174
0
175
1
176
1
 91
1
178
0
145
0.0
170
1
171
1
172
0
173
1
174
0
175
1
176
1
 91
1
178
0
145
0.0
170
1
171
1
172
0
173
1
174
0
175
1
176
1
 91
1
178
0
145
0.0
170
1
171
1
172
0
173
1
174
0
175
1
176
1
 91
1
178
0
145
0.0
170
1
171
1
172
0
173
1
174
0
175
1
176
1
 91
1
178
0
145
0.0
170
1
171
1
172
0
173
1
174
0
175
1
176
1
 91
1
178
0
145
0.0
170
1
171
1
172
0
173
1
174
0
175
1
176
1
 91
1
178
0
145
0.0
170
1
171
1
172
0
173
0
174
0
175
1
176
1
 91
41
178
0
145
0.0
301
CELL_VALUE
 90
4
  1
Material:\PRemarks:
304
ACVALUE_END
170
4
140
2.5
 64
7
171
1
172
0
173
0
174
0
175
5
176
1
 91
33
178
0
145
0.0
301
CELL_VALUE
 90
4
  1
PUROTOUCH \P 
304
ACVALUE_END
170
4
140
2.25
171
1
172
0
173
1
174
0
175
1
176
1
 91
1
178
0
145
0.0
170
1
171
1
172
0
173
1
174
0
175
1
176
1
 91
1
178
0
145
0.0
170
1
171
1
172
0
173
1
174
0
175
1
176
1
 91
1
178
0
145
0.0
170
1
171
1
172
0
173
1
174
0
175
1
176
1
 91
1
178
0
145
0.0
170
4
171
1
172
0
173
1
174
0
175
1
176
1
 91
1
178
0
145
0.0
170
1
171
1
172
0
173
1
174
0
175
1
176
1
 91
1
178
0
145
0.0
170
1
171
1
172
0
173
0
174
0
175
2
176
1
 91
33
178
0
145
0.0
301
CELL_VALUE
 90
4
  1
Drawing properties
304
ACVALUE_END
170
2
140
2.5
171
1
172
0
173
1
174
0
175
1
176
1
 91
1
178
0
145
0.0
170
2
171
1
172
0
173
0
174
0
175
1
176
2
 91
41
178
0
145
0.0
301
CELL_VALUE
 90
4
  1
Part name:\P\H1.7;Part description:\P 
304
ACVALUE_END
170
4
140
2.5
 64
7
171
1
172
0
173
0
174
0
175
5
176
2
 91
33
178
0
145
0.0
301
CELL_VALUE
 90
4
  1
  \H2.5;C216-PROD-MM\P\H1.8;  \P  
304
ACVALUE_END
170
4
140
1.8
171
1
172
0
173
1
174
0
175
1
176
1
 91
1
178
0
145
0.0
170
1
171
1
172
0
173
1
174
0
175
1
176
1
 91
1
178
0
145
0.0
170
1
171
1
172
0
173
1
174
0
175
1
176
1
 91
1
178
0
145
0.0
170
1
171
1
172
0
173
1
174
0
175
1
176
1
 91
1
178
0
145
0.0
170
4
171
1
172
0
173
1
174
0
175
1
176
1
 91
1
178
0
145
0.0
170
1
171
1
172
0
173
1
174
0
175
1
176
1
 91
1
178
0
145
0.0
170
1
171
1
172
0
173
0
174
0
175
2
176
1
 91
33
178
0
145
0.0
301
CELL_VALUE
 90
4
  1
All dimensions are in \Pmm unless otherwise \Pspecified
304
ACVALUE_END
170
5
140
2.0
171
1
172
0
173
1
174
0
175
1
176
1
 91
1
178
0
145
0.0
170
5
171
1
172
0
173
1
174
0
175
1
176
1
 91
1
178
0
145
0.0
170
1
171
1
172
0
173
1
174
0
175
1
176
1
 91
1
178
0
145
0.0
170
1
171
1
172
0
173
1
174
0
175
1
176
1
 91
1
178
0
145
0.0
170
1
171
1
172
0
173
1
174
0
175
1
176
1
 91
1
178
0
145
0.0
170
1
171
1
172
0
173
1
174
0
175
1
176
1
 91
1
178
0
145
0.0
170
1
171
1
172
0
173
1
174
0
175
1
176
1
 91
1
178
0
145
0.0
170
1
  0
TEXT
  5
294
100
AcDbEntity
  8
0
100
AcDbText
 62
2
  6
CONTINUOUS
 10
119.7752396161
 20
49.4076017277
  7
STANDARD
 40
3.5
  1
Please beware: Product is visualized in this drawing without ornamentation
 72
5
 11
276.621543118
 21
49.4076017277
100
AcDbText
  0
TEXT
  5
295
100
AcDbEntity
  8
0
100
AcDbText
 62
2
  6
CONTINUOUS
 10
216.5345854577
 20
65.8110640977
  7
STANDARD
 40
2.5
  1
SCALE  
 72
5
 11
230.3380874033
 21
65.8110640977
100
AcDbText
  0
TEXT
  5
296
100
AcDbEntity
  8
0
100
AcDbText
 62
2
  6
CONTINUOUS
 10
230.3380874033
 20
65.8110640977
  7
STANDARD
 40
2.5
  1
1:2
 72
5
 11
235.1921730064
 21
65.8110640977
100
AcDbText
  0
TEXT
  5
297
100
AcDbEntity
  8
0
100
AcDbText
 62
2
  6
CONTINUOUS
 10
77.3800363767
 20
48.444448082
  7
STANDARD
 40
2.5
  1
SCALE  
 72
5
 11
91.1835383223
 21
48.444448082
100
AcDbText
  0
TEXT
  5
298
100
AcDbEntity
  8
0
100
AcDbText
 62
2
  6
CONTINUOUS
 10
91.1835383223
 20
48.444448082
  7
STANDARD
 40
2.5
  1
1:1
 72
5
 11
96.0376239254
 21
48.444448082
100
AcDbText
  0
LINE
  5
299
100
AcDbEntity
  8
0
100
AcDbLine
 62
5
  6
CONTINUOUS
 10
0.0
 20
0.0
 11
0.0
 21
210.0
  0
LINE
  5
29A
100
AcDbEntity
  8
0
100
AcDbLine
 62
7
  6
CONTINUOUS
 10
5.0
 20
5.0
 11
5.0
 21
195.0
  0
LINE
  5
29B
100
AcDbEntity
  8
0
100
AcDbLine
 62
5
  6
CONTINUOUS
 10
0.0
 20
0.0
 11
297.0
 21
0.0
  0
LINE
  5
29C
100
AcDbEntity
  8
0
100
AcDbLine
 62
7
  6
CONTINUOUS
 10
5.0
 20
5.0
 11
292.0
 21
5.0
  0
LINE
  5
29D
100
AcDbEntity
  8
0
100
AcDbLine
 62
4
  6
CONTINUOUS
 10
148.5
 20
195.0
 11
148.5
 21
205.0
  0
LINE
  5
29E
100
AcDbEntity
  8
0
100
AcDbLine
 62
7
  6
CONTINUOUS
 10
5.0
 20
195.0
 11
292.0
 21
195.0
  0
LINE
  5
29F
100
AcDbEntity
  8
0
100
AcDbLine
 62
5
  6
CONTINUOUS
 10
0.0
 20
210.0
 11
297.0
 21
210.0
  0
LINE
  5
2A0
100
AcDbEntity
  8
0
100
AcDbLine
 62
7
  6
CONTINUOUS
 10
292.0
 20
5.0
 11
292.0
 21
195.0
  0
LINE
  5
2A1
100
AcDbEntity
  8
0
100
AcDbLine
 62
5
  6
CONTINUOUS
 10
297.0
 20
0.0
 11
297.0
 21
210.0
  0
LINE
  5
2A2
100
AcDbEntity
  8
0
100
AcDbLine
 62
7
  6
CONTINUOUS
 10
187.2814171073
 20
98.1147504998
 11
187.2489557235
 21
95.5774885314
  0
LINE
  5
2A3
100
AcDbEntity
  8
0
100
AcDbLine
 62
7
  6
CONTINUOUS
 10
187.2223944428
 20
93.5013932032
 11
187.1854885711
 21
90.6167390769
  0
LINE
  5
2A4
100
AcDbEntity
  8
0
100
AcDbLine
 62
7
  6
CONTINUOUS
 10
187.2489557235
 20
95.5774885314
 11
187.7270357291
 21
94.8758769287
  0
LINE
  5
2A5
100
AcDbEntity
  8
0
100
AcDbLine
 62
7
  6
CONTINUOUS
 10
193.4993466198
 20
95.7890266396
 11
193.4673704411
 21
93.2896894986
  0
LINE
  5
2A6
100
AcDbEntity
  8
0
100
AcDbLine
 62
7
  6
CONTINUOUS
 10
187.1854885711
 20
90.6167390769
 11
217.0106951943
 21
71.094909175
  0
LINE
  5
2A7
100
AcDbEntity
  8
0
100
AcDbLine
 62
7
  6
CONTINUOUS
 10
203.8570502045
 20
129.8698730271
 11
214.4430943144
 21
138.7922003673
  0
LINE
  5
2A8
100
AcDbEntity
  8
0
100
AcDbLine
 62
7
  6
CONTINUOUS
 10
221.0085883612
 20
71.0460640977
 11
217.0106951943
 21
71.094909175
  0
LINE
  5
2A9
100
AcDbEntity
  8
0
100
AcDbLine
 62
7
  6
CONTINUOUS
 10
191.1833817381
 20
90.5678939996
 11
221.0085883612
 21
71.0460640977
  0
LINE
  5
2AA
100
AcDbEntity
  8
0
100
AcDbLine
 62
7
  6
CONTINUOUS
 10
193.4673704411
 20
93.2896894986
 11
223.2925770642
 21
73.7678595967
  0
LINE
  5
2AB
100
AcDbEntity
  8
0
100
AcDbLine
 62
7
  6
CONTINUOUS
 10
193.4993466198
 20
95.7890266396
 11
223.3245532429
 21
76.2671967377
  0
LINE
  5
2AC
100
AcDbEntity
  8
0
100
AcDbLine
 62
7
  6
CONTINUOUS
 10
203.5310390703
 20
128.8496253212
 11
203.5168020799
 21
128.9295732079
  0
LINE
  5
2AD
100
AcDbEntity
  8
0
100
AcDbLine
 62
7
  6
CONTINUOUS
 10
195.3253516894
 20
103.3893461485
 11
189.6704367709
 21
98.6317739262
  0
LINE
  5
2AE
100
AcDbEntity
  8
0
100
AcDbLine
 62
7
  6
CONTINUOUS
 10
230.94211241
 20
85.6730933532
 11
230.1925074412
 21
85.6822518052
  0
LINE
  5
2AF
100
AcDbEntity
  8
0
100
AcDbLine
 62
7
  6
CONTINUOUS
 10
200.367300818
 20
105.2040817072
 11
230.1925074412
 21
85.6822518052
  0
LINE
  5
2B0
100
AcDbEntity
  8
0
100
AcDbLine
 62
7
  6
CONTINUOUS
 10
201.1169057868
 20
105.1949232552
 11
230.94211241
 21
85.6730933532
  0
LINE
  5
2B1
100
AcDbEntity
  8
0
100
AcDbLine
 62
7
  6
CONTINUOUS
 10
191.1833817381
 20
90.5678939996
 11
187.1854885711
 21
90.6167390769
  0
LINE
  5
2B2
100
AcDbEntity
  8
0
100
AcDbLine
 62
7
  6
CONTINUOUS
 10
223.3245532429
 20
76.2671967377
 11
223.2925770642
 21
73.7678595967
  0
LINE
  5
2B3
100
AcDbEntity
  8
0
100
AcDbLine
 62
7
  6
CONTINUOUS
 10
188.1945951423
 20
98.1035935604
 11
187.2814171073
 21
98.1147504998
  0
LINE
  5
2B4
100
AcDbEntity
  8
0
100
AcDbLine
 62
7
  6
CONTINUOUS
 10
201.1169057868
 20
105.1949232552
 11
200.367300818
 21
105.2040817072
  0
LINE
  5
2B5
100
AcDbEntity
  8
0
100
AcDbLine
 62
7
  6
CONTINUOUS
 10
240.2973599613
 20
139.9623902557
 11
240.2781742541
 21
138.4627879712
  0
LINE
  5
2B6
100
AcDbEntity
  8
0
100
AcDbLine
 62
7
  6
CONTINUOUS
 10
279.6175628559
 20
120.3245532951
 11
277.6967562854
 21
120.3480211422
  0
LINE
  5
2B7
100
AcDbEntity
  8
0
100
AcDbLine
 62
7
  6
CONTINUOUS
 10
272.1604474192
 20
120.415662128
 11
270.1225665844
 21
120.4405603538
  0
LINE
  5
2B8
100
AcDbEntity
  8
0
100
AcDbLine
 62
7
  6
CONTINUOUS
 10
253.3736508185
 20
146.3019203208
 11
253.3224889325
 21
142.3029808953
  0
LINE
  5
2B9
100
AcDbEntity
  8
0
100
AcDbLine
 62
7
  6
CONTINUOUS
 10
215.4271632477
 20
138.9680861761
 11
215.4944823311
 21
138.9437484227
  0
LINE
  5
2BA
100
AcDbEntity
  8
0
100
AcDbLine
 62
7
  6
CONTINUOUS
 10
240.2781742541
 20
138.4627879712
 11
270.1033808772
 21
118.9409580692
  0
LINE
  5
2BB
100
AcDbEntity
  8
0
100
AcDbLine
 62
7
  6
CONTINUOUS
 10
240.2973599613
 20
139.9623902557
 11
270.1225665844
 21
120.4405603538
  0
LINE
  5
2BC
100
AcDbEntity
  8
0
100
AcDbLine
 62
7
  6
CONTINUOUS
 10
249.7923562328
 20
139.846383197
 11
247.871542843
 21
139.8698511274
  0
LINE
  5
2BD
100
AcDbEntity
  8
0
100
AcDbLine
 62
7
  6
CONTINUOUS
 10
242.5979732019
 20
139.934282043
 11
240.2973599613
 21
139.9623902557
  0
LINE
  5
2BE
100
AcDbEntity
  8
0
100
AcDbLine
 62
7
  6
CONTINUOUS
 10
270.1225665844
 20
120.4405603538
 11
270.1033808772
 21
118.9409580692
  0
LINE
  5
2BF
100
AcDbEntity
  8
0
100
AcDbLine
 62
7
  6
CONTINUOUS
 10
249.7923562328
 20
139.846383197
 11
279.6175628559
 21
120.3245532951
  0
LINE
  5
2C0
100
AcDbEntity
  8
0
100
AcDbLine
 62
7
  6
CONTINUOUS
 10
247.7924595717
 20
145.9307175108
 11
247.2746518585
 21
146.3764360879
  0
LINE
  5
2C1
100
AcDbEntity
  8
0
100
AcDbLine
 62
7
  6
CONTINUOUS
 10
253.3736508185
 20
146.3019203208
 11
249.2404098012
 21
146.3524190382
  0
LINE
  5
2C2
100
AcDbEntity
  8
0
100
AcDbLine
 62
7
  6
CONTINUOUS
 10
247.2746518585
 20
146.3764360879
 11
243.3756181904
 21
146.4240733291
  0
LINE
  5
2C3
100
AcDbEntity
  8
0
100
AcDbLine
 62
7
  6
CONTINUOUS
 10
253.3224889325
 20
142.3029808953
 11
283.1476955557
 21
122.7811509934
  0
LINE
  5
2C4
100
AcDbEntity
  8
0
100
AcDbLine
 62
7
  6
CONTINUOUS
 10
247.7924595717
 20
145.9307175108
 11
247.9887799349
 21
145.8022177225
  0
LINE
  5
2C5
100
AcDbEntity
  8
0
100
AcDbLine
 62
7
  6
CONTINUOUS
 10
247.2746518585
 20
146.3764360879
 11
248.2793173785
 21
145.7188409993
  0
LINE
  5
2C6
100
AcDbEntity
  8
0
100
AcDbLine
 62
7
  6
CONTINUOUS
 10
253.3736508185
 20
146.3019203208
 11
283.1988574416
 21
126.7800904189
  0
LINE
  5
2C7
100
AcDbEntity
  8
0
100
AcDbLine
 62
7
  6
CONTINUOUS
 10
283.1988574416
 20
126.7800904189
 11
283.1476955557
 21
122.7811509934
  0
LINE
  5
2C8
100
AcDbEntity
  8
0
100
AcDbLine
 62
7
  6
CONTINUOUS
 10
30.5376239254
 20
63.6035783108
 11
31.5120976051
 21
62.2118856674
  0
LINE
  5
2C9
100
AcDbEntity
  8
0
100
AcDbLine
 62
7
  6
CONTINUOUS
 10
30.5376239254
 20
68.679448082
 11
30.5376239254
 21
63.6035783108
  0
LINE
  5
2CA
100
AcDbEntity
  8
0
100
AcDbLine
 62
7
  6
CONTINUOUS
 10
30.5376239254
 20
59.4502864354
 11
30.5376239254
 21
53.679448082
  0
LINE
  5
2CB
100
AcDbEntity
  8
0
100
AcDbLine
 62
7
  6
CONTINUOUS
 10
43.0376239254
 20
64.179448082
 11
43.0376239254
 21
59.179448082
  0
LINE
  5
2CC
100
AcDbEntity
  8
0
100
AcDbLine
 62
7
  6
CONTINUOUS
 10
38.5376239254
 20
53.679448082
 11
30.5376239254
 21
53.679448082
  0
LINE
  5
2CD
100
AcDbEntity
  8
0
100
AcDbLine
 62
7
  6
CONTINUOUS
 10
32.3649424592
 20
68.679448082
 11
30.5376239254
 21
68.679448082
  0
LINE
  5
2CE
100
AcDbEntity
  8
0
100
AcDbLine
 62
7
  6
CONTINUOUS
 10
62.8883339586
 20
132.6016849435
 11
83.8398822063
 21
150.7069851274
  0
LINE
  5
2CF
100
AcDbEntity
  8
0
100
AcDbLine
 62
7
  6
CONTINUOUS
 10
62.2621855356
 20
130.553000269
 11
62.2316545589
 21
130.712565528
  0
LINE
  5
2D0
100
AcDbEntity
  8
0
100
AcDbLine
 62
7
  6
CONTINUOUS
 10
58.0376239254
 20
83.179448082
 11
56.5376239254
 21
83.179448082
  0
LINE
  5
2D1
100
AcDbEntity
  8
0
100
AcDbLine
 62
7
  6
CONTINUOUS
 10
46.4964405797
 20
79.4263662648
 11
35.3041997142
 21
69.7719905564
  0
LINE
  5
2D2
100
AcDbEntity
  8
0
100
AcDbLine
 62
7
  6
CONTINUOUS
 10
85.8042473108
 20
151.0828437929
 11
85.9395583552
 21
151.0358081345
  0
LINE
  5
2D3
100
AcDbEntity
  8
0
100
AcDbLine
 62
7
  6
CONTINUOUS
 10
135.5376239254
 20
153.679448082
 11
135.5376239254
 21
150.679448082
  0
LINE
  5
2D4
100
AcDbEntity
  8
0
100
AcDbLine
 62
7
  6
CONTINUOUS
 10
154.5376239254
 20
153.679448082
 11
150.6939726629
 21
153.679448082
  0
LINE
  5
2D5
100
AcDbEntity
  8
0
100
AcDbLine
 62
7
  6
CONTINUOUS
 10
140.1412751878
 20
153.679448082
 11
135.5376239254
 21
153.679448082
  0
LINE
  5
2D6
100
AcDbEntity
  8
0
100
AcDbLine
 62
7
  6
CONTINUOUS
 10
161.5376239254
 20
166.679448082
 11
153.2667855719
 21
166.679448082
  0
LINE
  5
2D7
100
AcDbEntity
  8
0
100
AcDbLine
 62
7
  6
CONTINUOUS
 10
149.3331978333
 20
166.679448082
 11
141.5310210261
 21
166.679448082
  0
LINE
  5
2D8
100
AcDbEntity
  8
0
100
AcDbLine
 62
7
  6
CONTINUOUS
 10
161.5376239254
 20
166.679448082
 11
161.5376239254
 21
158.679448082
  0
LINE
  5
2D9
100
AcDbEntity
  8
0
100
AcDbLine
 62
7
  6
CONTINUOUS
 10
150.3806062279
 20
165.8005680844
 11
149.3331978333
 21
166.679448082
  0
ARC
  5
2DA
100
AcDbEntity
  8
0
100
AcDbCircle
 62
7
  6
CONTINUOUS
 10
193.8760507106
 20
105.112022185
 40
2.251241003
100
AcDbArc
 50
310.0741673186
 51
358.14673656
  0
ARC
  5
2DB
100
AcDbEntity
  8
0
100
AcDbCircle
 62
7
  6
CONTINUOUS
 10
188.2219032174
 20
100.3532779269
 40
2.2498501017
100
AcDbArc
 50
269.3045421689
 51
310.0784275784
  0
ARC
  5
2DC
100
AcDbEntity
  8
0
100
AcDbCircle
 62
7
  6
CONTINUOUS
 10
186.9828997938
 20
94.3692247079
 40
0.9002586116
100
AcDbArc
 50
285.4278580552
 51
34.2493737849
  0
ARC
  5
2DD
100
AcDbEntity
  8
0
100
AcDbCircle
 62
7
  6
CONTINUOUS
 10
204.5017812862
 20
129.1048608433
 40
1.0004585358
100
AcDbArc
 50
130.1232615416
 51
190.0907598581
  0
ARC
  5
2DE
100
AcDbEntity
  8
0
100
AcDbCircle
 62
7
  6
CONTINUOUS
 10
202.5461558186
 20
128.6743172452
 40
1.0003639044
100
AcDbArc
 50
324.5341116687
 51
10.0928753927
  0
ARC
  5
2DF
100
AcDbEntity
  8
0
100
AcDbCircle
 62
7
  6
CONTINUOUS
 10
215.0874570293
 20
138.0279533861
 40
0.9996316159
100
AcDbArc
 50
70.1332584911
 51
130.1353809691
  0
ARC
  5
2E0
100
AcDbEntity
  8
0
100
AcDbCircle
 62
7
  6
CONTINUOUS
 10
215.834193245
 20
139.8836675969
 40
0.9994256145
100
AcDbArc
 50
250.128843611
 51
296.7018477126
  0
ARC
  5
2E1
100
AcDbEntity
  8
DTM_AXIS
100
AcDbCircle
 62
7
  6
CONTINUOUS
 10
256.8239655015
 20
134.6344202169
 40
3.4994337109
100
AcDbArc
 50
234.5359073691
 51
318.1755127289
  0
ARC
  5
2E2
100
AcDbEntity
  8
DTM_AXIS
100
AcDbCircle
 62
7
  6
CONTINUOUS
 10
257.0551705032
 20
134.4830869915
 40
3.4994337109
100
AcDbArc
 50
234.5359073691
 51
318.1755127289
  0
ARC
  5
2E3
100
AcDbEntity
  8
DTM_AXIS
100
AcDbCircle
 62
7
  6
CONTINUOUS
 10
257.2863755049
 20
134.3317537661
 40
3.4994337109
100
AcDbArc
 50
234.5359073691
 51
318.1755127289
  0
ARC
  5
2E4
100
AcDbEntity
  8
DTM_AXIS
100
AcDbCircle
 62
7
  6
CONTINUOUS
 10
257.5175805067
 20
134.1804205408
 40
3.499433711
100
AcDbArc
 50
234.5359073691
 51
318.1755127289
  0
ARC
  5
2E5
100
AcDbEntity
  8
DTM_AXIS
100
AcDbCircle
 62
7
  6
CONTINUOUS
 10
257.7487855084
 20
134.0290873153
 40
3.4994337109
100
AcDbArc
 50
234.5359073691
 51
318.1755127289
  0
ARC
  5
2E6
100
AcDbEntity
  8
DTM_AXIS
100
AcDbCircle
 62
7
  6
CONTINUOUS
 10
257.9799905102
 20
133.8777540899
 40
3.4994337109
100
AcDbArc
 50
234.5359073691
 51
318.1755127289
  0
ARC
  5
2E7
100
AcDbEntity
  8
DTM_AXIS
100
AcDbCircle
 62
7
  6
CONTINUOUS
 10
247.5757654317
 20
140.6877492329
 40
3.4994337109
100
AcDbArc
 50
234.5359073691
 51
318.1755127289
  0
ARC
  5
2E8
100
AcDbEntity
  8
DTM_AXIS
100
AcDbCircle
 62
7
  6
CONTINUOUS
 10
247.8069704335
 20
140.5364160075
 40
3.4994337109
100
AcDbArc
 50
234.5359073691
 51
318.1755127289
  0
ARC
  5
2E9
100
AcDbEntity
  8
DTM_AXIS
100
AcDbCircle
 62
7
  6
CONTINUOUS
 10
248.0381754352
 20
140.385082782
 40
3.4994337108
100
AcDbArc
 50
234.535907369
 51
318.1755127289
  0
ARC
  5
2EA
100
AcDbEntity
  8
DTM_AXIS
100
AcDbCircle
 62
7
  6
CONTINUOUS
 10
248.269380437
 20
140.2337495568
 40
3.499433711
100
AcDbArc
 50
234.5359073691
 51
318.1755127289
  0
ARC
  5
2EB
100
AcDbEntity
  8
DTM_AXIS
100
AcDbCircle
 62
7
  6
CONTINUOUS
 10
248.5005854387
 20
140.0824163313
 40
3.4994337109
100
AcDbArc
 50
234.5359073691
 51
318.1755127289
  0
ARC
  5
2EC
100
AcDbEntity
  8
DTM_AXIS
100
AcDbCircle
 62
7
  6
CONTINUOUS
 10
248.7317904405
 20
139.9310831059
 40
3.4994337109
100
AcDbArc
 50
234.5359073691
 51
318.1755127289
  0
ARC
  5
2ED
100
AcDbEntity
  8
DTM_AXIS
100
AcDbCircle
 62
7
  6
CONTINUOUS
 10
245.7261254178
 20
141.8984150361
 40
3.499433711
100
AcDbArc
 50
234.5359073691
 51
318.1755127289
  0
ARC
  5
2EE
100
AcDbEntity
  8
DTM_AXIS
100
AcDbCircle
 62
7
  6
CONTINUOUS
 10
245.9573304195
 20
141.7470818107
 40
3.4994337109
100
AcDbArc
 50
234.535907369
 51
318.1755127289
  0
ARC
  5
2EF
100
AcDbEntity
  8
DTM_AXIS
100
AcDbCircle
 62
7
  6
CONTINUOUS
 10
246.1885354213
 20
141.5957485853
 40
3.4994337109
100
AcDbArc
 50
234.5359073691
 51
318.1755127289
  0
ARC
  5
2F0
100
AcDbEntity
  8
DTM_AXIS
100
AcDbCircle
 62
7
  6
CONTINUOUS
 10
246.4197404231
 20
141.4444153599
 40
3.4994337109
100
AcDbArc
 50
234.5359073691
 51
318.1755127289
  0
ARC
  5
2F1
100
AcDbEntity
  8
DTM_AXIS
100
AcDbCircle
 62
7
  6
CONTINUOUS
 10
246.6509454248
 20
141.2930821345
 40
3.4994337109
100
AcDbArc
 50
234.5359073691
 51
318.1755127289
  0
ARC
  5
2F2
100
AcDbEntity
  8
DTM_AXIS
100
AcDbCircle
 62
7
  6
CONTINUOUS
 10
246.8821504265
 20
141.1417489091
 40
3.499433711
100
AcDbArc
 50
234.5359073691
 51
318.1755127289
  0
ARC
  5
2F3
100
AcDbEntity
  8
DTM_AXIS
100
AcDbCircle
 62
7
  6
CONTINUOUS
 10
247.1133554283
 20
140.9904156837
 40
3.4994337109
100
AcDbArc
 50
234.5359073691
 51
318.1755127289
  0
ARC
  5
2F4
100
AcDbEntity
  8
DTM_AXIS
100
AcDbCircle
 62
7
  6
CONTINUOUS
 10
247.34456043
 20
140.8390824583
 40
3.4994337109
100
AcDbArc
 50
234.5359073691
 51
318.1755127289
  0
ARC
  5
2F5
100
AcDbEntity
  8
DTM_AXIS
100
AcDbCircle
 62
7
  6
CONTINUOUS
 10
245.4944674043
 20
142.0490753845
 40
3.4986226176
100
AcDbArc
 50
234.9656922904
 51
318.1755127289
  0
ARC
  5
2F6
100
AcDbEntity
  8
0
100
AcDbCircle
 62
7
  6
CONTINUOUS
 10
245.262466482
 20
142.2007825917
 40
3.498593677
100
AcDbArc
 50
239.5354291211
 51
318.2226102731
  0
ARC
  5
2F7
100
AcDbEntity
  8
0
100
AcDbCircle
 62
7
  6
CONTINUOUS
 10
245.261816063
 20
142.1978428584
 40
3.4956782395
100
AcDbArc
 50
220.3557244558
 51
239.5201886654
  0
ARC
  5
2F8
100
AcDbEntity
  8
0
100
AcDbCircle
 62
7
  6
CONTINUOUS
 10
241.1297389158
 20
146.5746052384
 40
2.2509074552
100
AcDbArc
 50
272.8707670079
 51
356.1654384999
  0
ARC
  5
2F9
100
AcDbEntity
  8
0
100
AcDbCircle
 62
7
  6
CONTINUOUS
 10
248.3790494073
 20
146.6130249346
 40
0.8998912277
100
AcDbArc
 50
229.2836231639
 51
343.1667296504
  0
ARC
  5
2FA
100
AcDbEntity
  8
DTM_AXIS
100
AcDbCircle
 62
7
  6
CONTINUOUS
 10
248.9629954422
 20
139.7797498806
 40
3.499433711
100
AcDbArc
 50
234.5359073691
 51
318.1755127289
  0
ARC
  5
2FB
100
AcDbEntity
  8
DTM_AXIS
100
AcDbCircle
 62
7
  6
CONTINUOUS
 10
249.194200444
 20
139.6284166551
 40
3.499433711
100
AcDbArc
 50
234.5359073691
 51
318.1755127289
  0
ARC
  5
2FC
100
AcDbEntity
  8
DTM_AXIS
100
AcDbCircle
 62
7
  6
CONTINUOUS
 10
249.4254054457
 20
139.4770834297
 40
3.4994337109
100
AcDbArc
 50
234.5359073691
 51
318.1755127289
  0
ARC
  5
2FD
100
AcDbEntity
  8
DTM_AXIS
100
AcDbCircle
 62
7
  6
CONTINUOUS
 10
249.6566104474
 20
139.3257502043
 40
3.4994337109
100
AcDbArc
 50
234.5359073691
 51
318.1755127289
  0
ARC
  5
2FE
100
AcDbEntity
  8
DTM_AXIS
100
AcDbCircle
 62
7
  6
CONTINUOUS
 10
249.8878154491
 20
139.1744169788
 40
3.4994337108
100
AcDbArc
 50
234.535907369
 51
318.1755127289
  0
ARC
  5
2FF
100
AcDbEntity
  8
DTM_AXIS
100
AcDbCircle
 62
7
  6
CONTINUOUS
 10
250.1190204509
 20
139.0230837535
 40
3.4994337109
100
AcDbArc
 50
234.5359073691
 51
318.1755127289
  0
ARC
  5
300
100
AcDbEntity
  8
DTM_AXIS
100
AcDbCircle
 62
7
  6
CONTINUOUS
 10
250.3502254526
 20
138.8717505281
 40
3.4994337109
100
AcDbArc
 50
234.5359073691
 51
318.1755127289
  0
ARC
  5
301
100
AcDbEntity
  8
DTM_AXIS
100
AcDbCircle
 62
7
  6
CONTINUOUS
 10
250.5814304544
 20
138.7204173027
 40
3.4994337109
100
AcDbArc
 50
234.5359073691
 51
318.1755127289
  0
ARC
  5
302
100
AcDbEntity
  8
DTM_AXIS
100
AcDbCircle
 62
7
  6
CONTINUOUS
 10
250.8126354561
 20
138.5690840772
 40
3.4994337108
100
AcDbArc
 50
234.535907369
 51
318.1755127289
  0
ARC
  5
303
100
AcDbEntity
  8
DTM_AXIS
100
AcDbCircle
 62
7
  6
CONTINUOUS
 10
251.0438404579
 20
138.4177508519
 40
3.4994337109
100
AcDbArc
 50
234.5359073691
 51
318.1755127289
  0
ARC
  5
304
100
AcDbEntity
  8
DTM_AXIS
100
AcDbCircle
 62
7
  6
CONTINUOUS
 10
251.2750454597
 20
138.2664176266
 40
3.499433711
100
AcDbArc
 50
234.5359073691
 51
318.1755127289
  0
ARC
  5
305
100
AcDbEntity
  8
DTM_AXIS
100
AcDbCircle
 62
7
  6
CONTINUOUS
 10
251.5062504613
 20
138.1150844011
 40
3.4994337109
100
AcDbArc
 50
234.5359073691
 51
318.1755127289
  0
ARC
  5
306
100
AcDbEntity
  8
DTM_AXIS
100
AcDbCircle
 62
7
  6
CONTINUOUS
 10
251.7374554631
 20
137.9637511757
 40
3.4994337109
100
AcDbArc
 50
234.5359073691
 51
318.1755127289
  0
ARC
  5
307
100
AcDbEntity
  8
DTM_AXIS
100
AcDbCircle
 62
7
  6
CONTINUOUS
 10
251.9686604648
 20
137.8124179503
 40
3.4994337109
100
AcDbArc
 50
234.5359073691
 51
318.1755127289
  0
ARC
  5
308
100
AcDbEntity
  8
DTM_AXIS
100
AcDbCircle
 62
7
  6
CONTINUOUS
 10
252.1998654666
 20
137.6610847249
 40
3.4994337109
100
AcDbArc
 50
234.5359073691
 51
318.1755127289
  0
ARC
  5
309
100
AcDbEntity
  8
DTM_AXIS
100
AcDbCircle
 62
7
  6
CONTINUOUS
 10
252.4310704683
 20
137.5097514995
 40
3.4994337109
100
AcDbArc
 50
234.5359073691
 51
318.1755127289
  0
ARC
  5
30A
100
AcDbEntity
  8
DTM_AXIS
100
AcDbCircle
 62
7
  6
CONTINUOUS
 10
252.6622754701
 20
137.3584182741
 40
3.4994337109
100
AcDbArc
 50
234.5359073691
 51
318.1755127289
  0
ARC
  5
30B
100
AcDbEntity
  8
DTM_AXIS
100
AcDbCircle
 62
7
  6
CONTINUOUS
 10
252.8934804719
 20
137.2070850488
 40
3.499433711
100
AcDbArc
 50
234.5359073691
 51
318.1755127289
  0
ARC
  5
30C
100
AcDbEntity
  8
DTM_AXIS
100
AcDbCircle
 62
7
  6
CONTINUOUS
 10
253.1246854735
 20
137.0557518232
 40
3.4994337108
100
AcDbArc
 50
234.535907369
 51
318.1755127289
  0
ARC
  5
30D
100
AcDbEntity
  8
DTM_AXIS
100
AcDbCircle
 62
7
  6
CONTINUOUS
 10
253.3558904753
 20
136.9044185979
 40
3.4994337109
100
AcDbArc
 50
234.5359073691
 51
318.1755127289
  0
ARC
  5
30E
100
AcDbEntity
  8
DTM_AXIS
100
AcDbCircle
 62
7
  6
CONTINUOUS
 10
253.5870954771
 20
136.7530853726
 40
3.499433711
100
AcDbArc
 50
234.5359073691
 51
318.1755127289
  0
ARC
  5
30F
100
AcDbEntity
  8
DTM_AXIS
100
AcDbCircle
 62
7
  6
CONTINUOUS
 10
253.8183004788
 20
136.6017521472
 40
3.499433711
100
AcDbArc
 50
234.5359073691
 51
318.1755127289
  0
ARC
  5
310
100
AcDbEntity
  8
DTM_AXIS
100
AcDbCircle
 62
7
  6
CONTINUOUS
 10
254.0495054805
 20
136.4504189217
 40
3.4994337109
100
AcDbArc
 50
234.5359073691
 51
318.1755127289
  0
ARC
  5
311
100
AcDbEntity
  8
DTM_AXIS
100
AcDbCircle
 62
7
  6
CONTINUOUS
 10
254.2807104823
 20
136.2990856964
 40
3.499433711
100
AcDbArc
 50
234.5359073691
 51
318.1755127289
  0
ARC
  5
312
100
AcDbEntity
  8
DTM_AXIS
100
AcDbCircle
 62
7
  6
CONTINUOUS
 10
254.511915484
 20
136.1477524708
 40
3.4994337108
100
AcDbArc
 50
234.535907369
 51
318.1755127289
  0
ARC
  5
313
100
AcDbEntity
  8
DTM_AXIS
100
AcDbCircle
 62
7
  6
CONTINUOUS
 10
254.7431204858
 20
135.9964192455
 40
3.4994337109
100
AcDbArc
 50
234.5359073691
 51
318.1755127289
  0
ARC
  5
314
100
AcDbEntity
  8
DTM_AXIS
100
AcDbCircle
 62
7
  6
CONTINUOUS
 10
254.9743254876
 20
135.8450860202
 40
3.499433711
100
AcDbArc
 50
234.5359073691
 51
318.1755127289
  0
ARC
  5
315
100
AcDbEntity
  8
DTM_AXIS
100
AcDbCircle
 62
7
  6
CONTINUOUS
 10
255.2055304893
 20
135.6937527948
 40
3.499433711
100
AcDbArc
 50
234.5359073691
 51
318.1755127289
  0
ARC
  5
316
100
AcDbEntity
  8
DTM_AXIS
100
AcDbCircle
 62
7
  6
CONTINUOUS
 10
255.4367354909
 20
135.5424195692
 40
3.4994337108
100
AcDbArc
 50
234.535907369
 51
318.1755127289
  0
ARC
  5
317
100
AcDbEntity
  8
DTM_AXIS
100
AcDbCircle
 62
7
  6
CONTINUOUS
 10
255.6679404927
 20
135.3910863439
 40
3.4994337109
100
AcDbArc
 50
234.5359073691
 51
318.1755127289
  0
ARC
  5
318
100
AcDbEntity
  8
DTM_AXIS
100
AcDbCircle
 62
7
  6
CONTINUOUS
 10
255.8991454945
 20
135.2397531185
 40
3.499433711
100
AcDbArc
 50
234.5359073691
 51
318.1755127289
  0
ARC
  5
319
100
AcDbEntity
  8
DTM_AXIS
100
AcDbCircle
 62
7
  6
CONTINUOUS
 10
256.1303504962
 20
135.0884198931
 40
3.4994337109
100
AcDbArc
 50
234.5359073691
 51
318.1755127289
  0
ARC
  5
31A
100
AcDbEntity
  8
DTM_AXIS
100
AcDbCircle
 62
7
  6
CONTINUOUS
 10
256.3615554979
 20
134.9370866677
 40
3.4994337109
100
AcDbArc
 50
234.5359073691
 51
318.1755127289
  0
ARC
  5
31B
100
AcDbEntity
  8
DTM_AXIS
100
AcDbCircle
 62
7
  6
CONTINUOUS
 10
256.5927604998
 20
134.7857534424
 40
3.499433711
100
AcDbArc
 50
234.5359073691
 51
318.1755127289
  0
ARC
  5
31C
100
AcDbEntity
  8
DTM_AXIS
100
AcDbCircle
 62
7
  6
CONTINUOUS
 10
262.3728855433
 20
131.0024228074
 40
3.499433711
100
AcDbArc
 50
234.5359073691
 51
236.793040248
  0
ARC
  5
31D
100
AcDbEntity
  8
DTM_AXIS
100
AcDbCircle
 62
7
  6
CONTINUOUS
 10
260.0608355259
 20
132.5157550614
 40
3.499433711
100
AcDbArc
 50
234.5359073691
 51
318.1755127289
  0
ARC
  5
31E
100
AcDbEntity
  8
DTM_AXIS
100
AcDbCircle
 62
7
  6
CONTINUOUS
 10
258.2111955119
 20
133.7264208646
 40
3.499433711
100
AcDbArc
 50
234.5359073691
 51
318.1755127289
  0
ARC
  5
31F
100
AcDbEntity
  8
DTM_AXIS
100
AcDbCircle
 62
7
  6
CONTINUOUS
 10
258.4424005137
 20
133.5750876392
 40
3.499433711
100
AcDbArc
 50
234.5359073691
 51
318.1755127289
  0
ARC
  5
320
100
AcDbEntity
  8
DTM_AXIS
100
AcDbCircle
 62
7
  6
CONTINUOUS
 10
258.6736055154
 20
133.4237544137
 40
3.4994337109
100
AcDbArc
 50
234.5359073691
 51
318.1755127289
  0
ARC
  5
321
100
AcDbEntity
  8
DTM_AXIS
100
AcDbCircle
 62
7
  6
CONTINUOUS
 10
258.9048105171
 20
133.2724211882
 40
3.4994337108
100
AcDbArc
 50
234.535907369
 51
318.1755127289
  0
ARC
  5
322
100
AcDbEntity
  8
DTM_AXIS
100
AcDbCircle
 62
7
  6
CONTINUOUS
 10
259.1360155189
 20
133.121087963
 40
3.499433711
100
AcDbArc
 50
234.5359073691
 51
318.1755127289
  0
ARC
  5
323
100
AcDbEntity
  8
DTM_AXIS
100
AcDbCircle
 62
7
  6
CONTINUOUS
 10
259.3672205207
 20
132.9697547376
 40
3.499433711
100
AcDbArc
 50
234.5359073691
 51
318.1755127289
  0
ARC
  5
324
100
AcDbEntity
  8
DTM_AXIS
100
AcDbCircle
 62
7
  6
CONTINUOUS
 10
259.5984255225
 20
132.8184215122
 40
3.4994337111
100
AcDbArc
 50
234.5359073691
 51
318.1755127289
  0
ARC
  5
325
100
AcDbEntity
  8
DTM_AXIS
100
AcDbCircle
 62
7
  6
CONTINUOUS
 10
259.8296305241
 20
132.6670882866
 40
3.4994337108
100
AcDbArc
 50
234.535907369
 51
318.1755127289
  0
ARC
  5
326
100
AcDbEntity
  8
DTM_AXIS
100
AcDbCircle
 62
7
  6
CONTINUOUS
 10
260.2920405276
 20
132.364421836
 40
3.499433711
100
AcDbArc
 50
234.5359073691
 51
318.1755127289
  0
ARC
  5
327
100
AcDbEntity
  8
DTM_AXIS
100
AcDbCircle
 62
7
  6
CONTINUOUS
 10
260.5232455294
 20
132.2130886106
 40
3.499433711
100
AcDbArc
 50
234.5359073691
 51
318.1755127289
  0
ARC
  5
328
100
AcDbEntity
  8
DTM_AXIS
100
AcDbCircle
 62
7
  6
CONTINUOUS
 10
260.754450531
 20
132.0617553851
 40
3.4994337109
100
AcDbArc
 50
234.5359073691
 51
318.1755127289
  0
ARC
  5
329
100
AcDbEntity
  8
DTM_AXIS
100
AcDbCircle
 62
7
  6
CONTINUOUS
 10
260.9856555328
 20
131.9104221597
 40
3.4994337109
100
AcDbArc
 50
234.5359073691
 51
318.1755127289
  0
ARC
  5
32A
100
AcDbEntity
  8
DTM_AXIS
100
AcDbCircle
 62
7
  6
CONTINUOUS
 10
261.2168605346
 20
131.7590889343
 40
3.4994337109
100
AcDbArc
 50
234.5359073691
 51
318.1755127289
  0
ARC
  5
32B
100
AcDbEntity
  8
DTM_AXIS
100
AcDbCircle
 62
7
  6
CONTINUOUS
 10
261.4480655364
 20
131.607755709
 40
3.499433711
100
AcDbArc
 50
234.5359073691
 51
318.1755127289
  0
ARC
  5
32C
100
AcDbEntity
  8
DTM_AXIS
100
AcDbCircle
 62
7
  6
CONTINUOUS
 10
262.1416805416
 20
131.1537560328
 40
3.499433711
100
AcDbArc
 50
234.5359073691
 51
318.1755127289
  0
ARC
  5
32D
100
AcDbEntity
  8
DTM_AXIS
100
AcDbCircle
 62
7
  6
CONTINUOUS
 10
261.679270538
 20
131.4564224835
 40
3.4994337109
100
AcDbArc
 50
234.5359073691
 51
318.1755127289
  0
ARC
  5
32E
100
AcDbEntity
  8
DTM_AXIS
100
AcDbCircle
 62
7
  6
CONTINUOUS
 10
261.9104755398
 20
131.3050892581
 40
3.4994337109
100
AcDbArc
 50
234.5359073691
 51
318.1755127289
  0
ARC
  5
32F
100
AcDbEntity
  8
DTM_AXIS
100
AcDbCircle
 62
7
  6
CONTINUOUS
 10
266.5345755746
 20
128.2784247501
 40
3.4994337109
100
AcDbArc
 50
234.5359073691
 51
318.1755127289
  0
ARC
  5
330
100
AcDbEntity
  8
DTM_AXIS
100
AcDbCircle
 62
7
  6
CONTINUOUS
 10
266.303370573
 20
128.4297579756
 40
3.499433711
100
AcDbArc
 50
234.5359073691
 51
318.1755127289
  0
ARC
  5
331
100
AcDbEntity
  8
DTM_AXIS
100
AcDbCircle
 62
7
  6
CONTINUOUS
 10
266.0721655712
 20
128.581091201
 40
3.4994337109
100
AcDbArc
 50
234.5359073691
 51
318.1755127289
  0
ARC
  5
332
100
AcDbEntity
  8
DTM_AXIS
100
AcDbCircle
 62
7
  6
CONTINUOUS
 10
265.8409605694
 20
128.7324244263
 40
3.4994337109
100
AcDbArc
 50
234.5359073691
 51
318.1755127289
  0
ARC
  5
333
100
AcDbEntity
  8
DTM_AXIS
100
AcDbCircle
 62
7
  6
CONTINUOUS
 10
265.6097555677
 20
128.8837576517
 40
3.4994337109
100
AcDbArc
 50
234.5359073691
 51
318.1755127289
  0
ARC
  5
334
100
AcDbEntity
  8
DTM_AXIS
100
AcDbCircle
 62
7
  6
CONTINUOUS
 10
265.378550566
 20
129.0350908772
 40
3.499433711
100
AcDbArc
 50
234.5359073691
 51
318.1755127289
  0
ARC
  5
335
100
AcDbEntity
  8
DTM_AXIS
100
AcDbCircle
 62
7
  6
CONTINUOUS
 10
265.1473455642
 20
129.1864241026
 40
3.499433711
100
AcDbArc
 50
234.5359073691
 51
318.1755127289
  0
ARC
  5
336
100
AcDbEntity
  8
DTM_AXIS
100
AcDbCircle
 62
7
  6
CONTINUOUS
 10
264.9161405624
 20
129.3377573279
 40
3.4994337109
100
AcDbArc
 50
234.5359073691
 51
318.1755127289
  0
ARC
  5
337
100
AcDbEntity
  8
DTM_AXIS
100
AcDbCircle
 62
7
  6
CONTINUOUS
 10
264.6849355607
 20
129.4890905534
 40
3.499433711
100
AcDbArc
 50
234.5359073691
 51
318.1755127289
  0
ARC
  5
338
100
AcDbEntity
  8
DTM_AXIS
100
AcDbCircle
 62
7
  6
CONTINUOUS
 10
264.453730559
 20
129.6404237788
 40
3.499433711
100
AcDbArc
 50
234.5359073691
 51
318.1755127289
  0
ARC
  5
339
100
AcDbEntity
  8
DTM_AXIS
100
AcDbCircle
 62
7
  6
CONTINUOUS
 10
264.2225255573
 20
129.7917570042
 40
3.499433711
100
AcDbArc
 50
234.5359073691
 51
318.1755127289
  0
ARC
  5
33A
100
AcDbEntity
  8
DTM_AXIS
100
AcDbCircle
 62
7
  6
CONTINUOUS
 10
263.9913205555
 20
129.9430902296
 40
3.499433711
100
AcDbArc
 50
234.5359073691
 51
318.1755127289
  0
ARC
  5
33B
100
AcDbEntity
  8
DTM_AXIS
100
AcDbCircle
 62
7
  6
CONTINUOUS
 10
263.7601155537
 20
130.0944234549
 40
3.4994337109
100
AcDbArc
 50
234.5359073691
 51
318.1755127289
  0
ARC
  5
33C
100
AcDbEntity
  8
DTM_AXIS
100
AcDbCircle
 62
7
  6
CONTINUOUS
 10
263.5289105519
 20
130.2457566802
 40
3.4994337108
100
AcDbArc
 50
234.535907369
 51
318.1755127289
  0
ARC
  5
33D
100
AcDbEntity
  8
DTM_AXIS
100
AcDbCircle
 62
7
  6
CONTINUOUS
 10
263.2977055502
 20
130.3970899057
 40
3.4994337109
100
AcDbArc
 50
234.5359073691
 51
318.1755127289
  0
ARC
  5
33E
100
AcDbEntity
  8
DTM_AXIS
100
AcDbCircle
 62
7
  6
CONTINUOUS
 10
263.0665005485
 20
130.5484231311
 40
3.4994337109
100
AcDbArc
 50
234.5359073691
 51
318.1755127289
  0
ARC
  5
33F
100
AcDbEntity
  8
DTM_AXIS
100
AcDbCircle
 62
7
  6
CONTINUOUS
 10
262.8352955467
 20
130.6997563565
 40
3.4994337109
100
AcDbArc
 50
234.5359073691
 51
318.1755127289
  0
ARC
  5
340
100
AcDbEntity
  8
DTM_AXIS
100
AcDbCircle
 62
7
  6
CONTINUOUS
 10
262.604090545
 20
130.8510895819
 40
3.4994337109
100
AcDbArc
 50
234.5359073691
 51
318.1755127289
  0
ARC
  5
341
100
AcDbEntity
  8
DTM_AXIS
100
AcDbCircle
 62
7
  6
CONTINUOUS
 10
262.3731672846
 20
131.0029152062
 40
3.4999999999
100
AcDbArc
 50
236.7935958084
 51
318.1755127289
  0
ARC
  5
342
100
AcDbEntity
  8
DTM_AXIS
100
AcDbCircle
 62
7
  6
CONTINUOUS
 10
270.6962656061
 20
125.554426693
 40
3.499433711
100
AcDbArc
 50
234.5359073691
 51
318.1755127289
  0
ARC
  5
343
100
AcDbEntity
  8
DTM_AXIS
100
AcDbCircle
 62
7
  6
CONTINUOUS
 10
270.4650606043
 20
125.7057599184
 40
3.499433711
100
AcDbArc
 50
234.5359073691
 51
318.1755127289
  0
ARC
  5
344
100
AcDbEntity
  8
DTM_AXIS
100
AcDbCircle
 62
7
  6
CONTINUOUS
 10
270.2338556025
 20
125.8570931438
 40
3.499433711
100
AcDbArc
 50
234.5359073691
 51
318.1755127289
  0
ARC
  5
345
100
AcDbEntity
  8
DTM_AXIS
100
AcDbCircle
 62
7
  6
CONTINUOUS
 10
270.0026506008
 20
126.0084263691
 40
3.4994337109
100
AcDbArc
 50
234.5359073691
 51
318.1755127289
  0
ARC
  5
346
100
AcDbEntity
  8
DTM_AXIS
100
AcDbCircle
 62
7
  6
CONTINUOUS
 10
269.7714455991
 20
126.1597595946
 40
3.499433711
100
AcDbArc
 50
234.5359073691
 51
318.1755127289
  0
ARC
  5
347
100
AcDbEntity
  8
DTM_AXIS
100
AcDbCircle
 62
7
  6
CONTINUOUS
 10
269.5402405973
 20
126.3110928199
 40
3.4994337109
100
AcDbArc
 50
234.5359073691
 51
318.1755127289
  0
ARC
  5
348
100
AcDbEntity
  8
DTM_AXIS
100
AcDbCircle
 62
7
  6
CONTINUOUS
 10
269.3090355956
 20
126.4624260453
 40
3.4994337109
100
AcDbArc
 50
234.5359073691
 51
318.1755127289
  0
ARC
  5
349
100
AcDbEntity
  8
DTM_AXIS
100
AcDbCircle
 62
7
  6
CONTINUOUS
 10
269.0778305938
 20
126.6137592708
 40
3.4994337109
100
AcDbArc
 50
234.5359073691
 51
318.1755127289
  0
ARC
  5
34A
100
AcDbEntity
  8
DTM_AXIS
100
AcDbCircle
 62
7
  6
CONTINUOUS
 10
268.8466255921
 20
126.7650924962
 40
3.499433711
100
AcDbArc
 50
234.5359073691
 51
318.1755127289
  0
ARC
  5
34B
100
AcDbEntity
  8
DTM_AXIS
100
AcDbCircle
 62
7
  6
CONTINUOUS
 10
268.6154205904
 20
126.9164257216
 40
3.499433711
100
AcDbArc
 50
234.5359073691
 51
318.1755127289
  0
ARC
  5
34C
100
AcDbEntity
  8
DTM_AXIS
100
AcDbCircle
 62
7
  6
CONTINUOUS
 10
268.3842155886
 20
127.067758947
 40
3.4994337109
100
AcDbArc
 50
234.5359073691
 51
318.1755127289
  0
ARC
  5
34D
100
AcDbEntity
  8
DTM_AXIS
100
AcDbCircle
 62
7
  6
CONTINUOUS
 10
268.1530105868
 20
127.2190921723
 40
3.4994337109
100
AcDbArc
 50
234.5359073691
 51
318.1755127289
  0
ARC
  5
34E
100
AcDbEntity
  8
DTM_AXIS
100
AcDbCircle
 62
7
  6
CONTINUOUS
 10
267.9218055852
 20
127.3704253978
 40
3.499433711
100
AcDbArc
 50
234.5359073691
 51
318.1755127289
  0
ARC
  5
34F
100
AcDbEntity
  8
DTM_AXIS
100
AcDbCircle
 62
7
  6
CONTINUOUS
 10
267.6906005833
 20
127.5217586231
 40
3.4994337109
100
AcDbArc
 50
234.5359073691
 51
318.1755127289
  0
ARC
  5
350
100
AcDbEntity
  8
DTM_AXIS
100
AcDbCircle
 62
7
  6
CONTINUOUS
 10
267.4593955817
 20
127.6730918486
 40
3.499433711
100
AcDbArc
 50
234.5359073691
 51
318.1755127289
  0
ARC
  5
351
100
AcDbEntity
  8
DTM_AXIS
100
AcDbCircle
 62
7
  6
CONTINUOUS
 10
267.2281905799
 20
127.824425074
 40
3.499433711
100
AcDbArc
 50
234.5359073691
 51
318.1755127289
  0
ARC
  5
352
100
AcDbEntity
  8
DTM_AXIS
100
AcDbCircle
 62
7
  6
CONTINUOUS
 10
266.9969855781
 20
127.9757582993
 40
3.4994337109
100
AcDbArc
 50
234.5359073691
 51
318.1755127289
  0
ARC
  5
353
100
AcDbEntity
  8
DTM_AXIS
100
AcDbCircle
 62
7
  6
CONTINUOUS
 10
266.7657805764
 20
128.1270915247
 40
3.4994337109
100
AcDbArc
 50
234.5359073691
 51
318.1755127289
  0
ARC
  5
354
100
AcDbEntity
  8
0
100
AcDbCircle
 62
7
  6
CONTINUOUS
 10
275.0869646761
 20
122.6804539746
 40
3.500167808
100
AcDbArc
 50
269.3067578949
 51
318.2120830733
  0
ARC
  5
355
100
AcDbEntity
  8
DTM_AXIS
100
AcDbCircle
 62
7
  6
CONTINUOUS
 10
274.8579556374
 20
122.8304286358
 40
3.4994337109
100
AcDbArc
 50
234.5359073691
 51
318.1755127289
  0
ARC
  5
356
100
AcDbEntity
  8
DTM_AXIS
100
AcDbCircle
 62
7
  6
CONTINUOUS
 10
274.6267506356
 20
122.9817618611
 40
3.4994337109
100
AcDbArc
 50
234.5359073691
 51
318.1755127289
  0
ARC
  5
357
100
AcDbEntity
  8
DTM_AXIS
100
AcDbCircle
 62
7
  6
CONTINUOUS
 10
274.3955456339
 20
123.1330950866
 40
3.499433711
100
AcDbArc
 50
234.5359073691
 51
318.1755127289
  0
ARC
  5
358
100
AcDbEntity
  8
DTM_AXIS
100
AcDbCircle
 62
7
  6
CONTINUOUS
 10
274.1643406322
 20
123.284428312
 40
3.4994337109
100
AcDbArc
 50
234.5359073691
 51
318.1755127289
  0
ARC
  5
359
100
AcDbEntity
  8
DTM_AXIS
100
AcDbCircle
 62
7
  6
CONTINUOUS
 10
273.9331356304
 20
123.4357615373
 40
3.4994337109
100
AcDbArc
 50
234.5359073691
 51
318.1755127289
  0
ARC
  5
35A
100
AcDbEntity
  8
DTM_AXIS
100
AcDbCircle
 62
7
  6
CONTINUOUS
 10
273.7019306287
 20
123.5870947627
 40
3.4994337109
100
AcDbArc
 50
234.5359073691
 51
318.1755127289
  0
ARC
  5
35B
100
AcDbEntity
  8
DTM_AXIS
100
AcDbCircle
 62
7
  6
CONTINUOUS
 10
273.4707256269
 20
123.7384279881
 40
3.4994337109
100
AcDbArc
 50
234.5359073691
 51
318.1755127289
  0
ARC
  5
35C
100
AcDbEntity
  8
DTM_AXIS
100
AcDbCircle
 62
7
  6
CONTINUOUS
 10
273.2395206252
 20
123.8897612136
 40
3.4994337109
100
AcDbArc
 50
234.5359073691
 51
318.1755127289
  0
ARC
  5
35D
100
AcDbEntity
  8
DTM_AXIS
100
AcDbCircle
 62
7
  6
CONTINUOUS
 10
273.0083156234
 20
124.041094439
 40
3.4994337109
100
AcDbArc
 50
234.5359073691
 51
318.1755127289
  0
ARC
  5
35E
100
AcDbEntity
  8
DTM_AXIS
100
AcDbCircle
 62
7
  6
CONTINUOUS
 10
272.7771106217
 20
124.1924276643
 40
3.4994337109
100
AcDbArc
 50
234.5359073691
 51
318.1755127289
  0
ARC
  5
35F
100
AcDbEntity
  8
DTM_AXIS
100
AcDbCircle
 62
7
  6
CONTINUOUS
 10
272.54590562
 20
124.3437608898
 40
3.499433711
100
AcDbArc
 50
234.5359073691
 51
318.1755127289
  0
ARC
  5
360
100
AcDbEntity
  8
DTM_AXIS
100
AcDbCircle
 62
7
  6
CONTINUOUS
 10
272.3147006182
 20
124.4950941152
 40
3.4994337109
100
AcDbArc
 50
234.5359073691
 51
318.1755127289
  0
ARC
  5
361
100
AcDbEntity
  8
DTM_AXIS
100
AcDbCircle
 62
7
  6
CONTINUOUS
 10
272.0834956165
 20
124.6464273406
 40
3.4994337109
100
AcDbArc
 50
234.5359073691
 51
318.1755127289
  0
ARC
  5
362
100
AcDbEntity
  8
DTM_AXIS
100
AcDbCircle
 62
7
  6
CONTINUOUS
 10
271.8522906147
 20
124.797760566
 40
3.499433711
100
AcDbArc
 50
234.5359073691
 51
318.1755127289
  0
ARC
  5
363
100
AcDbEntity
  8
DTM_AXIS
100
AcDbCircle
 62
7
  6
CONTINUOUS
 10
271.621085613
 20
124.9490937914
 40
3.499433711
100
AcDbArc
 50
234.5359073691
 51
318.1755127289
  0
ARC
  5
364
100
AcDbEntity
  8
DTM_AXIS
100
AcDbCircle
 62
7
  6
CONTINUOUS
 10
271.3898806112
 20
125.1004270167
 40
3.4994337109
100
AcDbArc
 50
234.5359073691
 51
318.1755127289
  0
ARC
  5
365
100
AcDbEntity
  8
DTM_AXIS
100
AcDbCircle
 62
7
  6
CONTINUOUS
 10
271.1586756095
 20
125.2517602421
 40
3.4994337109
100
AcDbArc
 50
234.5359073691
 51
318.1755127289
  0
ARC
  5
366
100
AcDbEntity
  8
DTM_AXIS
100
AcDbCircle
 62
7
  6
CONTINUOUS
 10
275.0891004455
 20
122.67913365
 40
3.4994327407
100
AcDbArc
 50
234.5364528093
 51
236.7930404795
  0
ARC
  5
367
100
AcDbEntity
  8
0
100
AcDbCircle
 62
7
  6
CONTINUOUS
 10
275.0872134387
 20
122.6764453564
 40
3.4961500152
100
AcDbArc
 50
236.7947869851
 51
269.3018865722
  0
ARC
  5
368
100
AcDbEntity
  8
DTM_AXIS
100
AcDbCircle
 62
7
  6
CONTINUOUS
 10
270.9274706078
 20
125.4030934676
 40
3.499433711
100
AcDbArc
 50
234.5359073691
 51
318.1755127289
  0
ARC
  5
369
100
AcDbEntity
  8
0
100
AcDbCircle
 62
7
  6
CONTINUOUS
 10
145.4176239254
 20
158.279448082
 40
6.9999897143
100
AcDbArc
 50
221.0824065383
 51
318.9175934617
  0
ARC
  5
36A
100
AcDbEntity
  8
0
100
AcDbCircle
 62
7
  6
CONTINUOUS
 10
32.3649424592
 20
73.179448082
 40
4.5
100
AcDbArc
 50
270.0
 51
310.7809046508
  0
ARC
  5
36B
100
AcDbEntity
  8
0
100
AcDbCircle
 62
7
  6
CONTINUOUS
 10
43.5571833248
 20
82.8338237904
 40
4.5
100
AcDbArc
 50
310.7809046508
 51
358.882191196
  0
ARC
  5
36C
100
AcDbEntity
  8
0
100
AcDbCircle
 62
7
  6
CONTINUOUS
 10
137.0376239254
 20
166.9231333203
 40
4.5
100
AcDbArc
 50
273.5573245852
 51
356.8957847498
  0
ARC
  5
36D
100
AcDbEntity
  8
0
100
AcDbCircle
 62
7
  6
CONTINUOUS
 10
64.1960196633
 20
131.0884241935
 40
2.0
100
AcDbArc
 50
130.8319670233
 51
190.8319670233
  0
ARC
  5
36E
100
AcDbEntity
  8
0
100
AcDbCircle
 62
7
  6
CONTINUOUS
 10
85.1475679111
 20
149.1937243774
 40
2.0
100
AcDbArc
 50
70.8319670233
 51
130.8319670233
  0
ARC
  5
36F
100
AcDbEntity
  8
0
100
AcDbCircle
 62
7
  6
CONTINUOUS
 10
60.2978204312
 20
130.1771416035
 40
2.0
100
AcDbArc
 50
325.2519283558
 51
10.8319670233
  0
ARC
  5
370
100
AcDbEntity
  8
0
100
AcDbCircle
 62
7
  6
CONTINUOUS
 10
86.5962377549
 20
152.92492755
 40
2.0
100
AcDbArc
 50
250.8319670233
 51
297.3968366055
  0
ARC
  5
371
100
AcDbEntity
  8
0
100
AcDbCircle
 62
7
  6
CONTINUOUS
 10
30.0376239254
 20
61.179448082
 40
1.8
100
AcDbArc
 50
286.1276202132
 51
35.0
  0
ARC
  5
372
100
AcDbEntity
  8
0
100
AcDbCircle
 62
7
  6
CONTINUOUS
 10
151.5376239254
 20
167.179448082
 40
1.8
100
AcDbArc
 50
230.0
 51
343.8723797868
  0
SPLINE
  5
373
100
AcDbEntity
  8
0
100
AcDbSpline
 62
7
  6
CONTINUOUS
 70
0
 71
3
 72
15
 73
11
 74
0
 42
0.0000001
 43
0.0000001
 44
0.0000000001
 40
0.0
 40
0.0
 40
0.0
 40
0.0
 40
0.1391222092
 40
0.2579115829
 40
0.3675062344
 40
0.4768557314
 40
0.59209632
 40
0.7167679894
 40
0.8525244418
 40
1.0
 40
1.0
 40
1.0
 40
1.0
 10
279.6175628559
 20
120.3245532951
 30
0.0
 10
279.6204621172
 20
120.5511667239
 30
0.0
 10
279.6649333355
 20
120.9735694152
 30
0.0
 10
279.8840086252
 20
121.5389026407
 30
0.0
 10
280.2250758758
 20
121.9801464032
 30
0.0
 10
280.6664860222
 20
122.3082384759
 30
0.0
 10
281.1894508209
 20
122.5410584258
 30
0.0
 10
281.784707372
 20
122.6922513143
 30
0.0
 10
282.4455650259
 20
122.7730533704
 30
0.0
 10
282.9074737904
 20
122.7840859519
 30
0.0
 10
283.1476955557
 20
122.7811509934
 30
0.0
  0
SPLINE
  5
374
100
AcDbEntity
  8
0
100
AcDbSpline
 62
7
  6
CONTINUOUS
 70
0
 71
3
 72
21
 73
17
 74
0
 42
0.0000001
 43
0.0000001
 44
0.0000000001
 40
0.0
 40
0.0
 40
0.0
 40
0.0
 40
0.0750410274
 40
0.1457355273
 40
0.212790509
 40
0.2769033598
 40
0.3387458565
 40
0.3989471489
 40
0.4580781037
 40
0.5166393484
 40
0.5750545903
 40
0.6336696325
 40
0.6927553864
 40
0.7525069202
 40
0.8743649231
 40
1.0
 40
1.0
 40
1.0
 40
1.0
 10
230.94211241
 20
85.6730933532
 30
0.0
 10
230.9528667495
 20
87.1463536051
 30
0.0
 10
231.1086554976
 20
90.0090578993
 30
0.0
 10
231.7692506444
 20
94.1420550559
 30
0.0
 10
232.823347054
 20
97.9713030606
 30
0.0
 10
234.2448174109
 20
101.4932877848
 30
0.0
 10
236.0070861373
 20
104.7051047205
 30
0.0
 10
238.0831358911
 20
107.6039158392
 30
0.0
 10
240.4456699933
 20
110.1873248247
 30
0.0
 10
243.0673286694
 20
112.4533924988
 30
0.0
 10
245.9209297984
 20
114.4005893099
 30
0.0
 10
248.9794635545
 20
116.0276263462
 30
0.0
 10
252.2163722807
 20
117.3332779873
 30
0.0
 10
256.7613519867
 20
118.6521754499
 30
0.0
 10
262.7745372995
 20
119.4771201022
 30
0.0
 10
267.657394412
 20
119.2593769248
 30
0.0
 10
270.1033808772
 20
118.9409580692
 30
0.0
  0
SPLINE
  5
375
100
AcDbEntity
  8
0
100
AcDbSpline
 62
7
  6
CONTINUOUS
 70
0
 71
3
 72
20
 73
16
 74
0
 42
0.0000001
 43
0.0000001
 44
0.0000000001
 40
0.0
 40
0.0
 40
0.0
 40
0.0
 40
0.0731511216
 40
0.1396148656
 40
0.2590236773
 40
0.3140369435
 40
0.367235667
 40
0.4197271514
 40
0.472633864
 40
0.5270341083
 40
0.583881502
 40
0.6438007879
 40
0.7071987646
 40
0.8454501627
 40
1.0
 40
1.0
 40
1.0
 40
1.0
 10
223.3245532429
 20
76.2671967377
 30
0.0
 10
223.6300010275
 20
76.3307725917
 30
0.0
 10
224.2094460993
 20
76.4711494953
 30
0.0
 10
225.2609515763
 20
76.8110592771
 30
0.0
 10
226.2040708893
 20
77.2346276689
 30
0.0
 10
227.0185516919
 20
77.7661085856
 30
0.0
 10
227.5485891721
 20
78.2030689944
 30
0.0
 10
228.017939748
 20
78.6923055215
 30
0.0
 10
228.4304622842
 20
79.2366736069
 30
0.0
 10
228.7902867619
 20
79.8387571274
 30
0.0
 10
229.1014403449
 20
80.5002959575
 30
0.0
 10
229.3689805764
 20
81.2214437435
 30
0.0
 10
229.6822713615
 20
82.2929396989
 30
0.0
 10
229.9777354681
 20
83.7858642415
 30
0.0
 10
230.127742336
 20
85.0262767826
 30
0.0
 10
230.1925074412
 20
85.6822518052
 30
0.0
  0
SPLINE
  5
376
100
AcDbEntity
  8
0
100
AcDbSpline
 62
7
  6
CONTINUOUS
 70
0
 71
3
 72
15
 73
11
 74
0
 42
0.0000001
 43
0.0000001
 44
0.0000000001
 40
0.0
 40
0.0
 40
0.0
 40
0.0
 40
0.146839697
 40
0.2801635445
 40
0.4016610836
 40
0.514389918
 40
0.6233045285
 40
0.7352517075
 40
0.8581701815
 40
1.0
 40
1.0
 40
1.0
 40
1.0
 10
221.0085883612
 20
71.0460640977
 30
0.0
 10
221.0111298263
 20
71.2447112852
 30
0.0
 10
221.0325180915
 20
71.6239356108
 30
0.0
 10
221.127337117
 20
72.1606156798
 30
0.0
 10
221.2884885226
 20
72.6337063268
 30
0.0
 10
221.5237299212
 20
73.0382908234
 30
0.0
 10
221.8411340582
 20
73.3662045917
 30
0.0
 10
222.2464087437
 20
73.6054108738
 30
0.0
 10
222.7407553082
 20
73.7470358013
 30
0.0
 10
223.1007059415
 20
73.7702038214
 30
0.0
 10
223.2925770642
 20
73.7678595967
 30
0.0
  0
SPLINE
  5
377
100
AcDbEntity
  8
0
100
AcDbSpline
 62
7
  6
CONTINUOUS
 70
0
 71
3
 72
15
 73
11
 74
0
 42
0.0000001
 43
0.0000001
 44
0.0000000001
 40
0.0
 40
0.0
 40
0.0
 40
0.0
 40
0.1337693336
 40
0.2648506027
 40
0.3930466752
 40
0.5183720952
 40
0.641174166
 40
0.761952182
 40
0.8813181884
 40
1.0
 40
1.0
 40
1.0
 40
1.0
 10
241.2424708539
 20
144.3265445956
 30
0.0
 10
240.0970760963
 20
144.2693598769
 30
0.0
 10
237.8299654237
 20
144.1409351753
 30
0.0
 10
234.4709559565
 20
143.8673954544
 30
0.0
 10
231.1955674252
 20
143.4793252283
 30
0.0
 10
228.0130166792
 20
142.9407144242
 30
0.0
 10
224.9273206361
 20
142.2389500147
 30
0.0
 10
221.9397922547
 20
141.3611289066
 30
0.0
 10
219.0518316566
 20
140.2943872919
 30
0.0
 10
217.1922959635
 20
139.4479331904
 30
0.0
 10
216.2832829545
 20
138.9908238302
 30
0.0
  0
SPLINE
  5
378
100
AcDbEntity
  8
0
100
AcDbSpline
 62
7
  6
CONTINUOUS
 70
0
 71
3
 72
13
 73
9
 74
0
 42
0.0000001
 43
0.0000001
 44
0.0000000001
 40
0.0
 40
0.0
 40
0.0
 40
0.0
 40
0.2316316725
 40
0.4741524089
 40
0.6001315162
 40
0.7294383533
 40
0.8625077668
 40
1.0
 40
1.0
 40
1.0
 40
1.0
 10
203.3609133064
 20
128.093887941
 30
0.0
 10
202.2639433863
 20
126.5538976981
 30
0.0
 10
200.2919739135
 20
123.199949338
 30
0.0
 10
198.4873573834
 20
118.6265018212
 30
0.0
 10
197.3972495224
 20
114.7094008087
 30
0.0
 10
196.7534820052
 20
111.6028272664
 30
0.0
 10
196.3096006658
 20
108.3666926281
 30
0.0
 10
196.1623552701
 20
106.1609422884
 30
0.0
 10
196.1261141533
 20
105.0392172557
 30
0.0
  0
SPLINE
  5
379
100
AcDbEntity
  8
DTM_AXIS
100
AcDbSpline
 62
7
  6
CONTINUOUS
 70
0
 71
3
 72
14
 73
10
 74
0
 42
0.0000001
 43
0.0000001
 44
0.0000000001
 40
0.0
 40
0.0
 40
0.0
 40
0.0
 40
0.0295034004
 40
0.0865493417
 40
0.1713737338
 40
0.2837779351
 40
0.4233916655
 40
0.5897200985
 40
1.0
 40
1.0
 40
1.0
 40
1.0
 10
268.6798208678
 20
126.2499778891
 30
0.0
 10
268.6769727493
 20
126.2518421004
 30
0.0
 10
268.666859792
 20
126.2538560522
 30
0.0
 10
268.6476000814
 20
126.2571904892
 30
0.0
 10
268.6182995316
 20
126.2602936531
 30
0.0
 10
268.5796395454
 20
126.2637486458
 30
0.0
 10
268.5314769183
 20
126.267220534
 30
0.0
 10
268.4490099985
 20
126.27235417
 30
0.0
 10
268.3825603454
 20
126.2756848319
 30
0.0
 10
268.3352748887
 20
126.2778794865
 30
0.0
  0
SPLINE
  5
37A
100
AcDbEntity
  8
DTM_AXIS
100
AcDbSpline
 62
7
  6
CONTINUOUS
 70
0
 71
3
 72
14
 73
10
 74
0
 42
0.0000001
 43
0.0000001
 44
0.0000000001
 40
0.0
 40
0.0
 40
0.0
 40
0.0
 40
0.0295034004
 40
0.0865493417
 40
0.1713737338
 40
0.2837779351
 40
0.4233916655
 40
0.5897200985
 40
1.0
 40
1.0
 40
1.0
 40
1.0
 10
275.6159709201
 20
121.7099811271
 30
0.0
 10
275.6131228016
 20
121.7118453384
 30
0.0
 10
275.6030098443
 20
121.7138592902
 30
0.0
 10
275.5837501337
 20
121.7171937272
 30
0.0
 10
275.5544495839
 20
121.7202968911
 30
0.0
 10
275.5157895977
 20
121.7237518838
 30
0.0
 10
275.4676269706
 20
121.727223772
 30
0.0
 10
275.3851600508
 20
121.732357408
 30
0.0
 10
275.3187103977
 20
121.7356880699
 30
0.0
 10
275.2714249409
 20
121.7378827246
 30
0.0
  0
SPLINE
  5
37B
100
AcDbEntity
  8
DTM_AXIS
100
AcDbSpline
 62
7
  6
CONTINUOUS
 70
0
 71
3
 72
9
 73
5
 74
0
 42
0.0000001
 43
0.0000001
 44
0.0000000001
 40
0.0
 40
0.0
 40
0.0
 40
0.0
 40
0.4271476962
 40
1.0
 40
1.0
 40
1.0
 40
1.0
 10
255.5019309463
 20
134.8735989003
 30
0.0
 10
255.5022023538
 20
134.8739021919
 30
0.0
 10
255.5025367241
 20
134.8750279669
 30
0.0
 10
255.5015924662
 20
134.8756728094
 30
0.0
 10
255.5011357685
 20
134.8759717369
 30
0.0
  0
SPLINE
  5
37C
100
AcDbEntity
  8
DTM_AXIS
100
AcDbSpline
 62
7
  6
CONTINUOUS
 70
0
 71
3
 72
14
 73
10
 74
0
 42
0.0000001
 43
0.0000001
 44
0.0000000001
 40
0.0
 40
0.0
 40
0.0
 40
0.0
 40
0.0295034004
 40
0.0865493417
 40
0.1713737338
 40
0.2837779351
 40
0.4233916655
 40
0.5897200985
 40
1.0
 40
1.0
 40
1.0
 40
1.0
 10
268.4486158661
 20
126.4013111145
 30
0.0
 10
268.4457677475
 20
126.4031753258
 30
0.0
 10
268.4356547903
 20
126.4051892776
 30
0.0
 10
268.4163950797
 20
126.4085237146
 30
0.0
 10
268.3870945299
 20
126.4116268785
 30
0.0
 10
268.3484345437
 20
126.4150818712
 30
0.0
 10
268.3002719166
 20
126.4185537594
 30
0.0
 10
268.2178049967
 20
126.4236873954
 30
0.0
 10
268.1513553437
 20
126.4270180573
 30
0.0
 10
268.1040698869
 20
126.4292127119
 30
0.0
  0
SPLINE
  5
37D
100
AcDbEntity
  8
DTM_AXIS
100
AcDbSpline
 62
7
  6
CONTINUOUS
 70
0
 71
3
 72
14
 73
10
 74
0
 42
0.0000001
 43
0.0000001
 44
0.0000000001
 40
0.0
 40
0.0
 40
0.0
 40
0.0
 40
0.0295034004
 40
0.0865493417
 40
0.1713737338
 40
0.2837779351
 40
0.4233916655
 40
0.5897200985
 40
1.0
 40
1.0
 40
1.0
 40
1.0
 10
268.2174108644
 20
126.5526443399
 30
0.0
 10
268.2145627458
 20
126.5545085512
 30
0.0
 10
268.2044497886
 20
126.556522503
 30
0.0
 10
268.185190078
 20
126.55985694
 30
0.0
 10
268.1558895281
 20
126.5629601039
 30
0.0
 10
268.1172295419
 20
126.5664150966
 30
0.0
 10
268.0690669148
 20
126.5698869848
 30
0.0
 10
267.986599995
 20
126.5750206208
 30
0.0
 10
267.9201503419
 20
126.5783512827
 30
0.0
 10
267.8728648852
 20
126.5805459373
 30
0.0
  0
SPLINE
  5
37E
100
AcDbEntity
  8
DTM_AXIS
100
AcDbSpline
 62
7
  6
CONTINUOUS
 70
0
 71
3
 72
9
 73
5
 74
0
 42
0.0000001
 43
0.0000001
 44
0.0000000001
 40
0.0
 40
0.0
 40
0.0
 40
0.0
 40
0.4271476962
 40
1.0
 40
1.0
 40
1.0
 40
1.0
 10
249.9530109045
 20
138.5055963099
 30
0.0
 10
249.9532823119
 20
138.5058996015
 30
0.0
 10
249.9536166823
 20
138.5070253765
 30
0.0
 10
249.9526724244
 20
138.507670219
 30
0.0
 10
249.9522157267
 20
138.5079691465
 30
0.0
  0
SPLINE
  5
37F
100
AcDbEntity
  8
DTM_AXIS
100
AcDbSpline
 62
7
  6
CONTINUOUS
 70
0
 71
3
 72
9
 73
5
 74
0
 42
0.0000001
 43
0.0000001
 44
0.0000000001
 40
0.0
 40
0.0
 40
0.0
 40
0.0
 40
0.4271476962
 40
1.0
 40
1.0
 40
1.0
 40
1.0
 10
255.733135948
 20
134.7222656749
 30
0.0
 10
255.7334073555
 20
134.7225689665
 30
0.0
 10
255.7337417259
 20
134.7236947415
 30
0.0
 10
255.7327974679
 20
134.724339584
 30
0.0
 10
255.7323407703
 20
134.7246385115
 30
0.0
  0
SPLINE
  5
380
100
AcDbEntity
  8
DTM_AXIS
100
AcDbSpline
 62
7
  6
CONTINUOUS
 70
0
 71
3
 72
14
 73
10
 74
0
 42
0.0000001
 43
0.0000001
 44
0.0000000001
 40
0.0
 40
0.0
 40
0.0
 40
0.0
 40
0.0295034004
 40
0.0865493417
 40
0.1713737338
 40
0.2837779351
 40
0.4233916655
 40
0.5897200985
 40
1.0
 40
1.0
 40
1.0
 40
1.0
 10
267.9862058626
 20
126.7039775653
 30
0.0
 10
267.983357744
 20
126.7058417766
 30
0.0
 10
267.9732447868
 20
126.7078557284
 30
0.0
 10
267.9539850762
 20
126.7111901654
 30
0.0
 10
267.9246845264
 20
126.7142933293
 30
0.0
 10
267.8860245402
 20
126.7177483219
 30
0.0
 10
267.8378619131
 20
126.7212202102
 30
0.0
 10
267.7553949933
 20
126.7263538462
 30
0.0
 10
267.6889453402
 20
126.7296845081
 30
0.0
 10
267.6416598834
 20
126.7318791627
 30
0.0
  0
SPLINE
  5
381
100
AcDbEntity
  8
DTM_AXIS
100
AcDbSpline
 62
7
  6
CONTINUOUS
 70
0
 71
3
 72
9
 73
5
 74
0
 42
0.0000001
 43
0.0000001
 44
0.0000000001
 40
0.0
 40
0.0
 40
0.0
 40
0.0
 40
0.4271476962
 40
1.0
 40
1.0
 40
1.0
 40
1.0
 10
248.1033708905
 20
139.7162621131
 30
0.0
 10
248.103642298
 20
139.7165654047
 30
0.0
 10
248.1039766684
 20
139.7176911797
 30
0.0
 10
248.1030324104
 20
139.7183360222
 30
0.0
 10
248.1025757128
 20
139.7186349497
 30
0.0
  0
SPLINE
  5
382
100
AcDbEntity
  8
DTM_AXIS
100
AcDbSpline
 62
7
  6
CONTINUOUS
 70
0
 71
3
 72
14
 73
10
 74
0
 42
0.0000001
 43
0.0000001
 44
0.0000000001
 40
0.0
 40
0.0
 40
0.0
 40
0.0
 40
0.0295034004
 40
0.0865493417
 40
0.1713737338
 40
0.2837779351
 40
0.4233916655
 40
0.5897200985
 40
1.0
 40
1.0
 40
1.0
 40
1.0
 10
267.7550008609
 20
126.8553107907
 30
0.0
 10
267.7521527423
 20
126.857175002
 30
0.0
 10
267.7420397851
 20
126.8591889538
 30
0.0
 10
267.7227800745
 20
126.8625233908
 30
0.0
 10
267.6934795246
 20
126.8656265547
 30
0.0
 10
267.6548195384
 20
126.8690815473
 30
0.0
 10
267.6066569113
 20
126.8725534356
 30
0.0
 10
267.5241899915
 20
126.8776870716
 30
0.0
 10
267.4577403384
 20
126.8810177335
 30
0.0
 10
267.4104548817
 20
126.8832123881
 30
0.0
  0
SPLINE
  5
383
100
AcDbEntity
  8
DTM_AXIS
100
AcDbSpline
 62
7
  6
CONTINUOUS
 70
0
 71
3
 72
9
 73
5
 74
0
 42
0.0000001
 43
0.0000001
 44
0.0000000001
 40
0.0
 40
0.0
 40
0.0
 40
0.0
 40
0.4271476962
 40
1.0
 40
1.0
 40
1.0
 40
1.0
 10
255.9643409498
 20
134.5709324495
 30
0.0
 10
255.9646123572
 20
134.5712357411
 30
0.0
 10
255.9649467276
 20
134.5723615161
 30
0.0
 10
255.9640024697
 20
134.5730063586
 30
0.0
 10
255.963545772
 20
134.5733052861
 30
0.0
  0
SPLINE
  5
384
100
AcDbEntity
  8
DTM_AXIS
100
AcDbSpline
 62
7
  6
CONTINUOUS
 70
0
 71
3
 72
14
 73
10
 74
0
 42
0.0000001
 43
0.0000001
 44
0.0000000001
 40
0.0
 40
0.0
 40
0.0
 40
0.0
 40
0.0295034004
 40
0.0865493417
 40
0.1713737338
 40
0.2837779351
 40
0.4233916655
 40
0.5897200985
 40
1.0
 40
1.0
 40
1.0
 40
1.0
 10
275.3847659184
 20
121.8613143525
 30
0.0
 10
275.3819177998
 20
121.8631785638
 30
0.0
 10
275.3718048426
 20
121.8651925156
 30
0.0
 10
275.352545132
 20
121.8685269526
 30
0.0
 10
275.3232445821
 20
121.8716301165
 30
0.0
 10
275.2845845959
 20
121.8750851092
 30
0.0
 10
275.2364219689
 20
121.8785569974
 30
0.0
 10
275.153955049
 20
121.8836906334
 30
0.0
 10
275.0875053959
 20
121.8870212953
 30
0.0
 10
275.0402199392
 20
121.88921595
 30
0.0
  0
SPLINE
  5
385
100
AcDbEntity
  8
DTM_AXIS
100
AcDbSpline
 62
7
  6
CONTINUOUS
 70
0
 71
3
 72
14
 73
10
 74
0
 42
0.0000001
 43
0.0000001
 44
0.0000000001
 40
0.0
 40
0.0
 40
0.0
 40
0.0
 40
0.0295034004
 40
0.0865493417
 40
0.1713737338
 40
0.2837779351
 40
0.4233916655
 40
0.5897200985
 40
1.0
 40
1.0
 40
1.0
 40
1.0
 10
267.5237958591
 20
127.0066440161
 30
0.0
 10
267.5209477406
 20
127.0085082274
 30
0.0
 10
267.5108347833
 20
127.0105221792
 30
0.0
 10
267.4915750727
 20
127.0138566162
 30
0.0
 10
267.4622745229
 20
127.0169597801
 30
0.0
 10
267.4236145367
 20
127.0204147727
 30
0.0
 10
267.3754519096
 20
127.023886661
 30
0.0
 10
267.2929849898
 20
127.029020297
 30
0.0
 10
267.2265353367
 20
127.0323509589
 30
0.0
 10
267.17924988
 20
127.0345456135
 30
0.0
  0
SPLINE
  5
386
100
AcDbEntity
  8
DTM_AXIS
100
AcDbSpline
 62
7
  6
CONTINUOUS
 70
0
 71
3
 72
9
 73
5
 74
0
 42
0.0000001
 43
0.0000001
 44
0.0000000001
 40
0.0
 40
0.0
 40
0.0
 40
0.0
 40
0.4271476962
 40
1.0
 40
1.0
 40
1.0
 40
1.0
 10
256.1955459515
 20
134.4195992241
 30
0.0
 10
256.195817359
 20
134.4199025157
 30
0.0
 10
256.1961517293
 20
134.4210282907
 30
0.0
 10
256.1952074714
 20
134.4216731332
 30
0.0
 10
256.1947507737
 20
134.4219720607
 30
0.0
  0
SPLINE
  5
387
100
AcDbEntity
  8
DTM_AXIS
100
AcDbSpline
 62
7
  6
CONTINUOUS
 70
0
 71
3
 72
14
 73
10
 74
0
 42
0.0000001
 43
0.0000001
 44
0.0000000001
 40
0.0
 40
0.0
 40
0.0
 40
0.0
 40
0.0295034004
 40
0.0865493417
 40
0.1713737338
 40
0.2837779351
 40
0.4233916655
 40
0.5897200985
 40
1.0
 40
1.0
 40
1.0
 40
1.0
 10
267.2925908574
 20
127.1579772415
 30
0.0
 10
267.2897427388
 20
127.1598414528
 30
0.0
 10
267.2796297816
 20
127.1618554046
 30
0.0
 10
267.260370071
 20
127.1651898416
 30
0.0
 10
267.2310695211
 20
127.1682930055
 30
0.0
 10
267.1924095349
 20
127.1717479981
 30
0.0
 10
267.1442469079
 20
127.1752198864
 30
0.0
 10
267.061779988
 20
127.1803535224
 30
0.0
 10
266.995330335
 20
127.1836841843
 30
0.0
 10
266.9480448782
 20
127.1858788389
 30
0.0
  0
SPLINE
  5
388
100
AcDbEntity
  8
DTM_AXIS
100
AcDbSpline
 62
7
  6
CONTINUOUS
 70
0
 71
3
 72
9
 73
5
 74
0
 42
0.0000001
 43
0.0000001
 44
0.0000000001
 40
0.0
 40
0.0
 40
0.0
 40
0.0
 40
0.4271476962
 40
1.0
 40
1.0
 40
1.0
 40
1.0
 10
250.1842159062
 20
138.3542630845
 30
0.0
 10
250.1844873137
 20
138.3545663761
 30
0.0
 10
250.184821684
 20
138.3556921511
 30
0.0
 10
250.1838774261
 20
138.3563369936
 30
0.0
 10
250.1834207284
 20
138.3566359211
 30
0.0
  0
SPLINE
  5
389
100
AcDbEntity
  8
DTM_AXIS
100
AcDbSpline
 62
7
  6
CONTINUOUS
 70
0
 71
3
 72
14
 73
10
 74
0
 42
0.0000001
 43
0.0000001
 44
0.0000000001
 40
0.0
 40
0.0
 40
0.0
 40
0.0
 40
0.0295034004
 40
0.0865493417
 40
0.1713737338
 40
0.2837779351
 40
0.4233916655
 40
0.5897200985
 40
1.0
 40
1.0
 40
1.0
 40
1.0
 10
267.0613858556
 20
127.3093104669
 30
0.0
 10
267.0585377371
 20
127.3111746782
 30
0.0
 10
267.0484247799
 20
127.31318863
 30
0.0
 10
267.0291650692
 20
127.316523067
 30
0.0
 10
266.9998645194
 20
127.3196262309
 30
0.0
 10
266.9612045332
 20
127.3230812235
 30
0.0
 10
266.9130419061
 20
127.3265531118
 30
0.0
 10
266.8305749863
 20
127.3316867478
 30
0.0
 10
266.7641253332
 20
127.3350174097
 30
0.0
 10
266.7168398765
 20
127.3372120643
 30
0.0
  0
SPLINE
  5
38A
100
AcDbEntity
  8
DTM_AXIS
100
AcDbSpline
 62
7
  6
CONTINUOUS
 70
0
 71
3
 72
14
 73
10
 74
0
 42
0.0000001
 43
0.0000001
 44
0.0000000001
 40
0.0
 40
0.0
 40
0.0
 40
0.0
 40
0.0295034004
 40
0.0865493417
 40
0.1713737338
 40
0.2837779351
 40
0.4233916655
 40
0.5897200985
 40
1.0
 40
1.0
 40
1.0
 40
1.0
 10
266.8301808539
 20
127.4606436923
 30
0.0
 10
266.8273327353
 20
127.4625079036
 30
0.0
 10
266.8172197781
 20
127.4645218554
 30
0.0
 10
266.7979600675
 20
127.4678562924
 30
0.0
 10
266.7686595177
 20
127.4709594563
 30
0.0
 10
266.7299995315
 20
127.4744144489
 30
0.0
 10
266.6818369044
 20
127.4778863372
 30
0.0
 10
266.5993699845
 20
127.4830199732
 30
0.0
 10
266.5329203315
 20
127.4863506351
 30
0.0
 10
266.4856348747
 20
127.4885452897
 30
0.0
  0
SPLINE
  5
38B
100
AcDbEntity
  8
DTM_AXIS
100
AcDbSpline
 62
7
  6
CONTINUOUS
 70
0
 71
3
 72
14
 73
10
 74
0
 42
0.0000001
 43
0.0000001
 44
0.0000000001
 40
0.0
 40
0.0
 40
0.0
 40
0.0
 40
0.0295034004
 40
0.0865493417
 40
0.1713737338
 40
0.2837779351
 40
0.4233916655
 40
0.5897200985
 40
1.0
 40
1.0
 40
1.0
 40
1.0
 10
275.1535609166
 20
122.0126475779
 30
0.0
 10
275.1507127981
 20
122.0145117892
 30
0.0
 10
275.1405998408
 20
122.016525741
 30
0.0
 10
275.1213401302
 20
122.019860178
 30
0.0
 10
275.0920395804
 20
122.0229633419
 30
0.0
 10
275.0533795942
 20
122.0264183346
 30
0.0
 10
275.0052169671
 20
122.0298902228
 30
0.0
 10
274.9227500473
 20
122.0350238588
 30
0.0
 10
274.8563003942
 20
122.0383545207
 30
0.0
 10
274.8090149375
 20
122.0405491754
 30
0.0
  0
SPLINE
  5
38C
100
AcDbEntity
  8
DTM_AXIS
100
AcDbSpline
 62
7
  6
CONTINUOUS
 70
0
 71
3
 72
9
 73
5
 74
0
 42
0.0000001
 43
0.0000001
 44
0.0000000001
 40
0.0
 40
0.0
 40
0.0
 40
0.0
 40
0.4271476962
 40
1.0
 40
1.0
 40
1.0
 40
1.0
 10
256.4267509532
 20
134.2682659987
 30
0.0
 10
256.4270223607
 20
134.2685692903
 30
0.0
 10
256.4273567311
 20
134.2696950653
 30
0.0
 10
256.4264124732
 20
134.2703399078
 30
0.0
 10
256.4259557755
 20
134.2706388353
 30
0.0
  0
SPLINE
  5
38D
100
AcDbEntity
  8
DTM_AXIS
100
AcDbSpline
 62
7
  6
CONTINUOUS
 70
0
 71
3
 72
14
 73
10
 74
0
 42
0.0000001
 43
0.0000001
 44
0.0000000001
 40
0.0
 40
0.0
 40
0.0
 40
0.0
 40
0.0295034004
 40
0.0865493417
 40
0.1713737338
 40
0.2837779351
 40
0.4233916655
 40
0.5897200985
 40
1.0
 40
1.0
 40
1.0
 40
1.0
 10
266.5989758522
 20
127.6119769177
 30
0.0
 10
266.5961277336
 20
127.613841129
 30
0.0
 10
266.5860147764
 20
127.6158550808
 30
0.0
 10
266.5667550658
 20
127.6191895178
 30
0.0
 10
266.5374545159
 20
127.6222926817
 30
0.0
 10
266.4987945297
 20
127.6257476743
 30
0.0
 10
266.4506319026
 20
127.6292195626
 30
0.0
 10
266.3681649828
 20
127.6343531986
 30
0.0
 10
266.3017153297
 20
127.6376838605
 30
0.0
 10
266.254429873
 20
127.6398785151
 30
0.0
  0
SPLINE
  5
38E
100
AcDbEntity
  8
DTM_AXIS
100
AcDbSpline
 62
7
  6
CONTINUOUS
 70
0
 71
3
 72
14
 73
10
 74
0
 42
0.0000001
 43
0.0000001
 44
0.0000000001
 40
0.0
 40
0.0
 40
0.0
 40
0.0
 40
0.0295034004
 40
0.0865493417
 40
0.1713737338
 40
0.2837779351
 40
0.4233916655
 40
0.5897200985
 40
1.0
 40
1.0
 40
1.0
 40
1.0
 10
266.3677708504
 20
127.7633101431
 30
0.0
 10
266.3649227318
 20
127.7651743544
 30
0.0
 10
266.3548097746
 20
127.7671883062
 30
0.0
 10
266.335550064
 20
127.7705227432
 30
0.0
 10
266.3062495142
 20
127.7736259071
 30
0.0
 10
266.267589528
 20
127.7770808997
 30
0.0
 10
266.2194269009
 20
127.780552788
 30
0.0
 10
266.1369599811
 20
127.785686424
 30
0.0
 10
266.070510328
 20
127.7890170859
 30
0.0
 10
266.0232248712
 20
127.7912117405
 30
0.0
  0
SPLINE
  5
38F
100
AcDbEntity
  8
DTM_AXIS
100
AcDbSpline
 62
7
  6
CONTINUOUS
 70
0
 71
3
 72
9
 73
5
 74
0
 42
0.0000001
 43
0.0000001
 44
0.0000000001
 40
0.0
 40
0.0
 40
0.0
 40
0.0
 40
0.4271476962
 40
1.0
 40
1.0
 40
1.0
 40
1.0
 10
250.4154209079
 20
138.2029298591
 30
0.0
 10
250.4156923154
 20
138.2032331507
 30
0.0
 10
250.4160266858
 20
138.2043589257
 30
0.0
 10
250.4150824278
 20
138.2050037682
 30
0.0
 10
250.4146257302
 20
138.2053026957
 30
0.0
  0
SPLINE
  5
390
100
AcDbEntity
  8
DTM_AXIS
100
AcDbSpline
 62
7
  6
CONTINUOUS
 70
0
 71
3
 72
9
 73
5
 74
0
 42
0.0000001
 43
0.0000001
 44
0.0000000001
 40
0.0
 40
0.0
 40
0.0
 40
0.0
 40
0.4271476962
 40
1.0
 40
1.0
 40
1.0
 40
1.0
 10
256.657955955
 20
134.1169327733
 30
0.0
 10
256.6582273625
 20
134.1172360649
 30
0.0
 10
256.6585617328
 20
134.1183618399
 30
0.0
 10
256.6576174749
 20
134.1190066824
 30
0.0
 10
256.6571607772
 20
134.1193056099
 30
0.0
  0
SPLINE
  5
391
100
AcDbEntity
  8
DTM_AXIS
100
AcDbSpline
 62
7
  6
CONTINUOUS
 70
0
 71
3
 72
14
 73
10
 74
0
 42
0.0000001
 43
0.0000001
 44
0.0000000001
 40
0.0
 40
0.0
 40
0.0
 40
0.0
 40
0.0295034004
 40
0.0865493417
 40
0.1713737338
 40
0.2837779351
 40
0.4233916655
 40
0.5897200985
 40
1.0
 40
1.0
 40
1.0
 40
1.0
 10
266.1365658487
 20
127.9146433685
 30
0.0
 10
266.1337177301
 20
127.9165075798
 30
0.0
 10
266.1236047729
 20
127.9185215316
 30
0.0
 10
266.1043450623
 20
127.9218559686
 30
0.0
 10
266.0750445124
 20
127.9249591325
 30
0.0
 10
266.0363845262
 20
127.9284141251
 30
0.0
 10
265.9882218992
 20
127.9318860134
 30
0.0
 10
265.9057549793
 20
127.9370196494
 30
0.0
 10
265.8393053262
 20
127.9403503113
 30
0.0
 10
265.7920198695
 20
127.9425449659
 30
0.0
  0
SPLINE
  5
392
100
AcDbEntity
  8
DTM_AXIS
100
AcDbSpline
 62
7
  6
CONTINUOUS
 70
0
 71
3
 72
14
 73
10
 74
0
 42
0.0000001
 43
0.0000001
 44
0.0000000001
 40
0.0
 40
0.0
 40
0.0
 40
0.0
 40
0.0295034004
 40
0.0865493417
 40
0.1713737338
 40
0.2837779351
 40
0.4233916655
 40
0.5897200985
 40
1.0
 40
1.0
 40
1.0
 40
1.0
 10
277.2344059323
 20
120.6506485493
 30
0.0
 10
277.2315578137
 20
120.6525127606
 30
0.0
 10
277.2214448565
 20
120.6545267124
 30
0.0
 10
277.2021851459
 20
120.6578611494
 30
0.0
 10
277.1728845961
 20
120.6609643133
 30
0.0
 10
277.1342246099
 20
120.664419306
 30
0.0
 10
277.0860619828
 20
120.6678911942
 30
0.0
 10
277.003595063
 20
120.6730248302
 30
0.0
 10
276.9371454099
 20
120.6763554921
 30
0.0
 10
276.8898599531
 20
120.6785501468
 30
0.0
  0
SPLINE
  5
393
100
AcDbEntity
  8
DTM_AXIS
100
AcDbSpline
 62
7
  6
CONTINUOUS
 70
0
 71
3
 72
14
 73
10
 74
0
 42
0.0000001
 43
0.0000001
 44
0.0000000001
 40
0.0
 40
0.0
 40
0.0
 40
0.0
 40
0.0295034004
 40
0.0865493417
 40
0.1713737338
 40
0.2837779351
 40
0.4233916655
 40
0.5897200985
 40
1.0
 40
1.0
 40
1.0
 40
1.0
 10
265.9053608469
 20
128.0659765939
 30
0.0
 10
265.9025127284
 20
128.0678408052
 30
0.0
 10
265.8923997711
 20
128.069854757
 30
0.0
 10
265.8731400605
 20
128.073189194
 30
0.0
 10
265.8438395107
 20
128.0762923579
 30
0.0
 10
265.8051795245
 20
128.0797473505
 30
0.0
 10
265.7570168974
 20
128.0832192388
 30
0.0
 10
265.6745499776
 20
128.0883528748
 30
0.0
 10
265.6081003245
 20
128.0916835367
 30
0.0
 10
265.5608148678
 20
128.0938781913
 30
0.0
  0
SPLINE
  5
394
100
AcDbEntity
  8
DTM_AXIS
100
AcDbSpline
 62
7
  6
CONTINUOUS
 70
0
 71
3
 72
14
 73
10
 74
0
 42
0.0000001
 43
0.0000001
 44
0.0000000001
 40
0.0
 40
0.0
 40
0.0
 40
0.0
 40
0.0295034004
 40
0.0865493417
 40
0.1713737338
 40
0.2837779351
 40
0.4233916655
 40
0.5897200985
 40
1.0
 40
1.0
 40
1.0
 40
1.0
 10
274.9223559149
 20
122.1639808033
 30
0.0
 10
274.9195077963
 20
122.1658450146
 30
0.0
 10
274.9093948391
 20
122.1678589664
 30
0.0
 10
274.8901351285
 20
122.1711934034
 30
0.0
 10
274.8608345786
 20
122.1742965673
 30
0.0
 10
274.8221745924
 20
122.17775156
 30
0.0
 10
274.7740119654
 20
122.1812234482
 30
0.0
 10
274.6915450455
 20
122.1863570842
 30
0.0
 10
274.6250953925
 20
122.1896877461
 30
0.0
 10
274.5778099357
 20
122.1918824008
 30
0.0
  0
SPLINE
  5
395
100
AcDbEntity
  8
DTM_AXIS
100
AcDbSpline
 62
7
  6
CONTINUOUS
 70
0
 71
3
 72
14
 73
10
 74
0
 42
0.0000001
 43
0.0000001
 44
0.0000000001
 40
0.0
 40
0.0
 40
0.0
 40
0.0
 40
0.0295034004
 40
0.0865493417
 40
0.1713737338
 40
0.2837779351
 40
0.4233916655
 40
0.5897200985
 40
1.0
 40
1.0
 40
1.0
 40
1.0
 10
265.6741558452
 20
128.2173098193
 30
0.0
 10
265.6713077266
 20
128.2191740306
 30
0.0
 10
265.6611947694
 20
128.2211879824
 30
0.0
 10
265.6419350588
 20
128.2245224194
 30
0.0
 10
265.6126345089
 20
128.2276255833
 30
0.0
 10
265.5739745227
 20
128.2310805759
 30
0.0
 10
265.5258118957
 20
128.2345524642
 30
0.0
 10
265.4433449758
 20
128.2396861002
 30
0.0
 10
265.3768953228
 20
128.2430167621
 30
0.0
 10
265.329609866
 20
128.2452114167
 30
0.0
  0
SPLINE
  5
396
100
AcDbEntity
  8
DTM_AXIS
100
AcDbSpline
 62
7
  6
CONTINUOUS
 70
0
 71
3
 72
9
 73
5
 74
0
 42
0.0000001
 43
0.0000001
 44
0.0000000001
 40
0.0
 40
0.0
 40
0.0
 40
0.0
 40
0.4271476962
 40
1.0
 40
1.0
 40
1.0
 40
1.0
 10
256.8891609567
 20
133.9655995479
 30
0.0
 10
256.8894323642
 20
133.9659028395
 30
0.0
 10
256.8897667346
 20
133.9670286145
 30
0.0
 10
256.8888224766
 20
133.967673457
 30
0.0
 10
256.888365779
 20
133.9679723845
 30
0.0
  0
SPLINE
  5
397
100
AcDbEntity
  8
DTM_AXIS
100
AcDbSpline
 62
7
  6
CONTINUOUS
 70
0
 71
3
 72
14
 73
10
 74
0
 42
0.0000001
 43
0.0000001
 44
0.0000000001
 40
0.0
 40
0.0
 40
0.0
 40
0.0
 40
0.0295034004
 40
0.0865493417
 40
0.1713737338
 40
0.2837779351
 40
0.4233916655
 40
0.5897200985
 40
1.0
 40
1.0
 40
1.0
 40
1.0
 10
265.4429508434
 20
128.3686430447
 30
0.0
 10
265.4401027249
 20
128.370507256
 30
0.0
 10
265.4299897677
 20
128.3725212078
 30
0.0
 10
265.410730057
 20
128.3758556448
 30
0.0
 10
265.3814295072
 20
128.3789588087
 30
0.0
 10
265.342769521
 20
128.3824138013
 30
0.0
 10
265.2946068939
 20
128.3858856896
 30
0.0
 10
265.2121399741
 20
128.3910193256
 30
0.0
 10
265.145690321
 20
128.3943499875
 30
0.0
 10
265.0984048643
 20
128.3965446421
 30
0.0
  0
SPLINE
  5
398
100
AcDbEntity
  8
DTM_AXIS
100
AcDbSpline
 62
7
  6
CONTINUOUS
 70
0
 71
3
 72
9
 73
5
 74
0
 42
0.0000001
 43
0.0000001
 44
0.0000000001
 40
0.0
 40
0.0
 40
0.0
 40
0.0
 40
0.4271476962
 40
1.0
 40
1.0
 40
1.0
 40
1.0
 10
250.6466259097
 20
138.0515966337
 30
0.0
 10
250.6468973172
 20
138.0518999253
 30
0.0
 10
250.6472316875
 20
138.0530257003
 30
0.0
 10
250.6462874296
 20
138.0536705428
 30
0.0
 10
250.6458307319
 20
138.0539694703
 30
0.0
  0
SPLINE
  5
399
100
AcDbEntity
  8
DTM_AXIS
100
AcDbSpline
 62
7
  6
CONTINUOUS
 70
0
 71
3
 72
14
 73
10
 74
0
 42
0.0000001
 43
0.0000001
 44
0.0000000001
 40
0.0
 40
0.0
 40
0.0
 40
0.0
 40
0.0295034004
 40
0.0865493417
 40
0.1713737338
 40
0.2837779351
 40
0.4233916655
 40
0.5897200985
 40
1.0
 40
1.0
 40
1.0
 40
1.0
 10
265.2117458417
 20
128.5199762701
 30
0.0
 10
265.2088977231
 20
128.5218404814
 30
0.0
 10
265.1987847659
 20
128.5238544332
 30
0.0
 10
265.1795250553
 20
128.5271888702
 30
0.0
 10
265.1502245055
 20
128.5302920341
 30
0.0
 10
265.1115645193
 20
128.5337470267
 30
0.0
 10
265.0634018922
 20
128.537218915
 30
0.0
 10
264.9809349723
 20
128.542352551
 30
0.0
 10
264.9144853193
 20
128.5456832129
 30
0.0
 10
264.8671998625
 20
128.5478778675
 30
0.0
  0
SPLINE
  5
39A
100
AcDbEntity
  8
DTM_AXIS
100
AcDbSpline
 62
7
  6
CONTINUOUS
 70
0
 71
3
 72
14
 73
10
 74
0
 42
0.0000001
 43
0.0000001
 44
0.0000000001
 40
0.0
 40
0.0
 40
0.0
 40
0.0
 40
0.0295034004
 40
0.0865493417
 40
0.1713737338
 40
0.2837779351
 40
0.4233916655
 40
0.5897200985
 40
1.0
 40
1.0
 40
1.0
 40
1.0
 10
264.98054084
 20
128.6713094955
 30
0.0
 10
264.9776927214
 20
128.6731737068
 30
0.0
 10
264.9675797642
 20
128.6751876586
 30
0.0
 10
264.9483200536
 20
128.6785220956
 30
0.0
 10
264.9190195037
 20
128.6816252595
 30
0.0
 10
264.8803595175
 20
128.6850802521
 30
0.0
 10
264.8321968904
 20
128.6885521404
 30
0.0
 10
264.7497299706
 20
128.6936857764
 30
0.0
 10
264.6832803175
 20
128.6970164383
 30
0.0
 10
264.6359948608
 20
128.6992110929
 30
0.0
  0
SPLINE
  5
39B
100
AcDbEntity
  8
DTM_AXIS
100
AcDbSpline
 62
7
  6
CONTINUOUS
 70
0
 71
3
 72
14
 73
10
 74
0
 42
0.0000001
 43
0.0000001
 44
0.0000000001
 40
0.0
 40
0.0
 40
0.0
 40
0.0
 40
0.0295034004
 40
0.0865493417
 40
0.1713737338
 40
0.2837779351
 40
0.4233916655
 40
0.5897200985
 40
1.0
 40
1.0
 40
1.0
 40
1.0
 10
274.6911509132
 20
122.3153140287
 30
0.0
 10
274.6883027946
 20
122.31717824
 30
0.0
 10
274.6781898374
 20
122.3191921918
 30
0.0
 10
274.6589301267
 20
122.3225266288
 30
0.0
 10
274.6296295769
 20
122.3256297927
 30
0.0
 10
274.5909695907
 20
122.3290847854
 30
0.0
 10
274.5428069636
 20
122.3325566736
 30
0.0
 10
274.4603400438
 20
122.3376903096
 30
0.0
 10
274.3938903907
 20
122.3410209715
 30
0.0
 10
274.346604934
 20
122.3432156262
 30
0.0
  0
SPLINE
  5
39C
100
AcDbEntity
  8
DTM_AXIS
100
AcDbSpline
 62
7
  6
CONTINUOUS
 70
0
 71
3
 72
14
 73
10
 74
0
 42
0.0000001
 43
0.0000001
 44
0.0000000001
 40
0.0
 40
0.0
 40
0.0
 40
0.0
 40
0.0295034004
 40
0.0865493417
 40
0.1713737338
 40
0.2837779351
 40
0.4233916655
 40
0.5897200985
 40
1.0
 40
1.0
 40
1.0
 40
1.0
 10
264.7493358382
 20
128.8226427209
 30
0.0
 10
264.7464877197
 20
128.8245069322
 30
0.0
 10
264.7363747624
 20
128.826520884
 30
0.0
 10
264.7171150518
 20
128.829855321
 30
0.0
 10
264.687814502
 20
128.8329584849
 30
0.0
 10
264.6491545158
 20
128.8364134775
 30
0.0
 10
264.6009918887
 20
128.8398853658
 30
0.0
 10
264.5185249689
 20
128.8450190018
 30
0.0
 10
264.4520753158
 20
128.8483496637
 30
0.0
 10
264.4047898591
 20
128.8505443183
 30
0.0
  0
SPLINE
  5
39D
100
AcDbEntity
  8
DTM_AXIS
100
AcDbSpline
 62
7
  6
CONTINUOUS
 70
0
 71
3
 72
9
 73
5
 74
0
 42
0.0000001
 43
0.0000001
 44
0.0000000001
 40
0.0
 40
0.0
 40
0.0
 40
0.0
 40
0.4271476962
 40
1.0
 40
1.0
 40
1.0
 40
1.0
 10
257.1203659585
 20
133.8142663225
 30
0.0
 10
257.120637366
 20
133.8145696141
 30
0.0
 10
257.1209717363
 20
133.8156953891
 30
0.0
 10
257.1200274784
 20
133.8163402316
 30
0.0
 10
257.1195707807
 20
133.8166391591
 30
0.0
  0
SPLINE
  5
39E
100
AcDbEntity
  8
DTM_AXIS
100
AcDbSpline
 62
7
  6
CONTINUOUS
 70
0
 71
3
 72
14
 73
10
 74
0
 42
0.0000001
 43
0.0000001
 44
0.0000000001
 40
0.0
 40
0.0
 40
0.0
 40
0.0
 40
0.0295034004
 40
0.0865493417
 40
0.1713737338
 40
0.2837779351
 40
0.4233916655
 40
0.5897200985
 40
1.0
 40
1.0
 40
1.0
 40
1.0
 10
264.5181308365
 20
128.9739759463
 30
0.0
 10
264.5152827179
 20
128.9758401576
 30
0.0
 10
264.5051697607
 20
128.9778541094
 30
0.0
 10
264.4859100501
 20
128.9811885464
 30
0.0
 10
264.4566095002
 20
128.9842917103
 30
0.0
 10
264.417949514
 20
128.9877467029
 30
0.0
 10
264.369786887
 20
128.9912185912
 30
0.0
 10
264.2873199671
 20
128.9963522272
 30
0.0
 10
264.220870314
 20
128.9996828891
 30
0.0
 10
264.1735848573
 20
129.0018775437
 30
0.0
  0
SPLINE
  5
39F
100
AcDbEntity
  8
DTM_AXIS
100
AcDbSpline
 62
7
  6
CONTINUOUS
 70
0
 71
3
 72
9
 73
5
 74
0
 42
0.0000001
 43
0.0000001
 44
0.0000000001
 40
0.0
 40
0.0
 40
0.0
 40
0.0
 40
0.4271476962
 40
1.0
 40
1.0
 40
1.0
 40
1.0
 10
250.8778309114
 20
137.9002634083
 30
0.0
 10
250.8781023189
 20
137.9005666999
 30
0.0
 10
250.8784366893
 20
137.9016924749
 30
0.0
 10
250.8774924313
 20
137.9023373174
 30
0.0
 10
250.8770357337
 20
137.9026362449
 30
0.0
  0
SPLINE
  5
3A0
100
AcDbEntity
  8
DTM_AXIS
100
AcDbSpline
 62
7
  6
CONTINUOUS
 70
0
 71
3
 72
14
 73
10
 74
0
 42
0.0000001
 43
0.0000001
 44
0.0000000001
 40
0.0
 40
0.0
 40
0.0
 40
0.0
 40
0.0295034004
 40
0.0865493417
 40
0.1713737338
 40
0.2837779351
 40
0.4233916655
 40
0.5897200985
 40
1.0
 40
1.0
 40
1.0
 40
1.0
 10
264.2869258347
 20
129.1253091717
 30
0.0
 10
264.2840777162
 20
129.127173383
 30
0.0
 10
264.2739647589
 20
129.1291873348
 30
0.0
 10
264.2547050483
 20
129.1325217718
 30
0.0
 10
264.2254044985
 20
129.1356249357
 30
0.0
 10
264.1867445123
 20
129.1390799283
 30
0.0
 10
264.1385818852
 20
129.1425518166
 30
0.0
 10
264.0561149654
 20
129.1476854526
 30
0.0
 10
263.9896653123
 20
129.1510161145
 30
0.0
 10
263.9423798556
 20
129.1532107691
 30
0.0
  0
SPLINE
  5
3A1
100
AcDbEntity
  8
DTM_AXIS
100
AcDbSpline
 62
7
  6
CONTINUOUS
 70
0
 71
3
 72
9
 73
5
 74
0
 42
0.0000001
 43
0.0000001
 44
0.0000000001
 40
0.0
 40
0.0
 40
0.0
 40
0.0
 40
0.4271476962
 40
1.0
 40
1.0
 40
1.0
 40
1.0
 10
248.3345758923
 20
139.5649288877
 30
0.0
 10
248.3348472997
 20
139.5652321793
 30
0.0
 10
248.3351816701
 20
139.5663579543
 30
0.0
 10
248.3342374122
 20
139.5670027968
 30
0.0
 10
248.3337807145
 20
139.5673017243
 30
0.0
  0
SPLINE
  5
3A2
100
AcDbEntity
  8
DTM_AXIS
100
AcDbSpline
 62
7
  6
CONTINUOUS
 70
0
 71
3
 72
14
 73
10
 74
0
 42
0.0000001
 43
0.0000001
 44
0.0000000001
 40
0.0
 40
0.0
 40
0.0
 40
0.0
 40
0.0295034004
 40
0.0865493417
 40
0.1713737338
 40
0.2837779351
 40
0.4233916655
 40
0.5897200985
 40
1.0
 40
1.0
 40
1.0
 40
1.0
 10
264.055720833
 20
129.2766423971
 30
0.0
 10
264.0528727144
 20
129.2785066084
 30
0.0
 10
264.0427597572
 20
129.2805205602
 30
0.0
 10
264.0235000466
 20
129.2838549972
 30
0.0
 10
263.9941994968
 20
129.2869581611
 30
0.0
 10
263.9555395105
 20
129.2904131537
 30
0.0
 10
263.9073768835
 20
129.293885042
 30
0.0
 10
263.8249099636
 20
129.299018678
 30
0.0
 10
263.7584603106
 20
129.3023493399
 30
0.0
 10
263.7111748538
 20
129.3045439945
 30
0.0
  0
SPLINE
  5
3A3
100
AcDbEntity
  8
DTM_AXIS
100
AcDbSpline
 62
7
  6
CONTINUOUS
 70
0
 71
3
 72
9
 73
5
 74
0
 42
0.0000001
 43
0.0000001
 44
0.0000000001
 40
0.0
 40
0.0
 40
0.0
 40
0.0
 40
0.4271476962
 40
1.0
 40
1.0
 40
1.0
 40
1.0
 10
257.3515709602
 20
133.6629330971
 30
0.0
 10
257.3518423677
 20
133.6632363887
 30
0.0
 10
257.3521767381
 20
133.6643621637
 30
0.0
 10
257.3512324801
 20
133.6650070062
 30
0.0
 10
257.3507757825
 20
133.6653059337
 30
0.0
  0
SPLINE
  5
3A4
100
AcDbEntity
  8
DTM_AXIS
100
AcDbSpline
 62
7
  6
CONTINUOUS
 70
0
 71
3
 72
14
 73
10
 74
0
 42
0.0000001
 43
0.0000001
 44
0.0000000001
 40
0.0
 40
0.0
 40
0.0
 40
0.0
 40
0.0295034004
 40
0.0865493417
 40
0.1713737338
 40
0.2837779351
 40
0.4233916655
 40
0.5897200985
 40
1.0
 40
1.0
 40
1.0
 40
1.0
 10
274.4599459114
 20
122.4666472541
 30
0.0
 10
274.4570977928
 20
122.4685114654
 30
0.0
 10
274.4469848356
 20
122.4705254172
 30
0.0
 10
274.427725125
 20
122.4738598542
 30
0.0
 10
274.3984245752
 20
122.4769630181
 30
0.0
 10
274.359764589
 20
122.4804180108
 30
0.0
 10
274.3116019619
 20
122.483889899
 30
0.0
 10
274.229135042
 20
122.489023535
 30
0.0
 10
274.162685389
 20
122.4923541969
 30
0.0
 10
274.1153999322
 20
122.4945488516
 30
0.0
  0
SPLINE
  5
3A5
100
AcDbEntity
  8
DTM_AXIS
100
AcDbSpline
 62
7
  6
CONTINUOUS
 70
0
 71
3
 72
14
 73
10
 74
0
 42
0.0000001
 43
0.0000001
 44
0.0000000001
 40
0.0
 40
0.0
 40
0.0
 40
0.0
 40
0.0295034004
 40
0.0865493417
 40
0.1713737338
 40
0.2837779351
 40
0.4233916655
 40
0.5897200985
 40
1.0
 40
1.0
 40
1.0
 40
1.0
 10
263.8245158313
 20
129.4279756225
 30
0.0
 10
263.8216677127
 20
129.4298398338
 30
0.0
 10
263.8115547555
 20
129.4318537856
 30
0.0
 10
263.7922950448
 20
129.4351882226
 30
0.0
 10
263.762994495
 20
129.4382913865
 30
0.0
 10
263.7243345088
 20
129.4417463791
 30
0.0
 10
263.6761718817
 20
129.4452182674
 30
0.0
 10
263.5937049619
 20
129.4503519034
 30
0.0
 10
263.5272553088
 20
129.4536825653
 30
0.0
 10
263.4799698521
 20
129.4558772199
 30
0.0
  0
SPLINE
  5
3A6
100
AcDbEntity
  8
DTM_AXIS
100
AcDbSpline
 62
7
  6
CONTINUOUS
 70
0
 71
3
 72
14
 73
10
 74
0
 42
0.0000001
 43
0.0000001
 44
0.0000000001
 40
0.0
 40
0.0
 40
0.0
 40
0.0
 40
0.0295034004
 40
0.0865493417
 40
0.1713737338
 40
0.2837779351
 40
0.4233916655
 40
0.5897200985
 40
1.0
 40
1.0
 40
1.0
 40
1.0
 10
263.5933108295
 20
129.5793088479
 30
0.0
 10
263.5904627109
 20
129.5811730592
 30
0.0
 10
263.5803497537
 20
129.583187011
 30
0.0
 10
263.5610900431
 20
129.586521448
 30
0.0
 10
263.5317894933
 20
129.5896246119
 30
0.0
 10
263.4931295071
 20
129.5930796045
 30
0.0
 10
263.44496688
 20
129.5965514928
 30
0.0
 10
263.3624999601
 20
129.6016851288
 30
0.0
 10
263.2960503071
 20
129.6050157907
 30
0.0
 10
263.2487648503
 20
129.6072104453
 30
0.0
  0
SPLINE
  5
3A7
100
AcDbEntity
  8
DTM_AXIS
100
AcDbSpline
 62
7
  6
CONTINUOUS
 70
0
 71
3
 72
9
 73
5
 74
0
 42
0.0000001
 43
0.0000001
 44
0.0000000001
 40
0.0
 40
0.0
 40
0.0
 40
0.0
 40
0.4271476962
 40
1.0
 40
1.0
 40
1.0
 40
1.0
 10
251.1090359132
 20
137.7489301829
 30
0.0
 10
251.1093073206
 20
137.7492334745
 30
0.0
 10
251.109641691
 20
137.7503592495
 30
0.0
 10
251.1086974331
 20
137.751004092
 30
0.0
 10
251.1082407354
 20
137.7513030195
 30
0.0
  0
SPLINE
  5
3A8
100
AcDbEntity
  8
DTM_AXIS
100
AcDbSpline
 62
7
  6
CONTINUOUS
 70
0
 71
3
 72
9
 73
5
 74
0
 42
0.0000001
 43
0.0000001
 44
0.0000000001
 40
0.0
 40
0.0
 40
0.0
 40
0.0
 40
0.4271476962
 40
1.0
 40
1.0
 40
1.0
 40
1.0
 10
277.4664061118
 20
120.4969424874
 30
0.0
 10
277.4666775193
 20
120.4972457789
 30
0.0
 10
277.4670118897
 20
120.4983715539
 30
0.0
 10
277.4660676317
 20
120.4990163964
 30
0.0
 10
277.4656109341
 20
120.4993153239
 30
0.0
  0
SPLINE
  5
3A9
100
AcDbEntity
  8
DTM_AXIS
100
AcDbSpline
 62
7
  6
CONTINUOUS
 70
0
 71
3
 72
14
 73
10
 74
0
 42
0.0000001
 43
0.0000001
 44
0.0000000001
 40
0.0
 40
0.0
 40
0.0
 40
0.0
 40
0.0295034004
 40
0.0865493417
 40
0.1713737338
 40
0.2837779351
 40
0.4233916655
 40
0.5897200985
 40
1.0
 40
1.0
 40
1.0
 40
1.0
 10
263.3621058278
 20
129.7306420733
 30
0.0
 10
263.3592577092
 20
129.7325062846
 30
0.0
 10
263.349144752
 20
129.7345202364
 30
0.0
 10
263.3298850414
 20
129.7378546734
 30
0.0
 10
263.3005844915
 20
129.7409578373
 30
0.0
 10
263.2619245053
 20
129.7444128299
 30
0.0
 10
263.2137618782
 20
129.7478847182
 30
0.0
 10
263.1312949584
 20
129.7530183542
 30
0.0
 10
263.0648453053
 20
129.7563490161
 30
0.0
 10
263.0175598486
 20
129.7585436707
 30
0.0
  0
SPLINE
  5
3AA
100
AcDbEntity
  8
DTM_AXIS
100
AcDbSpline
 62
7
  6
CONTINUOUS
 70
0
 71
3
 72
9
 73
5
 74
0
 42
0.0000001
 43
0.0000001
 44
0.0000000001
 40
0.0
 40
0.0
 40
0.0
 40
0.0
 40
0.4271476962
 40
1.0
 40
1.0
 40
1.0
 40
1.0
 10
257.582775962
 20
133.5115998717
 30
0.0
 10
257.5830473694
 20
133.5119031633
 30
0.0
 10
257.5833817398
 20
133.5130289383
 30
0.0
 10
257.5824374819
 20
133.5136737808
 30
0.0
 10
257.5819807842
 20
133.5139727083
 30
0.0
  0
SPLINE
  5
3AB
100
AcDbEntity
  8
DTM_AXIS
100
AcDbSpline
 62
7
  6
CONTINUOUS
 70
0
 71
3
 72
9
 73
5
 74
0
 42
0.0000001
 43
0.0000001
 44
0.0000000001
 40
0.0
 40
0.0
 40
0.0
 40
0.0
 40
0.4271476962
 40
1.0
 40
1.0
 40
1.0
 40
1.0
 10
262.6692860003
 20
130.1822689129
 30
0.0
 10
262.6695574078
 20
130.1825722045
 30
0.0
 10
262.6698917781
 20
130.1836979795
 30
0.0
 10
262.6689475202
 20
130.184342822
 30
0.0
 10
262.6684908225
 20
130.1846417495
 30
0.0
  0
SPLINE
  5
3AC
100
AcDbEntity
  8
DTM_AXIS
100
AcDbSpline
 62
7
  6
CONTINUOUS
 70
0
 71
3
 72
9
 73
5
 74
0
 42
0.0000001
 43
0.0000001
 44
0.0000000001
 40
0.0
 40
0.0
 40
0.0
 40
0.0
 40
0.4271476962
 40
1.0
 40
1.0
 40
1.0
 40
1.0
 10
277.2352011101
 20
120.6482757128
 30
0.0
 10
277.2354725176
 20
120.6485790043
 30
0.0
 10
277.2358068879
 20
120.6497047793
 30
0.0
 10
277.23486263
 20
120.6503496218
 30
0.0
 10
277.2344059323
 20
120.6506485493
 30
0.0
  0
SPLINE
  5
3AD
100
AcDbEntity
  8
DTM_AXIS
100
AcDbSpline
 62
7
  6
CONTINUOUS
 70
0
 71
3
 72
14
 73
10
 74
0
 42
0.0000001
 43
0.0000001
 44
0.0000000001
 40
0.0
 40
0.0
 40
0.0
 40
0.0
 40
0.0295034004
 40
0.0865493417
 40
0.1713737338
 40
0.2837779351
 40
0.4233916655
 40
0.5897200985
 40
1.0
 40
1.0
 40
1.0
 40
1.0
 10
263.130900826
 20
129.8819752987
 30
0.0
 10
263.1280527075
 20
129.88383951
 30
0.0
 10
263.1179397502
 20
129.8858534618
 30
0.0
 10
263.0986800396
 20
129.8891878988
 30
0.0
 10
263.0693794898
 20
129.8922910627
 30
0.0
 10
263.0307195036
 20
129.8957460553
 30
0.0
 10
262.9825568765
 20
129.8992179436
 30
0.0
 10
262.9000899567
 20
129.9043515796
 30
0.0
 10
262.8336403036
 20
129.9076822415
 30
0.0
 10
262.7863548469
 20
129.9098768961
 30
0.0
  0
SPLINE
  5
3AE
100
AcDbEntity
  8
DTM_AXIS
100
AcDbSpline
 62
7
  6
CONTINUOUS
 70
0
 71
3
 72
14
 73
10
 74
0
 42
0.0000001
 43
0.0000001
 44
0.0000000001
 40
0.0
 40
0.0
 40
0.0
 40
0.0
 40
0.0295034004
 40
0.0865493417
 40
0.1713737338
 40
0.2837779351
 40
0.4233916655
 40
0.5897200985
 40
1.0
 40
1.0
 40
1.0
 40
1.0
 10
274.2287409097
 20
122.6179804795
 30
0.0
 10
274.2258927911
 20
122.6198446908
 30
0.0
 10
274.2157798339
 20
122.6218586426
 30
0.0
 10
274.1965201233
 20
122.6251930796
 30
0.0
 10
274.1672195734
 20
122.6282962435
 30
0.0
 10
274.1285595872
 20
122.6317512362
 30
0.0
 10
274.0803969601
 20
122.6352231244
 30
0.0
 10
273.9979300403
 20
122.6403567604
 30
0.0
 10
273.9314803872
 20
122.6436874223
 30
0.0
 10
273.8841949305
 20
122.645882077
 30
0.0
  0
SPLINE
  5
3AF
100
AcDbEntity
  8
DTM_AXIS
100
AcDbSpline
 62
7
  6
CONTINUOUS
 70
0
 71
3
 72
14
 73
10
 74
0
 42
0.0000001
 43
0.0000001
 44
0.0000000001
 40
0.0
 40
0.0
 40
0.0
 40
0.0
 40
0.0295034004
 40
0.0865493417
 40
0.1713737338
 40
0.2837779351
 40
0.4233916655
 40
0.5897200985
 40
1.0
 40
1.0
 40
1.0
 40
1.0
 10
262.8996958243
 20
130.0333085241
 30
0.0
 10
262.8968477057
 20
130.0351727354
 30
0.0
 10
262.8867347485
 20
130.0371866872
 30
0.0
 10
262.8674750379
 20
130.0405211242
 30
0.0
 10
262.838174488
 20
130.0436242881
 30
0.0
 10
262.7995145018
 20
130.0470792807
 30
0.0
 10
262.7513518748
 20
130.050551169
 30
0.0
 10
262.6688849549
 20
130.055684805
 30
0.0
 10
262.6024353018
 20
130.0590154669
 30
0.0
 10
262.5551498451
 20
130.0612101215
 30
0.0
  0
SPLINE
  5
3B0
100
AcDbEntity
  8
DTM_AXIS
100
AcDbSpline
 62
7
  6
CONTINUOUS
 70
0
 71
3
 72
9
 73
5
 74
0
 42
0.0000001
 43
0.0000001
 44
0.0000000001
 40
0.0
 40
0.0
 40
0.0
 40
0.0
 40
0.4271476962
 40
1.0
 40
1.0
 40
1.0
 40
1.0
 10
277.0039961083
 20
120.7996089382
 30
0.0
 10
277.0042675158
 20
120.7999122297
 30
0.0
 10
277.0046018862
 20
120.8010380047
 30
0.0
 10
277.0036576282
 20
120.8016828472
 30
0.0
 10
277.0032009306
 20
120.8019817747
 30
0.0
  0
SPLINE
  5
3B1
100
AcDbEntity
  8
DTM_AXIS
100
AcDbSpline
 62
7
  6
CONTINUOUS
 70
0
 71
3
 72
14
 73
10
 74
0
 42
0.0000001
 43
0.0000001
 44
0.0000000001
 40
0.0
 40
0.0
 40
0.0
 40
0.0
 40
0.0295034004
 40
0.0865493417
 40
0.1713737338
 40
0.2837779351
 40
0.4233916655
 40
0.5897200985
 40
1.0
 40
1.0
 40
1.0
 40
1.0
 10
262.6684908225
 20
130.1846417495
 30
0.0
 10
262.665642704
 20
130.1865059608
 30
0.0
 10
262.6555297467
 20
130.1885199126
 30
0.0
 10
262.6362700361
 20
130.1918543496
 30
0.0
 10
262.6069694863
 20
130.1949575135
 30
0.0
 10
262.5683095001
 20
130.1984125061
 30
0.0
 10
262.520146873
 20
130.2018843944
 30
0.0
 10
262.4376799532
 20
130.2070180304
 30
0.0
 10
262.3712303001
 20
130.2103486923
 30
0.0
 10
262.3239448434
 20
130.2125433469
 30
0.0
  0
SPLINE
  5
3B2
100
AcDbEntity
  8
DTM_AXIS
100
AcDbSpline
 62
7
  6
CONTINUOUS
 70
0
 71
3
 72
9
 73
5
 74
0
 42
0.0000001
 43
0.0000001
 44
0.0000000001
 40
0.0
 40
0.0
 40
0.0
 40
0.0
 40
0.4271476962
 40
1.0
 40
1.0
 40
1.0
 40
1.0
 10
257.8139809637
 20
133.3602666463
 30
0.0
 10
257.8142523712
 20
133.3605699379
 30
0.0
 10
257.8145867415
 20
133.3616957129
 30
0.0
 10
257.8136424836
 20
133.3623405554
 30
0.0
 10
257.8131857859
 20
133.3626394829
 30
0.0
  0
SPLINE
  5
3B3
100
AcDbEntity
  8
DTM_AXIS
100
AcDbSpline
 62
7
  6
CONTINUOUS
 70
0
 71
3
 72
9
 73
5
 74
0
 42
0.0000001
 43
0.0000001
 44
0.0000000001
 40
0.0
 40
0.0
 40
0.0
 40
0.0
 40
0.4271476962
 40
1.0
 40
1.0
 40
1.0
 40
1.0
 10
251.3402409149
 20
137.5975969575
 30
0.0
 10
251.3405123224
 20
137.5979002491
 30
0.0
 10
251.3408466928
 20
137.5990260241
 30
0.0
 10
251.3399024348
 20
137.5996708666
 30
0.0
 10
251.3394457372
 20
137.5999697941
 30
0.0
  0
SPLINE
  5
3B4
100
AcDbEntity
  8
DTM_AXIS
100
AcDbSpline
 62
7
  6
CONTINUOUS
 70
0
 71
3
 72
9
 73
5
 74
0
 42
0.0000001
 43
0.0000001
 44
0.0000000001
 40
0.0
 40
0.0
 40
0.0
 40
0.0
 40
0.4271476962
 40
1.0
 40
1.0
 40
1.0
 40
1.0
 10
276.7727911066
 20
120.9509421636
 30
0.0
 10
276.7730625141
 20
120.9512454551
 30
0.0
 10
276.7733968844
 20
120.9523712301
 30
0.0
 10
276.7724526265
 20
120.9530160726
 30
0.0
 10
276.7719959288
 20
120.9533150001
 30
0.0
  0
SPLINE
  5
3B5
100
AcDbEntity
  8
DTM_AXIS
100
AcDbSpline
 62
7
  6
CONTINUOUS
 70
0
 71
3
 72
14
 73
10
 74
0
 42
0.0000001
 43
0.0000001
 44
0.0000000001
 40
0.0
 40
0.0
 40
0.0
 40
0.0
 40
0.0295034004
 40
0.0865493417
 40
0.1713737338
 40
0.2837779351
 40
0.4233916655
 40
0.5897200985
 40
1.0
 40
1.0
 40
1.0
 40
1.0
 10
262.4372858208
 20
130.3359749749
 30
0.0
 10
262.4344377022
 20
130.3378391862
 30
0.0
 10
262.424324745
 20
130.339853138
 30
0.0
 10
262.4050650344
 20
130.343187575
 30
0.0
 10
262.3757644846
 20
130.3462907389
 30
0.0
 10
262.3371044983
 20
130.3497457315
 30
0.0
 10
262.2889418713
 20
130.3532176198
 30
0.0
 10
262.2064749514
 20
130.3583512558
 30
0.0
 10
262.1400252984
 20
130.3616819177
 30
0.0
 10
262.0927398416
 20
130.3638765723
 30
0.0
  0
SPLINE
  5
3B6
100
AcDbEntity
  8
DTM_AXIS
100
AcDbSpline
 62
7
  6
CONTINUOUS
 70
0
 71
3
 72
14
 73
10
 74
0
 42
0.0000001
 43
0.0000001
 44
0.0000000001
 40
0.0
 40
0.0
 40
0.0
 40
0.0
 40
0.0295034004
 40
0.0865493417
 40
0.1713737338
 40
0.2837779351
 40
0.4233916655
 40
0.5897200985
 40
1.0
 40
1.0
 40
1.0
 40
1.0
 10
277.0032009306
 20
120.8019817747
 30
0.0
 10
277.000352812
 20
120.803845986
 30
0.0
 10
276.9902398548
 20
120.8058599378
 30
0.0
 10
276.9709801442
 20
120.8091943748
 30
0.0
 10
276.9416795943
 20
120.8122975387
 30
0.0
 10
276.9030196081
 20
120.8157525314
 30
0.0
 10
276.854856981
 20
120.8192244196
 30
0.0
 10
276.7723900612
 20
120.8243580556
 30
0.0
 10
276.7059404081
 20
120.8276887175
 30
0.0
 10
276.6586549514
 20
120.8298833722
 30
0.0
  0
SPLINE
  5
3B7
100
AcDbEntity
  8
DTM_AXIS
100
AcDbSpline
 62
7
  6
CONTINUOUS
 70
0
 71
3
 72
14
 73
10
 74
0
 42
0.0000001
 43
0.0000001
 44
0.0000000001
 40
0.0
 40
0.0
 40
0.0
 40
0.0
 40
0.0295034004
 40
0.0865493417
 40
0.1713737338
 40
0.2837779351
 40
0.4233916655
 40
0.5897200985
 40
1.0
 40
1.0
 40
1.0
 40
1.0
 10
262.2060808191
 20
130.4873082003
 30
0.0
 10
262.2032327005
 20
130.4891724116
 30
0.0
 10
262.1931197433
 20
130.4911863634
 30
0.0
 10
262.1738600326
 20
130.4945208004
 30
0.0
 10
262.1445594828
 20
130.4976239643
 30
0.0
 10
262.1058994966
 20
130.5010789569
 30
0.0
 10
262.0577368695
 20
130.5045508452
 30
0.0
 10
261.9752699497
 20
130.5096844812
 30
0.0
 10
261.9088202966
 20
130.5130151431
 30
0.0
 10
261.8615348399
 20
130.5152097977
 30
0.0
  0
SPLINE
  5
3B8
100
AcDbEntity
  8
DTM_AXIS
100
AcDbSpline
 62
7
  6
CONTINUOUS
 70
0
 71
3
 72
14
 73
10
 74
0
 42
0.0000001
 43
0.0000001
 44
0.0000000001
 40
0.0
 40
0.0
 40
0.0
 40
0.0
 40
0.0295034004
 40
0.0865493417
 40
0.1713737338
 40
0.2837779351
 40
0.4233916655
 40
0.5897200985
 40
1.0
 40
1.0
 40
1.0
 40
1.0
 10
273.9975359079
 20
122.7693137049
 30
0.0
 10
273.9946877894
 20
122.7711779162
 30
0.0
 10
273.9845748321
 20
122.773191868
 30
0.0
 10
273.9653151215
 20
122.776526305
 30
0.0
 10
273.9360145717
 20
122.7796294689
 30
0.0
 10
273.8973545855
 20
122.7830844616
 30
0.0
 10
273.8491919584
 20
122.7865563498
 30
0.0
 10
273.7667250386
 20
122.7916899858
 30
0.0
 10
273.7002753855
 20
122.7950206477
 30
0.0
 10
273.6529899288
 20
122.7972153024
 30
0.0
  0
SPLINE
  5
3B9
100
AcDbEntity
  8
DTM_AXIS
100
AcDbSpline
 62
7
  6
CONTINUOUS
 70
0
 71
3
 72
9
 73
5
 74
0
 42
0.0000001
 43
0.0000001
 44
0.0000000001
 40
0.0
 40
0.0
 40
0.0
 40
0.0
 40
0.4271476962
 40
1.0
 40
1.0
 40
1.0
 40
1.0
 10
276.5415861048
 20
121.102275389
 30
0.0
 10
276.5418575123
 20
121.1025786805
 30
0.0
 10
276.5421918827
 20
121.1037044555
 30
0.0
 10
276.5412476248
 20
121.104349298
 30
0.0
 10
276.5407909271
 20
121.1046482255
 30
0.0
  0
SPLINE
  5
3BA
100
AcDbEntity
  8
DTM_AXIS
100
AcDbSpline
 62
7
  6
CONTINUOUS
 70
0
 71
3
 72
14
 73
10
 74
0
 42
0.0000001
 43
0.0000001
 44
0.0000000001
 40
0.0
 40
0.0
 40
0.0
 40
0.0
 40
0.0295034004
 40
0.0865493417
 40
0.1713737338
 40
0.2837779351
 40
0.4233916655
 40
0.5897200985
 40
1.0
 40
1.0
 40
1.0
 40
1.0
 10
261.9748758173
 20
130.6386414257
 30
0.0
 10
261.9720276987
 20
130.640505637
 30
0.0
 10
261.9619147415
 20
130.6425195888
 30
0.0
 10
261.9426550309
 20
130.6458540258
 30
0.0
 10
261.9133544811
 20
130.6489571897
 30
0.0
 10
261.8746944949
 20
130.6524121823
 30
0.0
 10
261.8265318678
 20
130.6558840706
 30
0.0
 10
261.7440649479
 20
130.6610177066
 30
0.0
 10
261.6776152949
 20
130.6643483685
 30
0.0
 10
261.6303298381
 20
130.6665430231
 30
0.0
  0
SPLINE
  5
3BB
100
AcDbEntity
  8
DTM_AXIS
100
AcDbSpline
 62
7
  6
CONTINUOUS
 70
0
 71
3
 72
9
 73
5
 74
0
 42
0.0000001
 43
0.0000001
 44
0.0000000001
 40
0.0
 40
0.0
 40
0.0
 40
0.0
 40
0.4271476962
 40
1.0
 40
1.0
 40
1.0
 40
1.0
 10
258.0451859654
 20
133.2089334209
 30
0.0
 10
258.0454573729
 20
133.2092367125
 30
0.0
 10
258.0457917433
 20
133.2103624875
 30
0.0
 10
258.0448474854
 20
133.21100733
 30
0.0
 10
258.0443907877
 20
133.2113062575
 30
0.0
  0
SPLINE
  5
3BC
100
AcDbEntity
  8
DTM_AXIS
100
AcDbSpline
 62
7
  6
CONTINUOUS
 70
0
 71
3
 72
9
 73
5
 74
0
 42
0.0000001
 43
0.0000001
 44
0.0000000001
 40
0.0
 40
0.0
 40
0.0
 40
0.0
 40
0.4271476962
 40
1.0
 40
1.0
 40
1.0
 40
1.0
 10
276.3103811031
 20
121.2536086144
 30
0.0
 10
276.3106525106
 20
121.2539119059
 30
0.0
 10
276.3109868809
 20
121.2550376809
 30
0.0
 10
276.310042623
 20
121.2556825234
 30
0.0
 10
276.3095859253
 20
121.2559814509
 30
0.0
  0
SPLINE
  5
3BD
100
AcDbEntity
  8
DTM_AXIS
100
AcDbSpline
 62
7
  6
CONTINUOUS
 70
0
 71
3
 72
14
 73
10
 74
0
 42
0.0000001
 43
0.0000001
 44
0.0000000001
 40
0.0
 40
0.0
 40
0.0
 40
0.0
 40
0.0295034004
 40
0.0865493417
 40
0.1713737338
 40
0.2837779351
 40
0.4233916655
 40
0.5897200985
 40
1.0
 40
1.0
 40
1.0
 40
1.0
 10
261.7436708156
 20
130.7899746511
 30
0.0
 10
261.740822697
 20
130.7918388624
 30
0.0
 10
261.7307097398
 20
130.7938528142
 30
0.0
 10
261.7114500292
 20
130.7971872512
 30
0.0
 10
261.6821494793
 20
130.8002904151
 30
0.0
 10
261.6434894931
 20
130.8037454077
 30
0.0
 10
261.595326866
 20
130.807217296
 30
0.0
 10
261.5128599462
 20
130.812350932
 30
0.0
 10
261.4464102931
 20
130.8156815939
 30
0.0
 10
261.3991248364
 20
130.8178762485
 30
0.0
  0
SPLINE
  5
3BE
100
AcDbEntity
  8
DTM_AXIS
100
AcDbSpline
 62
7
  6
CONTINUOUS
 70
0
 71
3
 72
9
 73
5
 74
0
 42
0.0000001
 43
0.0000001
 44
0.0000000001
 40
0.0
 40
0.0
 40
0.0
 40
0.0
 40
0.4271476962
 40
1.0
 40
1.0
 40
1.0
 40
1.0
 10
251.5714459167
 20
137.4462637321
 30
0.0
 10
251.5717173241
 20
137.4465670237
 30
0.0
 10
251.5720516945
 20
137.4476927987
 30
0.0
 10
251.5711074366
 20
137.4483376412
 30
0.0
 10
251.5706507389
 20
137.4486365687
 30
0.0
  0
SPLINE
  5
3BF
100
AcDbEntity
  8
DTM_AXIS
100
AcDbSpline
 62
7
  6
CONTINUOUS
 70
0
 71
3
 72
14
 73
10
 74
0
 42
0.0000001
 43
0.0000001
 44
0.0000000001
 40
0.0
 40
0.0
 40
0.0
 40
0.0
 40
0.0295034004
 40
0.0865493417
 40
0.1713737338
 40
0.2837779351
 40
0.4233916655
 40
0.5897200985
 40
1.0
 40
1.0
 40
1.0
 40
1.0
 10
261.5124658138
 20
130.9413078765
 30
0.0
 10
261.5096176953
 20
130.9431720878
 30
0.0
 10
261.499504738
 20
130.9451860396
 30
0.0
 10
261.4802450274
 20
130.9485204766
 30
0.0
 10
261.4509444776
 20
130.9516236405
 30
0.0
 10
261.4122844914
 20
130.9550786331
 30
0.0
 10
261.3641218643
 20
130.9585505214
 30
0.0
 10
261.2816549445
 20
130.9636841574
 30
0.0
 10
261.2152052914
 20
130.9670148193
 30
0.0
 10
261.1679198347
 20
130.9692094739
 30
0.0
  0
SPLINE
  5
3C0
100
AcDbEntity
  8
DTM_AXIS
100
AcDbSpline
 62
7
  6
CONTINUOUS
 70
0
 71
3
 72
9
 73
5
 74
0
 42
0.0000001
 43
0.0000001
 44
0.0000000001
 40
0.0
 40
0.0
 40
0.0
 40
0.0
 40
0.4271476962
 40
1.0
 40
1.0
 40
1.0
 40
1.0
 10
276.0791761014
 20
121.4049418398
 30
0.0
 10
276.0794475088
 20
121.4052451313
 30
0.0
 10
276.0797818792
 20
121.4063709063
 30
0.0
 10
276.0788376213
 20
121.4070157488
 30
0.0
 10
276.0783809236
 20
121.4073146763
 30
0.0
  0
SPLINE
  5
3C1
100
AcDbEntity
  8
DTM_AXIS
100
AcDbSpline
 62
7
  6
CONTINUOUS
 70
0
 71
3
 72
14
 73
10
 74
0
 42
0.0000001
 43
0.0000001
 44
0.0000000001
 40
0.0
 40
0.0
 40
0.0
 40
0.0
 40
0.0295034004
 40
0.0865493417
 40
0.1713737338
 40
0.2837779351
 40
0.4233916655
 40
0.5897200985
 40
1.0
 40
1.0
 40
1.0
 40
1.0
 10
261.2812608121
 20
131.0926411019
 30
0.0
 10
261.2784126935
 20
131.0945053132
 30
0.0
 10
261.2682997363
 20
131.096519265
 30
0.0
 10
261.2490400257
 20
131.099853702
 30
0.0
 10
261.2197394758
 20
131.1029568659
 30
0.0
 10
261.1810794896
 20
131.1064118585
 30
0.0
 10
261.1329168626
 20
131.1098837468
 30
0.0
 10
261.0504499427
 20
131.1150173828
 30
0.0
 10
260.9840002897
 20
131.1183480447
 30
0.0
 10
260.9367148329
 20
131.1205426993
 30
0.0
  0
SPLINE
  5
3C2
100
AcDbEntity
  8
DTM_AXIS
100
AcDbSpline
 62
7
  6
CONTINUOUS
 70
0
 71
3
 72
9
 73
5
 74
0
 42
0.0000001
 43
0.0000001
 44
0.0000000001
 40
0.0
 40
0.0
 40
0.0
 40
0.0
 40
0.4271476962
 40
1.0
 40
1.0
 40
1.0
 40
1.0
 10
258.2763909672
 20
133.0576001955
 30
0.0
 10
258.2766623747
 20
133.0579034871
 30
0.0
 10
258.276996745
 20
133.0590292621
 30
0.0
 10
258.2760524871
 20
133.0596741046
 30
0.0
 10
258.2755957894
 20
133.0599730321
 30
0.0
  0
SPLINE
  5
3C3
100
AcDbEntity
  8
DTM_AXIS
100
AcDbSpline
 62
7
  6
CONTINUOUS
 70
0
 71
3
 72
14
 73
10
 74
0
 42
0.0000001
 43
0.0000001
 44
0.0000000001
 40
0.0
 40
0.0
 40
0.0
 40
0.0
 40
0.0295034004
 40
0.0865493417
 40
0.1713737338
 40
0.2837779351
 40
0.4233916655
 40
0.5897200985
 40
1.0
 40
1.0
 40
1.0
 40
1.0
 10
273.7663309062
 20
122.9206469303
 30
0.0
 10
273.7634827876
 20
122.9225111416
 30
0.0
 10
273.7533698304
 20
122.9245250934
 30
0.0
 10
273.7341101198
 20
122.9278595304
 30
0.0
 10
273.7048095699
 20
122.9309626943
 30
0.0
 10
273.6661495837
 20
122.934417687
 30
0.0
 10
273.6179869567
 20
122.9378895752
 30
0.0
 10
273.5355200368
 20
122.9430232112
 30
0.0
 10
273.4690703837
 20
122.9463538731
 30
0.0
 10
273.421784927
 20
122.9485485278
 30
0.0
  0
SPLINE
  5
3C4
100
AcDbEntity
  8
DTM_AXIS
100
AcDbSpline
 62
7
  6
CONTINUOUS
 70
0
 71
3
 72
9
 73
5
 74
0
 42
0.0000001
 43
0.0000001
 44
0.0000000001
 40
0.0
 40
0.0
 40
0.0
 40
0.0
 40
0.4271476962
 40
1.0
 40
1.0
 40
1.0
 40
1.0
 10
275.8479710996
 20
121.5562750652
 30
0.0
 10
275.8482425071
 20
121.5565783567
 30
0.0
 10
275.8485768775
 20
121.5577041317
 30
0.0
 10
275.8476326195
 20
121.5583489742
 30
0.0
 10
275.8471759219
 20
121.5586479017
 30
0.0
  0
SPLINE
  5
3C5
100
AcDbEntity
  8
DTM_AXIS
100
AcDbSpline
 62
7
  6
CONTINUOUS
 70
0
 71
3
 72
14
 73
10
 74
0
 42
0.0000001
 43
0.0000001
 44
0.0000000001
 40
0.0
 40
0.0
 40
0.0
 40
0.0
 40
0.0295034004
 40
0.0865493417
 40
0.1713737338
 40
0.2837779351
 40
0.4233916655
 40
0.5897200985
 40
1.0
 40
1.0
 40
1.0
 40
1.0
 10
261.0500558103
 20
131.2439743273
 30
0.0
 10
261.0472076918
 20
131.2458385386
 30
0.0
 10
261.0370947345
 20
131.2478524904
 30
0.0
 10
261.0178350239
 20
131.2511869274
 30
0.0
 10
260.9885344741
 20
131.2542900913
 30
0.0
 10
260.9498744879
 20
131.2577450839
 30
0.0
 10
260.9017118608
 20
131.2612169722
 30
0.0
 10
260.819244941
 20
131.2663506082
 30
0.0
 10
260.7527952879
 20
131.2696812701
 30
0.0
 10
260.7055098312
 20
131.2718759247
 30
0.0
  0
SPLINE
  5
3C6
100
AcDbEntity
  8
DTM_AXIS
100
AcDbSpline
 62
7
  6
CONTINUOUS
 70
0
 71
3
 72
14
 73
10
 74
0
 42
0.0000001
 43
0.0000001
 44
0.0000000001
 40
0.0
 40
0.0
 40
0.0
 40
0.0
 40
0.0295034004
 40
0.0865493417
 40
0.1713737338
 40
0.2837779351
 40
0.4233916655
 40
0.5897200985
 40
1.0
 40
1.0
 40
1.0
 40
1.0
 10
260.8188508086
 20
131.3953075527
 30
0.0
 10
260.81600269
 20
131.397171764
 30
0.0
 10
260.8058897328
 20
131.3991857158
 30
0.0
 10
260.7866300222
 20
131.4025201528
 30
0.0
 10
260.7573294724
 20
131.4056233167
 30
0.0
 10
260.7186694861
 20
131.4090783093
 30
0.0
 10
260.6705068591
 20
131.4125501976
 30
0.0
 10
260.5880399392
 20
131.4176838336
 30
0.0
 10
260.5215902862
 20
131.4210144955
 30
0.0
 10
260.4743048294
 20
131.4232091501
 30
0.0
  0
SPLINE
  5
3C7
100
AcDbEntity
  8
DTM_AXIS
100
AcDbSpline
 62
7
  6
CONTINUOUS
 70
0
 71
3
 72
9
 73
5
 74
0
 42
0.0000001
 43
0.0000001
 44
0.0000000001
 40
0.0
 40
0.0
 40
0.0
 40
0.0
 40
0.4271476962
 40
1.0
 40
1.0
 40
1.0
 40
1.0
 10
251.8026509184
 20
137.2949305067
 30
0.0
 10
251.8029223259
 20
137.2952337983
 30
0.0
 10
251.8032566962
 20
137.2963595733
 30
0.0
 10
251.8023124383
 20
137.2970044158
 30
0.0
 10
251.8018557406
 20
137.2973033433
 30
0.0
  0
SPLINE
  5
3C8
100
AcDbEntity
  8
DTM_AXIS
100
AcDbSpline
 62
7
  6
CONTINUOUS
 70
0
 71
3
 72
9
 73
5
 74
0
 42
0.0000001
 43
0.0000001
 44
0.0000000001
 40
0.0
 40
0.0
 40
0.0
 40
0.0
 40
0.4271476962
 40
1.0
 40
1.0
 40
1.0
 40
1.0
 10
275.6167660979
 20
121.7076082906
 30
0.0
 10
275.6170375054
 20
121.7079115821
 30
0.0
 10
275.6173718757
 20
121.7090373571
 30
0.0
 10
275.6164276178
 20
121.7096821996
 30
0.0
 10
275.6159709201
 20
121.7099811271
 30
0.0
  0
SPLINE
  5
3C9
100
AcDbEntity
  8
DTM_AXIS
100
AcDbSpline
 62
7
  6
CONTINUOUS
 70
0
 71
3
 72
14
 73
10
 74
0
 42
0.0000001
 43
0.0000001
 44
0.0000000001
 40
0.0
 40
0.0
 40
0.0
 40
0.0
 40
0.0295034004
 40
0.0865493417
 40
0.1713737338
 40
0.2837779351
 40
0.4233916655
 40
0.5897200985
 40
1.0
 40
1.0
 40
1.0
 40
1.0
 10
260.5876458069
 20
131.5466407781
 30
0.0
 10
260.5847976883
 20
131.5485049894
 30
0.0
 10
260.5746847311
 20
131.5505189412
 30
0.0
 10
260.5554250204
 20
131.5538533782
 30
0.0
 10
260.5261244706
 20
131.5569565421
 30
0.0
 10
260.4874644844
 20
131.5604115347
 30
0.0
 10
260.4393018573
 20
131.563883423
 30
0.0
 10
260.3568349375
 20
131.569017059
 30
0.0
 10
260.2903852844
 20
131.5723477209
 30
0.0
 10
260.2430998277
 20
131.5745423755
 30
0.0
  0
SPLINE
  5
3CA
100
AcDbEntity
  8
DTM_AXIS
100
AcDbSpline
 62
7
  6
CONTINUOUS
 70
0
 71
3
 72
9
 73
5
 74
0
 42
0.0000001
 43
0.0000001
 44
0.0000000001
 40
0.0
 40
0.0
 40
0.0
 40
0.0
 40
0.4271476962
 40
1.0
 40
1.0
 40
1.0
 40
1.0
 10
258.5075959689
 20
132.9062669701
 30
0.0
 10
258.5078673764
 20
132.9065702617
 30
0.0
 10
258.5082017468
 20
132.9076960367
 30
0.0
 10
258.5072574888
 20
132.9083408792
 30
0.0
 10
258.5068007912
 20
132.9086398067
 30
0.0
  0
SPLINE
  5
3CB
100
AcDbEntity
  8
DTM_AXIS
100
AcDbSpline
 62
7
  6
CONTINUOUS
 70
0
 71
3
 72
9
 73
5
 74
0
 42
0.0000001
 43
0.0000001
 44
0.0000000001
 40
0.0
 40
0.0
 40
0.0
 40
0.0
 40
0.4271476962
 40
1.0
 40
1.0
 40
1.0
 40
1.0
 10
248.565780894
 20
139.4135956623
 30
0.0
 10
248.5660523015
 20
139.4138989539
 30
0.0
 10
248.5663866718
 20
139.4150247289
 30
0.0
 10
248.5654424139
 20
139.4156695714
 30
0.0
 10
248.5649857162
 20
139.4159684989
 30
0.0
  0
SPLINE
  5
3CC
100
AcDbEntity
  8
DTM_AXIS
100
AcDbSpline
 62
7
  6
CONTINUOUS
 70
0
 71
3
 72
9
 73
5
 74
0
 42
0.0000001
 43
0.0000001
 44
0.0000000001
 40
0.0
 40
0.0
 40
0.0
 40
0.0
 40
0.4271476962
 40
1.0
 40
1.0
 40
1.0
 40
1.0
 10
275.3855610961
 20
121.858941516
 30
0.0
 10
275.3858325036
 20
121.8592448075
 30
0.0
 10
275.386166874
 20
121.8603705825
 30
0.0
 10
275.385222616
 20
121.861015425
 30
0.0
 10
275.3847659184
 20
121.8613143525
 30
0.0
  0
SPLINE
  5
3CD
100
AcDbEntity
  8
DTM_AXIS
100
AcDbSpline
 62
7
  6
CONTINUOUS
 70
0
 71
3
 72
14
 73
10
 74
0
 42
0.0000001
 43
0.0000001
 44
0.0000000001
 40
0.0
 40
0.0
 40
0.0
 40
0.0
 40
0.0295034004
 40
0.0865493417
 40
0.1713737338
 40
0.2837779351
 40
0.4233916655
 40
0.5897200985
 40
1.0
 40
1.0
 40
1.0
 40
1.0
 10
260.3564408051
 20
131.6979740035
 30
0.0
 10
260.3535926865
 20
131.6998382148
 30
0.0
 10
260.3434797293
 20
131.7018521666
 30
0.0
 10
260.3242200187
 20
131.7051866036
 30
0.0
 10
260.2949194689
 20
131.7082897675
 30
0.0
 10
260.2562594827
 20
131.7117447601
 30
0.0
 10
260.2080968556
 20
131.7152166484
 30
0.0
 10
260.1256299357
 20
131.7203502844
 30
0.0
 10
260.0591802827
 20
131.7236809463
 30
0.0
 10
260.0118948259
 20
131.7258756009
 30
0.0
  0
SPLINE
  5
3CE
100
AcDbEntity
  8
DTM_AXIS
100
AcDbSpline
 62
7
  6
CONTINUOUS
 70
0
 71
3
 72
14
 73
10
 74
0
 42
0.0000001
 43
0.0000001
 44
0.0000000001
 40
0.0
 40
0.0
 40
0.0
 40
0.0
 40
0.0295034004
 40
0.0865493417
 40
0.1713737338
 40
0.2837779351
 40
0.4233916655
 40
0.5897200985
 40
1.0
 40
1.0
 40
1.0
 40
1.0
 10
273.5351259044
 20
123.0719801557
 30
0.0
 10
273.5322777859
 20
123.073844367
 30
0.0
 10
273.5221648286
 20
123.0758583188
 30
0.0
 10
273.502905118
 20
123.0791927558
 30
0.0
 10
273.4736045682
 20
123.0822959197
 30
0.0
 10
273.434944582
 20
123.0857509124
 30
0.0
 10
273.3867819549
 20
123.0892228006
 30
0.0
 10
273.3043150351
 20
123.0943564366
 30
0.0
 10
273.237865382
 20
123.0976870985
 30
0.0
 10
273.1905799253
 20
123.0998817532
 30
0.0
  0
SPLINE
  5
3CF
100
AcDbEntity
  8
DTM_AXIS
100
AcDbSpline
 62
7
  6
CONTINUOUS
 70
0
 71
3
 72
14
 73
10
 74
0
 42
0.0000001
 43
0.0000001
 44
0.0000000001
 40
0.0
 40
0.0
 40
0.0
 40
0.0
 40
0.0295034004
 40
0.0865493417
 40
0.1713737338
 40
0.2837779351
 40
0.4233916655
 40
0.5897200985
 40
1.0
 40
1.0
 40
1.0
 40
1.0
 10
260.1252358034
 20
131.8493072289
 30
0.0
 10
260.1223876848
 20
131.8511714402
 30
0.0
 10
260.1122747276
 20
131.853185392
 30
0.0
 10
260.093015017
 20
131.856519829
 30
0.0
 10
260.0637144671
 20
131.8596229929
 30
0.0
 10
260.0250544809
 20
131.8630779855
 30
0.0
 10
259.9768918538
 20
131.8665498738
 30
0.0
 10
259.894424934
 20
131.8716835098
 30
0.0
 10
259.8279752809
 20
131.8750141717
 30
0.0
 10
259.7806898242
 20
131.8772088263
 30
0.0
  0
SPLINE
  5
3D0
100
AcDbEntity
  8
DTM_AXIS
100
AcDbSpline
 62
7
  6
CONTINUOUS
 70
0
 71
3
 72
9
 73
5
 74
0
 42
0.0000001
 43
0.0000001
 44
0.0000000001
 40
0.0
 40
0.0
 40
0.0
 40
0.0
 40
0.4271476962
 40
1.0
 40
1.0
 40
1.0
 40
1.0
 10
275.1543560944
 20
122.0102747414
 30
0.0
 10
275.1546275019
 20
122.0105780329
 30
0.0
 10
275.1549618722
 20
122.0117038079
 30
0.0
 10
275.1540176143
 20
122.0123486504
 30
0.0
 10
275.1535609166
 20
122.0126475779
 30
0.0
  0
SPLINE
  5
3D1
100
AcDbEntity
  8
DTM_AXIS
100
AcDbSpline
 62
7
  6
CONTINUOUS
 70
0
 71
3
 72
14
 73
10
 74
0
 42
0.0000001
 43
0.0000001
 44
0.0000000001
 40
0.0
 40
0.0
 40
0.0
 40
0.0
 40
0.0295034004
 40
0.0865493417
 40
0.1713737338
 40
0.2837779351
 40
0.4233916655
 40
0.5897200985
 40
1.0
 40
1.0
 40
1.0
 40
1.0
 10
259.8940308016
 20
132.0006404543
 30
0.0
 10
259.8911826831
 20
132.0025046656
 30
0.0
 10
259.8810697258
 20
132.0045186174
 30
0.0
 10
259.8618100152
 20
132.0078530544
 30
0.0
 10
259.8325094654
 20
132.0109562183
 30
0.0
 10
259.7938494792
 20
132.0144112109
 30
0.0
 10
259.7456868521
 20
132.0178830992
 30
0.0
 10
259.6632199323
 20
132.0230167352
 30
0.0
 10
259.5967702792
 20
132.0263473971
 30
0.0
 10
259.5494848225
 20
132.0285420517
 30
0.0
  0
SPLINE
  5
3D2
100
AcDbEntity
  8
DTM_AXIS
100
AcDbSpline
 62
7
  6
CONTINUOUS
 70
0
 71
3
 72
9
 73
5
 74
0
 42
0.0000001
 43
0.0000001
 44
0.0000000001
 40
0.0
 40
0.0
 40
0.0
 40
0.0
 40
0.4271476962
 40
1.0
 40
1.0
 40
1.0
 40
1.0
 10
258.7388009707
 20
132.7549337447
 30
0.0
 10
258.7390723782
 20
132.7552370363
 30
0.0
 10
258.7394067485
 20
132.7563628113
 30
0.0
 10
258.7384624906
 20
132.7570076538
 30
0.0
 10
258.7380057929
 20
132.7573065813
 30
0.0
  0
SPLINE
  5
3D3
100
AcDbEntity
  8
DTM_AXIS
100
AcDbSpline
 62
7
  6
CONTINUOUS
 70
0
 71
3
 72
9
 73
5
 74
0
 42
0.0000001
 43
0.0000001
 44
0.0000000001
 40
0.0
 40
0.0
 40
0.0
 40
0.0
 40
0.4271476962
 40
1.0
 40
1.0
 40
1.0
 40
1.0
 10
252.0338559201
 20
137.1435972813
 30
0.0
 10
252.0341273276
 20
137.1439005729
 30
0.0
 10
252.034461698
 20
137.1450263479
 30
0.0
 10
252.03351744
 20
137.1456711904
 30
0.0
 10
252.0330607424
 20
137.1459701179
 30
0.0
  0
SPLINE
  5
3D4
100
AcDbEntity
  8
DTM_AXIS
100
AcDbSpline
 62
7
  6
CONTINUOUS
 70
0
 71
3
 72
9
 73
5
 74
0
 42
0.0000001
 43
0.0000001
 44
0.0000000001
 40
0.0
 40
0.0
 40
0.0
 40
0.0
 40
0.4271476962
 40
1.0
 40
1.0
 40
1.0
 40
1.0
 10
274.9231510926
 20
122.1616079668
 30
0.0
 10
274.9234225001
 20
122.1619112583
 30
0.0
 10
274.9237568705
 20
122.1630370333
 30
0.0
 10
274.9228126126
 20
122.1636818758
 30
0.0
 10
274.9223559149
 20
122.1639808033
 30
0.0
  0
SPLINE
  5
3D5
100
AcDbEntity
  8
DTM_AXIS
100
AcDbSpline
 62
7
  6
CONTINUOUS
 70
0
 71
3
 72
14
 73
10
 74
0
 42
0.0000001
 43
0.0000001
 44
0.0000000001
 40
0.0
 40
0.0
 40
0.0
 40
0.0
 40
0.0295034004
 40
0.0865493417
 40
0.1713737338
 40
0.2837779351
 40
0.4233916655
 40
0.5897200985
 40
1.0
 40
1.0
 40
1.0
 40
1.0
 10
259.6628257999
 20
132.1519736797
 30
0.0
 10
259.6599776813
 20
132.153837891
 30
0.0
 10
259.6498647241
 20
132.1558518428
 30
0.0
 10
259.6306050135
 20
132.1591862798
 30
0.0
 10
259.6013044636
 20
132.1622894437
 30
0.0
 10
259.5626444774
 20
132.1657444363
 30
0.0
 10
259.5144818504
 20
132.1692163246
 30
0.0
 10
259.4320149305
 20
132.1743499606
 30
0.0
 10
259.3655652775
 20
132.1776806225
 30
0.0
 10
259.3182798207
 20
132.1798752771
 30
0.0
  0
SPLINE
  5
3D6
100
AcDbEntity
  8
DTM_AXIS
100
AcDbSpline
 62
7
  6
CONTINUOUS
 70
0
 71
3
 72
14
 73
10
 74
0
 42
0.0000001
 43
0.0000001
 44
0.0000000001
 40
0.0
 40
0.0
 40
0.0
 40
0.0
 40
0.0295034004
 40
0.0865493417
 40
0.1713737338
 40
0.2837779351
 40
0.4233916655
 40
0.5897200985
 40
1.0
 40
1.0
 40
1.0
 40
1.0
 10
259.4316207981
 20
132.3033069051
 30
0.0
 10
259.4287726796
 20
132.3051711164
 30
0.0
 10
259.4186597223
 20
132.3071850682
 30
0.0
 10
259.3994000117
 20
132.3105195052
 30
0.0
 10
259.3700994619
 20
132.3136226691
 30
0.0
 10
259.3314394757
 20
132.3170776617
 30
0.0
 10
259.2832768486
 20
132.32054955
 30
0.0
 10
259.2008099288
 20
132.325683186
 30
0.0
 10
259.1343602757
 20
132.3290138479
 30
0.0
 10
259.087074819
 20
132.3312085025
 30
0.0
  0
SPLINE
  5
3D7
100
AcDbEntity
  8
DTM_AXIS
100
AcDbSpline
 62
7
  6
CONTINUOUS
 70
0
 71
3
 72
14
 73
10
 74
0
 42
0.0000001
 43
0.0000001
 44
0.0000000001
 40
0.0
 40
0.0
 40
0.0
 40
0.0
 40
0.0295034004
 40
0.0865493417
 40
0.1713737338
 40
0.2837779351
 40
0.4233916655
 40
0.5897200985
 40
1.0
 40
1.0
 40
1.0
 40
1.0
 10
273.3039209027
 20
123.2233133811
 30
0.0
 10
273.3010727841
 20
123.2251775924
 30
0.0
 10
273.2909598269
 20
123.2271915442
 30
0.0
 10
273.2717001163
 20
123.2305259812
 30
0.0
 10
273.2423995665
 20
123.2336291451
 30
0.0
 10
273.2037395802
 20
123.2370841378
 30
0.0
 10
273.1555769532
 20
123.240556026
 30
0.0
 10
273.0731100333
 20
123.245689662
 30
0.0
 10
273.0066603803
 20
123.2490203239
 30
0.0
 10
272.9593749235
 20
123.2512149786
 30
0.0
  0
SPLINE
  5
3D8
100
AcDbEntity
  8
DTM_AXIS
100
AcDbSpline
 62
7
  6
CONTINUOUS
 70
0
 71
3
 72
9
 73
5
 74
0
 42
0.0000001
 43
0.0000001
 44
0.0000000001
 40
0.0
 40
0.0
 40
0.0
 40
0.0
 40
0.4271476962
 40
1.0
 40
1.0
 40
1.0
 40
1.0
 10
274.6919460909
 20
122.3129411922
 30
0.0
 10
274.6922174984
 20
122.3132444837
 30
0.0
 10
274.6925518688
 20
122.3143702587
 30
0.0
 10
274.6916076108
 20
122.3150151012
 30
0.0
 10
274.6911509132
 20
122.3153140287
 30
0.0
  0
SPLINE
  5
3D9
100
AcDbEntity
  8
DTM_AXIS
100
AcDbSpline
 62
7
  6
CONTINUOUS
 70
0
 71
3
 72
14
 73
10
 74
0
 42
0.0000001
 43
0.0000001
 44
0.0000000001
 40
0.0
 40
0.0
 40
0.0
 40
0.0
 40
0.0295034004
 40
0.0865493417
 40
0.1713737338
 40
0.2837779351
 40
0.4233916655
 40
0.5897200985
 40
1.0
 40
1.0
 40
1.0
 40
1.0
 10
259.2004157964
 20
132.4546401305
 30
0.0
 10
259.1975676778
 20
132.4565043418
 30
0.0
 10
259.1874547206
 20
132.4585182936
 30
0.0
 10
259.16819501
 20
132.4618527306
 30
0.0
 10
259.1388944602
 20
132.4649558945
 30
0.0
 10
259.1002344739
 20
132.4684108871
 30
0.0
 10
259.0520718469
 20
132.4718827754
 30
0.0
 10
258.969604927
 20
132.4770164114
 30
0.0
 10
258.903155274
 20
132.4803470733
 30
0.0
 10
258.8558698172
 20
132.4825417279
 30
0.0
  0
SPLINE
  5
3DA
100
AcDbEntity
  8
DTM_AXIS
100
AcDbSpline
 62
7
  6
CONTINUOUS
 70
0
 71
3
 72
9
 73
5
 74
0
 42
0.0000001
 43
0.0000001
 44
0.0000000001
 40
0.0
 40
0.0
 40
0.0
 40
0.0
 40
0.4271476962
 40
1.0
 40
1.0
 40
1.0
 40
1.0
 10
258.9700059724
 20
132.6036005193
 30
0.0
 10
258.9702773799
 20
132.6039038109
 30
0.0
 10
258.9706117503
 20
132.6050295859
 30
0.0
 10
258.9696674923
 20
132.6056744284
 30
0.0
 10
258.9692107947
 20
132.6059733559
 30
0.0
  0
SPLINE
  5
3DB
100
AcDbEntity
  8
DTM_AXIS
100
AcDbSpline
 62
7
  6
CONTINUOUS
 70
0
 71
3
 72
9
 73
5
 74
0
 42
0.0000001
 43
0.0000001
 44
0.0000000001
 40
0.0
 40
0.0
 40
0.0
 40
0.0
 40
0.4271476962
 40
1.0
 40
1.0
 40
1.0
 40
1.0
 10
274.4607410892
 20
122.4642744176
 30
0.0
 10
274.4610124966
 20
122.4645777091
 30
0.0
 10
274.461346867
 20
122.4657034841
 30
0.0
 10
274.4604026091
 20
122.4663483266
 30
0.0
 10
274.4599459114
 20
122.4666472541
 30
0.0
  0
SPLINE
  5
3DC
100
AcDbEntity
  8
DTM_AXIS
100
AcDbSpline
 62
7
  6
CONTINUOUS
 70
0
 71
3
 72
14
 73
10
 74
0
 42
0.0000001
 43
0.0000001
 44
0.0000000001
 40
0.0
 40
0.0
 40
0.0
 40
0.0
 40
0.0295034004
 40
0.0865493417
 40
0.1713737338
 40
0.2837779351
 40
0.4233916655
 40
0.5897200985
 40
1.0
 40
1.0
 40
1.0
 40
1.0
 10
258.9692107947
 20
132.6059733559
 30
0.0
 10
258.9663626761
 20
132.6078375672
 30
0.0
 10
258.9562497189
 20
132.609851519
 30
0.0
 10
258.9369900083
 20
132.613185956
 30
0.0
 10
258.9076894584
 20
132.6162891199
 30
0.0
 10
258.8690294722
 20
132.6197441125
 30
0.0
 10
258.8208668451
 20
132.6232160008
 30
0.0
 10
258.7383999253
 20
132.6283496368
 30
0.0
 10
258.6719502722
 20
132.6316802987
 30
0.0
 10
258.6246648155
 20
132.6338749533
 30
0.0
  0
SPLINE
  5
3DD
100
AcDbEntity
  8
DTM_AXIS
100
AcDbSpline
 62
7
  6
CONTINUOUS
 70
0
 71
3
 72
9
 73
5
 74
0
 42
0.0000001
 43
0.0000001
 44
0.0000000001
 40
0.0
 40
0.0
 40
0.0
 40
0.0
 40
0.4271476962
 40
1.0
 40
1.0
 40
1.0
 40
1.0
 10
252.2650609219
 20
136.9922640559
 30
0.0
 10
252.2653323294
 20
136.9925673475
 30
0.0
 10
252.2656666997
 20
136.9936931225
 30
0.0
 10
252.2647224418
 20
136.994337965
 30
0.0
 10
252.2642657441
 20
136.9946368925
 30
0.0
  0
SPLINE
  5
3DE
100
AcDbEntity
  8
DTM_AXIS
100
AcDbSpline
 62
7
  6
CONTINUOUS
 70
0
 71
3
 72
14
 73
10
 74
0
 42
0.0000001
 43
0.0000001
 44
0.0000000001
 40
0.0
 40
0.0
 40
0.0
 40
0.0
 40
0.0295034004
 40
0.0865493417
 40
0.1713737338
 40
0.2837779351
 40
0.4233916655
 40
0.5897200985
 40
1.0
 40
1.0
 40
1.0
 40
1.0
 10
258.7380057929
 20
132.7573065813
 30
0.0
 10
258.7351576743
 20
132.7591707926
 30
0.0
 10
258.7250447171
 20
132.7611847444
 30
0.0
 10
258.7057850065
 20
132.7645191814
 30
0.0
 10
258.6764844567
 20
132.7676223453
 30
0.0
 10
258.6378244705
 20
132.7710773379
 30
0.0
 10
258.5896618434
 20
132.7745492262
 30
0.0
 10
258.5071949236
 20
132.7796828622
 30
0.0
 10
258.4407452705
 20
132.7830135241
 30
0.0
 10
258.3934598137
 20
132.7852081787
 30
0.0
  0
SPLINE
  5
3DF
100
AcDbEntity
  8
DTM_AXIS
100
AcDbSpline
 62
7
  6
CONTINUOUS
 70
0
 71
3
 72
14
 73
10
 74
0
 42
0.0000001
 43
0.0000001
 44
0.0000000001
 40
0.0
 40
0.0
 40
0.0
 40
0.0
 40
0.0295034004
 40
0.0865493417
 40
0.1713737338
 40
0.2837779351
 40
0.4233916655
 40
0.5897200985
 40
1.0
 40
1.0
 40
1.0
 40
1.0
 10
276.7719959288
 20
120.9533150001
 30
0.0
 10
276.7691478103
 20
120.9551792114
 30
0.0
 10
276.759034853
 20
120.9571931632
 30
0.0
 10
276.7397751424
 20
120.9605276002
 30
0.0
 10
276.7104745926
 20
120.9636307641
 30
0.0
 10
276.6718146064
 20
120.9670857568
 30
0.0
 10
276.6236519793
 20
120.970557645
 30
0.0
 10
276.5411850595
 20
120.975691281
 30
0.0
 10
276.4747354064
 20
120.9790219429
 30
0.0
 10
276.4274499497
 20
120.9812165976
 30
0.0
  0
SPLINE
  5
3E0
100
AcDbEntity
  8
DTM_AXIS
100
AcDbSpline
 62
7
  6
CONTINUOUS
 70
0
 71
3
 72
9
 73
5
 74
0
 42
0.0000001
 43
0.0000001
 44
0.0000000001
 40
0.0
 40
0.0
 40
0.0
 40
0.0
 40
0.4271476962
 40
1.0
 40
1.0
 40
1.0
 40
1.0
 10
274.2295360874
 20
122.615607643
 30
0.0
 10
274.2298074949
 20
122.6159109345
 30
0.0
 10
274.2301418653
 20
122.6170367095
 30
0.0
 10
274.2291976073
 20
122.617681552
 30
0.0
 10
274.2287409097
 20
122.6179804795
 30
0.0
  0
SPLINE
  5
3E1
100
AcDbEntity
  8
DTM_AXIS
100
AcDbSpline
 62
7
  6
CONTINUOUS
 70
0
 71
3
 72
14
 73
10
 74
0
 42
0.0000001
 43
0.0000001
 44
0.0000000001
 40
0.0
 40
0.0
 40
0.0
 40
0.0
 40
0.0295034004
 40
0.0865493417
 40
0.1713737338
 40
0.2837779351
 40
0.4233916655
 40
0.5897200985
 40
1.0
 40
1.0
 40
1.0
 40
1.0
 10
258.5068007912
 20
132.9086398067
 30
0.0
 10
258.5039526726
 20
132.910504018
 30
0.0
 10
258.4938397154
 20
132.9125179698
 30
0.0
 10
258.4745800048
 20
132.9158524068
 30
0.0
 10
258.4452794549
 20
132.9189555707
 30
0.0
 10
258.4066194687
 20
132.9224105633
 30
0.0
 10
258.3584568416
 20
132.9258824516
 30
0.0
 10
258.2759899218
 20
132.9310160876
 30
0.0
 10
258.2095402687
 20
132.9343467495
 30
0.0
 10
258.162254812
 20
132.9365414041
 30
0.0
  0
SPLINE
  5
3E2
100
AcDbEntity
  8
DTM_AXIS
100
AcDbSpline
 62
7
  6
CONTINUOUS
 70
0
 71
3
 72
9
 73
5
 74
0
 42
0.0000001
 43
0.0000001
 44
0.0000000001
 40
0.0
 40
0.0
 40
0.0
 40
0.0
 40
0.4271476962
 40
1.0
 40
1.0
 40
1.0
 40
1.0
 10
259.2012109742
 20
132.4522672939
 30
0.0
 10
259.2014823816
 20
132.4525705855
 30
0.0
 10
259.201816752
 20
132.4536963605
 30
0.0
 10
259.2008724941
 20
132.454341203
 30
0.0
 10
259.2004157964
 20
132.4546401305
 30
0.0
  0
SPLINE
  5
3E3
100
AcDbEntity
  8
DTM_AXIS
100
AcDbSpline
 62
7
  6
CONTINUOUS
 70
0
 71
3
 72
14
 73
10
 74
0
 42
0.0000001
 43
0.0000001
 44
0.0000000001
 40
0.0
 40
0.0
 40
0.0
 40
0.0
 40
0.0295034004
 40
0.0865493417
 40
0.1713737338
 40
0.2837779351
 40
0.4233916655
 40
0.5897200985
 40
1.0
 40
1.0
 40
1.0
 40
1.0
 10
273.072715901
 20
123.3746466065
 30
0.0
 10
273.0698677824
 20
123.3765108178
 30
0.0
 10
273.0597548252
 20
123.3785247696
 30
0.0
 10
273.0404951145
 20
123.3818592066
 30
0.0
 10
273.0111945647
 20
123.3849623705
 30
0.0
 10
272.9725345785
 20
123.3884173632
 30
0.0
 10
272.9243719514
 20
123.3918892514
 30
0.0
 10
272.8419050316
 20
123.3970228874
 30
0.0
 10
272.7754553785
 20
123.4003535493
 30
0.0
 10
272.7281699218
 20
123.402548204
 30
0.0
  0
SPLINE
  5
3E4
100
AcDbEntity
  8
DTM_AXIS
100
AcDbSpline
 62
7
  6
CONTINUOUS
 70
0
 71
3
 72
9
 73
5
 74
0
 42
0.0000001
 43
0.0000001
 44
0.0000000001
 40
0.0
 40
0.0
 40
0.0
 40
0.0
 40
0.4271476962
 40
1.0
 40
1.0
 40
1.0
 40
1.0
 10
273.9983310857
 20
122.7669408684
 30
0.0
 10
273.9986024932
 20
122.7672441599
 30
0.0
 10
273.9989368635
 20
122.7683699349
 30
0.0
 10
273.9979926056
 20
122.7690147774
 30
0.0
 10
273.9975359079
 20
122.7693137049
 30
0.0
  0
SPLINE
  5
3E5
100
AcDbEntity
  8
DTM_AXIS
100
AcDbSpline
 62
7
  6
CONTINUOUS
 70
0
 71
3
 72
14
 73
10
 74
0
 42
0.0000001
 43
0.0000001
 44
0.0000000001
 40
0.0
 40
0.0
 40
0.0
 40
0.0
 40
0.0295034004
 40
0.0865493417
 40
0.1713737338
 40
0.2837779351
 40
0.4233916655
 40
0.5897200985
 40
1.0
 40
1.0
 40
1.0
 40
1.0
 10
258.2755957894
 20
133.0599730321
 30
0.0
 10
258.2727476709
 20
133.0618372434
 30
0.0
 10
258.2626347136
 20
133.0638511952
 30
0.0
 10
258.243375003
 20
133.0671856322
 30
0.0
 10
258.2140744532
 20
133.0702887961
 30
0.0
 10
258.175414467
 20
133.0737437887
 30
0.0
 10
258.1272518399
 20
133.077215677
 30
0.0
 10
258.0447849201
 20
133.082349313
 30
0.0
 10
257.978335267
 20
133.0856799749
 30
0.0
 10
257.9310498103
 20
133.0878746295
 30
0.0
  0
SPLINE
  5
3E6
100
AcDbEntity
  8
DTM_AXIS
100
AcDbSpline
 62
7
  6
CONTINUOUS
 70
0
 71
3
 72
14
 73
10
 74
0
 42
0.0000001
 43
0.0000001
 44
0.0000000001
 40
0.0
 40
0.0
 40
0.0
 40
0.0
 40
0.0295034004
 40
0.0865493417
 40
0.1713737338
 40
0.2837779351
 40
0.4233916655
 40
0.5897200985
 40
1.0
 40
1.0
 40
1.0
 40
1.0
 10
258.0443907877
 20
133.2113062575
 30
0.0
 10
258.0415426691
 20
133.2131704688
 30
0.0
 10
258.0314297119
 20
133.2151844206
 30
0.0
 10
258.0121700013
 20
133.2185188576
 30
0.0
 10
257.9828694514
 20
133.2216220215
 30
0.0
 10
257.9442094652
 20
133.2250770141
 30
0.0
 10
257.8960468382
 20
133.2285489024
 30
0.0
 10
257.8135799183
 20
133.2336825384
 30
0.0
 10
257.7471302653
 20
133.2370132003
 30
0.0
 10
257.6998448085
 20
133.2392078549
 30
0.0
  0
SPLINE
  5
3E7
100
AcDbEntity
  8
DTM_AXIS
100
AcDbSpline
 62
7
  6
CONTINUOUS
 70
0
 71
3
 72
9
 73
5
 74
0
 42
0.0000001
 43
0.0000001
 44
0.0000000001
 40
0.0
 40
0.0
 40
0.0
 40
0.0
 40
0.4271476962
 40
1.0
 40
1.0
 40
1.0
 40
1.0
 10
252.4962659236
 20
136.8409308305
 30
0.0
 10
252.4965373311
 20
136.8412341221
 30
0.0
 10
252.4968717015
 20
136.8423598971
 30
0.0
 10
252.4959274435
 20
136.8430047396
 30
0.0
 10
252.4954707459
 20
136.8433036671
 30
0.0
  0
SPLINE
  5
3E8
100
AcDbEntity
  8
DTM_AXIS
100
AcDbSpline
 62
7
  6
CONTINUOUS
 70
0
 71
3
 72
9
 73
5
 74
0
 42
0.0000001
 43
0.0000001
 44
0.0000000001
 40
0.0
 40
0.0
 40
0.0
 40
0.0
 40
0.4271476962
 40
1.0
 40
1.0
 40
1.0
 40
1.0
 10
273.7671260839
 20
122.9182740938
 30
0.0
 10
273.7673974914
 20
122.9185773853
 30
0.0
 10
273.7677318618
 20
122.9197031603
 30
0.0
 10
273.7667876038
 20
122.9203480028
 30
0.0
 10
273.7663309062
 20
122.9206469303
 30
0.0
  0
SPLINE
  5
3E9
100
AcDbEntity
  8
DTM_AXIS
100
AcDbSpline
 62
7
  6
CONTINUOUS
 70
0
 71
3
 72
14
 73
10
 74
0
 42
0.0000001
 43
0.0000001
 44
0.0000000001
 40
0.0
 40
0.0
 40
0.0
 40
0.0
 40
0.0295034004
 40
0.0865493417
 40
0.1713737338
 40
0.2837779351
 40
0.4233916655
 40
0.5897200985
 40
1.0
 40
1.0
 40
1.0
 40
1.0
 10
257.8131857859
 20
133.3626394829
 30
0.0
 10
257.8103376674
 20
133.3645036942
 30
0.0
 10
257.8002247102
 20
133.366517646
 30
0.0
 10
257.7809649995
 20
133.369852083
 30
0.0
 10
257.7516644497
 20
133.3729552469
 30
0.0
 10
257.7130044635
 20
133.3764102395
 30
0.0
 10
257.6648418364
 20
133.3798821278
 30
0.0
 10
257.5823749166
 20
133.3850157638
 30
0.0
 10
257.5159252635
 20
133.3883464257
 30
0.0
 10
257.4686398068
 20
133.3905410803
 30
0.0
  0
SPLINE
  5
3EA
100
AcDbEntity
  8
DTM_AXIS
100
AcDbSpline
 62
7
  6
CONTINUOUS
 70
0
 71
3
 72
9
 73
5
 74
0
 42
0.0000001
 43
0.0000001
 44
0.0000000001
 40
0.0
 40
0.0
 40
0.0
 40
0.0
 40
0.4271476962
 40
1.0
 40
1.0
 40
1.0
 40
1.0
 10
259.4324159759
 20
132.3009340685
 30
0.0
 10
259.4326873834
 20
132.3012373601
 30
0.0
 10
259.4330217537
 20
132.3023631351
 30
0.0
 10
259.4320774958
 20
132.3030079776
 30
0.0
 10
259.4316207981
 20
132.3033069051
 30
0.0
  0
SPLINE
  5
3EB
100
AcDbEntity
  8
DTM_AXIS
100
AcDbSpline
 62
7
  6
CONTINUOUS
 70
0
 71
3
 72
9
 73
5
 74
0
 42
0.0000001
 43
0.0000001
 44
0.0000000001
 40
0.0
 40
0.0
 40
0.0
 40
0.0
 40
0.4271476962
 40
1.0
 40
1.0
 40
1.0
 40
1.0
 10
273.5359210822
 20
123.0696073192
 30
0.0
 10
273.5361924897
 20
123.0699106107
 30
0.0
 10
273.53652686
 20
123.0710363857
 30
0.0
 10
273.5355826021
 20
123.0716812282
 30
0.0
 10
273.5351259044
 20
123.0719801557
 30
0.0
  0
SPLINE
  5
3EC
100
AcDbEntity
  8
DTM_AXIS
100
AcDbSpline
 62
7
  6
CONTINUOUS
 70
0
 71
3
 72
14
 73
10
 74
0
 42
0.0000001
 43
0.0000001
 44
0.0000000001
 40
0.0
 40
0.0
 40
0.0
 40
0.0
 40
0.0295034004
 40
0.0865493417
 40
0.1713737338
 40
0.2837779351
 40
0.4233916655
 40
0.5897200985
 40
1.0
 40
1.0
 40
1.0
 40
1.0
 10
257.5819807842
 20
133.5139727083
 30
0.0
 10
257.5791326656
 20
133.5158369196
 30
0.0
 10
257.5690197084
 20
133.5178508714
 30
0.0
 10
257.5497599978
 20
133.5211853084
 30
0.0
 10
257.520459448
 20
133.5242884723
 30
0.0
 10
257.4817994618
 20
133.5277434649
 30
0.0
 10
257.4336368347
 20
133.5312153532
 30
0.0
 10
257.3511699148
 20
133.5363489892
 30
0.0
 10
257.2847202618
 20
133.5396796511
 30
0.0
 10
257.237434805
 20
133.5418743057
 30
0.0
  0
SPLINE
  5
3ED
100
AcDbEntity
  8
DTM_AXIS
100
AcDbSpline
 62
7
  6
CONTINUOUS
 70
0
 71
3
 72
14
 73
10
 74
0
 42
0.0000001
 43
0.0000001
 44
0.0000000001
 40
0.0
 40
0.0
 40
0.0
 40
0.0
 40
0.0295034004
 40
0.0865493417
 40
0.1713737338
 40
0.2837779351
 40
0.4233916655
 40
0.5897200985
 40
1.0
 40
1.0
 40
1.0
 40
1.0
 10
272.8415108992
 20
123.5259798319
 30
0.0
 10
272.8386627806
 20
123.5278440432
 30
0.0
 10
272.8285498234
 20
123.529857995
 30
0.0
 10
272.8092901128
 20
123.533192432
 30
0.0
 10
272.779989563
 20
123.5362955959
 30
0.0
 10
272.7413295768
 20
123.5397505886
 30
0.0
 10
272.6931669497
 20
123.5432224768
 30
0.0
 10
272.6107000298
 20
123.5483561128
 30
0.0
 10
272.5442503768
 20
123.5516867747
 30
0.0
 10
272.49696492
 20
123.5538814294
 30
0.0
  0
SPLINE
  5
3EE
100
AcDbEntity
  8
DTM_AXIS
100
AcDbSpline
 62
7
  6
CONTINUOUS
 70
0
 71
3
 72
14
 73
10
 74
0
 42
0.0000001
 43
0.0000001
 44
0.0000000001
 40
0.0
 40
0.0
 40
0.0
 40
0.0
 40
0.0295034004
 40
0.0865493417
 40
0.1713737338
 40
0.2837779351
 40
0.4233916655
 40
0.5897200985
 40
1.0
 40
1.0
 40
1.0
 40
1.0
 10
257.3507757825
 20
133.6653059337
 30
0.0
 10
257.3479276639
 20
133.667170145
 30
0.0
 10
257.3378147067
 20
133.6691840968
 30
0.0
 10
257.3185549961
 20
133.6725185338
 30
0.0
 10
257.2892544462
 20
133.6756216977
 30
0.0
 10
257.25059446
 20
133.6790766903
 30
0.0
 10
257.2024318329
 20
133.6825485786
 30
0.0
 10
257.1199649131
 20
133.6876822146
 30
0.0
 10
257.05351526
 20
133.6910128765
 30
0.0
 10
257.0062298033
 20
133.6932075311
 30
0.0
  0
SPLINE
  5
3EF
100
AcDbEntity
  8
DTM_AXIS
100
AcDbSpline
 62
7
  6
CONTINUOUS
 70
0
 71
3
 72
9
 73
5
 74
0
 42
0.0000001
 43
0.0000001
 44
0.0000000001
 40
0.0
 40
0.0
 40
0.0
 40
0.0
 40
0.4271476962
 40
1.0
 40
1.0
 40
1.0
 40
1.0
 10
273.3047160804
 20
123.2209405446
 30
0.0
 10
273.3049874879
 20
123.2212438361
 30
0.0
 10
273.3053218583
 20
123.2223696111
 30
0.0
 10
273.3043776004
 20
123.2230144536
 30
0.0
 10
273.3039209027
 20
123.2233133811
 30
0.0
  0
SPLINE
  5
3F0
100
AcDbEntity
  8
DTM_AXIS
100
AcDbSpline
 62
7
  6
CONTINUOUS
 70
0
 71
3
 72
14
 73
10
 74
0
 42
0.0000001
 43
0.0000001
 44
0.0000000001
 40
0.0
 40
0.0
 40
0.0
 40
0.0
 40
0.0295034004
 40
0.0865493417
 40
0.1713737338
 40
0.2837779351
 40
0.4233916655
 40
0.5897200985
 40
1.0
 40
1.0
 40
1.0
 40
1.0
 10
257.1195707807
 20
133.8166391591
 30
0.0
 10
257.1167226621
 20
133.8185033704
 30
0.0
 10
257.1066097049
 20
133.8205173222
 30
0.0
 10
257.0873499943
 20
133.8238517592
 30
0.0
 10
257.0580494445
 20
133.8269549231
 30
0.0
 10
257.0193894583
 20
133.8304099157
 30
0.0
 10
256.9712268312
 20
133.833881804
 30
0.0
 10
256.8887599114
 20
133.83901544
 30
0.0
 10
256.8223102583
 20
133.8423461019
 30
0.0
 10
256.7750248015
 20
133.8445407565
 30
0.0
  0
SPLINE
  5
3F1
100
AcDbEntity
  8
DTM_AXIS
100
AcDbSpline
 62
7
  6
CONTINUOUS
 70
0
 71
3
 72
9
 73
5
 74
0
 42
0.0000001
 43
0.0000001
 44
0.0000000001
 40
0.0
 40
0.0
 40
0.0
 40
0.0
 40
0.4271476962
 40
1.0
 40
1.0
 40
1.0
 40
1.0
 10
259.6636209776
 20
132.1496008431
 30
0.0
 10
259.6638923851
 20
132.1499041347
 30
0.0
 10
259.6642267555
 20
132.1510299097
 30
0.0
 10
259.6632824975
 20
132.1516747522
 30
0.0
 10
259.6628257999
 20
132.1519736797
 30
0.0
  0
SPLINE
  5
3F2
100
AcDbEntity
  8
DTM_AXIS
100
AcDbSpline
 62
7
  6
CONTINUOUS
 70
0
 71
3
 72
9
 73
5
 74
0
 42
0.0000001
 43
0.0000001
 44
0.0000000001
 40
0.0
 40
0.0
 40
0.0
 40
0.0
 40
0.4271476962
 40
1.0
 40
1.0
 40
1.0
 40
1.0
 10
252.7274709254
 20
136.6895976051
 30
0.0
 10
252.7277423328
 20
136.6899008967
 30
0.0
 10
252.7280767032
 20
136.6910266717
 30
0.0
 10
252.7271324453
 20
136.6916715142
 30
0.0
 10
252.7266757476
 20
136.6919704417
 30
0.0
  0
SPLINE
  5
3F3
100
AcDbEntity
  8
DTM_AXIS
100
AcDbSpline
 62
7
  6
CONTINUOUS
 70
0
 71
3
 72
9
 73
5
 74
0
 42
0.0000001
 43
0.0000001
 44
0.0000000001
 40
0.0
 40
0.0
 40
0.0
 40
0.0
 40
0.4271476962
 40
1.0
 40
1.0
 40
1.0
 40
1.0
 10
273.0735110787
 20
123.37227377
 30
0.0
 10
273.0737824862
 20
123.3725770615
 30
0.0
 10
273.0741168566
 20
123.3737028365
 30
0.0
 10
273.0731725986
 20
123.374347679
 30
0.0
 10
273.072715901
 20
123.3746466065
 30
0.0
  0
SPLINE
  5
3F4
100
AcDbEntity
  8
DTM_AXIS
100
AcDbSpline
 62
7
  6
CONTINUOUS
 70
0
 71
3
 72
14
 73
10
 74
0
 42
0.0000001
 43
0.0000001
 44
0.0000000001
 40
0.0
 40
0.0
 40
0.0
 40
0.0
 40
0.0295034004
 40
0.0865493417
 40
0.1713737338
 40
0.2837779351
 40
0.4233916655
 40
0.5897200985
 40
1.0
 40
1.0
 40
1.0
 40
1.0
 10
256.888365779
 20
133.9679723845
 30
0.0
 10
256.8855176604
 20
133.9698365958
 30
0.0
 10
256.8754047032
 20
133.9718505476
 30
0.0
 10
256.8561449926
 20
133.9751849846
 30
0.0
 10
256.8268444427
 20
133.9782881485
 30
0.0
 10
256.7881844565
 20
133.9817431411
 30
0.0
 10
256.7400218294
 20
133.9852150294
 30
0.0
 10
256.6575549096
 20
133.9903486654
 30
0.0
 10
256.5911052565
 20
133.9936793273
 30
0.0
 10
256.5438197998
 20
133.9958739819
 30
0.0
  0
SPLINE
  5
3F5
100
AcDbEntity
  8
DTM_AXIS
100
AcDbSpline
 62
7
  6
CONTINUOUS
 70
0
 71
3
 72
9
 73
5
 74
0
 42
0.0000001
 43
0.0000001
 44
0.0000000001
 40
0.0
 40
0.0
 40
0.0
 40
0.0
 40
0.4271476962
 40
1.0
 40
1.0
 40
1.0
 40
1.0
 10
248.7969858957
 20
139.2622624369
 30
0.0
 10
248.7972573032
 20
139.2625657285
 30
0.0
 10
248.7975916736
 20
139.2636915035
 30
0.0
 10
248.7966474157
 20
139.264336346
 30
0.0
 10
248.796190718
 20
139.2646352735
 30
0.0
  0
SPLINE
  5
3F6
100
AcDbEntity
  8
DTM_AXIS
100
AcDbSpline
 62
7
  6
CONTINUOUS
 70
0
 71
3
 72
14
 73
10
 74
0
 42
0.0000001
 43
0.0000001
 44
0.0000000001
 40
0.0
 40
0.0
 40
0.0
 40
0.0
 40
0.0295034004
 40
0.0865493417
 40
0.1713737338
 40
0.2837779351
 40
0.4233916655
 40
0.5897200985
 40
1.0
 40
1.0
 40
1.0
 40
1.0
 10
256.6571607772
 20
134.1193056099
 30
0.0
 10
256.6543126587
 20
134.1211698212
 30
0.0
 10
256.6441997014
 20
134.123183773
 30
0.0
 10
256.6249399908
 20
134.12651821
 30
0.0
 10
256.595639441
 20
134.1296213739
 30
0.0
 10
256.5569794548
 20
134.1330763665
 30
0.0
 10
256.5088168277
 20
134.1365482548
 30
0.0
 10
256.4263499079
 20
134.1416818908
 30
0.0
 10
256.3599002548
 20
134.1450125527
 30
0.0
 10
256.3126147981
 20
134.1472072073
 30
0.0
  0
SPLINE
  5
3F7
100
AcDbEntity
  8
DTM_AXIS
100
AcDbSpline
 62
7
  6
CONTINUOUS
 70
0
 71
3
 72
14
 73
10
 74
0
 42
0.0000001
 43
0.0000001
 44
0.0000000001
 40
0.0
 40
0.0
 40
0.0
 40
0.0
 40
0.0295034004
 40
0.0865493417
 40
0.1713737338
 40
0.2837779351
 40
0.4233916655
 40
0.5897200985
 40
1.0
 40
1.0
 40
1.0
 40
1.0
 10
272.6103058975
 20
123.6773130573
 30
0.0
 10
272.6074577789
 20
123.6791772686
 30
0.0
 10
272.5973448217
 20
123.6811912204
 30
0.0
 10
272.5780851111
 20
123.6845256574
 30
0.0
 10
272.5487845612
 20
123.6876288213
 30
0.0
 10
272.510124575
 20
123.691083814
 30
0.0
 10
272.4619619479
 20
123.6945557022
 30
0.0
 10
272.3794950281
 20
123.6996893382
 30
0.0
 10
272.313045375
 20
123.7030200001
 30
0.0
 10
272.2657599183
 20
123.7052146548
 30
0.0
  0
SPLINE
  5
3F8
100
AcDbEntity
  8
DTM_AXIS
100
AcDbSpline
 62
7
  6
CONTINUOUS
 70
0
 71
3
 72
9
 73
5
 74
0
 42
0.0000001
 43
0.0000001
 44
0.0000000001
 40
0.0
 40
0.0
 40
0.0
 40
0.0
 40
0.4271476962
 40
1.0
 40
1.0
 40
1.0
 40
1.0
 10
272.842306077
 20
123.5236069954
 30
0.0
 10
272.8425774844
 20
123.5239102869
 30
0.0
 10
272.8429118548
 20
123.5250360619
 30
0.0
 10
272.8419675969
 20
123.5256809044
 30
0.0
 10
272.8415108992
 20
123.5259798319
 30
0.0
  0
SPLINE
  5
3F9
100
AcDbEntity
  8
DTM_AXIS
100
AcDbSpline
 62
7
  6
CONTINUOUS
 70
0
 71
3
 72
14
 73
10
 74
0
 42
0.0000001
 43
0.0000001
 44
0.0000000001
 40
0.0
 40
0.0
 40
0.0
 40
0.0
 40
0.0295034004
 40
0.0865493417
 40
0.1713737338
 40
0.2837779351
 40
0.4233916655
 40
0.5897200985
 40
1.0
 40
1.0
 40
1.0
 40
1.0
 10
256.4259557755
 20
134.2706388353
 30
0.0
 10
256.4231076569
 20
134.2725030466
 30
0.0
 10
256.4129946997
 20
134.2745169984
 30
0.0
 10
256.3937349891
 20
134.2778514354
 30
0.0
 10
256.3644344392
 20
134.2809545993
 30
0.0
 10
256.325774453
 20
134.2844095919
 30
0.0
 10
256.277611826
 20
134.2878814802
 30
0.0
 10
256.1951449061
 20
134.2930151162
 30
0.0
 10
256.1286952531
 20
134.2963457781
 30
0.0
 10
256.0814097963
 20
134.2985404327
 30
0.0
  0
SPLINE
  5
3FA
100
AcDbEntity
  8
DTM_AXIS
100
AcDbSpline
 62
7
  6
CONTINUOUS
 70
0
 71
3
 72
9
 73
5
 74
0
 42
0.0000001
 43
0.0000001
 44
0.0000000001
 40
0.0
 40
0.0
 40
0.0
 40
0.0
 40
0.4271476962
 40
1.0
 40
1.0
 40
1.0
 40
1.0
 10
259.8948259794
 20
131.9982676177
 30
0.0
 10
259.8950973869
 20
131.9985709093
 30
0.0
 10
259.8954317572
 20
131.9996966843
 30
0.0
 10
259.8944874993
 20
132.0003415268
 30
0.0
 10
259.8940308016
 20
132.0006404543
 30
0.0
  0
SPLINE
  5
3FB
100
AcDbEntity
  8
DTM_AXIS
100
AcDbSpline
 62
7
  6
CONTINUOUS
 70
0
 71
3
 72
9
 73
5
 74
0
 42
0.0000001
 43
0.0000001
 44
0.0000000001
 40
0.0
 40
0.0
 40
0.0
 40
0.0
 40
0.4271476962
 40
1.0
 40
1.0
 40
1.0
 40
1.0
 10
272.6111010752
 20
123.6749402208
 30
0.0
 10
272.6113724827
 20
123.6752435123
 30
0.0
 10
272.6117068531
 20
123.6763692873
 30
0.0
 10
272.6107625951
 20
123.6770141298
 30
0.0
 10
272.6103058975
 20
123.6773130573
 30
0.0
  0
SPLINE
  5
3FC
100
AcDbEntity
  8
DTM_AXIS
100
AcDbSpline
 62
7
  6
CONTINUOUS
 70
0
 71
3
 72
14
 73
10
 74
0
 42
0.0000001
 43
0.0000001
 44
0.0000000001
 40
0.0
 40
0.0
 40
0.0
 40
0.0
 40
0.0295034004
 40
0.0865493417
 40
0.1713737338
 40
0.2837779351
 40
0.4233916655
 40
0.5897200985
 40
1.0
 40
1.0
 40
1.0
 40
1.0
 10
256.1947507737
 20
134.4219720607
 30
0.0
 10
256.1919026552
 20
134.423836272
 30
0.0
 10
256.181789698
 20
134.4258502238
 30
0.0
 10
256.1625299873
 20
134.4291846608
 30
0.0
 10
256.1332294375
 20
134.4322878247
 30
0.0
 10
256.0945694513
 20
134.4357428173
 30
0.0
 10
256.0464068242
 20
134.4392147056
 30
0.0
 10
255.9639399044
 20
134.4443483416
 30
0.0
 10
255.8974902513
 20
134.4476790035
 30
0.0
 10
255.8502047946
 20
134.4498736581
 30
0.0
  0
SPLINE
  5
3FD
100
AcDbEntity
  8
DTM_AXIS
100
AcDbSpline
 62
7
  6
CONTINUOUS
 70
0
 71
3
 72
9
 73
5
 74
0
 42
0.0000001
 43
0.0000001
 44
0.0000000001
 40
0.0
 40
0.0
 40
0.0
 40
0.0
 40
0.4271476962
 40
1.0
 40
1.0
 40
1.0
 40
1.0
 10
252.9586759271
 20
136.5382643797
 30
0.0
 10
252.9589473346
 20
136.5385676713
 30
0.0
 10
252.959281705
 20
136.5396934463
 30
0.0
 10
252.958337447
 20
136.5403382888
 30
0.0
 10
252.9578807494
 20
136.5406372163
 30
0.0
  0
SPLINE
  5
3FE
100
AcDbEntity
  8
DTM_AXIS
100
AcDbSpline
 62
7
  6
CONTINUOUS
 70
0
 71
3
 72
14
 73
10
 74
0
 42
0.0000001
 43
0.0000001
 44
0.0000000001
 40
0.0
 40
0.0
 40
0.0
 40
0.0
 40
0.0295034004
 40
0.0865493417
 40
0.1713737338
 40
0.2837779351
 40
0.4233916655
 40
0.5897200985
 40
1.0
 40
1.0
 40
1.0
 40
1.0
 10
255.963545772
 20
134.5733052861
 30
0.0
 10
255.9606976534
 20
134.5751694974
 30
0.0
 10
255.9505846962
 20
134.5771834492
 30
0.0
 10
255.9313249856
 20
134.5805178862
 30
0.0
 10
255.9020244358
 20
134.5836210501
 30
0.0
 10
255.8633644496
 20
134.5870760427
 30
0.0
 10
255.8152018225
 20
134.590547931
 30
0.0
 10
255.7327349026
 20
134.595681567
 30
0.0
 10
255.6662852496
 20
134.5990122289
 30
0.0
 10
255.6189997928
 20
134.6012068835
 30
0.0
  0
SPLINE
  5
3FF
100
AcDbEntity
  8
DTM_AXIS
100
AcDbSpline
 62
7
  6
CONTINUOUS
 70
0
 71
3
 72
9
 73
5
 74
0
 42
0.0000001
 43
0.0000001
 44
0.0000000001
 40
0.0
 40
0.0
 40
0.0
 40
0.0
 40
0.4271476962
 40
1.0
 40
1.0
 40
1.0
 40
1.0
 10
272.3798960735
 20
123.8262734462
 30
0.0
 10
272.380167481
 20
123.8265767377
 30
0.0
 10
272.3805018513
 20
123.8277025127
 30
0.0
 10
272.3795575934
 20
123.8283473552
 30
0.0
 10
272.3791008957
 20
123.8286462827
 30
0.0
  0
SPLINE
  5
400
100
AcDbEntity
  8
DTM_AXIS
100
AcDbSpline
 62
7
  6
CONTINUOUS
 70
0
 71
3
 72
14
 73
10
 74
0
 42
0.0000001
 43
0.0000001
 44
0.0000000001
 40
0.0
 40
0.0
 40
0.0
 40
0.0
 40
0.0295034004
 40
0.0865493417
 40
0.1713737338
 40
0.2837779351
 40
0.4233916655
 40
0.5897200985
 40
1.0
 40
1.0
 40
1.0
 40
1.0
 10
255.7323407703
 20
134.7246385115
 30
0.0
 10
255.7294926517
 20
134.7265027228
 30
0.0
 10
255.7193796945
 20
134.7285166746
 30
0.0
 10
255.7001199839
 20
134.7318511116
 30
0.0
 10
255.670819434
 20
134.7349542755
 30
0.0
 10
255.6321594478
 20
134.7384092681
 30
0.0
 10
255.5839968207
 20
134.7418811564
 30
0.0
 10
255.5015299009
 20
134.7470147924
 30
0.0
 10
255.4350802478
 20
134.7503454543
 30
0.0
 10
255.3877947911
 20
134.7525401089
 30
0.0
  0
SPLINE
  5
401
100
AcDbEntity
  8
DTM_AXIS
100
AcDbSpline
 62
7
  6
CONTINUOUS
 70
0
 71
3
 72
9
 73
5
 74
0
 42
0.0000001
 43
0.0000001
 44
0.0000000001
 40
0.0
 40
0.0
 40
0.0
 40
0.0
 40
0.4271476962
 40
1.0
 40
1.0
 40
1.0
 40
1.0
 10
260.1260309811
 20
131.8469343923
 30
0.0
 10
260.1263023886
 20
131.8472376839
 30
0.0
 10
260.126636759
 20
131.8483634589
 30
0.0
 10
260.125692501
 20
131.8490083014
 30
0.0
 10
260.1252358034
 20
131.8493072289
 30
0.0
  0
SPLINE
  5
402
100
AcDbEntity
  8
DTM_AXIS
100
AcDbSpline
 62
7
  6
CONTINUOUS
 70
0
 71
3
 72
14
 73
10
 74
0
 42
0.0000001
 43
0.0000001
 44
0.0000000001
 40
0.0
 40
0.0
 40
0.0
 40
0.0
 40
0.0295034004
 40
0.0865493417
 40
0.1713737338
 40
0.2837779351
 40
0.4233916655
 40
0.5897200985
 40
1.0
 40
1.0
 40
1.0
 40
1.0
 10
272.3791008957
 20
123.8286462827
 30
0.0
 10
272.3762527772
 20
123.830510494
 30
0.0
 10
272.3661398199
 20
123.8325244458
 30
0.0
 10
272.3468801093
 20
123.8358588828
 30
0.0
 10
272.3175795595
 20
123.8389620467
 30
0.0
 10
272.2789195733
 20
123.8424170394
 30
0.0
 10
272.2307569462
 20
123.8458889276
 30
0.0
 10
272.1482900264
 20
123.8510225636
 30
0.0
 10
272.0818403733
 20
123.8543532255
 30
0.0
 10
272.0345549166
 20
123.8565478802
 30
0.0
  0
SPLINE
  5
403
100
AcDbEntity
  8
DTM_AXIS
100
AcDbSpline
 62
7
  6
CONTINUOUS
 70
0
 71
3
 72
9
 73
5
 74
0
 42
0.0000001
 43
0.0000001
 44
0.0000000001
 40
0.0
 40
0.0
 40
0.0
 40
0.0
 40
0.4271476962
 40
1.0
 40
1.0
 40
1.0
 40
1.0
 10
272.1486910717
 20
123.9776066716
 30
0.0
 10
272.1489624792
 20
123.9779099631
 30
0.0
 10
272.1492968496
 20
123.9790357381
 30
0.0
 10
272.1483525916
 20
123.9796805806
 30
0.0
 10
272.147895894
 20
123.9799795081
 30
0.0
  0
SPLINE
  5
404
100
AcDbEntity
  8
DTM_AXIS
100
AcDbSpline
 62
7
  6
CONTINUOUS
 70
0
 71
3
 72
14
 73
10
 74
0
 42
0.0000001
 43
0.0000001
 44
0.0000000001
 40
0.0
 40
0.0
 40
0.0
 40
0.0
 40
0.0295034004
 40
0.0865493417
 40
0.1713737338
 40
0.2837779351
 40
0.4233916655
 40
0.5897200985
 40
1.0
 40
1.0
 40
1.0
 40
1.0
 10
255.5011357685
 20
134.8759717369
 30
0.0
 10
255.49828765
 20
134.8778359482
 30
0.0
 10
255.4881746927
 20
134.8798499
 30
0.0
 10
255.4689149821
 20
134.883184337
 30
0.0
 10
255.4396144323
 20
134.8862875009
 30
0.0
 10
255.4009544461
 20
134.8897424935
 30
0.0
 10
255.352791819
 20
134.8932143818
 30
0.0
 10
255.2703248992
 20
134.8983480178
 30
0.0
 10
255.2038752461
 20
134.9016786797
 30
0.0
 10
255.1565897894
 20
134.9038733343
 30
0.0
  0
SPLINE
  5
405
100
AcDbEntity
  8
DTM_AXIS
100
AcDbSpline
 62
7
  6
CONTINUOUS
 70
0
 71
3
 72
14
 73
10
 74
0
 42
0.0000001
 43
0.0000001
 44
0.0000000001
 40
0.0
 40
0.0
 40
0.0
 40
0.0
 40
0.0295034004
 40
0.0865493417
 40
0.1713737338
 40
0.2837779351
 40
0.4233916655
 40
0.5897200985
 40
1.0
 40
1.0
 40
1.0
 40
1.0
 10
255.2699307668
 20
135.0273049623
 30
0.0
 10
255.2670826482
 20
135.0291691736
 30
0.0
 10
255.256969691
 20
135.0311831254
 30
0.0
 10
255.2377099804
 20
135.0345175624
 30
0.0
 10
255.2084094305
 20
135.0376207263
 30
0.0
 10
255.1697494443
 20
135.0410757189
 30
0.0
 10
255.1215868173
 20
135.0445476072
 30
0.0
 10
255.0391198974
 20
135.0496812432
 30
0.0
 10
254.9726702443
 20
135.0530119051
 30
0.0
 10
254.9253847876
 20
135.0552065597
 30
0.0
  0
SPLINE
  5
406
100
AcDbEntity
  8
DTM_AXIS
100
AcDbSpline
 62
7
  6
CONTINUOUS
 70
0
 71
3
 72
9
 73
5
 74
0
 42
0.0000001
 43
0.0000001
 44
0.0000000001
 40
0.0
 40
0.0
 40
0.0
 40
0.0
 40
0.4271476962
 40
1.0
 40
1.0
 40
1.0
 40
1.0
 10
253.1898809288
 20
136.3869311543
 30
0.0
 10
253.1901523363
 20
136.3872344459
 30
0.0
 10
253.1904867067
 20
136.3883602209
 30
0.0
 10
253.1895424488
 20
136.3890050634
 30
0.0
 10
253.1890857511
 20
136.3893039909
 30
0.0
  0
SPLINE
  5
407
100
AcDbEntity
  8
DTM_AXIS
100
AcDbSpline
 62
7
  6
CONTINUOUS
 70
0
 71
3
 72
9
 73
5
 74
0
 42
0.0000001
 43
0.0000001
 44
0.0000000001
 40
0.0
 40
0.0
 40
0.0
 40
0.0
 40
0.4271476962
 40
1.0
 40
1.0
 40
1.0
 40
1.0
 10
271.91748607
 20
124.128939897
 30
0.0
 10
271.9177574775
 20
124.1292431885
 30
0.0
 10
271.9180918478
 20
124.1303689635
 30
0.0
 10
271.9171475899
 20
124.131013806
 30
0.0
 10
271.9166908922
 20
124.1313127335
 30
0.0
  0
SPLINE
  5
408
100
AcDbEntity
  8
DTM_AXIS
100
AcDbSpline
 62
7
  6
CONTINUOUS
 70
0
 71
3
 72
14
 73
10
 74
0
 42
0.0000001
 43
0.0000001
 44
0.0000000001
 40
0.0
 40
0.0
 40
0.0
 40
0.0
 40
0.0295034004
 40
0.0865493417
 40
0.1713737338
 40
0.2837779351
 40
0.4233916655
 40
0.5897200985
 40
1.0
 40
1.0
 40
1.0
 40
1.0
 10
255.038725765
 20
135.1786381877
 30
0.0
 10
255.0358776465
 20
135.180502399
 30
0.0
 10
255.0257646892
 20
135.1825163508
 30
0.0
 10
255.0065049786
 20
135.1858507878
 30
0.0
 10
254.9772044288
 20
135.1889539517
 30
0.0
 10
254.9385444426
 20
135.1924089443
 30
0.0
 10
254.8903818155
 20
135.1958808326
 30
0.0
 10
254.8079148957
 20
135.2010144686
 30
0.0
 10
254.7414652426
 20
135.2043451305
 30
0.0
 10
254.6941797859
 20
135.2065397851
 30
0.0
  0
SPLINE
  5
409
100
AcDbEntity
  8
DTM_AXIS
100
AcDbSpline
 62
7
  6
CONTINUOUS
 70
0
 71
3
 72
9
 73
5
 74
0
 42
0.0000001
 43
0.0000001
 44
0.0000000001
 40
0.0
 40
0.0
 40
0.0
 40
0.0
 40
0.4271476962
 40
1.0
 40
1.0
 40
1.0
 40
1.0
 10
260.3572359829
 20
131.6956011669
 30
0.0
 10
260.3575073904
 20
131.6959044585
 30
0.0
 10
260.3578417607
 20
131.6970302335
 30
0.0
 10
260.3568975028
 20
131.697675076
 30
0.0
 10
260.3564408051
 20
131.6979740035
 30
0.0
  0
SPLINE
  5
40A
100
AcDbEntity
  8
DTM_AXIS
100
AcDbSpline
 62
7
  6
CONTINUOUS
 70
0
 71
3
 72
14
 73
10
 74
0
 42
0.0000001
 43
0.0000001
 44
0.0000000001
 40
0.0
 40
0.0
 40
0.0
 40
0.0
 40
0.0295034004
 40
0.0865493417
 40
0.1713737338
 40
0.2837779351
 40
0.4233916655
 40
0.5897200985
 40
1.0
 40
1.0
 40
1.0
 40
1.0
 10
276.5407909271
 20
121.1046482255
 30
0.0
 10
276.5379428085
 20
121.1065124368
 30
0.0
 10
276.5278298513
 20
121.1085263886
 30
0.0
 10
276.5085701407
 20
121.1118608256
 30
0.0
 10
276.4792695908
 20
121.1149639895
 30
0.0
 10
276.4406096046
 20
121.1184189822
 30
0.0
 10
276.3924469776
 20
121.1218908704
 30
0.0
 10
276.3099800577
 20
121.1270245064
 30
0.0
 10
276.2435304047
 20
121.1303551683
 30
0.0
 10
276.1962449479
 20
121.132549823
 30
0.0
  0
SPLINE
  5
40B
100
AcDbEntity
  8
DTM_AXIS
100
AcDbSpline
 62
7
  6
CONTINUOUS
 70
0
 71
3
 72
9
 73
5
 74
0
 42
0.0000001
 43
0.0000001
 44
0.0000000001
 40
0.0
 40
0.0
 40
0.0
 40
0.0
 40
0.4271476962
 40
1.0
 40
1.0
 40
1.0
 40
1.0
 10
271.6862810683
 20
124.2802731224
 30
0.0
 10
271.6865524757
 20
124.2805764139
 30
0.0
 10
271.6868868461
 20
124.2817021889
 30
0.0
 10
271.6859425882
 20
124.2823470314
 30
0.0
 10
271.6854858905
 20
124.2826459589
 30
0.0
  0
SPLINE
  5
40C
100
AcDbEntity
  8
DTM_AXIS
100
AcDbSpline
 62
7
  6
CONTINUOUS
 70
0
 71
3
 72
14
 73
10
 74
0
 42
0.0000001
 43
0.0000001
 44
0.0000000001
 40
0.0
 40
0.0
 40
0.0
 40
0.0
 40
0.0295034004
 40
0.0865493417
 40
0.1713737338
 40
0.2837779351
 40
0.4233916655
 40
0.5897200985
 40
1.0
 40
1.0
 40
1.0
 40
1.0
 10
254.8075207633
 20
135.3299714131
 30
0.0
 10
254.8046726447
 20
135.3318356244
 30
0.0
 10
254.7945596875
 20
135.3338495762
 30
0.0
 10
254.7752999769
 20
135.3371840132
 30
0.0
 10
254.745999427
 20
135.3402871771
 30
0.0
 10
254.7073394408
 20
135.3437421697
 30
0.0
 10
254.6591768138
 20
135.347214058
 30
0.0
 10
254.5767098939
 20
135.352347694
 30
0.0
 10
254.5102602409
 20
135.3556783559
 30
0.0
 10
254.4629747841
 20
135.3578730105
 30
0.0
  0
SPLINE
  5
40D
100
AcDbEntity
  8
DTM_AXIS
100
AcDbSpline
 62
7
  6
CONTINUOUS
 70
0
 71
3
 72
14
 73
10
 74
0
 42
0.0000001
 43
0.0000001
 44
0.0000000001
 40
0.0
 40
0.0
 40
0.0
 40
0.0
 40
0.0295034004
 40
0.0865493417
 40
0.1713737338
 40
0.2837779351
 40
0.4233916655
 40
0.5897200985
 40
1.0
 40
1.0
 40
1.0
 40
1.0
 10
272.147895894
 20
123.9799795081
 30
0.0
 10
272.1450477754
 20
123.9818437194
 30
0.0
 10
272.1349348182
 20
123.9838576712
 30
0.0
 10
272.1156751076
 20
123.9871921082
 30
0.0
 10
272.0863745577
 20
123.9902952721
 30
0.0
 10
272.0477145715
 20
123.9937502648
 30
0.0
 10
271.9995519445
 20
123.997222153
 30
0.0
 10
271.9170850246
 20
124.002355789
 30
0.0
 10
271.8506353716
 20
124.0056864509
 30
0.0
 10
271.8033499148
 20
124.0078811056
 30
0.0
  0
SPLINE
  5
40E
100
AcDbEntity
  8
DTM_AXIS
100
AcDbSpline
 62
7
  6
CONTINUOUS
 70
0
 71
3
 72
14
 73
10
 74
0
 42
0.0000001
 43
0.0000001
 44
0.0000000001
 40
0.0
 40
0.0
 40
0.0
 40
0.0
 40
0.0295034004
 40
0.0865493417
 40
0.1713737338
 40
0.2837779351
 40
0.4233916655
 40
0.5897200985
 40
1.0
 40
1.0
 40
1.0
 40
1.0
 10
254.5763157616
 20
135.4813046385
 30
0.0
 10
254.573467643
 20
135.4831688498
 30
0.0
 10
254.5633546858
 20
135.4851828016
 30
0.0
 10
254.5440949751
 20
135.4885172386
 30
0.0
 10
254.5147944253
 20
135.4916204025
 30
0.0
 10
254.4761344391
 20
135.4950753951
 30
0.0
 10
254.427971812
 20
135.4985472834
 30
0.0
 10
254.3455048922
 20
135.5036809194
 30
0.0
 10
254.2790552391
 20
135.5070115813
 30
0.0
 10
254.2317697824
 20
135.5092062359
 30
0.0
  0
SPLINE
  5
40F
100
AcDbEntity
  8
DTM_AXIS
100
AcDbSpline
 62
7
  6
CONTINUOUS
 70
0
 71
3
 72
9
 73
5
 74
0
 42
0.0000001
 43
0.0000001
 44
0.0000000001
 40
0.0
 40
0.0
 40
0.0
 40
0.0
 40
0.4271476962
 40
1.0
 40
1.0
 40
1.0
 40
1.0
 10
271.4550760665
 20
124.4316063478
 30
0.0
 10
271.455347474
 20
124.4319096393
 30
0.0
 10
271.4556818444
 20
124.4330354143
 30
0.0
 10
271.4547375864
 20
124.4336802568
 30
0.0
 10
271.4542808888
 20
124.4339791843
 30
0.0
  0
SPLINE
  5
410
100
AcDbEntity
  8
DTM_AXIS
100
AcDbSpline
 62
7
  6
CONTINUOUS
 70
0
 71
3
 72
14
 73
10
 74
0
 42
0.0000001
 43
0.0000001
 44
0.0000000001
 40
0.0
 40
0.0
 40
0.0
 40
0.0
 40
0.0295034004
 40
0.0865493417
 40
0.1713737338
 40
0.2837779351
 40
0.4233916655
 40
0.5897200985
 40
1.0
 40
1.0
 40
1.0
 40
1.0
 10
254.3451107598
 20
135.6326378639
 30
0.0
 10
254.3422626412
 20
135.6345020752
 30
0.0
 10
254.332149684
 20
135.636516027
 30
0.0
 10
254.3128899734
 20
135.639850464
 30
0.0
 10
254.2835894236
 20
135.6429536279
 30
0.0
 10
254.2449294374
 20
135.6464086205
 30
0.0
 10
254.1967668103
 20
135.6498805088
 30
0.0
 10
254.1142998904
 20
135.6550141448
 30
0.0
 10
254.0478502374
 20
135.6583448067
 30
0.0
 10
254.0005647806
 20
135.6605394613
 30
0.0
  0
SPLINE
  5
411
100
AcDbEntity
  8
DTM_AXIS
100
AcDbSpline
 62
7
  6
CONTINUOUS
 70
0
 71
3
 72
9
 73
5
 74
0
 42
0.0000001
 43
0.0000001
 44
0.0000000001
 40
0.0
 40
0.0
 40
0.0
 40
0.0
 40
0.4271476962
 40
1.0
 40
1.0
 40
1.0
 40
1.0
 10
260.5884409846
 20
131.5442679415
 30
0.0
 10
260.5887123921
 20
131.5445712331
 30
0.0
 10
260.5890467625
 20
131.5456970081
 30
0.0
 10
260.5881025045
 20
131.5463418506
 30
0.0
 10
260.5876458069
 20
131.5466407781
 30
0.0
  0
SPLINE
  5
412
100
AcDbEntity
  8
DTM_AXIS
100
AcDbSpline
 62
7
  6
CONTINUOUS
 70
0
 71
3
 72
9
 73
5
 74
0
 42
0.0000001
 43
0.0000001
 44
0.0000000001
 40
0.0
 40
0.0
 40
0.0
 40
0.0
 40
0.4271476962
 40
1.0
 40
1.0
 40
1.0
 40
1.0
 10
253.4210859306
 20
136.2355979289
 30
0.0
 10
253.4213573381
 20
136.2359012205
 30
0.0
 10
253.4216917084
 20
136.2370269955
 30
0.0
 10
253.4207474505
 20
136.237671838
 30
0.0
 10
253.4202907528
 20
136.2379707655
 30
0.0
  0
SPLINE
  5
413
100
AcDbEntity
  8
DTM_AXIS
100
AcDbSpline
 62
7
  6
CONTINUOUS
 70
0
 71
3
 72
9
 73
5
 74
0
 42
0.0000001
 43
0.0000001
 44
0.0000000001
 40
0.0
 40
0.0
 40
0.0
 40
0.0
 40
0.4271476962
 40
1.0
 40
1.0
 40
1.0
 40
1.0
 10
271.2238710648
 20
124.5829395732
 30
0.0
 10
271.2241424722
 20
124.5832428647
 30
0.0
 10
271.2244768426
 20
124.5843686397
 30
0.0
 10
271.2235325847
 20
124.5850134822
 30
0.0
 10
271.223075887
 20
124.5853124097
 30
0.0
  0
SPLINE
  5
414
100
AcDbEntity
  8
DTM_AXIS
100
AcDbSpline
 62
7
  6
CONTINUOUS
 70
0
 71
3
 72
14
 73
10
 74
0
 42
0.0000001
 43
0.0000001
 44
0.0000000001
 40
0.0
 40
0.0
 40
0.0
 40
0.0
 40
0.0295034004
 40
0.0865493417
 40
0.1713737338
 40
0.2837779351
 40
0.4233916655
 40
0.5897200985
 40
1.0
 40
1.0
 40
1.0
 40
1.0
 10
254.1139057581
 20
135.7839710893
 30
0.0
 10
254.1110576395
 20
135.7858353006
 30
0.0
 10
254.1009446823
 20
135.7878492524
 30
0.0
 10
254.0816849717
 20
135.7911836894
 30
0.0
 10
254.0523844218
 20
135.7942868533
 30
0.0
 10
254.0137244356
 20
135.7977418459
 30
0.0
 10
253.9655618085
 20
135.8012137342
 30
0.0
 10
253.8830948887
 20
135.8063473702
 30
0.0
 10
253.8166452356
 20
135.8096780321
 30
0.0
 10
253.7693597789
 20
135.8118726867
 30
0.0
  0
SPLINE
  5
415
100
AcDbEntity
  8
DTM_AXIS
100
AcDbSpline
 62
7
  6
CONTINUOUS
 70
0
 71
3
 72
14
 73
10
 74
0
 42
0.0000001
 43
0.0000001
 44
0.0000000001
 40
0.0
 40
0.0
 40
0.0
 40
0.0
 40
0.0295034004
 40
0.0865493417
 40
0.1713737338
 40
0.2837779351
 40
0.4233916655
 40
0.5897200985
 40
1.0
 40
1.0
 40
1.0
 40
1.0
 10
253.8827007563
 20
135.9353043147
 30
0.0
 10
253.8798526378
 20
135.937168526
 30
0.0
 10
253.8697396805
 20
135.9391824778
 30
0.0
 10
253.8504799699
 20
135.9425169148
 30
0.0
 10
253.8211794201
 20
135.9456200787
 30
0.0
 10
253.7825194339
 20
135.9490750713
 30
0.0
 10
253.7343568068
 20
135.9525469596
 30
0.0
 10
253.651889887
 20
135.9576805956
 30
0.0
 10
253.5854402339
 20
135.9610112575
 30
0.0
 10
253.5381547772
 20
135.9632059121
 30
0.0
  0
SPLINE
  5
416
100
AcDbEntity
  8
DTM_AXIS
100
AcDbSpline
 62
7
  6
CONTINUOUS
 70
0
 71
3
 72
14
 73
10
 74
0
 42
0.0000001
 43
0.0000001
 44
0.0000000001
 40
0.0
 40
0.0
 40
0.0
 40
0.0
 40
0.0295034004
 40
0.0865493417
 40
0.1713737338
 40
0.2837779351
 40
0.4233916655
 40
0.5897200985
 40
1.0
 40
1.0
 40
1.0
 40
1.0
 10
271.9166908922
 20
124.1313127335
 30
0.0
 10
271.9138427737
 20
124.1331769448
 30
0.0
 10
271.9037298164
 20
124.1351908966
 30
0.0
 10
271.8844701058
 20
124.1385253336
 30
0.0
 10
271.855169556
 20
124.1416284975
 30
0.0
 10
271.8165095698
 20
124.1450834902
 30
0.0
 10
271.7683469427
 20
124.1485553784
 30
0.0
 10
271.6858800229
 20
124.1536890144
 30
0.0
 10
271.6194303698
 20
124.1570196763
 30
0.0
 10
271.5721449131
 20
124.159214331
 30
0.0
  0
SPLINE
  5
417
100
AcDbEntity
  8
DTM_AXIS
100
AcDbSpline
 62
7
  6
CONTINUOUS
 70
0
 71
3
 72
9
 73
5
 74
0
 42
0.0000001
 43
0.0000001
 44
0.0000000001
 40
0.0
 40
0.0
 40
0.0
 40
0.0
 40
0.4271476962
 40
1.0
 40
1.0
 40
1.0
 40
1.0
 10
270.992666063
 20
124.7342727986
 30
0.0
 10
270.9929374705
 20
124.7345760901
 30
0.0
 10
270.9932718409
 20
124.7357018651
 30
0.0
 10
270.9923275829
 20
124.7363467076
 30
0.0
 10
270.9918708853
 20
124.7366456351
 30
0.0
  0
SPLINE
  5
418
100
AcDbEntity
  8
DTM_AXIS
100
AcDbSpline
 62
7
  6
CONTINUOUS
 70
0
 71
3
 72
14
 73
10
 74
0
 42
0.0000001
 43
0.0000001
 44
0.0000000001
 40
0.0
 40
0.0
 40
0.0
 40
0.0
 40
0.0295034004
 40
0.0865493417
 40
0.1713737338
 40
0.2837779351
 40
0.4233916655
 40
0.5897200985
 40
1.0
 40
1.0
 40
1.0
 40
1.0
 10
253.6514957546
 20
136.0866375401
 30
0.0
 10
253.648647636
 20
136.0885017514
 30
0.0
 10
253.6385346788
 20
136.0905157032
 30
0.0
 10
253.6192749682
 20
136.0938501402
 30
0.0
 10
253.5899744183
 20
136.0969533041
 30
0.0
 10
253.5513144321
 20
136.1004082967
 30
0.0
 10
253.5031518051
 20
136.103880185
 30
0.0
 10
253.4206848852
 20
136.109013821
 30
0.0
 10
253.3542352321
 20
136.1123444829
 30
0.0
 10
253.3069497754
 20
136.1145391375
 30
0.0
  0
SPLINE
  5
419
100
AcDbEntity
  8
DTM_AXIS
100
AcDbSpline
 62
7
  6
CONTINUOUS
 70
0
 71
3
 72
9
 73
5
 74
0
 42
0.0000001
 43
0.0000001
 44
0.0000000001
 40
0.0
 40
0.0
 40
0.0
 40
0.0
 40
0.4271476962
 40
1.0
 40
1.0
 40
1.0
 40
1.0
 10
260.8196459864
 20
131.3929347161
 30
0.0
 10
260.8199173938
 20
131.3932380077
 30
0.0
 10
260.8202517642
 20
131.3943637827
 30
0.0
 10
260.8193075063
 20
131.3950086252
 30
0.0
 10
260.8188508086
 20
131.3953075527
 30
0.0
  0
SPLINE
  5
41A
100
AcDbEntity
  8
DTM_AXIS
100
AcDbSpline
 62
7
  6
CONTINUOUS
 70
0
 71
3
 72
9
 73
5
 74
0
 42
0.0000001
 43
0.0000001
 44
0.0000000001
 40
0.0
 40
0.0
 40
0.0
 40
0.0
 40
0.4271476962
 40
1.0
 40
1.0
 40
1.0
 40
1.0
 10
270.7614610613
 20
124.885606024
 30
0.0
 10
270.7617324688
 20
124.8859093155
 30
0.0
 10
270.7620668391
 20
124.8870350905
 30
0.0
 10
270.7611225812
 20
124.887679933
 30
0.0
 10
270.7606658835
 20
124.8879788605
 30
0.0
  0
SPLINE
  5
41B
100
AcDbEntity
  8
DTM_AXIS
100
AcDbSpline
 62
7
  6
CONTINUOUS
 70
0
 71
3
 72
14
 73
10
 74
0
 42
0.0000001
 43
0.0000001
 44
0.0000000001
 40
0.0
 40
0.0
 40
0.0
 40
0.0
 40
0.0295034004
 40
0.0865493417
 40
0.1713737338
 40
0.2837779351
 40
0.4233916655
 40
0.5897200985
 40
1.0
 40
1.0
 40
1.0
 40
1.0
 10
253.4202907528
 20
136.2379707655
 30
0.0
 10
253.4174426343
 20
136.2398349768
 30
0.0
 10
253.407329677
 20
136.2418489286
 30
0.0
 10
253.3880699664
 20
136.2451833656
 30
0.0
 10
253.3587694166
 20
136.2482865295
 30
0.0
 10
253.3201094304
 20
136.2517415221
 30
0.0
 10
253.2719468033
 20
136.2552134104
 30
0.0
 10
253.1894798835
 20
136.2603470464
 30
0.0
 10
253.1230302304
 20
136.2636777083
 30
0.0
 10
253.0757447737
 20
136.2658723629
 30
0.0
  0
SPLINE
  5
41C
100
AcDbEntity
  8
DTM_AXIS
100
AcDbSpline
 62
7
  6
CONTINUOUS
 70
0
 71
3
 72
9
 73
5
 74
0
 42
0.0000001
 43
0.0000001
 44
0.0000000001
 40
0.0
 40
0.0
 40
0.0
 40
0.0
 40
0.4271476962
 40
1.0
 40
1.0
 40
1.0
 40
1.0
 10
253.6522909323
 20
136.0842647035
 30
0.0
 10
253.6525623398
 20
136.0845679951
 30
0.0
 10
253.6528967102
 20
136.0856937701
 30
0.0
 10
253.6519524522
 20
136.0863386126
 30
0.0
 10
253.6514957546
 20
136.0866375401
 30
0.0
  0
SPLINE
  5
41D
100
AcDbEntity
  8
DTM_AXIS
100
AcDbSpline
 62
7
  6
CONTINUOUS
 70
0
 71
3
 72
14
 73
10
 74
0
 42
0.0000001
 43
0.0000001
 44
0.0000000001
 40
0.0
 40
0.0
 40
0.0
 40
0.0
 40
0.0295034004
 40
0.0865493417
 40
0.1713737338
 40
0.2837779351
 40
0.4233916655
 40
0.5897200985
 40
1.0
 40
1.0
 40
1.0
 40
1.0
 10
253.1890857511
 20
136.3893039909
 30
0.0
 10
253.1862376325
 20
136.3911682022
 30
0.0
 10
253.1761246753
 20
136.393182154
 30
0.0
 10
253.1568649647
 20
136.396516591
 30
0.0
 10
253.1275644149
 20
136.3996197549
 30
0.0
 10
253.0889044286
 20
136.4030747475
 30
0.0
 10
253.0407418016
 20
136.4065466358
 30
0.0
 10
252.9582748817
 20
136.4116802718
 30
0.0
 10
252.8918252287
 20
136.4150109337
 30
0.0
 10
252.8445397719
 20
136.4172055883
 30
0.0
  0
SPLINE
  5
41E
100
AcDbEntity
  8
DTM_AXIS
100
AcDbSpline
 62
7
  6
CONTINUOUS
 70
0
 71
3
 72
9
 73
5
 74
0
 42
0.0000001
 43
0.0000001
 44
0.0000000001
 40
0.0
 40
0.0
 40
0.0
 40
0.0
 40
0.4271476962
 40
1.0
 40
1.0
 40
1.0
 40
1.0
 10
249.0281908975
 20
139.1109292115
 30
0.0
 10
249.028462305
 20
139.1112325031
 30
0.0
 10
249.0287966753
 20
139.1123582781
 30
0.0
 10
249.0278524174
 20
139.1130031206
 30
0.0
 10
249.0273957197
 20
139.1133020481
 30
0.0
  0
SPLINE
  5
41F
100
AcDbEntity
  8
DTM_AXIS
100
AcDbSpline
 62
7
  6
CONTINUOUS
 70
0
 71
3
 72
9
 73
5
 74
0
 42
0.0000001
 43
0.0000001
 44
0.0000000001
 40
0.0
 40
0.0
 40
0.0
 40
0.0
 40
0.4271476962
 40
1.0
 40
1.0
 40
1.0
 40
1.0
 10
270.5302560595
 20
125.0369392494
 30
0.0
 10
270.530527467
 20
125.0372425409
 30
0.0
 10
270.5308618374
 20
125.0383683159
 30
0.0
 10
270.5299175794
 20
125.0390131584
 30
0.0
 10
270.5294608818
 20
125.0393120859
 30
0.0
  0
SPLINE
  5
420
100
AcDbEntity
  8
DTM_AXIS
100
AcDbSpline
 62
7
  6
CONTINUOUS
 70
0
 71
3
 72
14
 73
10
 74
0
 42
0.0000001
 43
0.0000001
 44
0.0000000001
 40
0.0
 40
0.0
 40
0.0
 40
0.0
 40
0.0295034004
 40
0.0865493417
 40
0.1713737338
 40
0.2837779351
 40
0.4233916655
 40
0.5897200985
 40
1.0
 40
1.0
 40
1.0
 40
1.0
 10
252.9578807494
 20
136.5406372163
 30
0.0
 10
252.9550326308
 20
136.5425014276
 30
0.0
 10
252.9449196736
 20
136.5445153794
 30
0.0
 10
252.9256599629
 20
136.5478498164
 30
0.0
 10
252.8963594131
 20
136.5509529803
 30
0.0
 10
252.8576994269
 20
136.5544079729
 30
0.0
 10
252.8095367998
 20
136.5578798612
 30
0.0
 10
252.72706988
 20
136.5630134972
 30
0.0
 10
252.6606202269
 20
136.5663441591
 30
0.0
 10
252.6133347702
 20
136.5685388137
 30
0.0
  0
SPLINE
  5
421
100
AcDbEntity
  8
DTM_AXIS
100
AcDbSpline
 62
7
  6
CONTINUOUS
 70
0
 71
3
 72
9
 73
5
 74
0
 42
0.0000001
 43
0.0000001
 44
0.0000000001
 40
0.0
 40
0.0
 40
0.0
 40
0.0
 40
0.4271476962
 40
1.0
 40
1.0
 40
1.0
 40
1.0
 10
261.0508509881
 20
131.2416014907
 30
0.0
 10
261.0511223956
 20
131.2419047823
 30
0.0
 10
261.0514567659
 20
131.2430305573
 30
0.0
 10
261.050512508
 20
131.2436753998
 30
0.0
 10
261.0500558103
 20
131.2439743273
 30
0.0
  0
SPLINE
  5
422
100
AcDbEntity
  8
DTM_AXIS
100
AcDbSpline
 62
7
  6
CONTINUOUS
 70
0
 71
3
 72
14
 73
10
 74
0
 42
0.0000001
 43
0.0000001
 44
0.0000000001
 40
0.0
 40
0.0
 40
0.0
 40
0.0
 40
0.0295034004
 40
0.0865493417
 40
0.1713737338
 40
0.2837779351
 40
0.4233916655
 40
0.5897200985
 40
1.0
 40
1.0
 40
1.0
 40
1.0
 10
271.6854858905
 20
124.2826459589
 30
0.0
 10
271.6826377719
 20
124.2845101702
 30
0.0
 10
271.6725248147
 20
124.286524122
 30
0.0
 10
271.6532651041
 20
124.289858559
 30
0.0
 10
271.6239645543
 20
124.2929617229
 30
0.0
 10
271.585304568
 20
124.2964167156
 30
0.0
 10
271.537141941
 20
124.2998886038
 30
0.0
 10
271.4546750211
 20
124.3050222398
 30
0.0
 10
271.3882253681
 20
124.3083529017
 30
0.0
 10
271.3409399113
 20
124.3105475563
 30
0.0
  0
SPLINE
  5
423
100
AcDbEntity
  8
DTM_AXIS
100
AcDbSpline
 62
7
  6
CONTINUOUS
 70
0
 71
3
 72
9
 73
5
 74
0
 42
0.0000001
 43
0.0000001
 44
0.0000000001
 40
0.0
 40
0.0
 40
0.0
 40
0.0
 40
0.4271476962
 40
1.0
 40
1.0
 40
1.0
 40
1.0
 10
270.2990510578
 20
125.1882724748
 30
0.0
 10
270.2993224653
 20
125.1885757663
 30
0.0
 10
270.2996568356
 20
125.1897015413
 30
0.0
 10
270.2987125777
 20
125.1903463838
 30
0.0
 10
270.29825588
 20
125.1906453113
 30
0.0
  0
SPLINE
  5
424
100
AcDbEntity
  8
DTM_AXIS
100
AcDbSpline
 62
7
  6
CONTINUOUS
 70
0
 71
3
 72
14
 73
10
 74
0
 42
0.0000001
 43
0.0000001
 44
0.0000000001
 40
0.0
 40
0.0
 40
0.0
 40
0.0
 40
0.0295034004
 40
0.0865493417
 40
0.1713737338
 40
0.2837779351
 40
0.4233916655
 40
0.5897200985
 40
1.0
 40
1.0
 40
1.0
 40
1.0
 10
252.7266757476
 20
136.6919704417
 30
0.0
 10
252.723827629
 20
136.693834653
 30
0.0
 10
252.7137146718
 20
136.6958486048
 30
0.0
 10
252.6944549612
 20
136.6991830418
 30
0.0
 10
252.6651544114
 20
136.7022862057
 30
0.0
 10
252.6264944252
 20
136.7057411983
 30
0.0
 10
252.5783317981
 20
136.7092130866
 30
0.0
 10
252.4958648782
 20
136.7143467226
 30
0.0
 10
252.4294152252
 20
136.7176773845
 30
0.0
 10
252.3821297684
 20
136.7198720391
 30
0.0
  0
SPLINE
  5
425
100
AcDbEntity
  8
DTM_AXIS
100
AcDbSpline
 62
7
  6
CONTINUOUS
 70
0
 71
3
 72
14
 73
10
 74
0
 42
0.0000001
 43
0.0000001
 44
0.0000000001
 40
0.0
 40
0.0
 40
0.0
 40
0.0
 40
0.0295034004
 40
0.0865493417
 40
0.1713737338
 40
0.2837779351
 40
0.4233916655
 40
0.5897200985
 40
1.0
 40
1.0
 40
1.0
 40
1.0
 10
252.4954707459
 20
136.8433036671
 30
0.0
 10
252.4926226273
 20
136.8451678784
 30
0.0
 10
252.4825096701
 20
136.8471818302
 30
0.0
 10
252.4632499595
 20
136.8505162672
 30
0.0
 10
252.4339494096
 20
136.8536194311
 30
0.0
 10
252.3952894234
 20
136.8570744237
 30
0.0
 10
252.3471267963
 20
136.860546312
 30
0.0
 10
252.2646598765
 20
136.865679948
 30
0.0
 10
252.1982102234
 20
136.8690106099
 30
0.0
 10
252.1509247667
 20
136.8712052645
 30
0.0
  0
SPLINE
  5
426
100
AcDbEntity
  8
DTM_AXIS
100
AcDbSpline
 62
7
  6
CONTINUOUS
 70
0
 71
3
 72
9
 73
5
 74
0
 42
0.0000001
 43
0.0000001
 44
0.0000000001
 40
0.0
 40
0.0
 40
0.0
 40
0.0
 40
0.4271476962
 40
1.0
 40
1.0
 40
1.0
 40
1.0
 10
253.8834959341
 20
135.9329314781
 30
0.0
 10
253.8837673416
 20
135.9332347697
 30
0.0
 10
253.8841017119
 20
135.9343605447
 30
0.0
 10
253.883157454
 20
135.9350053872
 30
0.0
 10
253.8827007563
 20
135.9353043147
 30
0.0
  0
SPLINE
  5
427
100
AcDbEntity
  8
DTM_AXIS
100
AcDbSpline
 62
7
  6
CONTINUOUS
 70
0
 71
3
 72
9
 73
5
 74
0
 42
0.0000001
 43
0.0000001
 44
0.0000000001
 40
0.0
 40
0.0
 40
0.0
 40
0.0
 40
0.4271476962
 40
1.0
 40
1.0
 40
1.0
 40
1.0
 10
270.0678460561
 20
125.3396057002
 30
0.0
 10
270.0681174635
 20
125.3399089917
 30
0.0
 10
270.0684518339
 20
125.3410347667
 30
0.0
 10
270.067507576
 20
125.3416796092
 30
0.0
 10
270.0670508783
 20
125.3419785367
 30
0.0
  0
SPLINE
  5
428
100
AcDbEntity
  8
DTM_AXIS
100
AcDbSpline
 62
7
  6
CONTINUOUS
 70
0
 71
3
 72
14
 73
10
 74
0
 42
0.0000001
 43
0.0000001
 44
0.0000000001
 40
0.0
 40
0.0
 40
0.0
 40
0.0
 40
0.0295034004
 40
0.0865493417
 40
0.1713737338
 40
0.2837779351
 40
0.4233916655
 40
0.5897200985
 40
1.0
 40
1.0
 40
1.0
 40
1.0
 10
252.2642657441
 20
136.9946368925
 30
0.0
 10
252.2614176256
 20
136.9965011038
 30
0.0
 10
252.2513046683
 20
136.9985150556
 30
0.0
 10
252.2320449577
 20
137.0018494926
 30
0.0
 10
252.2027444079
 20
137.0049526565
 30
0.0
 10
252.1640844217
 20
137.0084076491
 30
0.0
 10
252.1159217946
 20
137.0118795374
 30
0.0
 10
252.0334548748
 20
137.0170131734
 30
0.0
 10
251.9670052217
 20
137.0203438353
 30
0.0
 10
251.919719765
 20
137.0225384899
 30
0.0
  0
SPLINE
  5
429
100
AcDbEntity
  8
DTM_AXIS
100
AcDbSpline
 62
7
  6
CONTINUOUS
 70
0
 71
3
 72
9
 73
5
 74
0
 42
0.0000001
 43
0.0000001
 44
0.0000000001
 40
0.0
 40
0.0
 40
0.0
 40
0.0
 40
0.4271476962
 40
1.0
 40
1.0
 40
1.0
 40
1.0
 10
261.2820559898
 20
131.0902682653
 30
0.0
 10
261.2823273973
 20
131.0905715569
 30
0.0
 10
261.2826617677
 20
131.0916973319
 30
0.0
 10
261.2817175097
 20
131.0923421744
 30
0.0
 10
261.2812608121
 20
131.0926411019
 30
0.0
  0
SPLINE
  5
42A
100
AcDbEntity
  8
DTM_AXIS
100
AcDbSpline
 62
7
  6
CONTINUOUS
 70
0
 71
3
 72
9
 73
5
 74
0
 42
0.0000001
 43
0.0000001
 44
0.0000000001
 40
0.0
 40
0.0
 40
0.0
 40
0.0
 40
0.4271476962
 40
1.0
 40
1.0
 40
1.0
 40
1.0
 10
269.8366410543
 20
125.4909389256
 30
0.0
 10
269.8369124618
 20
125.4912422171
 30
0.0
 10
269.8372468322
 20
125.4923679921
 30
0.0
 10
269.8363025742
 20
125.4930128346
 30
0.0
 10
269.8358458766
 20
125.4933117621
 30
0.0
  0
SPLINE
  5
42B
100
AcDbEntity
  8
DTM_AXIS
100
AcDbSpline
 62
7
  6
CONTINUOUS
 70
0
 71
3
 72
14
 73
10
 74
0
 42
0.0000001
 43
0.0000001
 44
0.0000000001
 40
0.0
 40
0.0
 40
0.0
 40
0.0
 40
0.0295034004
 40
0.0865493417
 40
0.1713737338
 40
0.2837779351
 40
0.4233916655
 40
0.5897200985
 40
1.0
 40
1.0
 40
1.0
 40
1.0
 10
252.0330607424
 20
137.1459701179
 30
0.0
 10
252.0302126238
 20
137.1478343292
 30
0.0
 10
252.0200996666
 20
137.149848281
 30
0.0
 10
252.000839956
 20
137.153182718
 30
0.0
 10
251.9715394061
 20
137.1562858819
 30
0.0
 10
251.9328794199
 20
137.1597408745
 30
0.0
 10
251.8847167929
 20
137.1632127628
 30
0.0
 10
251.802249873
 20
137.1683463988
 30
0.0
 10
251.73580022
 20
137.1716770607
 30
0.0
 10
251.6885147632
 20
137.1738717153
 30
0.0
  0
SPLINE
  5
42C
100
AcDbEntity
  8
DTM_AXIS
100
AcDbSpline
 62
7
  6
CONTINUOUS
 70
0
 71
3
 72
14
 73
10
 74
0
 42
0.0000001
 43
0.0000001
 44
0.0000000001
 40
0.0
 40
0.0
 40
0.0
 40
0.0
 40
0.0295034004
 40
0.0865493417
 40
0.1713737338
 40
0.2837779351
 40
0.4233916655
 40
0.5897200985
 40
1.0
 40
1.0
 40
1.0
 40
1.0
 10
271.4542808888
 20
124.4339791843
 30
0.0
 10
271.4514327702
 20
124.4358433956
 30
0.0
 10
271.441319813
 20
124.4378573474
 30
0.0
 10
271.4220601023
 20
124.4411917844
 30
0.0
 10
271.3927595525
 20
124.4442949483
 30
0.0
 10
271.3540995663
 20
124.447749941
 30
0.0
 10
271.3059369392
 20
124.4512218292
 30
0.0
 10
271.2234700194
 20
124.4563554652
 30
0.0
 10
271.1570203663
 20
124.4596861271
 30
0.0
 10
271.1097349096
 20
124.4618807817
 30
0.0
  0
SPLINE
  5
42D
100
AcDbEntity
  8
DTM_AXIS
100
AcDbSpline
 62
7
  6
CONTINUOUS
 70
0
 71
3
 72
14
 73
10
 74
0
 42
0.0000001
 43
0.0000001
 44
0.0000000001
 40
0.0
 40
0.0
 40
0.0
 40
0.0
 40
0.0295034004
 40
0.0865493417
 40
0.1713737338
 40
0.2837779351
 40
0.4233916655
 40
0.5897200985
 40
1.0
 40
1.0
 40
1.0
 40
1.0
 10
251.8018557406
 20
137.2973033433
 30
0.0
 10
251.7990076221
 20
137.2991675546
 30
0.0
 10
251.7888946648
 20
137.3011815064
 30
0.0
 10
251.7696349542
 20
137.3045159434
 30
0.0
 10
251.7403344044
 20
137.3076191073
 30
0.0
 10
251.7016744182
 20
137.3110740999
 30
0.0
 10
251.6535117911
 20
137.3145459882
 30
0.0
 10
251.5710448713
 20
137.3196796242
 30
0.0
 10
251.5045952182
 20
137.3230102861
 30
0.0
 10
251.4573097615
 20
137.3252049407
 30
0.0
  0
SPLINE
  5
42E
100
AcDbEntity
  8
DTM_AXIS
100
AcDbSpline
 62
7
  6
CONTINUOUS
 70
0
 71
3
 72
9
 73
5
 74
0
 42
0.0000001
 43
0.0000001
 44
0.0000000001
 40
0.0
 40
0.0
 40
0.0
 40
0.0
 40
0.4271476962
 40
1.0
 40
1.0
 40
1.0
 40
1.0
 10
269.6054360526
 20
125.642272151
 30
0.0
 10
269.6057074601
 20
125.6425754425
 30
0.0
 10
269.6060418304
 20
125.6437012175
 30
0.0
 10
269.6050975725
 20
125.64434606
 30
0.0
 10
269.6046408748
 20
125.6446449875
 30
0.0
  0
SPLINE
  5
42F
100
AcDbEntity
  8
DTM_AXIS
100
AcDbSpline
 62
7
  6
CONTINUOUS
 70
0
 71
3
 72
14
 73
10
 74
0
 42
0.0000001
 43
0.0000001
 44
0.0000000001
 40
0.0
 40
0.0
 40
0.0
 40
0.0
 40
0.0295034004
 40
0.0865493417
 40
0.1713737338
 40
0.2837779351
 40
0.4233916655
 40
0.5897200985
 40
1.0
 40
1.0
 40
1.0
 40
1.0
 10
251.5706507389
 20
137.4486365687
 30
0.0
 10
251.5678026203
 20
137.45050078
 30
0.0
 10
251.5576896631
 20
137.4525147318
 30
0.0
 10
251.5384299525
 20
137.4558491688
 30
0.0
 10
251.5091294027
 20
137.4589523327
 30
0.0
 10
251.4704694164
 20
137.4624073253
 30
0.0
 10
251.4223067894
 20
137.4658792136
 30
0.0
 10
251.3398398695
 20
137.4710128496
 30
0.0
 10
251.2733902165
 20
137.4743435115
 30
0.0
 10
251.2261047597
 20
137.4765381661
 30
0.0
  0
SPLINE
  5
430
100
AcDbEntity
  8
DTM_AXIS
100
AcDbSpline
 62
7
  6
CONTINUOUS
 70
0
 71
3
 72
9
 73
5
 74
0
 42
0.0000001
 43
0.0000001
 44
0.0000000001
 40
0.0
 40
0.0
 40
0.0
 40
0.0
 40
0.4271476962
 40
1.0
 40
1.0
 40
1.0
 40
1.0
 10
261.5132609916
 20
130.9389350399
 30
0.0
 10
261.5135323991
 20
130.9392383315
 30
0.0
 10
261.5138667694
 20
130.9403641065
 30
0.0
 10
261.5129225115
 20
130.941008949
 30
0.0
 10
261.5124658138
 20
130.9413078765
 30
0.0
  0
SPLINE
  5
431
100
AcDbEntity
  8
DTM_AXIS
100
AcDbSpline
 62
7
  6
CONTINUOUS
 70
0
 71
3
 72
9
 73
5
 74
0
 42
0.0000001
 43
0.0000001
 44
0.0000000001
 40
0.0
 40
0.0
 40
0.0
 40
0.0
 40
0.4271476962
 40
1.0
 40
1.0
 40
1.0
 40
1.0
 10
254.1147009358
 20
135.7815982527
 30
0.0
 10
254.1149723433
 20
135.7819015443
 30
0.0
 10
254.1153067137
 20
135.7830273193
 30
0.0
 10
254.1143624557
 20
135.7836721618
 30
0.0
 10
254.1139057581
 20
135.7839710893
 30
0.0
  0
SPLINE
  5
432
100
AcDbEntity
  8
DTM_AXIS
100
AcDbSpline
 62
7
  6
CONTINUOUS
 70
0
 71
3
 72
9
 73
5
 74
0
 42
0.0000001
 43
0.0000001
 44
0.0000000001
 40
0.0
 40
0.0
 40
0.0
 40
0.0
 40
0.4271476962
 40
1.0
 40
1.0
 40
1.0
 40
1.0
 10
269.3742310508
 20
125.7936053764
 30
0.0
 10
269.3745024583
 20
125.7939086679
 30
0.0
 10
269.3748368287
 20
125.7950344429
 30
0.0
 10
269.3738925707
 20
125.7956792854
 30
0.0
 10
269.3734358731
 20
125.7959782129
 30
0.0
  0
SPLINE
  5
433
100
AcDbEntity
  8
DTM_AXIS
100
AcDbSpline
 62
7
  6
CONTINUOUS
 70
0
 71
3
 72
14
 73
10
 74
0
 42
0.0000001
 43
0.0000001
 44
0.0000000001
 40
0.0
 40
0.0
 40
0.0
 40
0.0
 40
0.0295034004
 40
0.0865493417
 40
0.1713737338
 40
0.2837779351
 40
0.4233916655
 40
0.5897200985
 40
1.0
 40
1.0
 40
1.0
 40
1.0
 10
251.3394457372
 20
137.5999697941
 30
0.0
 10
251.3365976186
 20
137.6018340054
 30
0.0
 10
251.3264846614
 20
137.6038479572
 30
0.0
 10
251.3072249507
 20
137.6071823942
 30
0.0
 10
251.2779244009
 20
137.6102855581
 30
0.0
 10
251.2392644147
 20
137.6137405507
 30
0.0
 10
251.1911017876
 20
137.617212439
 30
0.0
 10
251.1086348678
 20
137.622346075
 30
0.0
 10
251.0421852147
 20
137.6256767369
 30
0.0
 10
250.994899758
 20
137.6278713915
 30
0.0
  0
SPLINE
  5
434
100
AcDbEntity
  8
DTM_AXIS
100
AcDbSpline
 62
7
  6
CONTINUOUS
 70
0
 71
3
 72
14
 73
10
 74
0
 42
0.0000001
 43
0.0000001
 44
0.0000000001
 40
0.0
 40
0.0
 40
0.0
 40
0.0
 40
0.0295034004
 40
0.0865493417
 40
0.1713737338
 40
0.2837779351
 40
0.4233916655
 40
0.5897200985
 40
1.0
 40
1.0
 40
1.0
 40
1.0
 10
276.3095859253
 20
121.2559814509
 30
0.0
 10
276.3067378068
 20
121.2578456622
 30
0.0
 10
276.2966248496
 20
121.259859614
 30
0.0
 10
276.2773651389
 20
121.263194051
 30
0.0
 10
276.2480645891
 20
121.2662972149
 30
0.0
 10
276.2094046029
 20
121.2697522076
 30
0.0
 10
276.1612419758
 20
121.2732240958
 30
0.0
 10
276.078775056
 20
121.2783577318
 30
0.0
 10
276.0123254029
 20
121.2816883937
 30
0.0
 10
275.9650399462
 20
121.2838830484
 30
0.0
  0
SPLINE
  5
435
100
AcDbEntity
  8
DTM_AXIS
100
AcDbSpline
 62
7
  6
CONTINUOUS
 70
0
 71
3
 72
14
 73
10
 74
0
 42
0.0000001
 43
0.0000001
 44
0.0000000001
 40
0.0
 40
0.0
 40
0.0
 40
0.0
 40
0.0295034004
 40
0.0865493417
 40
0.1713737338
 40
0.2837779351
 40
0.4233916655
 40
0.5897200985
 40
1.0
 40
1.0
 40
1.0
 40
1.0
 10
251.1082407354
 20
137.7513030195
 30
0.0
 10
251.1053926168
 20
137.7531672308
 30
0.0
 10
251.0952796596
 20
137.7551811826
 30
0.0
 10
251.076019949
 20
137.7585156196
 30
0.0
 10
251.0467193992
 20
137.7616187835
 30
0.0
 10
251.008059413
 20
137.7650737761
 30
0.0
 10
250.9598967859
 20
137.7685456644
 30
0.0
 10
250.877429866
 20
137.7736793004
 30
0.0
 10
250.810980213
 20
137.7770099623
 30
0.0
 10
250.7636947562
 20
137.7792046169
 30
0.0
  0
SPLINE
  5
436
100
AcDbEntity
  8
DTM_AXIS
100
AcDbSpline
 62
7
  6
CONTINUOUS
 70
0
 71
3
 72
14
 73
10
 74
0
 42
0.0000001
 43
0.0000001
 44
0.0000000001
 40
0.0
 40
0.0
 40
0.0
 40
0.0
 40
0.0295034004
 40
0.0865493417
 40
0.1713737338
 40
0.2837779351
 40
0.4233916655
 40
0.5897200985
 40
1.0
 40
1.0
 40
1.0
 40
1.0
 10
271.223075887
 20
124.5853124097
 30
0.0
 10
271.2202277684
 20
124.587176621
 30
0.0
 10
271.2101148112
 20
124.5891905728
 30
0.0
 10
271.1908551006
 20
124.5925250098
 30
0.0
 10
271.1615545508
 20
124.5956281737
 30
0.0
 10
271.1228945646
 20
124.5990831664
 30
0.0
 10
271.0747319375
 20
124.6025550546
 30
0.0
 10
270.9922650176
 20
124.6076886906
 30
0.0
 10
270.9258153646
 20
124.6110193525
 30
0.0
 10
270.8785299078
 20
124.6132140071
 30
0.0
  0
SPLINE
  5
437
100
AcDbEntity
  8
DTM_AXIS
100
AcDbSpline
 62
7
  6
CONTINUOUS
 70
0
 71
3
 72
9
 73
5
 74
0
 42
0.0000001
 43
0.0000001
 44
0.0000000001
 40
0.0
 40
0.0
 40
0.0
 40
0.0
 40
0.4271476962
 40
1.0
 40
1.0
 40
1.0
 40
1.0
 10
269.1430260491
 20
125.9449386018
 30
0.0
 10
269.1432974566
 20
125.9452418933
 30
0.0
 10
269.1436318269
 20
125.9463676683
 30
0.0
 10
269.142687569
 20
125.9470125108
 30
0.0
 10
269.1422308713
 20
125.9473114383
 30
0.0
  0
SPLINE
  5
438
100
AcDbEntity
  8
DTM_AXIS
100
AcDbSpline
 62
7
  6
CONTINUOUS
 70
0
 71
3
 72
14
 73
10
 74
0
 42
0.0000001
 43
0.0000001
 44
0.0000000001
 40
0.0
 40
0.0
 40
0.0
 40
0.0
 40
0.0295034004
 40
0.0865493417
 40
0.1713737338
 40
0.2837779351
 40
0.4233916655
 40
0.5897200985
 40
1.0
 40
1.0
 40
1.0
 40
1.0
 10
250.8770357337
 20
137.9026362449
 30
0.0
 10
250.8741876151
 20
137.9045004562
 30
0.0
 10
250.8640746579
 20
137.906514408
 30
0.0
 10
250.8448149473
 20
137.909848845
 30
0.0
 10
250.8155143974
 20
137.9129520089
 30
0.0
 10
250.7768544112
 20
137.9164070015
 30
0.0
 10
250.7286917841
 20
137.9198788898
 30
0.0
 10
250.6462248643
 20
137.9250125258
 30
0.0
 10
250.5797752112
 20
137.9283431877
 30
0.0
 10
250.5324897545
 20
137.9305378423
 30
0.0
  0
SPLINE
  5
439
100
AcDbEntity
  8
DTM_AXIS
100
AcDbSpline
 62
7
  6
CONTINUOUS
 70
0
 71
3
 72
9
 73
5
 74
0
 42
0.0000001
 43
0.0000001
 44
0.0000000001
 40
0.0
 40
0.0
 40
0.0
 40
0.0
 40
0.4271476962
 40
1.0
 40
1.0
 40
1.0
 40
1.0
 10
261.7444659933
 20
130.7876018145
 30
0.0
 10
261.7447374008
 20
130.7879051061
 30
0.0
 10
261.7450717712
 20
130.7890308811
 30
0.0
 10
261.7441275132
 20
130.7896757236
 30
0.0
 10
261.7436708156
 20
130.7899746511
 30
0.0
  0
SPLINE
  5
43A
100
AcDbEntity
  8
DTM_AXIS
100
AcDbSpline
 62
7
  6
CONTINUOUS
 70
0
 71
3
 72
9
 73
5
 74
0
 42
0.0000001
 43
0.0000001
 44
0.0000000001
 40
0.0
 40
0.0
 40
0.0
 40
0.0
 40
0.4271476962
 40
1.0
 40
1.0
 40
1.0
 40
1.0
 10
268.9118210473
 20
126.0962718272
 30
0.0
 10
268.9120924548
 20
126.0965751187
 30
0.0
 10
268.9124268252
 20
126.0977008937
 30
0.0
 10
268.9114825672
 20
126.0983457362
 30
0.0
 10
268.9110258696
 20
126.0986446637
 30
0.0
  0
SPLINE
  5
43B
100
AcDbEntity
  8
DTM_AXIS
100
AcDbSpline
 62
7
  6
CONTINUOUS
 70
0
 71
3
 72
14
 73
10
 74
0
 42
0.0000001
 43
0.0000001
 44
0.0000000001
 40
0.0
 40
0.0
 40
0.0
 40
0.0
 40
0.0295034004
 40
0.0865493417
 40
0.1713737338
 40
0.2837779351
 40
0.4233916655
 40
0.5897200985
 40
1.0
 40
1.0
 40
1.0
 40
1.0
 10
250.6458307319
 20
138.0539694703
 30
0.0
 10
250.6429826134
 20
138.0558336816
 30
0.0
 10
250.6328696561
 20
138.0578476334
 30
0.0
 10
250.6136099455
 20
138.0611820704
 30
0.0
 10
250.5843093957
 20
138.0642852343
 30
0.0
 10
250.5456494095
 20
138.0677402269
 30
0.0
 10
250.4974867824
 20
138.0712121152
 30
0.0
 10
250.4150198626
 20
138.0763457512
 30
0.0
 10
250.3485702095
 20
138.0796764131
 30
0.0
 10
250.3012847528
 20
138.0818710677
 30
0.0
  0
SPLINE
  5
43C
100
AcDbEntity
  8
DTM_AXIS
100
AcDbSpline
 62
7
  6
CONTINUOUS
 70
0
 71
3
 72
9
 73
5
 74
0
 42
0.0000001
 43
0.0000001
 44
0.0000000001
 40
0.0
 40
0.0
 40
0.0
 40
0.0
 40
0.4271476962
 40
1.0
 40
1.0
 40
1.0
 40
1.0
 10
254.3459059376
 20
135.6302650273
 30
0.0
 10
254.346177345
 20
135.6305683189
 30
0.0
 10
254.3465117154
 20
135.6316940939
 30
0.0
 10
254.3455674575
 20
135.6323389364
 30
0.0
 10
254.3451107598
 20
135.6326378639
 30
0.0
  0
SPLINE
  5
43D
100
AcDbEntity
  8
DTM_AXIS
100
AcDbSpline
 62
7
  6
CONTINUOUS
 70
0
 71
3
 72
14
 73
10
 74
0
 42
0.0000001
 43
0.0000001
 44
0.0000000001
 40
0.0
 40
0.0
 40
0.0
 40
0.0
 40
0.0295034004
 40
0.0865493417
 40
0.1713737338
 40
0.2837779351
 40
0.4233916655
 40
0.5897200985
 40
1.0
 40
1.0
 40
1.0
 40
1.0
 10
250.4146257302
 20
138.2053026957
 30
0.0
 10
250.4117776116
 20
138.207166907
 30
0.0
 10
250.4016646544
 20
138.2091808588
 30
0.0
 10
250.3824049438
 20
138.2125152958
 30
0.0
 10
250.3531043939
 20
138.2156184597
 30
0.0
 10
250.3144444077
 20
138.2190734523
 30
0.0
 10
250.2662817807
 20
138.2225453406
 30
0.0
 10
250.1838148608
 20
138.2276789766
 30
0.0
 10
250.1173652078
 20
138.2310096385
 30
0.0
 10
250.070079751
 20
138.2332042931
 30
0.0
  0
SPLINE
  5
43E
100
AcDbEntity
  8
DTM_AXIS
100
AcDbSpline
 62
7
  6
CONTINUOUS
 70
0
 71
3
 72
9
 73
5
 74
0
 42
0.0000001
 43
0.0000001
 44
0.0000000001
 40
0.0
 40
0.0
 40
0.0
 40
0.0
 40
0.4271476962
 40
1.0
 40
1.0
 40
1.0
 40
1.0
 10
268.6806160456
 20
126.2476050526
 30
0.0
 10
268.6808874531
 20
126.2479083441
 30
0.0
 10
268.6812218234
 20
126.2490341191
 30
0.0
 10
268.6802775655
 20
126.2496789616
 30
0.0
 10
268.6798208678
 20
126.2499778891
 30
0.0
  0
SPLINE
  5
43F
100
AcDbEntity
  8
DTM_AXIS
100
AcDbSpline
 62
7
  6
CONTINUOUS
 70
0
 71
3
 72
14
 73
10
 74
0
 42
0.0000001
 43
0.0000001
 44
0.0000000001
 40
0.0
 40
0.0
 40
0.0
 40
0.0
 40
0.0295034004
 40
0.0865493417
 40
0.1713737338
 40
0.2837779351
 40
0.4233916655
 40
0.5897200985
 40
1.0
 40
1.0
 40
1.0
 40
1.0
 10
250.1834207284
 20
138.3566359211
 30
0.0
 10
250.1805726099
 20
138.3585001324
 30
0.0
 10
250.1704596526
 20
138.3605140842
 30
0.0
 10
250.151199942
 20
138.3638485212
 30
0.0
 10
250.1218993922
 20
138.3669516851
 30
0.0
 10
250.083239406
 20
138.3704066777
 30
0.0
 10
250.0350767789
 20
138.373878566
 30
0.0
 10
249.9526098591
 20
138.379012202
 30
0.0
 10
249.886160206
 20
138.3823428639
 30
0.0
 10
249.8388747493
 20
138.3845375185
 30
0.0
  0
SPLINE
  5
440
100
AcDbEntity
  8
DTM_AXIS
100
AcDbSpline
 62
7
  6
CONTINUOUS
 70
0
 71
3
 72
9
 73
5
 74
0
 42
0.0000001
 43
0.0000001
 44
0.0000000001
 40
0.0
 40
0.0
 40
0.0
 40
0.0
 40
0.4271476962
 40
1.0
 40
1.0
 40
1.0
 40
1.0
 10
261.9756709951
 20
130.6362685891
 30
0.0
 10
261.9759424025
 20
130.6365718807
 30
0.0
 10
261.9762767729
 20
130.6376976557
 30
0.0
 10
261.975332515
 20
130.6383424982
 30
0.0
 10
261.9748758173
 20
130.6386414257
 30
0.0
  0
SPLINE
  5
441
100
AcDbEntity
  8
DTM_AXIS
100
AcDbSpline
 62
7
  6
CONTINUOUS
 70
0
 71
3
 72
14
 73
10
 74
0
 42
0.0000001
 43
0.0000001
 44
0.0000000001
 40
0.0
 40
0.0
 40
0.0
 40
0.0
 40
0.0295034004
 40
0.0865493417
 40
0.1713737338
 40
0.2837779351
 40
0.4233916655
 40
0.5897200985
 40
1.0
 40
1.0
 40
1.0
 40
1.0
 10
270.9918708853
 20
124.7366456351
 30
0.0
 10
270.9890227667
 20
124.7385098464
 30
0.0
 10
270.9789098095
 20
124.7405237982
 30
0.0
 10
270.9596500989
 20
124.7438582352
 30
0.0
 10
270.930349549
 20
124.7469613991
 30
0.0
 10
270.8916895628
 20
124.7504163918
 30
0.0
 10
270.8435269357
 20
124.75388828
 30
0.0
 10
270.7610600159
 20
124.759021916
 30
0.0
 10
270.6946103628
 20
124.7623525779
 30
0.0
 10
270.6473249061
 20
124.7645472325
 30
0.0
  0
SPLINE
  5
442
100
AcDbEntity
  8
DTM_AXIS
100
AcDbSpline
 62
7
  6
CONTINUOUS
 70
0
 71
3
 72
9
 73
5
 74
0
 42
0.0000001
 43
0.0000001
 44
0.0000000001
 40
0.0
 40
0.0
 40
0.0
 40
0.0
 40
0.4271476962
 40
1.0
 40
1.0
 40
1.0
 40
1.0
 10
268.4494110439
 20
126.398938278
 30
0.0
 10
268.4496824513
 20
126.3992415695
 30
0.0
 10
268.4500168217
 20
126.4003673445
 30
0.0
 10
268.4490725638
 20
126.401012187
 30
0.0
 10
268.4486158661
 20
126.4013111145
 30
0.0
  0
SPLINE
  5
443
100
AcDbEntity
  8
DTM_AXIS
100
AcDbSpline
 62
7
  6
CONTINUOUS
 70
0
 71
3
 72
14
 73
10
 74
0
 42
0.0000001
 43
0.0000001
 44
0.0000000001
 40
0.0
 40
0.0
 40
0.0
 40
0.0
 40
0.0295034004
 40
0.0865493417
 40
0.1713737338
 40
0.2837779351
 40
0.4233916655
 40
0.5897200985
 40
1.0
 40
1.0
 40
1.0
 40
1.0
 10
249.9522157267
 20
138.5079691465
 30
0.0
 10
249.9493676081
 20
138.5098333578
 30
0.0
 10
249.9392546509
 20
138.5118473096
 30
0.0
 10
249.9199949403
 20
138.5151817466
 30
0.0
 10
249.8906943905
 20
138.5182849105
 30
0.0
 10
249.8520344042
 20
138.5217399031
 30
0.0
 10
249.8038717772
 20
138.5252117914
 30
0.0
 10
249.7214048573
 20
138.5303454274
 30
0.0
 10
249.6549552043
 20
138.5336760893
 30
0.0
 10
249.6076697475
 20
138.5358707439
 30
0.0
  0
SPLINE
  5
444
100
AcDbEntity
  8
DTM_AXIS
100
AcDbSpline
 62
7
  6
CONTINUOUS
 70
0
 71
3
 72
14
 73
10
 74
0
 42
0.0000001
 43
0.0000001
 44
0.0000000001
 40
0.0
 40
0.0
 40
0.0
 40
0.0
 40
0.0295034004
 40
0.0865493417
 40
0.1713737338
 40
0.2837779351
 40
0.4233916655
 40
0.5897200985
 40
1.0
 40
1.0
 40
1.0
 40
1.0
 10
249.721010725
 20
138.6593023719
 30
0.0
 10
249.7181626064
 20
138.6611665832
 30
0.0
 10
249.7080496492
 20
138.663180535
 30
0.0
 10
249.6887899385
 20
138.666514972
 30
0.0
 10
249.6594893887
 20
138.6696181359
 30
0.0
 10
249.6208294025
 20
138.6730731285
 30
0.0
 10
249.5726667754
 20
138.6765450168
 30
0.0
 10
249.4901998556
 20
138.6816786528
 30
0.0
 10
249.4237502025
 20
138.6850093147
 30
0.0
 10
249.3764647458
 20
138.6872039693
 30
0.0
  0
SPLINE
  5
445
100
AcDbEntity
  8
DTM_AXIS
100
AcDbSpline
 62
7
  6
CONTINUOUS
 70
0
 71
3
 72
9
 73
5
 74
0
 42
0.0000001
 43
0.0000001
 44
0.0000000001
 40
0.0
 40
0.0
 40
0.0
 40
0.0
 40
0.4271476962
 40
1.0
 40
1.0
 40
1.0
 40
1.0
 10
254.5771109393
 20
135.4789318019
 30
0.0
 10
254.5773823468
 20
135.4792350935
 30
0.0
 10
254.5777167172
 20
135.4803608685
 30
0.0
 10
254.5767724592
 20
135.481005711
 30
0.0
 10
254.5763157616
 20
135.4813046385
 30
0.0
  0
SPLINE
  5
446
100
AcDbEntity
  8
DTM_AXIS
100
AcDbSpline
 62
7
  6
CONTINUOUS
 70
0
 71
3
 72
9
 73
5
 74
0
 42
0.0000001
 43
0.0000001
 44
0.0000000001
 40
0.0
 40
0.0
 40
0.0
 40
0.0
 40
0.4271476962
 40
1.0
 40
1.0
 40
1.0
 40
1.0
 10
268.2182060421
 20
126.5502715034
 30
0.0
 10
268.2184774496
 20
126.5505747949
 30
0.0
 10
268.21881182
 20
126.5517005699
 30
0.0
 10
268.217867562
 20
126.5523454124
 30
0.0
 10
268.2174108644
 20
126.5526443399
 30
0.0
  0
SPLINE
  5
447
100
AcDbEntity
  8
DTM_AXIS
100
AcDbSpline
 62
7
  6
CONTINUOUS
 70
0
 71
3
 72
14
 73
10
 74
0
 42
0.0000001
 43
0.0000001
 44
0.0000000001
 40
0.0
 40
0.0
 40
0.0
 40
0.0
 40
0.0295034004
 40
0.0865493417
 40
0.1713737338
 40
0.2837779351
 40
0.4233916655
 40
0.5897200985
 40
1.0
 40
1.0
 40
1.0
 40
1.0
 10
249.4898057232
 20
138.8106355973
 30
0.0
 10
249.4869576046
 20
138.8124998086
 30
0.0
 10
249.4768446474
 20
138.8145137604
 30
0.0
 10
249.4575849368
 20
138.8178481974
 30
0.0
 10
249.428284387
 20
138.8209513613
 30
0.0
 10
249.3896244008
 20
138.8244063539
 30
0.0
 10
249.3414617737
 20
138.8278782422
 30
0.0
 10
249.2589948539
 20
138.8330118782
 30
0.0
 10
249.1925452008
 20
138.8363425401
 30
0.0
 10
249.145259744
 20
138.8385371947
 30
0.0
  0
SPLINE
  5
448
100
AcDbEntity
  8
DTM_AXIS
100
AcDbSpline
 62
7
  6
CONTINUOUS
 70
0
 71
3
 72
9
 73
5
 74
0
 42
0.0000001
 43
0.0000001
 44
0.0000000001
 40
0.0
 40
0.0
 40
0.0
 40
0.0
 40
0.4271476962
 40
1.0
 40
1.0
 40
1.0
 40
1.0
 10
262.2068759968
 20
130.4849353637
 30
0.0
 10
262.2071474043
 20
130.4852386553
 30
0.0
 10
262.2074817747
 20
130.4863644303
 30
0.0
 10
262.2065375167
 20
130.4870092728
 30
0.0
 10
262.2060808191
 20
130.4873082003
 30
0.0
  0
SPLINE
  5
449
100
AcDbEntity
  8
DTM_AXIS
100
AcDbSpline
 62
7
  6
CONTINUOUS
 70
0
 71
3
 72
9
 73
5
 74
0
 42
0.0000001
 43
0.0000001
 44
0.0000000001
 40
0.0
 40
0.0
 40
0.0
 40
0.0
 40
0.4271476962
 40
1.0
 40
1.0
 40
1.0
 40
1.0
 10
249.2593958992
 20
138.9595959861
 30
0.0
 10
249.2596673067
 20
138.9598992777
 30
0.0
 10
249.2600016771
 20
138.9610250527
 30
0.0
 10
249.2590574191
 20
138.9616698952
 30
0.0
 10
249.2586007215
 20
138.9619688227
 30
0.0
  0
SPLINE
  5
44A
100
AcDbEntity
  8
DTM_AXIS
100
AcDbSpline
 62
7
  6
CONTINUOUS
 70
0
 71
3
 72
9
 73
5
 74
0
 42
0.0000001
 43
0.0000001
 44
0.0000000001
 40
0.0
 40
0.0
 40
0.0
 40
0.0
 40
0.4271476962
 40
1.0
 40
1.0
 40
1.0
 40
1.0
 10
267.9870010404
 20
126.7016047288
 30
0.0
 10
267.9872724479
 20
126.7019080203
 30
0.0
 10
267.9876068182
 20
126.7030337953
 30
0.0
 10
267.9866625603
 20
126.7036786378
 30
0.0
 10
267.9862058626
 20
126.7039775653
 30
0.0
  0
SPLINE
  5
44B
100
AcDbEntity
  8
DTM_AXIS
100
AcDbSpline
 62
7
  6
CONTINUOUS
 70
0
 71
3
 72
14
 73
10
 74
0
 42
0.0000001
 43
0.0000001
 44
0.0000000001
 40
0.0
 40
0.0
 40
0.0
 40
0.0
 40
0.0295034004
 40
0.0865493417
 40
0.1713737338
 40
0.2837779351
 40
0.4233916655
 40
0.5897200985
 40
1.0
 40
1.0
 40
1.0
 40
1.0
 10
249.2586007215
 20
138.9619688227
 30
0.0
 10
249.2557526029
 20
138.963833034
 30
0.0
 10
249.2456396457
 20
138.9658469858
 30
0.0
 10
249.2263799351
 20
138.9691814228
 30
0.0
 10
249.1970793852
 20
138.9722845867
 30
0.0
 10
249.158419399
 20
138.9757395793
 30
0.0
 10
249.1102567719
 20
138.9792114676
 30
0.0
 10
249.0277898521
 20
138.9843451036
 30
0.0
 10
248.961340199
 20
138.9876757655
 30
0.0
 10
248.9140547423
 20
138.9898704201
 30
0.0
  0
SPLINE
  5
44C
100
AcDbEntity
  8
DTM_AXIS
100
AcDbSpline
 62
7
  6
CONTINUOUS
 70
0
 71
3
 72
14
 73
10
 74
0
 42
0.0000001
 43
0.0000001
 44
0.0000000001
 40
0.0
 40
0.0
 40
0.0
 40
0.0
 40
0.0295034004
 40
0.0865493417
 40
0.1713737338
 40
0.2837779351
 40
0.4233916655
 40
0.5897200985
 40
1.0
 40
1.0
 40
1.0
 40
1.0
 10
270.7606658835
 20
124.8879788605
 30
0.0
 10
270.757817765
 20
124.8898430718
 30
0.0
 10
270.7477048077
 20
124.8918570236
 30
0.0
 10
270.7284450971
 20
124.8951914606
 30
0.0
 10
270.6991445473
 20
124.8982946245
 30
0.0
 10
270.6604845611
 20
124.9017496172
 30
0.0
 10
270.612321934
 20
124.9052215054
 30
0.0
 10
270.5298550142
 20
124.9103551414
 30
0.0
 10
270.4634053611
 20
124.9136858033
 30
0.0
 10
270.4161199044
 20
124.9158804579
 30
0.0
  0
SPLINE
  5
44D
100
AcDbEntity
  8
DTM_AXIS
100
AcDbSpline
 62
7
  6
CONTINUOUS
 70
0
 71
3
 72
14
 73
10
 74
0
 42
0.0000001
 43
0.0000001
 44
0.0000000001
 40
0.0
 40
0.0
 40
0.0
 40
0.0
 40
0.0295034004
 40
0.0865493417
 40
0.1713737338
 40
0.2837779351
 40
0.4233916655
 40
0.5897200985
 40
1.0
 40
1.0
 40
1.0
 40
1.0
 10
249.0273957197
 20
139.1133020481
 30
0.0
 10
249.0245476012
 20
139.1151662594
 30
0.0
 10
249.0144346439
 20
139.1171802112
 30
0.0
 10
248.9951749333
 20
139.1205146482
 30
0.0
 10
248.9658743835
 20
139.1236178121
 30
0.0
 10
248.9272143973
 20
139.1270728047
 30
0.0
 10
248.8790517702
 20
139.130544693
 30
0.0
 10
248.7965848504
 20
139.135678329
 30
0.0
 10
248.7301351973
 20
139.1390089909
 30
0.0
 10
248.6828497406
 20
139.1412036455
 30
0.0
  0
SPLINE
  5
44E
100
AcDbEntity
  8
DTM_AXIS
100
AcDbSpline
 62
7
  6
CONTINUOUS
 70
0
 71
3
 72
9
 73
5
 74
0
 42
0.0000001
 43
0.0000001
 44
0.0000000001
 40
0.0
 40
0.0
 40
0.0
 40
0.0
 40
0.4271476962
 40
1.0
 40
1.0
 40
1.0
 40
1.0
 10
267.7557960386
 20
126.8529379542
 30
0.0
 10
267.7560674461
 20
126.8532412457
 30
0.0
 10
267.7564018165
 20
126.8543670207
 30
0.0
 10
267.7554575585
 20
126.8550118632
 30
0.0
 10
267.7550008609
 20
126.8553107907
 30
0.0
  0
SPLINE
  5
44F
100
AcDbEntity
  8
DTM_AXIS
100
AcDbSpline
 62
7
  6
CONTINUOUS
 70
0
 71
3
 72
14
 73
10
 74
0
 42
0.0000001
 43
0.0000001
 44
0.0000000001
 40
0.0
 40
0.0
 40
0.0
 40
0.0
 40
0.0295034004
 40
0.0865493417
 40
0.1713737338
 40
0.2837779351
 40
0.4233916655
 40
0.5897200985
 40
1.0
 40
1.0
 40
1.0
 40
1.0
 10
248.796190718
 20
139.2646352735
 30
0.0
 10
248.7933425994
 20
139.2664994848
 30
0.0
 10
248.7832296422
 20
139.2685134366
 30
0.0
 10
248.7639699316
 20
139.2718478736
 30
0.0
 10
248.7346693817
 20
139.2749510375
 30
0.0
 10
248.6960093955
 20
139.2784060301
 30
0.0
 10
248.6478467685
 20
139.2818779184
 30
0.0
 10
248.5653798486
 20
139.2870115544
 30
0.0
 10
248.4989301956
 20
139.2903422163
 30
0.0
 10
248.4516447388
 20
139.2925368709
 30
0.0
  0
SPLINE
  5
450
100
AcDbEntity
  8
DTM_AXIS
100
AcDbSpline
 62
7
  6
CONTINUOUS
 70
0
 71
3
 72
9
 73
5
 74
0
 42
0.0000001
 43
0.0000001
 44
0.0000000001
 40
0.0
 40
0.0
 40
0.0
 40
0.0
 40
0.4271476962
 40
1.0
 40
1.0
 40
1.0
 40
1.0
 10
262.4380809986
 20
130.3336021383
 30
0.0
 10
262.438352406
 20
130.3339054299
 30
0.0
 10
262.4386867764
 20
130.3350312049
 30
0.0
 10
262.4377425185
 20
130.3356760474
 30
0.0
 10
262.4372858208
 20
130.3359749749
 30
0.0
  0
SPLINE
  5
451
100
AcDbEntity
  8
DTM_AXIS
100
AcDbSpline
 62
7
  6
CONTINUOUS
 70
0
 71
3
 72
9
 73
5
 74
0
 42
0.0000001
 43
0.0000001
 44
0.0000000001
 40
0.0
 40
0.0
 40
0.0
 40
0.0
 40
0.4271476962
 40
1.0
 40
1.0
 40
1.0
 40
1.0
 10
254.808315941
 20
135.3275985765
 30
0.0
 10
254.8085873485
 20
135.3279018681
 30
0.0
 10
254.8089217189
 20
135.3290276431
 30
0.0
 10
254.807977461
 20
135.3296724856
 30
0.0
 10
254.8075207633
 20
135.3299714131
 30
0.0
  0
SPLINE
  5
452
100
AcDbEntity
  8
DTM_AXIS
100
AcDbSpline
 62
7
  6
CONTINUOUS
 70
0
 71
3
 72
9
 73
5
 74
0
 42
0.0000001
 43
0.0000001
 44
0.0000000001
 40
0.0
 40
0.0
 40
0.0
 40
0.0
 40
0.4271476962
 40
1.0
 40
1.0
 40
1.0
 40
1.0
 10
267.5245910369
 20
127.0042711796
 30
0.0
 10
267.5248624444
 20
127.0045744711
 30
0.0
 10
267.5251968147
 20
127.0057002461
 30
0.0
 10
267.5242525568
 20
127.0063450886
 30
0.0
 10
267.5237958591
 20
127.0066440161
 30
0.0
  0
SPLINE
  5
453
100
AcDbEntity
  8
DTM_AXIS
100
AcDbSpline
 62
7
  6
CONTINUOUS
 70
0
 71
3
 72
14
 73
10
 74
0
 42
0.0000001
 43
0.0000001
 44
0.0000000001
 40
0.0
 40
0.0
 40
0.0
 40
0.0
 40
0.0295034004
 40
0.0865493417
 40
0.1713737338
 40
0.2837779351
 40
0.4233916655
 40
0.5897200985
 40
1.0
 40
1.0
 40
1.0
 40
1.0
 10
248.5649857162
 20
139.4159684989
 30
0.0
 10
248.5621375977
 20
139.4178327102
 30
0.0
 10
248.5520246405
 20
139.419846662
 30
0.0
 10
248.5327649298
 20
139.423181099
 30
0.0
 10
248.50346438
 20
139.4262842629
 30
0.0
 10
248.4648043938
 20
139.4297392555
 30
0.0
 10
248.4166417667
 20
139.4332111438
 30
0.0
 10
248.3341748469
 20
139.4383447798
 30
0.0
 10
248.2677251938
 20
139.4416754417
 30
0.0
 10
248.2204397371
 20
139.4438700963
 30
0.0
  0
SPLINE
  5
454
100
AcDbEntity
  8
0
100
AcDbSpline
 62
7
  6
CONTINUOUS
 70
0
 71
3
 72
15
 73
11
 74
0
 42
0.0000001
 43
0.0000001
 44
0.0000000001
 40
0.0
 40
0.0
 40
0.0
 40
0.0
 40
0.1391222092
 40
0.2579115829
 40
0.3675062344
 40
0.4768557314
 40
0.59209632
 40
0.7167679894
 40
0.8525244418
 40
1.0
 40
1.0
 40
1.0
 40
1.0
 10
249.7923562328
 20
139.846383197
 30
0.0
 10
249.7952554941
 20
140.0729966258
 30
0.0
 10
249.8397267123
 20
140.4953993171
 30
0.0
 10
250.058802002
 20
141.0607325426
 30
0.0
 10
250.3998692526
 20
141.5019763051
 30
0.0
 10
250.841279399
 20
141.8300683778
 30
0.0
 10
251.3642441978
 20
142.0628883277
 30
0.0
 10
251.9595007489
 20
142.2140812162
 30
0.0
 10
252.6203584028
 20
142.2948832723
 30
0.0
 10
253.0822671673
 20
142.3059158538
 30
0.0
 10
253.3224889325
 20
142.3029808953
 30
0.0
  0
SPLINE
  5
455
100
AcDbEntity
  8
DTM_AXIS
100
AcDbSpline
 62
7
  6
CONTINUOUS
 70
0
 71
3
 72
14
 73
10
 74
0
 42
0.0000001
 43
0.0000001
 44
0.0000000001
 40
0.0
 40
0.0
 40
0.0
 40
0.0
 40
0.0295034004
 40
0.0865493417
 40
0.1713737338
 40
0.2837779351
 40
0.4233916655
 40
0.5897200985
 40
1.0
 40
1.0
 40
1.0
 40
1.0
 10
248.3337807145
 20
139.5673017243
 30
0.0
 10
248.3309325959
 20
139.5691659356
 30
0.0
 10
248.3208196387
 20
139.5711798874
 30
0.0
 10
248.3015599281
 20
139.5745143244
 30
0.0
 10
248.2722593783
 20
139.5776174883
 30
0.0
 10
248.2335993921
 20
139.5810724809
 30
0.0
 10
248.185436765
 20
139.5845443692
 30
0.0
 10
248.1029698451
 20
139.5896780052
 30
0.0
 10
248.0365201921
 20
139.5930086671
 30
0.0
 10
247.9892347353
 20
139.5952033217
 30
0.0
  0
SPLINE
  5
456
100
AcDbEntity
  8
DTM_AXIS
100
AcDbSpline
 62
7
  6
CONTINUOUS
 70
0
 71
3
 72
14
 73
10
 74
0
 42
0.0000001
 43
0.0000001
 44
0.0000000001
 40
0.0
 40
0.0
 40
0.0
 40
0.0
 40
0.0295034004
 40
0.0865493417
 40
0.1713737338
 40
0.2837779351
 40
0.4233916655
 40
0.5897200985
 40
1.0
 40
1.0
 40
1.0
 40
1.0
 10
270.5294608818
 20
125.0393120859
 30
0.0
 10
270.5266127632
 20
125.0411762972
 30
0.0
 10
270.516499806
 20
125.043190249
 30
0.0
 10
270.4972400954
 20
125.046524686
 30
0.0
 10
270.4679395455
 20
125.0496278499
 30
0.0
 10
270.4292795593
 20
125.0530828426
 30
0.0
 10
270.3811169323
 20
125.0565547308
 30
0.0
 10
270.2986500124
 20
125.0616883668
 30
0.0
 10
270.2322003594
 20
125.0650190287
 30
0.0
 10
270.1849149026
 20
125.0672136833
 30
0.0
  0
SPLINE
  5
457
100
AcDbEntity
  8
DTM_AXIS
100
AcDbSpline
 62
7
  6
CONTINUOUS
 70
0
 71
3
 72
9
 73
5
 74
0
 42
0.0000001
 43
0.0000001
 44
0.0000000001
 40
0.0
 40
0.0
 40
0.0
 40
0.0
 40
0.4271476962
 40
1.0
 40
1.0
 40
1.0
 40
1.0
 10
267.2933860351
 20
127.155604405
 30
0.0
 10
267.2936574426
 20
127.1559076965
 30
0.0
 10
267.293991813
 20
127.1570334715
 30
0.0
 10
267.2930475551
 20
127.157678314
 30
0.0
 10
267.2925908574
 20
127.1579772415
 30
0.0
  0
SPLINE
  5
458
100
AcDbEntity
  8
DTM_AXIS
100
AcDbSpline
 62
7
  6
CONTINUOUS
 70
0
 71
3
 72
14
 73
10
 74
0
 42
0.0000001
 43
0.0000001
 44
0.0000000001
 40
0.0
 40
0.0
 40
0.0
 40
0.0
 40
0.0295036402
 40
0.086549716
 40
0.1713741538
 40
0.2837783281
 40
0.4233919782
 40
0.5897203002
 40
1.0
 40
1.0
 40
1.0
 40
1.0
 10
248.1025757128
 20
139.7186349497
 30
0.0
 10
248.0997276817
 20
139.7204991037
 30
0.0
 10
248.0896150908
 20
139.7225130351
 30
0.0
 10
248.0703560808
 20
139.7258473841
 30
0.0
 10
248.0410566614
 20
139.7289504879
 30
0.0
 10
248.0023981879
 20
139.732405399
 30
0.0
 10
247.9542374624
 20
139.7358772098
 30
0.0
 10
247.8717737976
 20
139.7410107293
 30
0.0
 10
247.8053267657
 20
139.7443413172
 30
0.0
 10
247.7580431715
 20
139.7465359234
 30
0.0
  0
SPLINE
  5
459
100
AcDbEntity
  8
DTM_AXIS
100
AcDbSpline
 62
7
  6
CONTINUOUS
 70
0
 71
3
 72
9
 73
5
 74
0
 42
0.0000001
 43
0.0000001
 44
0.0000000001
 40
0.0
 40
0.0
 40
0.0
 40
0.0
 40
0.4271476962
 40
1.0
 40
1.0
 40
1.0
 40
1.0
 10
262.900491002
 20
130.0309356875
 30
0.0
 10
262.9007624095
 20
130.0312389791
 30
0.0
 10
262.9010967799
 20
130.0323647541
 30
0.0
 10
262.9001525219
 20
130.0330095966
 30
0.0
 10
262.8996958243
 20
130.0333085241
 30
0.0
  0
SPLINE
  5
45A
100
AcDbEntity
  8
DTM_AXIS
100
AcDbSpline
 62
7
  6
CONTINUOUS
 70
0
 71
3
 72
9
 73
5
 74
0
 42
0.0000001
 43
0.0000001
 44
0.0000000001
 40
0.0
 40
0.0
 40
0.0
 40
0.0
 40
0.4271476962
 40
1.0
 40
1.0
 40
1.0
 40
1.0
 10
267.0621810334
 20
127.3069376304
 30
0.0
 10
267.0624524409
 20
127.3072409219
 30
0.0
 10
267.0627868112
 20
127.3083666969
 30
0.0
 10
267.0618425533
 20
127.3090115394
 30
0.0
 10
267.0613858556
 20
127.3093104669
 30
0.0
  0
SPLINE
  5
45B
100
AcDbEntity
  8
DTM_AXIS
100
AcDbSpline
 62
7
  6
CONTINUOUS
 70
0
 71
3
 72
14
 73
10
 74
0
 42
0.0000001
 43
0.0000001
 44
0.0000000001
 40
0.0
 40
0.0
 40
0.0
 40
0.0
 40
0.0295034004
 40
0.0865493417
 40
0.1713737338
 40
0.2837779351
 40
0.4233916655
 40
0.5897200985
 40
1.0
 40
1.0
 40
1.0
 40
1.0
 10
276.0783809236
 20
121.4073146763
 30
0.0
 10
276.075532805
 20
121.4091788876
 30
0.0
 10
276.0654198478
 20
121.4111928394
 30
0.0
 10
276.0461601372
 20
121.4145272764
 30
0.0
 10
276.0168595874
 20
121.4176304403
 30
0.0
 10
275.9781996012
 20
121.421085433
 30
0.0
 10
275.9300369741
 20
121.4245573212
 30
0.0
 10
275.8475700542
 20
121.4296909572
 30
0.0
 10
275.7811204012
 20
121.4330216191
 30
0.0
 10
275.7338349444
 20
121.4352162738
 30
0.0
  0
SPLINE
  5
45C
100
AcDbEntity
  8
0
100
AcDbSpline
 62
7
  6
CONTINUOUS
 70
0
 71
3
 72
14
 73
10
 74
0
 42
0.0000001
 43
0.0000001
 44
0.0000000001
 40
0.0
 40
0.0
 40
0.0
 40
0.0
 40
0.0295050724
 40
0.0865519512
 40
0.1713766617
 40
0.2837806754
 40
0.4233938454
 40
0.5897215052
 40
1.0
 40
1.0
 40
1.0
 40
1.0
 10
277.6967562854
 20
120.3480211422
 30
0.0
 10
277.693908777
 20
120.3498849541
 30
0.0
 10
277.6837983732
 20
120.351898764
 30
0.0
 10
277.6645435464
 20
120.3552325874
 30
0.0
 10
277.6352508764
 20
120.3583353324
 30
0.0
 10
277.5966014347
 20
120.3617897565
 30
0.0
 10
277.5484520624
 20
120.3652611047
 30
0.0
 10
277.4660078322
 20
120.3703939288
 30
0.0
 10
277.3995764506
 20
120.3737240745
 30
0.0
 10
277.3523039771
 20
120.3759183918
 30
0.0
  0
SPLINE
  5
45D
100
AcDbEntity
  8
DTM_AXIS
100
AcDbSpline
 62
7
  6
CONTINUOUS
 70
0
 71
3
 72
14
 73
10
 74
0
 42
0.0000001
 43
0.0000001
 44
0.0000000001
 40
0.0
 40
0.0
 40
0.0
 40
0.0
 40
0.0295034004
 40
0.0865493417
 40
0.1713737338
 40
0.2837779351
 40
0.4233916655
 40
0.5897200985
 40
1.0
 40
1.0
 40
1.0
 40
1.0
 10
270.29825588
 20
125.1906453113
 30
0.0
 10
270.2954077615
 20
125.1925095226
 30
0.0
 10
270.2852948042
 20
125.1945234744
 30
0.0
 10
270.2660350936
 20
125.1978579114
 30
0.0
 10
270.2367345438
 20
125.2009610753
 30
0.0
 10
270.1980745576
 20
125.204416068
 30
0.0
 10
270.1499119305
 20
125.2078879562
 30
0.0
 10
270.0674450107
 20
125.2130215922
 30
0.0
 10
270.0009953576
 20
125.2163522541
 30
0.0
 10
269.9537099009
 20
125.2185469087
 30
0.0
  0
SPLINE
  5
45E
100
AcDbEntity
  8
DTM_AXIS
100
AcDbSpline
 62
7
  6
CONTINUOUS
 70
0
 71
3
 72
9
 73
5
 74
0
 42
0.0000001
 43
0.0000001
 44
0.0000000001
 40
0.0
 40
0.0
 40
0.0
 40
0.0
 40
0.4271476962
 40
1.0
 40
1.0
 40
1.0
 40
1.0
 10
266.8309760317
 20
127.4582708558
 30
0.0
 10
266.8312474391
 20
127.4585741473
 30
0.0
 10
266.8315818095
 20
127.4596999223
 30
0.0
 10
266.8306375516
 20
127.4603447648
 30
0.0
 10
266.8301808539
 20
127.4606436923
 30
0.0
  0
SPLINE
  5
45F
100
AcDbEntity
  8
DTM_AXIS
100
AcDbSpline
 62
7
  6
CONTINUOUS
 70
0
 71
3
 72
9
 73
5
 74
0
 42
0.0000001
 43
0.0000001
 44
0.0000000001
 40
0.0
 40
0.0
 40
0.0
 40
0.0
 40
0.4271476962
 40
1.0
 40
1.0
 40
1.0
 40
1.0
 10
263.1316960038
 20
129.8796024621
 30
0.0
 10
263.1319674113
 20
129.8799057537
 30
0.0
 10
263.1323017816
 20
129.8810315287
 30
0.0
 10
263.1313575237
 20
129.8816763712
 30
0.0
 10
263.130900826
 20
129.8819752987
 30
0.0
  0
SPLINE
  5
460
100
AcDbEntity
  8
DTM_AXIS
100
AcDbSpline
 62
7
  6
CONTINUOUS
 70
0
 71
3
 72
9
 73
5
 74
0
 42
0.0000001
 43
0.0000001
 44
0.0000000001
 40
0.0
 40
0.0
 40
0.0
 40
0.0
 40
0.4271476962
 40
1.0
 40
1.0
 40
1.0
 40
1.0
 10
266.5997710299
 20
127.6096040812
 30
0.0
 10
266.6000424374
 20
127.6099073727
 30
0.0
 10
266.6003768078
 20
127.6110331477
 30
0.0
 10
266.5994325498
 20
127.6116779902
 30
0.0
 10
266.5989758522
 20
127.6119769177
 30
0.0
  0
SPLINE
  5
461
100
AcDbEntity
  8
0
100
AcDbSpline
 62
7
  6
CONTINUOUS
 70
0
 71
3
 72
21
 73
17
 74
0
 42
0.0000001
 43
0.0000001
 44
0.0000000001
 40
0.0
 40
0.0
 40
0.0
 40
0.0
 40
0.0750410274
 40
0.1457355273
 40
0.212790509
 40
0.2769033598
 40
0.3387458565
 40
0.3989471489
 40
0.4580781037
 40
0.5166393484
 40
0.5750545903
 40
0.6336696325
 40
0.6927553864
 40
0.7525069202
 40
0.8743649231
 40
1.0
 40
1.0
 40
1.0
 40
1.0
 10
201.1169057868
 20
105.1949232552
 30
0.0
 10
201.1276601263
 20
106.668183507
 30
0.0
 10
201.2834488745
 20
109.5308878013
 30
0.0
 10
201.9440440213
 20
113.6638849578
 30
0.0
 10
202.9981404309
 20
117.4931329626
 30
0.0
 10
204.4196107878
 20
121.0151176867
 30
0.0
 10
206.1818795142
 20
124.2269346224
 30
0.0
 10
208.257929268
 20
127.1257457411
 30
0.0
 10
210.6204633702
 20
129.7091547266
 30
0.0
 10
213.2421220462
 20
131.9752224007
 30
0.0
 10
216.0957231752
 20
133.9224192118
 30
0.0
 10
219.1542569314
 20
135.5494562481
 30
0.0
 10
222.3911656576
 20
136.8551078892
 30
0.0
 10
226.9361453636
 20
138.1740053519
 30
0.0
 10
232.9493306764
 20
138.9989500041
 30
0.0
 10
237.8321877889
 20
138.7812068267
 30
0.0
 10
240.2781742541
 20
138.4627879712
 30
0.0
  0
SPLINE
  5
462
100
AcDbEntity
  8
DTM_AXIS
100
AcDbSpline
 62
7
  6
CONTINUOUS
 70
0
 71
3
 72
9
 73
5
 74
0
 42
0.0000001
 43
0.0000001
 44
0.0000000001
 40
0.0
 40
0.0
 40
0.0
 40
0.0
 40
0.4271476962
 40
1.0
 40
1.0
 40
1.0
 40
1.0
 10
266.3685660282
 20
127.7609373066
 30
0.0
 10
266.3688374357
 20
127.7612405981
 30
0.0
 10
266.369171806
 20
127.7623663731
 30
0.0
 10
266.3682275481
 20
127.7630112156
 30
0.0
 10
266.3677708504
 20
127.7633101431
 30
0.0
  0
SPLINE
  5
463
100
AcDbEntity
  8
DTM_AXIS
100
AcDbSpline
 62
7
  6
CONTINUOUS
 70
0
 71
3
 72
9
 73
5
 74
0
 42
0.0000001
 43
0.0000001
 44
0.0000000001
 40
0.0
 40
0.0
 40
0.0
 40
0.0
 40
0.4271476962
 40
1.0
 40
1.0
 40
1.0
 40
1.0
 10
263.3629010055
 20
129.7282692368
 30
0.0
 10
263.363172413
 20
129.7285725283
 30
0.0
 10
263.3635067834
 20
129.7296983033
 30
0.0
 10
263.3625625254
 20
129.7303431458
 30
0.0
 10
263.3621058278
 20
129.7306420733
 30
0.0
  0
SPLINE
  5
464
100
AcDbEntity
  8
DTM_AXIS
100
AcDbSpline
 62
7
  6
CONTINUOUS
 70
0
 71
3
 72
14
 73
10
 74
0
 42
0.0000001
 43
0.0000001
 44
0.0000000001
 40
0.0
 40
0.0
 40
0.0
 40
0.0
 40
0.0295034004
 40
0.0865493417
 40
0.1713737338
 40
0.2837779351
 40
0.4233916655
 40
0.5897200985
 40
1.0
 40
1.0
 40
1.0
 40
1.0
 10
270.0670508783
 20
125.3419785367
 30
0.0
 10
270.0642027597
 20
125.343842748
 30
0.0
 10
270.0540898025
 20
125.3458566998
 30
0.0
 10
270.0348300919
 20
125.3491911368
 30
0.0
 10
270.0055295421
 20
125.3522943007
 30
0.0
 10
269.9668695558
 20
125.3557492934
 30
0.0
 10
269.9187069288
 20
125.3592211816
 30
0.0
 10
269.8362400089
 20
125.3643548176
 30
0.0
 10
269.7697903559
 20
125.3676854795
 30
0.0
 10
269.7225048991
 20
125.3698801341
 30
0.0
  0
SPLINE
  5
465
100
AcDbEntity
  8
DTM_AXIS
100
AcDbSpline
 62
7
  6
CONTINUOUS
 70
0
 71
3
 72
9
 73
5
 74
0
 42
0.0000001
 43
0.0000001
 44
0.0000000001
 40
0.0
 40
0.0
 40
0.0
 40
0.0
 40
0.4271476962
 40
1.0
 40
1.0
 40
1.0
 40
1.0
 10
266.1373610264
 20
127.912270532
 30
0.0
 10
266.1376324339
 20
127.9125738235
 30
0.0
 10
266.1379668043
 20
127.9136995985
 30
0.0
 10
266.1370225463
 20
127.914344441
 30
0.0
 10
266.1365658487
 20
127.9146433685
 30
0.0
  0
SPLINE
  5
466
100
AcDbEntity
  8
DTM_AXIS
100
AcDbSpline
 62
7
  6
CONTINUOUS
 70
0
 71
3
 72
9
 73
5
 74
0
 42
0.0000001
 43
0.0000001
 44
0.0000000001
 40
0.0
 40
0.0
 40
0.0
 40
0.0
 40
0.4271476962
 40
1.0
 40
1.0
 40
1.0
 40
1.0
 10
249.490600901
 20
138.8082627607
 30
0.0
 10
249.4908723085
 20
138.8085660523
 30
0.0
 10
249.4912066788
 20
138.8096918273
 30
0.0
 10
249.4902624209
 20
138.8103366698
 30
0.0
 10
249.4898057232
 20
138.8106355973
 30
0.0
  0
SPLINE
  5
467
100
AcDbEntity
  8
0
100
AcDbSpline
 62
7
  6
CONTINUOUS
 70
0
 71
3
 72
20
 73
16
 74
0
 42
0.0000001
 43
0.0000001
 44
0.0000000001
 40
0.0
 40
0.0
 40
0.0
 40
0.0
 40
0.0731511216
 40
0.1396148656
 40
0.2590236773
 40
0.3140369435
 40
0.367235667
 40
0.4197271514
 40
0.472633864
 40
0.5270341083
 40
0.583881502
 40
0.6438007879
 40
0.7071987646
 40
0.8454501627
 40
1.0
 40
1.0
 40
1.0
 40
1.0
 10
193.4993466198
 20
95.7890266396
 30
0.0
 10
193.8047944043
 20
95.8526024936
 30
0.0
 10
194.3842394762
 20
95.9929793972
 30
0.0
 10
195.4357449532
 20
96.332889179
 30
0.0
 10
196.3788642662
 20
96.7564575708
 30
0.0
 10
197.1933450688
 20
97.2879384875
 30
0.0
 10
197.7233825489
 20
97.7248988963
 30
0.0
 10
198.1927331248
 20
98.2141354235
 30
0.0
 10
198.6052556611
 20
98.7585035089
 30
0.0
 10
198.9650801388
 20
99.3605870293
 30
0.0
 10
199.2762337218
 20
100.0221258594
 30
0.0
 10
199.5437739533
 20
100.7432736454
 30
0.0
 10
199.8570647384
 20
101.8147696008
 30
0.0
 10
200.152528845
 20
103.3076941435
 30
0.0
 10
200.3025357128
 20
104.5481066845
 30
0.0
 10
200.367300818
 20
105.2040817072
 30
0.0
  0
SPLINE
  5
468
100
AcDbEntity
  8
DTM_AXIS
100
AcDbSpline
 62
7
  6
CONTINUOUS
 70
0
 71
3
 72
9
 73
5
 74
0
 42
0.0000001
 43
0.0000001
 44
0.0000000001
 40
0.0
 40
0.0
 40
0.0
 40
0.0
 40
0.4271476962
 40
1.0
 40
1.0
 40
1.0
 40
1.0
 10
265.9061560247
 20
128.0636037574
 30
0.0
 10
265.9064274322
 20
128.0639070489
 30
0.0
 10
265.9067618025
 20
128.0650328239
 30
0.0
 10
265.9058175446
 20
128.0656776664
 30
0.0
 10
265.9053608469
 20
128.0659765939
 30
0.0
  0
SPLINE
  5
469
100
AcDbEntity
  8
DTM_AXIS
100
AcDbSpline
 62
7
  6
CONTINUOUS
 70
0
 71
3
 72
9
 73
5
 74
0
 42
0.0000001
 43
0.0000001
 44
0.0000000001
 40
0.0
 40
0.0
 40
0.0
 40
0.0
 40
0.4271476962
 40
1.0
 40
1.0
 40
1.0
 40
1.0
 10
263.5941060073
 20
129.5769360114
 30
0.0
 10
263.5943774147
 20
129.5772393029
 30
0.0
 10
263.5947117851
 20
129.5783650779
 30
0.0
 10
263.5937675272
 20
129.5790099204
 30
0.0
 10
263.5933108295
 20
129.5793088479
 30
0.0
  0
SPLINE
  5
46A
100
AcDbEntity
  8
DTM_AXIS
100
AcDbSpline
 62
7
  6
CONTINUOUS
 70
0
 71
3
 72
14
 73
10
 74
0
 42
0.0000001
 43
0.0000001
 44
0.0000000001
 40
0.0
 40
0.0
 40
0.0
 40
0.0
 40
0.0295034004
 40
0.0865493417
 40
0.1713737338
 40
0.2837779351
 40
0.4233916655
 40
0.5897200985
 40
1.0
 40
1.0
 40
1.0
 40
1.0
 10
269.8358458766
 20
125.4933117621
 30
0.0
 10
269.832997758
 20
125.4951759734
 30
0.0
 10
269.8228848008
 20
125.4971899252
 30
0.0
 10
269.8036250901
 20
125.5005243622
 30
0.0
 10
269.7743245403
 20
125.5036275261
 30
0.0
 10
269.7356645541
 20
125.5070825188
 30
0.0
 10
269.687501927
 20
125.510554407
 30
0.0
 10
269.6050350072
 20
125.515688043
 30
0.0
 10
269.5385853541
 20
125.5190187049
 30
0.0
 10
269.4912998974
 20
125.5212133595
 30
0.0
  0
SPLINE
  5
46B
100
AcDbEntity
  8
DTM_AXIS
100
AcDbSpline
 62
7
  6
CONTINUOUS
 70
0
 71
3
 72
9
 73
5
 74
0
 42
0.0000001
 43
0.0000001
 44
0.0000000001
 40
0.0
 40
0.0
 40
0.0
 40
0.0
 40
0.4271476962
 40
1.0
 40
1.0
 40
1.0
 40
1.0
 10
265.6749510229
 20
128.2149369828
 30
0.0
 10
265.6752224304
 20
128.2152402743
 30
0.0
 10
265.6755568008
 20
128.2163660493
 30
0.0
 10
265.6746125429
 20
128.2170108918
 30
0.0
 10
265.6741558452
 20
128.2173098193
 30
0.0
  0
SPLINE
  5
46C
100
AcDbEntity
  8
DTM_AXIS
100
AcDbSpline
 62
7
  6
CONTINUOUS
 70
0
 71
3
 72
14
 73
10
 74
0
 42
0.0000001
 43
0.0000001
 44
0.0000000001
 40
0.0
 40
0.0
 40
0.0
 40
0.0
 40
0.0295034004
 40
0.0865493417
 40
0.1713737338
 40
0.2837779351
 40
0.4233916655
 40
0.5897200985
 40
1.0
 40
1.0
 40
1.0
 40
1.0
 10
277.4656109341
 20
120.4993153239
 30
0.0
 10
277.4627628155
 20
120.5011795352
 30
0.0
 10
277.4526498583
 20
120.503193487
 30
0.0
 10
277.4333901477
 20
120.506527924
 30
0.0
 10
277.4040895978
 20
120.5096310879
 30
0.0
 10
277.3654296116
 20
120.5130860806
 30
0.0
 10
277.3172669845
 20
120.5165579688
 30
0.0
 10
277.2348000647
 20
120.5216916048
 30
0.0
 10
277.1683504116
 20
120.5250222667
 30
0.0
 10
277.1210649549
 20
120.5272169214
 30
0.0
  0
SPLINE
  5
46D
100
AcDbEntity
  8
0
100
AcDbSpline
 62
7
  6
CONTINUOUS
 70
0
 71
3
 72
15
 73
11
 74
0
 42
0.0000001
 43
0.0000001
 44
0.0000000001
 40
0.0
 40
0.0
 40
0.0
 40
0.0
 40
0.146839697
 40
0.2801635445
 40
0.4016610836
 40
0.514389918
 40
0.6233045285
 40
0.7352517075
 40
0.8581701815
 40
1.0
 40
1.0
 40
1.0
 40
1.0
 10
191.1833817381
 20
90.5678939996
 30
0.0
 10
191.1859232031
 20
90.7665411871
 30
0.0
 10
191.2073114684
 20
91.1457655127
 30
0.0
 10
191.3021304938
 20
91.6824455817
 30
0.0
 10
191.4632818995
 20
92.1555362287
 30
0.0
 10
191.698523298
 20
92.5601207253
 30
0.0
 10
192.015927435
 20
92.8880344936
 30
0.0
 10
192.4212021206
 20
93.1272407758
 30
0.0
 10
192.9155486851
 20
93.2688657032
 30
0.0
 10
193.2754993184
 20
93.2920337233
 30
0.0
 10
193.4673704411
 20
93.2896894986
 30
0.0
  0
SPLINE
  5
46E
100
AcDbEntity
  8
DTM_AXIS
100
AcDbSpline
 62
7
  6
CONTINUOUS
 70
0
 71
3
 72
9
 73
5
 74
0
 42
0.0000001
 43
0.0000001
 44
0.0000000001
 40
0.0
 40
0.0
 40
0.0
 40
0.0
 40
0.4271476962
 40
1.0
 40
1.0
 40
1.0
 40
1.0
 10
265.4437460212
 20
128.3662702082
 30
0.0
 10
265.4440174287
 20
128.3665734997
 30
0.0
 10
265.4443517991
 20
128.3676992747
 30
0.0
 10
265.4434075411
 20
128.3683441172
 30
0.0
 10
265.4429508434
 20
128.3686430447
 30
0.0
  0
SPLINE
  5
46F
100
AcDbEntity
  8
DTM_AXIS
100
AcDbSpline
 62
7
  6
CONTINUOUS
 70
0
 71
3
 72
9
 73
5
 74
0
 42
0.0000001
 43
0.0000001
 44
0.0000000001
 40
0.0
 40
0.0
 40
0.0
 40
0.0
 40
0.4271476962
 40
1.0
 40
1.0
 40
1.0
 40
1.0
 10
263.825311009
 20
129.425602786
 30
0.0
 10
263.8255824165
 20
129.4259060775
 30
0.0
 10
263.8259167869
 20
129.4270318525
 30
0.0
 10
263.8249725289
 20
129.427676695
 30
0.0
 10
263.8245158313
 20
129.4279756225
 30
0.0
  0
SPLINE
  5
470
100
AcDbEntity
  8
DTM_AXIS
100
AcDbSpline
 62
7
  6
CONTINUOUS
 70
0
 71
3
 72
14
 73
10
 74
0
 42
0.0000001
 43
0.0000001
 44
0.0000000001
 40
0.0
 40
0.0
 40
0.0
 40
0.0
 40
0.0295034004
 40
0.0865493417
 40
0.1713737338
 40
0.2837779351
 40
0.4233916655
 40
0.5897200985
 40
1.0
 40
1.0
 40
1.0
 40
1.0
 10
269.6046408748
 20
125.6446449875
 30
0.0
 10
269.6017927562
 20
125.6465091988
 30
0.0
 10
269.591679799
 20
125.6485231506
 30
0.0
 10
269.5724200884
 20
125.6518575876
 30
0.0
 10
269.5431195386
 20
125.6549607515
 30
0.0
 10
269.5044595524
 20
125.6584157442
 30
0.0
 10
269.4562969253
 20
125.6618876324
 30
0.0
 10
269.3738300055
 20
125.6670212684
 30
0.0
 10
269.3073803524
 20
125.6703519303
 30
0.0
 10
269.2600948956
 20
125.6725465849
 30
0.0
  0
SPLINE
  5
471
100
AcDbEntity
  8
DTM_AXIS
100
AcDbSpline
 62
7
  6
CONTINUOUS
 70
0
 71
3
 72
9
 73
5
 74
0
 42
0.0000001
 43
0.0000001
 44
0.0000000001
 40
0.0
 40
0.0
 40
0.0
 40
0.0
 40
0.4271476962
 40
1.0
 40
1.0
 40
1.0
 40
1.0
 10
265.2125410195
 20
128.5176034336
 30
0.0
 10
265.2128124269
 20
128.5179067251
 30
0.0
 10
265.2131467973
 20
128.5190325001
 30
0.0
 10
265.2122025394
 20
128.5196773426
 30
0.0
 10
265.2117458417
 20
128.5199762701
 30
0.0
  0
SPLINE
  5
472
100
AcDbEntity
  8
DTM_AXIS
100
AcDbSpline
 62
7
  6
CONTINUOUS
 70
0
 71
3
 72
14
 73
10
 74
0
 42
0.0000001
 43
0.0000001
 44
0.0000000001
 40
0.0
 40
0.0
 40
0.0
 40
0.0
 40
0.0295034004
 40
0.0865493417
 40
0.1713737338
 40
0.2837779351
 40
0.4233916655
 40
0.5897200985
 40
1.0
 40
1.0
 40
1.0
 40
1.0
 10
275.8471759219
 20
121.5586479017
 30
0.0
 10
275.8443278033
 20
121.560512113
 30
0.0
 10
275.8342148461
 20
121.5625260648
 30
0.0
 10
275.8149551355
 20
121.5658605018
 30
0.0
 10
275.7856545856
 20
121.5689636657
 30
0.0
 10
275.7469945994
 20
121.5724186584
 30
0.0
 10
275.6988319723
 20
121.5758905466
 30
0.0
 10
275.6163650525
 20
121.5810241826
 30
0.0
 10
275.5499153994
 20
121.5843548445
 30
0.0
 10
275.5026299427
 20
121.5865494992
 30
0.0
  0
SPLINE
  5
473
100
AcDbEntity
  8
DTM_AXIS
100
AcDbSpline
 62
7
  6
CONTINUOUS
 70
0
 71
3
 72
14
 73
10
 74
0
 42
0.0000001
 43
0.0000001
 44
0.0000000001
 40
0.0
 40
0.0
 40
0.0
 40
0.0
 40
0.0295034004
 40
0.0865493417
 40
0.1713737338
 40
0.2837779351
 40
0.4233916655
 40
0.5897200985
 40
1.0
 40
1.0
 40
1.0
 40
1.0
 10
269.3734358731
 20
125.7959782129
 30
0.0
 10
269.3705877545
 20
125.7978424242
 30
0.0
 10
269.3604747973
 20
125.799856376
 30
0.0
 10
269.3412150867
 20
125.803190813
 30
0.0
 10
269.3119145368
 20
125.8062939769
 30
0.0
 10
269.2732545506
 20
125.8097489696
 30
0.0
 10
269.2250919235
 20
125.8132208578
 30
0.0
 10
269.1426250037
 20
125.8183544938
 30
0.0
 10
269.0761753506
 20
125.8216851557
 30
0.0
 10
269.0288898939
 20
125.8238798103
 30
0.0
  0
SPLINE
  5
474
100
AcDbEntity
  8
DTM_AXIS
100
AcDbSpline
 62
7
  6
CONTINUOUS
 70
0
 71
3
 72
9
 73
5
 74
0
 42
0.0000001
 43
0.0000001
 44
0.0000000001
 40
0.0
 40
0.0
 40
0.0
 40
0.0
 40
0.4271476962
 40
1.0
 40
1.0
 40
1.0
 40
1.0
 10
264.9813360177
 20
128.668936659
 30
0.0
 10
264.9816074252
 20
128.6692399505
 30
0.0
 10
264.9819417956
 20
128.6703657255
 30
0.0
 10
264.9809975376
 20
128.671010568
 30
0.0
 10
264.98054084
 20
128.6713094955
 30
0.0
  0
SPLINE
  5
475
100
AcDbEntity
  8
DTM_AXIS
100
AcDbSpline
 62
7
  6
CONTINUOUS
 70
0
 71
3
 72
9
 73
5
 74
0
 42
0.0000001
 43
0.0000001
 44
0.0000000001
 40
0.0
 40
0.0
 40
0.0
 40
0.0
 40
0.4271476962
 40
1.0
 40
1.0
 40
1.0
 40
1.0
 10
264.0565160107
 20
129.2742695606
 30
0.0
 10
264.0567874182
 20
129.2745728521
 30
0.0
 10
264.0571217886
 20
129.2756986271
 30
0.0
 10
264.0561775307
 20
129.2763434696
 30
0.0
 10
264.055720833
 20
129.2766423971
 30
0.0
  0
SPLINE
  5
476
100
AcDbEntity
  8
DTM_AXIS
100
AcDbSpline
 62
7
  6
CONTINUOUS
 70
0
 71
3
 72
9
 73
5
 74
0
 42
0.0000001
 43
0.0000001
 44
0.0000000001
 40
0.0
 40
0.0
 40
0.0
 40
0.0
 40
0.4271476962
 40
1.0
 40
1.0
 40
1.0
 40
1.0
 10
255.0395209428
 20
135.1762653511
 30
0.0
 10
255.0397923503
 20
135.1765686427
 30
0.0
 10
255.0401267206
 20
135.1776944177
 30
0.0
 10
255.0391824627
 20
135.1783392602
 30
0.0
 10
255.038725765
 20
135.1786381877
 30
0.0
  0
SPLINE
  5
477
100
AcDbEntity
  8
DTM_AXIS
100
AcDbSpline
 62
7
  6
CONTINUOUS
 70
0
 71
3
 72
9
 73
5
 74
0
 42
0.0000001
 43
0.0000001
 44
0.0000000001
 40
0.0
 40
0.0
 40
0.0
 40
0.0
 40
0.4271476962
 40
1.0
 40
1.0
 40
1.0
 40
1.0
 10
264.750131016
 20
128.8202698844
 30
0.0
 10
264.7504024235
 20
128.8205731759
 30
0.0
 10
264.7507367938
 20
128.8216989509
 30
0.0
 10
264.7497925359
 20
128.8223437934
 30
0.0
 10
264.7493358382
 20
128.8226427209
 30
0.0
  0
SPLINE
  5
478
100
AcDbEntity
  8
DTM_AXIS
100
AcDbSpline
 62
7
  6
CONTINUOUS
 70
0
 71
3
 72
14
 73
10
 74
0
 42
0.0000001
 43
0.0000001
 44
0.0000000001
 40
0.0
 40
0.0
 40
0.0
 40
0.0
 40
0.0295034004
 40
0.0865493417
 40
0.1713737338
 40
0.2837779351
 40
0.4233916655
 40
0.5897200985
 40
1.0
 40
1.0
 40
1.0
 40
1.0
 10
269.1422308713
 20
125.9473114383
 30
0.0
 10
269.1393827528
 20
125.9491756496
 30
0.0
 10
269.1292697955
 20
125.9511896014
 30
0.0
 10
269.1100100849
 20
125.9545240384
 30
0.0
 10
269.0807095351
 20
125.9576272023
 30
0.0
 10
269.0420495489
 20
125.961082195
 30
0.0
 10
268.9938869218
 20
125.9645540832
 30
0.0
 10
268.911420002
 20
125.9696877192
 30
0.0
 10
268.8449703489
 20
125.9730183811
 30
0.0
 10
268.7976848922
 20
125.9752130357
 30
0.0
  0
SPLINE
  5
479
100
AcDbEntity
  8
DTM_AXIS
100
AcDbSpline
 62
7
  6
CONTINUOUS
 70
0
 71
3
 72
9
 73
5
 74
0
 42
0.0000001
 43
0.0000001
 44
0.0000000001
 40
0.0
 40
0.0
 40
0.0
 40
0.0
 40
0.4271476962
 40
1.0
 40
1.0
 40
1.0
 40
1.0
 10
249.7218059027
 20
138.6569295353
 30
0.0
 10
249.7220773102
 20
138.6572328269
 30
0.0
 10
249.7224116806
 20
138.6583586019
 30
0.0
 10
249.7214674226
 20
138.6590034444
 30
0.0
 10
249.721010725
 20
138.6593023719
 30
0.0
  0
SPLINE
  5
47A
100
AcDbEntity
  8
DTM_AXIS
100
AcDbSpline
 62
7
  6
CONTINUOUS
 70
0
 71
3
 72
14
 73
10
 74
0
 42
0.0000001
 43
0.0000001
 44
0.0000000001
 40
0.0
 40
0.0
 40
0.0
 40
0.0
 40
0.0295034004
 40
0.0865493417
 40
0.1713737338
 40
0.2837779351
 40
0.4233916655
 40
0.5897200985
 40
1.0
 40
1.0
 40
1.0
 40
1.0
 10
268.9110258696
 20
126.0986446637
 30
0.0
 10
268.908177751
 20
126.100508875
 30
0.0
 10
268.8980647938
 20
126.1025228268
 30
0.0
 10
268.8788050832
 20
126.1058572638
 30
0.0
 10
268.8495045333
 20
126.1089604277
 30
0.0
 10
268.8108445471
 20
126.1124154204
 30
0.0
 10
268.7626819201
 20
126.1158873086
 30
0.0
 10
268.6802150002
 20
126.1210209446
 30
0.0
 10
268.6137653472
 20
126.1243516065
 30
0.0
 10
268.5664798904
 20
126.1265462611
 30
0.0
  0
SPLINE
  5
47B
100
AcDbEntity
  8
DTM_AXIS
100
AcDbSpline
 62
7
  6
CONTINUOUS
 70
0
 71
3
 72
9
 73
5
 74
0
 42
0.0000001
 43
0.0000001
 44
0.0000000001
 40
0.0
 40
0.0
 40
0.0
 40
0.0
 40
0.4271476962
 40
1.0
 40
1.0
 40
1.0
 40
1.0
 10
264.5189260142
 20
128.9716031098
 30
0.0
 10
264.5191974217
 20
128.9719064013
 30
0.0
 10
264.5195317921
 20
128.9730321763
 30
0.0
 10
264.5185875341
 20
128.9736770188
 30
0.0
 10
264.5181308365
 20
128.9739759463
 30
0.0
  0
SPLINE
  5
47C
100
AcDbEntity
  8
DTM_AXIS
100
AcDbSpline
 62
7
  6
CONTINUOUS
 70
0
 71
3
 72
9
 73
5
 74
0
 42
0.0000001
 43
0.0000001
 44
0.0000000001
 40
0.0
 40
0.0
 40
0.0
 40
0.0
 40
0.4271476962
 40
1.0
 40
1.0
 40
1.0
 40
1.0
 10
255.2707259445
 20
135.0249321257
 30
0.0
 10
255.270997352
 20
135.0252354173
 30
0.0
 10
255.2713317224
 20
135.0263611923
 30
0.0
 10
255.2703874644
 20
135.0270060348
 30
0.0
 10
255.2699307668
 20
135.0273049623
 30
0.0
  0
SPLINE
  5
47D
100
AcDbEntity
  8
DTM_AXIS
100
AcDbSpline
 62
7
  6
CONTINUOUS
 70
0
 71
3
 72
9
 73
5
 74
0
 42
0.0000001
 43
0.0000001
 44
0.0000000001
 40
0.0
 40
0.0
 40
0.0
 40
0.0
 40
0.4271476962
 40
1.0
 40
1.0
 40
1.0
 40
1.0
 10
264.2877210125
 20
129.1229363352
 30
0.0
 10
264.28799242
 20
129.1232396267
 30
0.0
 10
264.2883267903
 20
129.1243654017
 30
0.0
 10
264.2873825324
 20
129.1250102442
 30
0.0
 10
264.2869258347
 20
129.1253091717
 30
0.0
  0
SPLINE
  5
47E
100
AcDbEntity
  8
0
100
AcDbSpline
 62
7
  6
CONTINUOUS
 70
0
 71
3
 72
11
 73
7
 74
0
 42
0.0000001
 43
0.0000001
 44
0.0000000001
 40
0.0
 40
0.0
 40
0.0
 40
0.0
 40
0.25
 40
0.5
 40
0.75
 40
1.0
 40
1.0
 40
1.0
 40
1.0
 10
154.5376239254
 20
153.679448082
 30
0.0
 10
154.5376239254
 20
154.679448082
 30
0.0
 10
154.9515722485
 20
156.2654997589
 30
0.0
 10
156.4735466974
 20
157.74352531
 30
0.0
 10
158.6899188329
 20
158.5271531745
 30
0.0
 10
160.5376239254
 20
158.679448082
 30
0.0
 10
161.5376239254
 20
158.679448082
 30
0.0
  0
SPLINE
  5
47F
100
AcDbEntity
  8
0
100
AcDbSpline
 62
7
  6
CONTINUOUS
 70
0
 71
3
 72
10
 73
6
 74
0
 42
0.0000001
 43
0.0000001
 44
0.0000000001
 40
0.0
 40
0.0
 40
0.0
 40
0.0
 40
0.2638574581
 40
0.6414192014
 40
1.0
 40
1.0
 40
1.0
 40
1.0
 10
58.0376239254
 20
83.179448082
 30
0.0
 10
57.9670321493
 20
96.0257054268
 30
0.0
 10
64.2337201308
 20
122.9902369421
 30
0.0
 10
92.3518135649
 20
148.3669963889
 30
0.0
 10
121.2350366224
 20
152.3633700812
 30
0.0
 10
135.5376239254
 20
150.679448082
 30
0.0
  0
SPLINE
  5
480
100
AcDbEntity
  8
0
100
AcDbSpline
 62
7
  6
CONTINUOUS
 70
0
 71
3
 72
11
 73
7
 74
0
 42
0.0000001
 43
0.0000001
 44
0.0000000001
 40
0.0
 40
0.0
 40
0.0
 40
0.0
 40
0.1211523986
 40
0.5719459939
 40
0.8002954619
 40
1.0
 40
1.0
 40
1.0
 40
1.0
 10
43.0376239254
 20
64.179448082
 30
0.0
 10
44.2851450311
 20
64.4550106494
 30
0.0
 10
49.4314434647
 20
66.001625039
 30
0.0
 10
53.603572236
 20
69.5872433306
 30
0.0
 10
55.7931066022
 20
76.630026941
 30
0.0
 10
56.3477018542
 20
80.9673508782
 30
0.0
 10
56.5376239254
 20
83.179448082
 30
0.0
  0
SPLINE
  5
481
100
AcDbEntity
  8
0
100
AcDbSpline
 62
7
  6
CONTINUOUS
 70
0
 71
3
 72
11
 73
7
 74
0
 42
0.0000001
 43
0.0000001
 44
0.0000000001
 40
0.0
 40
0.0
 40
0.0
 40
0.0
 40
0.25
 40
0.5
 40
0.75
 40
1.0
 40
1.0
 40
1.0
 40
1.0
 10
38.5376239254
 20
53.679448082
 30
0.0
 10
38.5376239254
 20
54.5127814153
 30
0.0
 10
38.6922327371
 20
56.0248392703
 30
0.0
 10
39.4519107858
 20
57.7651612216
 30
0.0
 10
40.8193379355
 20
58.8977340719
 30
0.0
 10
42.204290592
 20
59.179448082
 30
0.0
 10
43.0376239254
 20
59.179448082
 30
0.0
  0
SPLINE
  5
482
100
AcDbEntity
  8
0
100
AcDbSpline
 62
7
  6
CONTINUOUS
 70
0
 71
3
 72
9
 73
5
 74
0
 42
0.0000001
 43
0.0000001
 44
0.0000000001
 40
0.0
 40
0.0
 40
0.0
 40
0.0
 40
0.659499709
 40
1.0
 40
1.0
 40
1.0
 40
1.0
 10
61.9411526739
 20
129.0372033859
 30
0.0
 10
56.3629925306
 20
120.995740895
 30
0.0
 10
50.2575582646
 20
106.2974425723
 30
0.0
 10
48.1777822448
 20
88.9707080657
 30
0.0
 10
48.0563269605
 20
82.7460368614
 30
0.0
  0
SPLINE
  5
483
100
AcDbEntity
  8
0
100
AcDbSpline
 62
7
  6
CONTINUOUS
 70
0
 71
3
 72
9
 73
5
 74
0
 42
0.0000001
 43
0.0000001
 44
0.0000000001
 40
0.0
 40
0.0
 40
0.0
 40
0.0
 40
0.3732405957
 40
1.0
 40
1.0
 40
1.0
 40
1.0
 10
137.3168360798
 20
162.431803832
 30
0.0
 10
130.4146914452
 20
162.0027187073
 30
0.0
 10
112.4333342373
 20
160.5067593118
 30
0.0
 10
96.5738097154
 20
155.8434546177
 30
0.0
 10
87.5165392876
 20
151.1492459657
 30
0.0
  0
ENDSEC
  0
SECTION
  2
OBJECTS
  0
DICTIONARY
  5
C
100
AcDbDictionary
280
0
281
1
  3
ACAD_GROUP
350
D
  3
ACAD_MLINESTYLE
350
17
  3
ACAD_LAYOUT
350
1A
  3
ACAD_PLOTSETTINGS
350
19
  3
ACAD_PLOTSTYLENAME
350
E
  3
ACAD_TABLESTYLE
350
       484
  0
DICTIONARY
  5
D
102
{ACAD_REACTORS
330
C
102
}
100
AcDbDictionary
280
0
281
1
  0
ACDBDICTIONARYWDFLT
  5
E
102
{ACAD_REACTORS
330
C
102
}
100
AcDbDictionary
281
1
  3
Normal
350
F
100
AcDbDictionaryWithDefault
340
F
  0
DICTIONARY
  5
17
102
{ACAD_REACTORS
330
C
102
}
100
AcDbDictionary
280
0
281
1
  3
Standard
350
18
  0
DICTIONARY
  5
484
330
C
100
AcDbDictionary
281
1
  3
Standard
350
       487
  3
Standard1
350
       488
  0
DICTIONARY
  5
19
102
{ACAD_REACTORS
330
C
102
}
100
AcDbDictionary
281
1
  0
DICTIONARY
  5
1A
102
{ACAD_REACTORS
330
C
102
}
100
AcDbDictionary
281
1
  3
Model
350
485
  3
Layout1
350
486
  0
ACDBPLACEHOLDER
  5
F
102
{ACAD_REACTORS
330
E
102
}
  0
MLINESTYLE
  5
18
102
{ACAD_REACTORS
330
17
102
}
100
AcDbMlineStyle
  2
STANDARD
 70
0
  3

 62
256
 51
90.0
 52
90.0
 71
2
 49
0.5
 62
256
  6
BYLAYER
 49
-0.5
 62
256
  6
BYLAYER
  0
LAYOUT
  5
485
102
{ACAD_REACTORS
330
1A
102
}
100
AcDbPlotSettings
  1

  2
none_device
  4
ISO_A4_(297.00_x_210.00_MM)
  6

 40
0.0
 41
0.0
 42
0.0
 43
0.0
 44
297.0
 45
210.0
 46
0.0
 47
0.0
 48
0.0
 49
0.0
140
0.0
141
0.0
142
1.0
143
1.0
 70
1024
 72
1
 73
0
 74
0
  7

 75
0
147
1.0
148
0.0
149
0.0
100
AcDbLayout
  1
Model
 70
0
 71
0
 10
0.0
 20
0.0
 11
297.0
 21
210.0
 12
0.0
 22
0.0
 32
0.0
 14
0.0
 24
0.0
 34
0.0
 15
0.0
 25
0.0
 35
0.0
146
0.0
 13
0.0
 23
0.0
 33
0.0
 16
1.0
 26
0.0
 36
0.0
 17
0.0
 27
1.0
 37
0.0
 76
0
330
20D
345
0
346
0
  0
LAYOUT
  5
486
102
{ACAD_REACTORS
330
1A
102
}
100
AcDbPlotSettings
  1

  2
none_device
  4
ISO_A4_(297.00_x_210.00_MM)
  6

 40
0.0
 41
0.0
 42
0.0
 43
0.0
 44
297.0
 45
210.0
 46
0.0
 47
0.0
 48
0.0
 49
0.0
140
0.0
141
0.0
142
1.0
143
1.0
 70
0
 72
1
 73
0
 74
0
  7

 75
0
147
1.0
148
0.0
149
0.0
100
AcDbLayout
  1
Layout1
 70
0
 71
1
 10
0.0
 20
0.0
 11
297.0
 21
210.0
 12
0.0
 22
0.0
 32
0.0
 14
0.0
 24
0.0
 34
0.0
 15
0.0
 25
0.0
 35
0.0
146
0.0
 13
0.0
 23
0.0
 33
0.0
 16
1.0
 26
0.0
 36
0.0
 17
0.0
 27
1.0
 37
0.0
 76
0
330
20E
345
0
346
0
  0
TABLESTYLE
  5
487
102
{ACAD_REACTORS
330
484
102
}
330
484
100
AcDbTableStyle
  3
Standard
 70
0
 71
0
 40
0.06
 41
0.06
280
1
281
1
  7
Standard
140
0.18
170
1
 62
0
 63
7
283
0
  7
Standard
140
0.18
170
1
 62
0
 63
7
283
0
  7
Standard
140
0.18
170
1
 62
0
 63
7
283
0
  0
TABLESTYLE
  5
488
102
{ACAD_REACTORS
330
484
330
293
102
}
330
484
100
AcDbTableStyle
  3
Standard1
 70
1
 71
0
 40
0.06
 41
0.06
280
1
281
1
  7
Standard
140
0.18
170
1
 62
0
 63
7
283
0
  7
Standard
140
0.18
170
1
 62
0
 63
7
283
0
  7
Standard
140
0.18
170
1
 62
0
 63
7
283
0
  0
ENDSEC
  0
EOF
