999
DXF file: O:\ORAC_PRODUCTEN\ORAC_LIJN6\C-Type\C200\c200-prod-mm.dxf
999
Pro/ENGINEER 2013050 by Parametric Technology Corporation
  0
SECTION
  2
HEADER
  9
$ACADVER
  1
AC1024
  9
$DWGCODEPAGE
  3
ANSI_1252
  9
$EXTMAX
 10
297.0
 20
210.0
 30
0.0
  9
$EXTMIN
 10
0.0
 20
0.0
 30
0.0
  9
$LIMMIN
 10
0.0
 20
0.0
  9
$LIMMAX
 10
297.0
 20
210.0
  9
$VIEWCTR
 10
148.5
 20
105.0
  9
$VIEWSIZE
 40
210.0
  9
$CLAYER
  8
0
  9
$LTSCALE
 40
16.335
  9
$CELTYPE
  6
BYLAYER
  9
$DIMSCALE
 40
1.0
  9
$DIMASZ
 40
3.5
  9
$DIMEXO
 40
1.0
  9
$DIMDLI
 40
11.286
  9
$DIMEXE
 40
1.5
  9
$DIMCEN
 40
2.673
  9
$DIMLFAC
 40
1.0
  9
$DIMBLK
  1
_FILLED
  9
$DIMTXT
 40
2.5
  9
$DIMTOL
 70
1
  9
$DIMLIM
 70
0
  9
$DIMTFAC
 40
1.0
  9
$DIMTP
 40
0.001
  9
$DIMTM
 40
0.001
  9
$DIMGAP
 40
0.625
  9
$DIMDSEP
 70
44
  9
$PDMODE
 70
3
  9
$PDSIZE
 40
8.0
  9
$HANDSEED
  5
2A5
  9
$TILEMODE
 70
1
  9
$MEASUREMENT
 70
1
  9
$INSUNITS
 70
4
  0
ENDSEC
  0
SECTION
  2
CLASSES
  0
CLASS
  1
ACDBDICTIONARYWDFLT
  2
AcDbDictionaryWithDefault
  3
AutoCAD 2000
 90
0
 91
1
280
0
281
0
  0
CLASS
  1
ACDBPLACEHOLDER
  2
AcDbPlaceHolder
  3
AutoCAD 2000
 90
0
 91
1
280
0
281
0
  0
CLASS
  1
LAYOUT
  2
AcDbLayout
  3
AutoCAD 2000
 90
0
 91
0
280
0
281
0
  0
CLASS
  1
TABLESTYLE
  2
AcDbTableStyle
  3
ObjectDBX Classes
 90
2047
 91
1
280
0
281
0
  0
CLASS
  1
ACAD_TABLE
  2
AcDbTable
  3
ObjectDBX Classes
 90
1025
 91
1
280
0
281
1
  0
ENDSEC
  0
SECTION
  2
TABLES
  0
TABLE
  2
VPORT
  5
8
100
AcDbSymbolTable
 70
2
  0
VPORT
  5
1F4
100
AcDbSymbolTableRecord
100
AcDbViewportTableRecord
  2
*ACTIVE
 70
0
 10
0.0
 20
0.0
 11
1.0
 21
1.0
 12
148.5
 22
105.0
 13
0.0
 23
0.0
 14
1.0
 24
1.0
 15
0.0
 25
0.0
 16
0.0
 26
0.0
 36
1.0
 17
0.0
 27
0.0
 37
0.0
 40
210.0
 41
1.4142857143
 42
50.0
 43
0.0
 44
0.0
 50
0.0
 51
0.0
 71
0
 72
100
 73
1
 74
1
 75
0
 76
0
 77
0
 78
0
  0
ENDTAB
  0
TABLE
  2
LTYPE
  5
5
100
AcDbSymbolTable
 70
6
  0
LTYPE
  5
14
100
AcDbSymbolTableRecord
100
AcDbLinetypeTableRecord
  2
BYBLOCK
 70
0
  3

 72
65
 73
0
 40
0.0
  0
LTYPE
  5
15
100
AcDbSymbolTableRecord
100
AcDbLinetypeTableRecord
  2
BYLAYER
 70
0
  3

 72
65
 73
0
 40
0.0
  0
LTYPE
  5
16
100
AcDbSymbolTableRecord
100
AcDbLinetypeTableRecord
  2
CONTINUOUS
 70
64
  3
Solid line
 72
65
 73
0
 40
0.0
  0
LTYPE
  5
1F5
100
AcDbSymbolTableRecord
100
AcDbLinetypeTableRecord
  2
CENTER
 70
64
  3
____ _ ____ _ ____ _ ____ _ ____ _ ____ _ ____
 72
65
 73
4
 40
0.6
 49
0.375
 74
0
 49
-0.075
 74
0
 49
0.075
 74
0
 49
-0.075
 74
0
  0
LTYPE
  5
1F6
100
AcDbSymbolTableRecord
100
AcDbLinetypeTableRecord
  2
HIDDEN
 70
64
  3
- - - - - - - - - - - - - - - - - - - -
 72
65
 73
2
 40
0.2
 49
0.1
 74
0
 49
-0.1
 74
0
  0
LTYPE
  5
1F7
100
AcDbSymbolTableRecord
100
AcDbLinetypeTableRecord
  2
PHANTOM
 70
64
  3
_____ _ _ _____ _ _ _____ _ _ _____
 72
65
 73
6
 40
0.8
 49
0.45
 74
0
 49
-0.05
 74
0
 49
0.1
 74
0
 49
-0.05
 74
0
 49
0.1
 74
0
 49
-0.05
 74
0
  0
LTYPE
  5
1F8
100
AcDbSymbolTableRecord
100
AcDbLinetypeTableRecord
  2
DOT
 70
64
  3
. . . . . . . . . . . . . . . . . . . .
 72
65
 73
2
 40
0.2
 49
0.1
 74
0
 49
-0.1
 74
0
  0
LTYPE
  5
1F9
100
AcDbSymbolTableRecord
100
AcDbLinetypeTableRecord
  2
DASHED
 70
64
  3
- - - - - - - - - - - - - - - - - - - -
 72
65
 73
2
 40
0.2
 49
0.1
 74
0
 49
-0.1
 74
0
  0
ENDTAB
  0
TABLE
  2
LAYER
  5
2
100
AcDbSymbolTable
 70
36
  0
LAYER
  5
10
100
AcDbSymbolTableRecord
100
AcDbLayerTableRecord
  2
0
 70
0
 62
7
  6
CONTINUOUS
370
-3
390
F
  0
LAYER
  5
1FA
100
AcDbSymbolTableRecord
100
AcDbLayerTableRecord
  2
DEFAULT_1
 70
0
 62
7
  6
CENTER
370
-3
390
F
  0
LAYER
  5
1FB
100
AcDbSymbolTableRecord
100
AcDbLayerTableRecord
  2
DEFAULT_2
 70
0
 62
8
  6
HIDDEN
370
-3
390
F
  0
LAYER
  5
1FC
100
AcDbSymbolTableRecord
100
AcDbLayerTableRecord
  2
DEFAULT_3
 70
0
 62
7
  6
PHANTOM
370
-3
390
F
  0
LAYER
  5
1FD
100
AcDbSymbolTableRecord
100
AcDbLayerTableRecord
  2
DTM_ALL
 70
0
 62
7
  6
CONTINUOUS
370
-3
390
F
  0
LAYER
  5
1FE
100
AcDbSymbolTableRecord
100
AcDbLayerTableRecord
  2
DTM_AXIS
 70
0
 62
7
  6
CONTINUOUS
370
-3
390
F
  0
LAYER
  5
1FF
100
AcDbSymbolTableRecord
100
AcDbLayerTableRecord
  2
DTM_CSYS
 70
0
 62
7
  6
CONTINUOUS
370
-3
390
F
  0
LAYER
  5
200
100
AcDbSymbolTableRecord
100
AcDbLayerTableRecord
  2
DTM_CURVE
 70
0
 62
7
  6
CONTINUOUS
370
-3
390
F
  0
LAYER
  5
201
100
AcDbSymbolTableRecord
100
AcDbLayerTableRecord
  2
DTM_MASTER
 70
0
 62
7
  6
CONTINUOUS
370
-3
390
F
  0
LAYER
  5
202
100
AcDbSymbolTableRecord
100
AcDbLayerTableRecord
  2
DTM_POINT
 70
0
 62
7
  6
CONTINUOUS
370
-3
390
F
  0
LAYER
  5
203
100
AcDbSymbolTableRecord
100
AcDbLayerTableRecord
  2
DTM_QUILT
 70
0
 62
7
  6
CONTINUOUS
370
-3
390
F
  0
LAYER
  5
204
100
AcDbSymbolTableRecord
100
AcDbLayerTableRecord
  2
GTOL
 70
0
 62
7
  6
CONTINUOUS
370
-3
390
F
  0
LAYER
  5
205
100
AcDbSymbolTableRecord
100
AcDbLayerTableRecord
  2
NOTES
 70
0
 62
7
  6
CONTINUOUS
370
-3
390
F
  0
ENDTAB
  0
TABLE
  2
STYLE
  5
3
100
AcDbSymbolTable
 70
1
  0
STYLE
  5
11
100
AcDbSymbolTableRecord
100
AcDbTextStyleTableRecord
  2
STANDARD
 70
0
 40
0.0
 41
1.0
 50
0.0
 71
0
 42
0.2
  3
cgtime.ttf
  4

  0
STYLE
  5
206
100
AcDbSymbolTableRecord
100
AcDbTextStyleTableRecord
  2
TEXTSTYLE_1
 70
0
 40
0.0
 41
0.8
 50
0.0
 71
0
 42
0.2
  3
gdt
  4

  0
STYLE
  5
207
100
AcDbSymbolTableRecord
100
AcDbTextStyleTableRecord
  2
TEXTSTYLE_2
 70
0
 40
0.0
 41
1.0
 50
0.0
 71
0
 42
0.2
  3
trium.ttf
  4

  0
STYLE
  5
208
100
AcDbSymbolTableRecord
100
AcDbTextStyleTableRecord
  2
TEXTSTYLE_3
 70
0
 40
0.0
 41
1.0
 50
0.0
 71
0
 42
0.2
  3
calibri.ttf
  4

  0
ENDTAB
  0
TABLE
  2
VIEW
  5
6
100
AcDbSymbolTable
 70
0
  0
ENDTAB
  0
TABLE
  2
UCS
  5
7
100
AcDbSymbolTable
 70
0
  0
ENDTAB
  0
TABLE
  2
APPID
  5
9
100
AcDbSymbolTable
 70
1
  0
APPID
  5
209
100
AcDbSymbolTableRecord
100
AcDbRegAppTableRecord
  2
ACAD
 70
0
  0
ENDTAB
  0
TABLE
  2
BLOCK_RECORD
  5
1
100
AcDbSymbolTable
 70
0
  0
BLOCK_RECORD
  5
20A
100
AcDbSymbolTableRecord
100
AcDbBlockTableRecord
  2
*Model_Space
  0
BLOCK_RECORD
  5
20B
100
AcDbSymbolTableRecord
100
AcDbBlockTableRecord
  2
*Paper_Space
  0
BLOCK_RECORD
  5
20C
100
AcDbSymbolTableRecord
100
AcDbBlockTableRecord
  2
_FILLED
  0
BLOCK_RECORD
  5
20D
100
AcDbSymbolTableRecord
100
AcDbBlockTableRecord
  2
*D0
  0
BLOCK_RECORD
  5
20E
100
AcDbSymbolTableRecord
100
AcDbBlockTableRecord
  2
*D1
  0
BLOCK_RECORD
  5
20F
100
AcDbSymbolTableRecord
100
AcDbBlockTableRecord
  2
*D2
  0
BLOCK_RECORD
  5
210
100
AcDbSymbolTableRecord
100
AcDbBlockTableRecord
  2
*T1
  0
ENDTAB
  0
TABLE
  2
DIMSTYLE
  5
A
100
AcDbSymbolTable
 70
1
100
AcDbDimStyleTable
 71
0
  0
DIMSTYLE
105
211
100
AcDbSymbolTableRecord
100
AcDbDimStyleTableRecord
  2
STANDARD
 70
0
  3

  4

 40
1.0
 41
3.5
 42
1.0
 43
0.38
 44
1.5
 45
0.0
 46
0.0
 47
0.001
 48
0.001
140
2.5
141
0.09
142
0.0
143
25.4
144
1.0
145
0.0
146
1.0
147
0.625
 71
1.0
 72
0.0
 73
1
 74
1
 75
0
 76
0
 77
0
 78
8
170
0
171
2
172
0
173
0
174
0
175
0
176
0
177
0
178
0
270
2
271
3
272
3
273
2
274
2
275
0
280
0
281
0
282
0
283
1
284
8
285
0
286
0
287
3
288
0
340
11
278
44
341
20C
342
20C
343
20C
344
20C
  0
DIMSTYLE
105
212
100
AcDbSymbolTableRecord
100
AcDbDimStyleTableRecord
  2
DIMSTYLE_1
 70
0
  3

  4

 40
1.0
 41
3.5
 42
1.0
 43
0.38
 44
1.5
 45
0.0
 46
0.0
 47
0.0
 48
0.0
140
2.5
141
0.09
142
0.0
143
25.4
144
1.0
145
0.0
146
1.0
147
1.25
 71
0.0
 72
0.0
 73
1
 74
1
 75
0
 76
0
 77
0
 78
8
170
0
171
2
172
0
173
0
174
0
175
0
176
0
177
0
178
0
270
2
271
3
272
3
273
2
274
2
275
0
280
0
281
0
282
0
283
1
284
8
285
0
286
0
287
3
288
0
340
11
278
44
341
20C
342
20C
343
20C
344
20C
  0
DIMSTYLE
105
213
100
AcDbSymbolTableRecord
100
AcDbDimStyleTableRecord
  2
DIMSTYLE_2
 70
0
  3

  4

 40
1.0
 41
3.5
 42
1.0
 43
0.38
 44
1.5
 45
0.0
 46
0.0
 47
0.0
 48
0.0
140
2.5
141
0.09
142
0.0
143
25.4
144
1.0
145
0.0
146
1.0
147
1.25
 71
0.0
 72
0.0
 73
1
 74
1
 75
0
 76
0
 77
0
 78
8
170
0
171
2
172
0
173
0
174
0
175
0
176
0
177
0
178
0
270
2
271
0
272
0
273
2
274
2
275
0
280
0
281
0
282
0
283
1
284
8
285
0
286
0
287
3
288
0
340
11
278
44
341
20C
342
20C
343
20C
344
20C
  0
ENDTAB
  0
ENDSEC
  0
SECTION
  2
BLOCKS
  0
BLOCK
  5
20
100
AcDbEntity
  8
0
100
AcDbBlockBegin
  2
*Model_Space
 70
0
 10
0.0
 20
0.0
 30
0.0
  3
*Model_Space
  1

  0
ENDBLK
  5
21
100
AcDbEntity
  8
0
100
AcDbBlockEnd
  0
BLOCK
  5
1C
100
AcDbEntity
  8
0
100
AcDbBlockBegin
  2
*Paper_Space
 70
0
 10
0.0
 20
0.0
 30
0.0
  3
*Paper_Space
  1

  0
ENDBLK
  5
1D
100
AcDbEntity
  8
0
100
AcDbBlockEnd
  0
BLOCK
  5
214
100
AcDbEntity
  8
0
100
AcDbBlockBegin
  2
_FILLED
 70
64
 10
0.0
 20
0.0
  3
_FILLED
  1

  0
SOLID
  5
215
100
AcDbEntity
  8
0
  6
BYBLOCK
 62
0
100
AcDbTrace
 10
0.0
 20
0.0
 11
-1.0
 21
0.2142857143
 12
-1.0
 22
-0.2142857143
 13
-1.0
 23
-0.2142857143
  0
ENDBLK
  5
216
100
AcDbEntity
  8
0
  6
BYBLOCK
 62
0
100
AcDbBlockEnd
  0
BLOCK
  5
217
100
AcDbEntity
  8
0
100
AcDbBlockBegin
 62
2
  6
CONTINUOUS
  2
*D0
 70
65
 10
0.0
 20
0.0
  3
*D0
  1

  0
TEXT
  5
218
100
AcDbEntity
  8
0
100
AcDbText
 62
2
  6
CONTINUOUS
 10
72.7425094371
 20
167.8853660943
  7
STANDARD
 40
2.5
  1
57
 72
5
 11
76.3806417329
 21
167.8853660943
100
AcDbText
  0
LINE
  5
219
100
AcDbEntity
  8
0
100
AcDbLine
 62
2
  6
CONTINUOUS
 10
103.061575585
 20
158.7973940846
 11
103.061575585
 21
170.6353660943
  0
LINE
  5
21A
100
AcDbEntity
  8
0
100
AcDbLine
 62
2
  6
CONTINUOUS
 10
46.061575585
 20
111.4173940846
 11
46.061575585
 21
170.6353660943
  0
LINE
  5
21B
100
AcDbEntity
  8
0
100
AcDbLine
 62
2
  6
CONTINUOUS
 10
103.061575585
 20
169.1353660943
 11
77.6306417329
 21
169.1353660943
  0
LINE
  5
21C
100
AcDbEntity
  8
0
100
AcDbLine
 62
2
  6
CONTINUOUS
 10
46.061575585
 20
169.1353660943
 11
71.4925094371
 21
169.1353660943
  0
INSERT
  5
21D
100
AcDbEntity
  8
0
100
AcDbBlockReference
 62
2
  6
CONTINUOUS
  2
_FILLED
 10
103.061575585
 20
169.1353660943
 41
3.5
 42
3.5
 43
3.5
  0
INSERT
  5
21E
100
AcDbEntity
  8
0
100
AcDbBlockReference
 62
2
  6
CONTINUOUS
  2
_FILLED
 10
46.061575585
 20
169.1353660943
 41
3.5
 42
3.5
 43
3.5
 50
180.0
  0
ENDBLK
  5
21F
100
AcDbEntity
  8
0
  6
BYBLOCK
 62
0
100
AcDbBlockEnd
  0
BLOCK
  5
220
100
AcDbEntity
  8
0
100
AcDbBlockBegin
 62
2
  6
CONTINUOUS
  2
*D1
 70
65
 10
0.0
 20
0.0
  3
*D1
  1

  0
TEXT
  5
221
100
AcDbEntity
  8
0
100
AcDbText
 62
2
  6
CONTINUOUS
 10
28.7417318347
 20
124.1023940846
  7
STANDARD
 40
2.5
  1
65
 72
5
 11
32.3798641304
 21
124.1023940846
100
AcDbText
  0
LINE
  5
222
100
AcDbEntity
  8
0
100
AcDbLine
 62
2
  6
CONTINUOUS
 10
85.061575585
 20
157.7973940846
 11
29.0607979826
 21
157.7973940846
  0
LINE
  5
223
100
AcDbEntity
  8
0
100
AcDbLine
 62
2
  6
CONTINUOUS
 10
45.061575585
 20
92.9073940846
 11
29.0607979826
 21
92.9073940846
  0
LINE
  5
224
100
AcDbEntity
  8
0
100
AcDbLine
 62
2
  6
CONTINUOUS
 10
30.5607979826
 20
157.7973940846
 11
30.5607979826
 21
127.8523940846
  0
LINE
  5
225
100
AcDbEntity
  8
0
100
AcDbLine
 62
2
  6
CONTINUOUS
 10
30.5607979826
 20
92.9073940846
 11
30.5607979826
 21
122.8523940846
  0
INSERT
  5
226
100
AcDbEntity
  8
0
100
AcDbBlockReference
 62
2
  6
CONTINUOUS
  2
_FILLED
 10
30.5607979826
 20
157.7973940846
 41
3.5
 42
3.5
 43
3.5
 50
90.0
  0
INSERT
  5
227
100
AcDbEntity
  8
0
100
AcDbBlockReference
 62
2
  6
CONTINUOUS
  2
_FILLED
 10
30.5607979826
 20
92.9073940846
 41
3.5
 42
3.5
 43
3.5
 50
270.0
  0
ENDBLK
  5
228
100
AcDbEntity
  8
0
  6
BYBLOCK
 62
0
100
AcDbBlockEnd
  0
BLOCK
  5
229
100
AcDbEntity
  8
0
100
AcDbBlockBegin
 62
2
  6
CONTINUOUS
  2
*D2
 70
65
 10
0.0
 20
0.0
  3
*D2
  1

  0
TEXT
  5
22A
100
AcDbEntity
  8
0
100
AcDbText
 62
2
  6
CONTINUOUS
 10
91.0038999022
 20
108.0614130936
  7
STANDARD
 40
2.5
  1
85
 72
5
 11
94.6420321979
 21
108.0614130936
100
AcDbText
  0
LINE
  5
22B
100
AcDbEntity
  8
0
100
AcDbLine
 62
2
  6
CONTINUOUS
 10
46.8128813837
 20
92.2474398462
 11
65.4499247482
 21
75.876481736
  0
LINE
  5
22C
100
AcDbEntity
  8
0
100
AcDbLine
 62
2
  6
CONTINUOUS
 10
103.8128813837
 20
157.1374398462
 11
122.4499247482
 21
140.766481736
  0
LINE
  5
22D
100
AcDbEntity
  8
0
100
AcDbLine
 62
2
  6
CONTINUOUS
 10
64.32296605
 20
76.8664130936
 11
90.6269420094
 21
106.8114130936
  0
LINE
  5
22E
100
AcDbEntity
  8
0
100
AcDbLine
 62
2
  6
CONTINUOUS
 10
121.32296605
 20
141.7564130936
 11
95.0189900907
 21
111.8114130936
  0
INSERT
  5
22F
100
AcDbEntity
  8
0
100
AcDbBlockReference
 62
2
  6
CONTINUOUS
  2
_FILLED
 10
64.32296605
 20
76.8664130936
 41
3.5
 42
3.5
 43
3.5
 50
228.7036171554
  0
INSERT
  5
230
100
AcDbEntity
  8
0
100
AcDbBlockReference
 62
2
  6
CONTINUOUS
  2
_FILLED
 10
121.32296605
 20
141.7564130936
 41
3.5
 42
3.5
 43
3.5
 50
48.7036171554
  0
ENDBLK
  5
231
100
AcDbEntity
  8
0
  6
BYBLOCK
 62
0
100
AcDbBlockEnd
  0
BLOCK
  5
232
100
AcDbEntity
  8
0
100
AcDbBlockBegin
  2
*T1
 70
1
 10
0.0
 20
0.0
  3
*T1
  1

  0
LINE
  5
233
100
AcDbEntity
  8
0
100
AcDbLine
 62
7
  6
CONTINUOUS
 10
0.0
 20
0.0
 11
148.0
 21
0.0
  0
LINE
  5
234
100
AcDbEntity
  8
0
100
AcDbLine
 62
7
  6
CONTINUOUS
 10
0.0
 20
0.0
 11
0.0
 21
-43.0
  0
LINE
  5
235
100
AcDbEntity
  8
0
100
AcDbLine
 62
7
  6
CONTINUOUS
 10
45.0
 20
-23.0
 11
148.0
 21
-23.0
  0
LINE
  5
236
100
AcDbEntity
  8
0
100
AcDbLine
 62
7
  6
CONTINUOUS
 10
45.0
 20
-28.0
 11
148.0
 21
-28.0
  0
LINE
  5
237
100
AcDbEntity
  8
0
100
AcDbLine
 62
7
  6
CONTINUOUS
 10
0.0
 20
-43.0
 11
148.0
 21
-43.0
  0
LINE
  5
238
100
AcDbEntity
  8
0
100
AcDbLine
 62
7
  6
CONTINUOUS
 10
45.0
 20
0.0
 11
45.0
 21
-43.0
  0
LINE
  5
239
100
AcDbEntity
  8
0
100
AcDbLine
 62
7
  6
CONTINUOUS
 10
143.0
 20
0.0
 11
143.0
 21
-23.0
  0
LINE
  5
23A
100
AcDbEntity
  8
0
100
AcDbLine
 62
7
  6
CONTINUOUS
 10
148.0
 20
0.0
 11
148.0
 21
-43.0
  0
TEXT
  5
23B
100
AcDbEntity
  8
0
100
AcDbText
 62
7
  6
CONTINUOUS
 10
8.9659749243
 20
-10.675
  7
STANDARD
 40
8.0
  1
O
 72
5
 11
17.370644185
 21
-10.675
100
AcDbText
  0
TEXT
  5
23C
100
AcDbEntity
  8
0
100
AcDbText
 62
7
  6
CONTINUOUS
 10
17.370644185
 20
-10.675
  7
STANDARD
 40
5.5
  1
RAC
 72
5
 11
33.9562472979
 21
-10.675
100
AcDbText
  0
TEXT
  5
23D
100
AcDbEntity
  8
0
100
AcDbText
 62
7
  6
CONTINUOUS
 10
33.9562472979
 20
-5.925
  7
TEXTSTYLE_2
 40
3.0
  1
®
 72
5
 11
36.0340250757
 21
-5.925
100
AcDbText
  0
TEXT
  5
23E
100
AcDbEntity
  8
0
100
AcDbText
 62
7
  6
CONTINUOUS
 10
9.5323389537
 20
-15.325
  7
TEXTSTYLE_2
 40
3.0
  1
D  E  C  O  R
 72
5
 11
34.3878945093
 21
-15.325
100
AcDbText
  0
TEXT
  5
23F
100
AcDbEntity
  8
0
100
AcDbText
 62
7
  6
CONTINUOUS
 10
34.3878945093
 20
-15.325
  7
STANDARD
 40
2.5
  1
 
 72
5
 11
35.4676610463
 21
-15.325
100
AcDbText
  0
TEXT
  5
240
100
AcDbEntity
  8
0
100
AcDbText
 62
7
  6
CONTINUOUS
 10
52.5257352941
 20
-6.0
  7
TEXTSTYLE_3
 40
2.75
  1
Part name:
 72
5
 11
71.9375
 21
-6.0
100
AcDbText
  0
TEXT
  5
241
100
AcDbEntity
  8
0
100
AcDbText
 62
7
  6
CONTINUOUS
 10
49.2788865546
 20
-12.875
  7
TEXTSTYLE_3
 40
2.75
  1
Designed by:
 72
5
 11
71.9375
 21
-12.875
100
AcDbText
  0
TEXT
  5
242
100
AcDbEntity
  8
0
100
AcDbText
 62
7
  6
CONTINUOUS
 10
48.9553571429
 20
-19.75
  7
TEXTSTYLE_3
 40
2.75
  1
Designed on:
 72
5
 11
71.9375
 21
-19.75
100
AcDbText
  0
TEXT
  5
243
100
AcDbEntity
  8
0
100
AcDbText
 62
2
  6
CONTINUOUS
 10
74.0625
 20
-6.0
  7
TEXTSTYLE_3
 40
2.75
  1
c200
 72
5
 11
82.4858193277
 21
-6.0
100
AcDbText
  0
TEXT
  5
244
100
AcDbEntity
  8
0
100
AcDbText
 62
2
  6
CONTINUOUS
 10
74.0625
 20
-12.875
  7
TEXTSTYLE_3
 40
2.75
  1
ORAC
 72
5
 11
84.1034663866
 21
-12.875
100
AcDbText
  0
TEXT
  5
245
100
AcDbEntity
  8
0
100
AcDbText
 62
2
  6
CONTINUOUS
 10
74.0625
 20
-19.75
  7
TEXTSTYLE_3
 40
2.75
  1
29-Jul-1977
 72
5
 11
94.5488445378
 21
-19.75
100
AcDbText
  0
TEXT
  5
246
100
AcDbEntity
  8
0
100
AcDbText
 62
2
  6
CONTINUOUS
 10
94.5488445378
 20
-19.75
  7
TEXTSTYLE_3
 40
2.75
  1
 
 72
5
 11
95.530987395
 21
-19.75
100
AcDbText
  0
TEXT
  5
247
100
AcDbEntity
  8
0
100
AcDbText
 62
2
  6
CONTINUOUS
 10
146.5625
 20
-17.5
  7
TEXTSTYLE_3
 40
1.5
  1
Version: 
 50
90.0
 72
5
 11
146.5625
 21
-9.0294117647
100
AcDbText
  0
TEXT
  5
248
100
AcDbEntity
  8
0
100
AcDbText
 62
2
  6
CONTINUOUS
 10
146.5625
 20
-9.0294117647
  7
TEXTSTYLE_3
 40
1.5
  1
1.0
 50
90.0
 72
5
 11
146.5625
 21
-6.0357142857
100
AcDbText
  0
TEXT
  5
249
100
AcDbEntity
  8
0
100
AcDbText
 62
2
  6
CONTINUOUS
 10
146.5625
 20
-6.0357142857
  7
TEXTSTYLE_3
 40
1.5
  1
 
 50
90.0
 72
5
 11
146.5625
 21
-5.5
100
AcDbText
  0
TEXT
  5
24A
100
AcDbEntity
  8
0
100
AcDbText
 62
7
  6
CONTINUOUS
 10
9.6586134454
 20
-24.25
  7
TEXTSTYLE_3
 40
2.5
  1
Biekorfstraat 32
 72
5
 11
35.3413865546
 21
-24.25
100
AcDbText
  0
TEXT
  5
24B
100
AcDbEntity
  8
0
100
AcDbText
 62
7
  6
CONTINUOUS
 10
2.2584033613
 20
-28.0
  7
TEXTSTYLE_3
 40
2.5
  1
8400 Oostende - Belgium
 72
5
 11
42.7415966387
 21
-28.0
100
AcDbText
  0
TEXT
  5
24C
100
AcDbEntity
  8
0
100
AcDbText
 62
7
  6
CONTINUOUS
 10
4.2699579832
 20
-31.75
  7
TEXTSTYLE_3
 40
2.5
  1
Tel  +32 (0)59 80 32 52
 72
5
 11
40.7300420168
 21
-31.75
100
AcDbText
  0
TEXT
  5
24D
100
AcDbEntity
  8
0
100
AcDbText
 62
7
  6
CONTINUOUS
 10
5.7405462185
 20
-35.5
  7
TEXTSTYLE_3
 40
2.5
  1
www.oracdecor.com
 72
5
 11
39.2594537815
 21
-35.5
100
AcDbText
  0
TEXT
  5
24E
100
AcDbEntity
  8
0
100
AcDbText
 62
7
  6
CONTINUOUS
 10
5.5777310924
 20
-39.25
  7
TEXTSTYLE_3
 40
2.5
  1
info@oracdecor.com
 72
5
 11
39.4222689076
 21
-39.25
100
AcDbText
  0
TEXT
  5
24F
100
AcDbEntity
  8
0
100
AcDbText
 62
7
  6
CONTINUOUS
 10
46.0625
 20
-26.75
  7
TEXTSTYLE_3
 40
2.5
  1
All dimensions are in mm unless otherwise specified   
 72
5
 11
132.3019957983
 21
-26.75
100
AcDbText
  0
TEXT
  5
250
100
AcDbEntity
  8
0
100
AcDbText
 62
7
  6
CONTINUOUS
 10
46.0625
 20
-31.7075
  7
TEXTSTYLE_3
 40
1.85
  1
All information in this document is Orac's exclusive property.  It may in no case 
 72
5
 11
140.0471638655
 21
-31.7075
100
AcDbText
  0
TEXT
  5
251
100
AcDbEntity
  8
0
100
AcDbText
 62
7
  6
CONTINUOUS
 10
46.0625
 20
-34.8525
  7
TEXTSTYLE_3
 40
1.85
  1
be reproduced, even partly, be communicated to a third party or used for any 
 72
5
 11
138.8345588235
 21
-34.8525
100
AcDbText
  0
TEXT
  5
252
100
AcDbEntity
  8
0
100
AcDbText
 62
7
  6
CONTINUOUS
 10
46.0625
 20
-37.9975
  7
TEXTSTYLE_3
 40
1.85
  1
possible purpose without ORAC's express written permission. 
 72
5
 11
119.4484243697
 21
-37.9975
100
AcDbText
  0
TEXT
  5
253
100
AcDbEntity
  8
0
100
AcDbText
 62
7
  6
CONTINUOUS
 10
46.0625
 20
-41.1425
  7
TEXTSTYLE_3
 40
1.85
  1
Further legal information can be found at http://www.oracdecor.be/nl/disclaimer 
 72
5
 11
143.7316176471
 21
-41.1425
100
AcDbText
  0
ENDBLK
  5
254
100
AcDbEntity
  8
0
  6
BYBLOCK
 62
0
100
AcDbBlockEnd
  0
ENDSEC
  0
SECTION
  2
ENTITIES
  0
DIMENSION
  5
255
100
AcDbEntity
  8
0
100
AcDbDimension
 62
2
  6
CONTINUOUS
  2
*D0
 10
46.061575585
 20
169.1353660943
 11
74.561575585
 21
169.1353660943
 70
160
 71
2
 42
57.0
  3
DIMSTYLE_1
100
AcDbAlignedDimension
 13
103.061575585
 23
157.7973940846
 14
46.061575585
 24
110.4173940846
 50
180.0
100
AcDbRotatedDimension
  0
DIMENSION
  5
256
100
AcDbEntity
  8
0
100
AcDbDimension
 62
2
  6
CONTINUOUS
  2
*D1
 10
30.5607979826
 20
92.9073940846
 11
30.5607979826
 21
125.3523940846
 70
160
 71
2
 42
64.89
  3
DIMSTYLE_2
100
AcDbAlignedDimension
 13
86.061575585
 23
157.7973940846
 14
46.061575585
 24
92.9073940846
 50
270.0
100
AcDbRotatedDimension
  0
DIMENSION
  5
257
100
AcDbEntity
  8
0
100
AcDbDimension
 62
2
  6
CONTINUOUS
  2
*D2
 10
121.32296605
 20
141.7564130936
 11
92.82296605
 21
109.3114130936
 70
160
 71
2
 42
86.3696248689
  3
DIMSTYLE_2
100
AcDbAlignedDimension
 13
46.061575585
 23
92.9073940846
 14
103.061575585
 24
157.7973940846
 50
48.7036171554
100
AcDbRotatedDimension
  0
ACAD_TABLE
  5
258
100
AcDbEntity
  8
0
 62
2
  6
CONTINUOUS
100
AcDbBlockReference
  2
*T1
 10
143.9999958937
 20
47.9999925619
 30
0.0
100
AcDbTable
342
       2A3
343
210
 11
1.0
 21
0.0
 31
0.0
 90
22
 91
4
 92
4
 93
0
 94
0
 95
0
 96
0
141
18.0
141
5.0
141
5.0
141
15.0
142
45.0
142
28.0
142
70.0
142
5.0
171
1
172
0
173
0
174
0
175
1
176
1
 91
41
178
0
145
0.0
301
CELL_VALUE
 90
4
  1
O\H5.5;RAC\P\Ftrium.ttf;\H3.0;®\PD  E  C  O  R\Fcgtime.ttf;\H2.5; 
304
ACVALUE_END
170
5
140
8.0
 64
7
171
1
172
0
173
0
174
0
175
1
176
2
 91
41
178
0
145
0.0
301
CELL_VALUE
 90
4
  1
Part name:\PDesigned by:\PDesigned on:
304
ACVALUE_END
170
6
140
2.75
 64
7
171
1
172
0
173
0
174
0
175
1
176
2
 91
33
178
0
145
0.0
301
CELL_VALUE
 90
4
  1
c200\PORAC\P29-Jul-1977 
304
ACVALUE_END
170
4
140
2.75
171
1
172
0
173
0
174
0
175
1
176
2
 91
33
178
0
145
0.0
301
CELL_VALUE
 90
4
  1
Version: 1.0 
304
ACVALUE_END
170
6
140
1.5
171
1
172
0
173
0
174
0
175
1
176
3
 91
41
178
0
145
0.0
301
CELL_VALUE
 90
4
  1
Biekorfstraat 32\P8400 Oostende - Belgium\PTel  +32 (0)59 80 32 52\Pwww.oracdecor.com\Pinfo@oracdecor.com
304
ACVALUE_END
170
5
140
2.5
 64
7
171
1
172
0
173
1
174
0
175
1
176
1
 91
1
178
0
145
0.0
170
1
171
1
172
0
173
1
174
0
175
1
176
1
 91
1
178
0
145
0.0
170
1
171
1
172
0
173
1
174
0
175
1
176
1
 91
1
178
0
145
0.0
170
1
171
1
172
0
173
1
174
0
175
1
176
1
 91
1
178
0
145
0.0
170
1
171
1
172
0
173
0
174
0
175
3
176
1
 91
41
178
0
145
0.0
301
CELL_VALUE
 90
4
  1
All dimensions are in mm unless otherwise specified   
304
ACVALUE_END
170
1
140
2.5
 64
7
171
1
172
0
173
1
174
0
175
1
176
1
 91
1
178
0
145
0.0
170
1
171
1
172
0
173
1
174
0
175
1
176
1
 91
1
178
0
145
0.0
170
1
171
1
172
0
173
1
174
0
175
1
176
1
 91
1
178
0
145
0.0
170
1
171
1
172
0
173
0
174
0
175
3
176
1
 91
41
178
0
145
0.0
301
CELL_VALUE
 90
4
  2
All information in this document is Orac's exclusive property.  It may in no case \Pbe reproduced, even partly, be communicated to a third party or used for any \Ppossible purpose without ORAC's express written permission. \PFurther legal information
  1
 can be found at http://www.oracdecor.be/nl/disclaimer 
304
ACVALUE_END
170
4
140
1.85
 64
7
171
1
172
0
173
1
174
0
175
1
176
1
 91
1
178
0
145
0.0
170
1
171
1
172
0
173
1
174
0
175
1
176
1
 91
1
178
0
145
0.0
170
1
  0
LINE
  5
259
100
AcDbEntity
  8
0
100
AcDbLine
 62
5
  6
CONTINUOUS
 10
0.0
 20
0.0
 11
0.0
 21
210.0
  0
LINE
  5
25A
100
AcDbEntity
  8
0
100
AcDbLine
 62
7
  6
CONTINUOUS
 10
5.0
 20
5.0
 11
5.0
 21
195.0
  0
LINE
  5
25B
100
AcDbEntity
  8
0
100
AcDbLine
 62
5
  6
CONTINUOUS
 10
0.0
 20
0.0
 11
297.0
 21
0.0
  0
LINE
  5
25C
100
AcDbEntity
  8
0
100
AcDbLine
 62
7
  6
CONTINUOUS
 10
5.0
 20
5.0
 11
292.0
 21
5.0
  0
LINE
  5
25D
100
AcDbEntity
  8
0
100
AcDbLine
 62
4
  6
CONTINUOUS
 10
148.5
 20
195.0
 11
148.5
 21
205.0
  0
LINE
  5
25E
100
AcDbEntity
  8
0
100
AcDbLine
 62
7
  6
CONTINUOUS
 10
5.0
 20
195.0
 11
292.0
 21
195.0
  0
LINE
  5
25F
100
AcDbEntity
  8
0
100
AcDbLine
 62
5
  6
CONTINUOUS
 10
0.0
 20
210.0
 11
297.0
 21
210.0
  0
LINE
  5
260
100
AcDbEntity
  8
0
100
AcDbLine
 62
7
  6
CONTINUOUS
 10
292.0
 20
5.0
 11
292.0
 21
195.0
  0
LINE
  5
261
100
AcDbEntity
  8
0
100
AcDbLine
 62
5
  6
CONTINUOUS
 10
297.0
 20
0.0
 11
297.0
 21
210.0
  0
LINE
  5
262
100
AcDbEntity
  8
DTM_AXIS
100
AcDbLine
 62
7
  6
CONTINUOUS
 10
221.0391103324
 20
51.0387432308
 11
231.0311636889
 21
51.2095924066
  0
LINE
  5
263
100
AcDbEntity
  8
DTM_AXIS
100
AcDbLine
 62
7
  6
CONTINUOUS
 10
147.5053938328
 20
143.2589136133
 11
147.6203871445
 21
135.9481562373
  0
LINE
  5
264
100
AcDbEntity
  8
DTM_AXIS
100
AcDbLine
 62
7
  6
CONTINUOUS
 10
147.7040698735
 20
130.6279848366
 11
147.7805818601
 21
125.7636969727
  0
LINE
  5
265
100
AcDbEntity
  8
DTM_AXIS
100
AcDbLine
 62
7
  6
CONTINUOUS
 10
174.0168591813
 20
158.9790650446
 11
161.4336911477
 21
144.1745950466
  0
LINE
  5
266
100
AcDbEntity
  8
DTM_AXIS
100
AcDbLine
 62
7
  6
CONTINUOUS
 10
239.773104979
 20
67.3148777195
 11
244.7691316572
 21
67.4003023074
  0
LINE
  5
267
100
AcDbEntity
  8
DTM_AXIS
100
AcDbLine
 62
7
  6
CONTINUOUS
 10
166.5955141617
 20
136.8941795083
 11
166.5145765067
 21
142.0398314614
  0
LINE
  5
268
100
AcDbEntity
  8
DTM_AXIS
100
AcDbLine
 62
7
  6
CONTINUOUS
 10
221.0391103324
 20
51.0387432308
 11
147.7805818601
 21
125.7636969727
  0
LINE
  5
269
100
AcDbEntity
  8
DTM_AXIS
100
AcDbLine
 62
7
  6
CONTINUOUS
 10
147.6203871445
 20
135.9481562373
 11
149.5340205673
 21
133.6758670966
  0
LINE
  5
26A
100
AcDbEntity
  8
DTM_AXIS
100
AcDbLine
 62
7
  6
CONTINUOUS
 10
231.0311636889
 20
51.2095924066
 11
157.7726352166
 21
125.9345461485
  0
LINE
  5
26B
100
AcDbEntity
  8
DTM_AXIS
100
AcDbLine
 62
7
  6
CONTINUOUS
 10
186.7289808321
 20
191.2823082852
 11
186.9757051416
 21
175.5966867553
  0
LINE
  5
26C
100
AcDbEntity
  8
DTM_AXIS
100
AcDbLine
 62
7
  6
CONTINUOUS
 10
239.8540426341
 20
62.1692257664
 11
166.5955141617
 21
136.8941795083
  0
LINE
  5
26D
100
AcDbEntity
  8
DTM_AXIS
100
AcDbLine
 62
7
  6
CONTINUOUS
 10
239.773104979
 20
67.3148777195
 11
166.5145765067
 21
142.0398314614
  0
LINE
  5
26E
100
AcDbEntity
  8
DTM_AXIS
100
AcDbLine
 62
7
  6
CONTINUOUS
 10
244.7691316572
 20
67.4003023074
 11
171.5106031849
 21
142.1252560493
  0
LINE
  5
26F
100
AcDbEntity
  8
DTM_AXIS
100
AcDbLine
 62
7
  6
CONTINUOUS
 10
195.9950114368
 20
191.4407435572
 11
196.0247667577
 21
191.0367610225
  0
LINE
  5
270
100
AcDbEntity
  8
DTM_AXIS
100
AcDbLine
 62
7
  6
CONTINUOUS
 10
203.8125967242
 20
185.3979695403
 11
203.7154715381
 21
191.5727518841
  0
LINE
  5
271
100
AcDbEntity
  8
DTM_AXIS
100
AcDbLine
 62
7
  6
CONTINUOUS
 10
147.7805818601
 20
125.7636969727
 11
157.7726352166
 21
125.9345461485
  0
LINE
  5
272
100
AcDbEntity
  8
DTM_AXIS
100
AcDbLine
 62
7
  6
CONTINUOUS
 10
147.7040698735
 20
130.6279848366
 11
148.0970727884
 21
130.6106028209
  0
LINE
  5
273
100
AcDbEntity
  8
DTM_AXIS
100
AcDbLine
 62
7
  6
CONTINUOUS
 10
166.5145765067
 20
142.0398314614
 11
171.5106031849
 21
142.1252560493
  0
LINE
  5
274
100
AcDbEntity
  8
DTM_AXIS
100
AcDbLine
 62
7
  6
CONTINUOUS
 10
159.9624523351
 20
143.4719106923
 11
147.5053938328
 21
143.2589136133
  0
LINE
  5
275
100
AcDbEntity
  8
DTM_AXIS
100
AcDbLine
 62
7
  6
CONTINUOUS
 10
239.8540426341
 20
62.1692257664
 11
239.773104979
 21
67.3148777195
  0
LINE
  5
276
100
AcDbEntity
  8
DTM_AXIS
100
AcDbLine
 62
7
  6
CONTINUOUS
 10
269.2512149737
 20
101.7804561088
 11
195.9926865013
 21
176.5054098507
  0
LINE
  5
277
100
AcDbEntity
  8
DTM_AXIS
100
AcDbLine
 62
7
  6
CONTINUOUS
 10
277.0711251965
 20
110.6730157984
 11
203.8125967242
 21
185.3979695403
  0
LINE
  5
278
100
AcDbEntity
  8
DTM_AXIS
100
AcDbLine
 62
7
  6
CONTINUOUS
 10
190.8295399877
 20
191.352421717
 11
193.097337021
 21
189.4570651092
  0
LINE
  5
279
100
AcDbEntity
  8
DTM_AXIS
100
AcDbLine
 62
7
  6
CONTINUOUS
 10
276.9740000105
 20
116.8477981421
 11
203.7154715381
 21
191.5727518841
  0
LINE
  5
27A
100
AcDbEntity
  8
DTM_AXIS
100
AcDbLine
 62
7
  6
CONTINUOUS
 10
277.0711251965
 20
110.6730157984
 11
276.9740000105
 21
116.8477981421
  0
LINE
  5
27B
100
AcDbEntity
  8
DTM_AXIS
100
AcDbLine
 62
7
  6
CONTINUOUS
 10
203.7154715381
 20
191.5727518841
 11
195.9950114368
 21
191.4407435572
  0
LINE
  5
27C
100
AcDbEntity
  8
DTM_AXIS
100
AcDbLine
 62
7
  6
CONTINUOUS
 10
190.8295399877
 20
191.352421717
 11
186.7289808321
 21
191.2823082852
  0
LINE
  5
27D
100
AcDbEntity
  8
DTM_AXIS
100
AcDbLine
 62
7
  6
CONTINUOUS
 10
46.061575585
 20
103.1004591598
 11
47.9404555826
 21
100.794122313
  0
LINE
  5
27E
100
AcDbEntity
  8
DTM_AXIS
100
AcDbLine
 62
7
  6
CONTINUOUS
 10
46.061575585
 20
92.9073940846
 11
56.061575585
 21
92.9073940846
  0
LINE
  5
27F
100
AcDbEntity
  8
DTM_AXIS
100
AcDbLine
 62
7
  6
CONTINUOUS
 10
46.061575585
 20
110.4173940846
 11
46.061575585
 21
103.1004591598
  0
LINE
  5
280
100
AcDbEntity
  8
DTM_AXIS
100
AcDbLine
 62
7
  6
CONTINUOUS
 10
46.061575585
 20
97.7757922443
 11
46.061575585
 21
92.9073940846
  0
LINE
  5
281
100
AcDbEntity
  8
DTM_AXIS
100
AcDbLine
 62
7
  6
CONTINUOUS
 10
46.061575585
 20
97.7757922443
 11
46.4545117494
 21
97.7516765862
  0
LINE
  5
282
100
AcDbEntity
  8
DTM_AXIS
100
AcDbLine
 62
7
  6
CONTINUOUS
 10
65.061575585
 20
108.8723940846
 11
70.061575585
 21
108.8723940846
  0
LINE
  5
283
100
AcDbEntity
  8
DTM_AXIS
100
AcDbLine
 62
7
  6
CONTINUOUS
 10
58.5285411404
 20
110.4173940846
 11
46.061575585
 21
110.4173940846
  0
LINE
  5
284
100
AcDbEntity
  8
DTM_AXIS
100
AcDbLine
 62
7
  6
CONTINUOUS
 10
65.061575585
 20
103.7223940846
 11
65.061575585
 21
108.8723940846
  0
LINE
  5
285
100
AcDbEntity
  8
DTM_AXIS
100
AcDbLine
 62
7
  6
CONTINUOUS
 10
72.8343890023
 20
125.6930311346
 11
60.0116126986
 21
111.0953126372
  0
LINE
  5
286
100
AcDbEntity
  8
DTM_AXIS
100
AcDbLine
 62
7
  6
CONTINUOUS
 10
86.061575585
 20
157.7973940846
 11
86.061575585
 21
142.098518293
  0
LINE
  5
287
100
AcDbEntity
  8
DTM_AXIS
100
AcDbLine
 62
7
  6
CONTINUOUS
 10
95.3349754299
 20
157.7973940846
 11
95.3583886902
 21
157.3926698352
  0
LINE
  5
288
100
AcDbEntity
  8
DTM_AXIS
100
AcDbLine
 62
7
  6
CONTINUOUS
 10
103.061575585
 20
151.6173940846
 11
103.061575585
 21
157.7973940846
  0
LINE
  5
289
100
AcDbEntity
  8
DTM_AXIS
100
AcDbLine
 62
7
  6
CONTINUOUS
 10
103.061575585
 20
157.7973940846
 11
95.3349754299
 21
157.7973940846
  0
LINE
  5
28A
100
AcDbEntity
  8
DTM_AXIS
100
AcDbLine
 62
7
  6
CONTINUOUS
 10
90.1653959003
 20
157.7973940846
 11
86.061575585
 21
157.7973940846
  0
LINE
  5
28B
100
AcDbEntity
  8
DTM_AXIS
100
AcDbLine
 62
7
  6
CONTINUOUS
 10
90.1653959003
 20
157.7973940846
 11
92.4045578876
 21
155.8621476871
  0
SPLINE
  5
28C
100
AcDbEntity
  8
DTM_AXIS
100
AcDbSpline
 62
7
  6
CONTINUOUS
 70
0
 71
3
 72
9
 73
5
 74
0
 42
0.0000001
 43
0.0000001
 44
0.0000000001
 40
0.0
 40
0.0
 40
0.0
 40
0.0
 40
0.5476707434
 40
1.0
 40
1.0
 40
1.0
 40
1.0
 10
195.9926866135
 20
176.5054097363
 30
0.0
 10
195.7138191916
 20
176.789859285
 30
0.0
 10
195.1972682815
 20
177.3020487398
 30
0.0
 10
194.6715480166
 20
177.8046956811
 30
0.0
 10
194.4334587527
 20
178.0317500889
 30
0.0
  0
SPLINE
  5
28D
100
AcDbEntity
  8
DTM_AXIS
100
AcDbSpline
 62
7
  6
CONTINUOUS
 70
0
 71
3
 72
52
 73
48
 74
0
 42
0.0000001
 43
0.0000001
 44
0.0000000001
 40
0.0
 40
0.0
 40
0.0
 40
0.0
 40
0.0374371389
 40
0.0538716673
 40
0.0692551027
 40
0.0839336355
 40
0.0982043908
 40
0.1123243083
 40
0.126517631
 40
0.1409653831
 40
0.1556774989
 40
0.1854853884
 40
0.2004121674
 40
0.2152869425
 40
0.2449083932
 40
0.2596785787
 40
0.274426558
 40
0.3039003241
 40
0.3333151161
 40
0.3625300282
 40
0.3770089718
 40
0.3913769292
 40
0.4199154159
 40
0.4485158991
 40
0.4775764174
 40
0.4924072374
 40
0.5075054906
 40
0.5384608525
 40
0.5700973828
 40
0.6021151849
 40
0.6344288449
 40
0.6673778028
 40
0.6843486229
 40
0.7018328363
 40
0.7199566912
 40
0.7384813847
 40
0.7569911069
 40
0.7750569274
 40
0.7922851072
 40
0.8086538536
 40
0.8243895087
 40
0.8397167071
 40
0.8699389523
 40
0.9008944861
 40
0.9336664819
 40
0.9674488186
 40
1.0
 40
1.0
 40
1.0
 40
1.0
 10
244.7691316572
 20
67.4003023074
 30
0.0
 10
244.7589122184
 20
68.0500082497
 30
0.0
 10
244.7971205714
 20
68.9887612195
 30
0.0
 10
244.9973436325
 20
70.1752591484
 30
0.0
 10
245.2001369759
 20
70.9574874163
 30
0.0
 10
245.4577678156
 20
71.6835505887
 30
0.0
 10
245.7663373021
 20
72.3653224473
 30
0.0
 10
246.1218492709
 20
73.0140432148
 30
0.0
 10
246.520454483
 20
73.640574598
 30
0.0
 10
246.9555246393
 20
74.2548641337
 30
0.0
 10
247.5843965914
 20
75.0626405427
 30
0.0
 10
248.2778451717
 20
75.8298237071
 30
0.0
 10
249.0355759171
 20
76.5351244997
 30
0.0
 10
249.8323583815
 20
77.1908411571
 30
0.0
 10
250.6826705599
 20
77.7743726844
 30
0.0
 10
251.5743227838
 20
78.2836280313
 30
0.0
 10
252.4891032607
 20
78.74453543
 30
0.0
 10
253.6671288929
 20
79.2435148137
 30
0.0
 10
255.1066564482
 20
79.7604707571
 30
0.0
 10
256.313326589
 20
80.1533222375
 30
0.0
 10
257.2739521999
 20
80.457907406
 30
0.0
 10
258.2231420933
 20
80.7597403723
 30
0.0
 10
259.4048956737
 20
81.1390299938
 30
0.0
 10
260.8273003188
 20
81.6029533349
 30
0.0
 10
262.0214248953
 20
81.999435365
 30
0.0
 10
262.9919687301
 20
82.3255554403
 30
0.0
 10
263.9931928148
 20
82.663569603
 30
0.0
 10
265.2674135836
 20
83.1052274144
 30
0.0
 10
266.7944919141
 20
83.7114816543
 30
0.0
 10
268.2935061604
 20
84.44351078
 30
0.0
 10
269.718677389
 20
85.3582937807
 30
0.0
 10
270.7910375343
 20
86.3118871377
 30
0.0
 10
271.5525515947
 20
87.2019832265
 30
0.0
 10
272.0779859785
 20
87.9499915017
 30
0.0
 10
272.5408112259
 20
88.7692198494
 30
0.0
 10
272.9385557108
 20
89.6412364948
 30
0.0
 10
273.2645957366
 20
90.5413785259
 30
0.0
 10
273.51124752
 20
91.4432039088
 30
0.0
 10
273.6706430541
 20
92.3269631498
 30
0.0
 10
273.7394912858
 20
93.1818780213
 30
0.0
 10
273.7217455001
 20
94.0064403895
 30
0.0
 10
273.589552503
 20
95.0635309617
 30
0.0
 10
273.2250615979
 20
96.349895141
 30
0.0
 10
272.500357524
 20
97.8186084126
 30
0.0
 10
271.5393396275
 20
99.2165758654
 30
0.0
 10
270.4363756284
 20
100.5384416267
 30
0.0
 10
269.6467394892
 20
101.3770143257
 30
0.0
 10
269.2512150858
 20
101.7804559944
 30
0.0
  0
SPLINE
  5
28E
100
AcDbEntity
  8
DTM_AXIS
100
AcDbSpline
 62
7
  6
CONTINUOUS
 70
0
 71
3
 72
15
 73
11
 74
0
 42
0.0000001
 43
0.0000001
 44
0.0000000001
 40
0.0
 40
0.0
 40
0.0
 40
0.0
 40
0.1361939155
 40
0.2622180408
 40
0.3818297068
 40
0.498776029
 40
0.6164743555
 40
0.7378204619
 40
0.8651056884
 40
1.0
 40
1.0
 40
1.0
 40
1.0
 10
267.7060385942
 20
103.3562191846
 30
0.0
 10
267.8649499313
 20
103.9110627152
 30
0.0
 10
268.2416328459
 20
104.9614410035
 30
0.0
 10
269.022303499
 20
106.3867983001
 30
0.0
 10
269.9833809303
 20
107.595650429
 30
0.0
 10
271.1131565308
 20
108.5954290001
 30
0.0
 10
272.3990493439
 20
109.3966611038
 30
0.0
 10
273.8316495183
 20
110.0086064979
 30
0.0
 10
275.4024539152
 20
110.4414464879
 30
0.0
 10
276.5027469907
 20
110.611994987
 30
0.0
 10
277.0711251965
 20
110.6730157984
 30
0.0
  0
SPLINE
  5
28F
100
AcDbEntity
  8
DTM_AXIS
100
AcDbSpline
 62
7
  6
CONTINUOUS
 70
0
 71
3
 72
15
 73
11
 74
0
 42
0.0000001
 43
0.0000001
 44
0.0000000001
 40
0.0
 40
0.0
 40
0.0
 40
0.0
 40
0.1364461377
 40
0.2626005667
 40
0.3822419416
 40
0.499145184
 40
0.6167574513
 40
0.7380006068
 40
0.8651867186
 40
1.0
 40
1.0
 40
1.0
 40
1.0
 10
194.4334587527
 20
178.0317500889
 30
0.0
 10
194.5911417884
 20
178.5904777311
 30
0.0
 10
194.9657215345
 20
179.6481166762
 30
0.0
 10
195.7449133332
 20
181.0837759717
 30
0.0
 10
196.7060573866
 20
182.3012203724
 30
0.0
 10
197.8373610141
 20
183.3078970643
 30
0.0
 10
199.1260545843
 20
184.1144202625
 30
0.0
 10
200.562575591
 20
184.7301714442
 30
0.0
 10
202.1383087523
 20
185.1654429007
 30
0.0
 10
203.2422697007
 20
185.3367395048
 30
0.0
 10
203.8125967242
 20
185.3979695403
 30
0.0
  0
SPLINE
  5
290
100
AcDbEntity
  8
DTM_AXIS
100
AcDbSpline
 62
7
  6
CONTINUOUS
 70
0
 71
3
 72
52
 73
48
 74
0
 42
0.0000001
 43
0.0000001
 44
0.0000000001
 40
0.0
 40
0.0
 40
0.0
 40
0.0
 40
0.0374371389
 40
0.0538716673
 40
0.0692551027
 40
0.0839336355
 40
0.0982043908
 40
0.1123243083
 40
0.126517631
 40
0.1409653831
 40
0.1556774989
 40
0.1854853884
 40
0.2004121674
 40
0.2152869425
 40
0.2449083932
 40
0.2596785787
 40
0.274426558
 40
0.3039003241
 40
0.3333151161
 40
0.3625300282
 40
0.3770089718
 40
0.3913769292
 40
0.4199154159
 40
0.4485158991
 40
0.4775764174
 40
0.4924072374
 40
0.5075054906
 40
0.5384608525
 40
0.5700973828
 40
0.6021151849
 40
0.6344288449
 40
0.6673778028
 40
0.6843486229
 40
0.7018328363
 40
0.7199566912
 40
0.7384813847
 40
0.7569911069
 40
0.7750569274
 40
0.7922851072
 40
0.8086538536
 40
0.8243895087
 40
0.8397167071
 40
0.8699389523
 40
0.9008944861
 40
0.9336664819
 40
0.9674488186
 40
1.0
 40
1.0
 40
1.0
 40
1.0
 10
171.5106031849
 20
142.1252560493
 30
0.0
 10
171.5003837461
 20
142.7749619916
 30
0.0
 10
171.5385920991
 20
143.7137149614
 30
0.0
 10
171.7388151602
 20
144.9002128903
 30
0.0
 10
171.9416085035
 20
145.6824411582
 30
0.0
 10
172.1992393432
 20
146.4085043307
 30
0.0
 10
172.5078088298
 20
147.0902761892
 30
0.0
 10
172.8633207986
 20
147.7389969567
 30
0.0
 10
173.2619260107
 20
148.3655283399
 30
0.0
 10
173.696996167
 20
148.9798178756
 30
0.0
 10
174.325868119
 20
149.7875942846
 30
0.0
 10
175.0193166994
 20
150.554777449
 30
0.0
 10
175.7770474448
 20
151.2600782416
 30
0.0
 10
176.5738299092
 20
151.915794899
 30
0.0
 10
177.4241420876
 20
152.4993264263
 30
0.0
 10
178.3157943114
 20
153.0085817732
 30
0.0
 10
179.2305747883
 20
153.4694891719
 30
0.0
 10
180.4086004205
 20
153.9684685556
 30
0.0
 10
181.8481279758
 20
154.485424499
 30
0.0
 10
183.0547981166
 20
154.8782759794
 30
0.0
 10
184.0154237276
 20
155.1828611479
 30
0.0
 10
184.964613621
 20
155.4846941142
 30
0.0
 10
186.1463672014
 20
155.8639837357
 30
0.0
 10
187.5687718465
 20
156.3279070768
 30
0.0
 10
188.7628964229
 20
156.7243891069
 30
0.0
 10
189.7334402578
 20
157.0505091822
 30
0.0
 10
190.7346643425
 20
157.3885233449
 30
0.0
 10
192.0088851113
 20
157.8301811564
 30
0.0
 10
193.5359634418
 20
158.4364353962
 30
0.0
 10
195.0349776881
 20
159.168464522
 30
0.0
 10
196.4601489167
 20
160.0832475226
 30
0.0
 10
197.532509062
 20
161.0368408796
 30
0.0
 10
198.2940231224
 20
161.9269369684
 30
0.0
 10
198.8194575061
 20
162.6749452437
 30
0.0
 10
199.2822827536
 20
163.4941735913
 30
0.0
 10
199.6800272385
 20
164.3661902367
 30
0.0
 10
200.0060672643
 20
165.2663322678
 30
0.0
 10
200.2527190477
 20
166.1681576507
 30
0.0
 10
200.4121145817
 20
167.0519168917
 30
0.0
 10
200.4809628134
 20
167.9068317633
 30
0.0
 10
200.4632170278
 20
168.7313941314
 30
0.0
 10
200.3310240307
 20
169.7884847036
 30
0.0
 10
199.9665331256
 20
171.0748488829
 30
0.0
 10
199.2418290517
 20
172.5435621546
 30
0.0
 10
198.2808111551
 20
173.9415296073
 30
0.0
 10
197.1778471561
 20
175.2633953686
 30
0.0
 10
196.3882110168
 20
176.1019680676
 30
0.0
 10
195.9926866135
 20
176.5054097363
 30
0.0
  0
SPLINE
  5
291
100
AcDbEntity
  8
DTM_AXIS
100
AcDbSpline
 62
7
  6
CONTINUOUS
 70
0
 71
3
 72
23
 73
19
 74
0
 42
0.0000001
 43
0.0000001
 44
0.0000000001
 40
0.0
 40
0.0
 40
0.0
 40
0.0
 40
0.0625
 40
0.125
 40
0.1875
 40
0.25
 40
0.3125
 40
0.375
 40
0.4375
 40
0.5
 40
0.5625
 40
0.625
 40
0.6875
 40
0.75
 40
0.8125
 40
0.875
 40
0.9375
 40
1.0
 40
1.0
 40
1.0
 40
1.0
 10
70.061575585
 20
108.8723940846
 30
0.0
 10
70.061575585
 20
110.3755902732
 30
0.0
 10
70.4584768839
 20
112.7325027767
 30
0.0
 10
71.9740819192
 20
115.3361291339
 30
0.0
 10
74.153637405
 20
117.8357408885
 30
0.0
 10
76.8470165143
 20
119.6726593052
 30
0.0
 10
79.855804053
 20
120.8563384168
 30
0.0
 10
82.928357738
 20
121.7651683153
 30
0.0
 10
85.8880937989
 20
122.6602468515
 30
0.0
 10
88.9098940824
 20
123.6112768209
 30
0.0
 10
92.183773966
 20
124.6721886122
 30
0.0
 10
95.3432362536
 20
126.2580215426
 30
0.0
 10
97.9378107465
 20
128.8560576898
 30
0.0
 10
99.5341150265
 20
132.8759267918
 30
0.0
 10
99.4833079667
 20
136.2917769899
 30
0.0
 10
98.1249222741
 20
139.3392063186
 30
0.0
 10
95.6793000205
 20
142.3203116888
 30
0.0
 10
94.1045684736
 20
143.8722294105
 30
0.0
 10
93.561575585
 20
144.4073940846
 30
0.0
  0
SPLINE
  5
292
100
AcDbEntity
  8
DTM_AXIS
100
AcDbSpline
 62
7
  6
CONTINUOUS
 70
0
 71
3
 72
9
 73
5
 74
0
 42
0.0000001
 43
0.0000001
 44
0.0000000001
 40
0.0
 40
0.0
 40
0.0
 40
0.0
 40
0.5
 40
1.0
 40
1.0
 40
1.0
 40
1.0
 10
93.561575585
 20
144.4073940846
 30
0.0
 10
94.2593640039
 20
146.7381938346
 30
0.0
 10
96.6639190002
 20
150.1132740395
 30
0.0
 10
100.7025324585
 20
151.4048128684
 30
0.0
 10
103.061575585
 20
151.6173940846
 30
0.0
  0
ELLIPSE
  5
293
100
AcDbEntity
  8
DTM_AXIS
100
AcDbEllipse
 62
7
  6
CONTINUOUS
 10
159.9300772731
 20
145.5301714736
 30
0.0
 11
0.013973794
 21
2.0584996839
 31
0.0
 40
0.9709129734
 41
-3.1184020726
 42
-2.2830455134
  0
ELLIPSE
  5
294
100
AcDbEntity
  8
DTM_AXIS
100
AcDbEllipse
 62
7
  6
CONTINUOUS
 10
241.6477203801
 20
51.3911196559
 30
0.0
 11
0.0742357805
 21
10.9357795707
 31
0.0
 40
0.9709129734
 41
0.1767343636
 42
1.5939869078
  0
ELLIPSE
  5
295
100
AcDbEntity
  8
DTM_AXIS
100
AcDbEllipse
 62
7
  6
CONTINUOUS
 10
148.1749655763
 20
132.4615869706
 30
0.0
 11
0.0125764146
 21
1.8526497155
 31
0.0
 40
0.9709129734
 41
-3.1779171091
 42
-0.849474045
  0
ELLIPSE
  5
296
100
AcDbEntity
  8
DTM_AXIS
100
AcDbEllipse
 62
7
  6
CONTINUOUS
 10
192.8120326141
 20
142.034359707
 30
0.0
 11
0.1746724246
 21
25.7312460487
 31
0.0
 40
0.9709129734
 41
0.5100703097
 42
0.8585471401
  0
ELLIPSE
  5
297
100
AcDbEntity
  8
DTM_AXIS
100
AcDbEllipse
 62
7
  6
CONTINUOUS
 10
174.9852411138
 20
175.3916677443
 30
0.0
 11
0.0838427638
 21
12.3509981034
 31
0.0
 40
0.9709129734
 41
-2.6315223439
 42
-1.5476057458
  0
ELLIPSE
  5
298
100
AcDbEntity
  8
DTM_AXIS
100
AcDbEllipse
 62
7
  6
CONTINUOUS
 10
194.231114615
 20
190.8958799717
 30
0.0
 11
0.0125764146
 21
1.8526497155
 31
0.0
 40
0.9709129734
 41
-3.8165337734
 42
-1.4880907092
  0
ELLIPSE
  5
299
100
AcDbEntity
  8
DTM_AXIS
100
AcDbEllipse
 62
7
  6
CONTINUOUS
 10
168.3891919078
 20
126.1160733978
 30
0.0
 11
0.0742357805
 21
10.9357795707
 31
0.0
 40
0.9709129734
 41
0.1767343636
 42
1.5939869078
  0
ELLIPSE
  5
29A
100
AcDbEntity
  8
DTM_AXIS
100
AcDbEllipse
 62
7
  6
CONTINUOUS
 10
58.5285411404
 20
112.4773940846
 30
0.0
 11
-0.0
 21
2.06
 31
0.0
 40
0.9708737864
 41
-3.1415926536
 42
-2.3062360945
  0
ELLIPSE
  5
29B
100
AcDbEntity
  8
DTM_AXIS
100
AcDbEllipse
 62
7
  6
CONTINUOUS
 10
46.561575585
 20
99.6023940846
 30
0.0
 11
0.0
 21
-1.854
 31
0.0
 40
0.9708737864
 41
-0.0595150365
 42
2.2689280276
  0
ELLIPSE
  5
29C
100
AcDbEntity
  8
DTM_AXIS
100
AcDbEllipse
 62
7
  6
CONTINUOUS
 10
66.686575585
 20
92.9073940846
 30
0.0
 11
0.0
 21
10.94375
 31
0.0
 40
0.9708737864
 41
0.1535437825
 42
1.5707963268
  0
ELLIPSE
  5
29D
100
AcDbEntity
  8
DTM_AXIS
100
AcDbEllipse
 62
7
  6
CONTINUOUS
 10
93.561575585
 20
157.2823940846
 30
0.0
 11
0.0
 21
-1.854
 31
0.0
 40
0.9708737864
 41
-0.6981317008
 42
1.6303113633
  0
ELLIPSE
  5
29E
100
AcDbEntity
  8
DTM_AXIS
100
AcDbEllipse
 62
7
  6
CONTINUOUS
 10
74.061575585
 20
142.098518293
 30
0.0
 11
-0.0
 21
12.36
 31
0.0
 40
0.9708737864
 41
-2.654712925
 42
-1.5707963268
  0
ELLIPSE
  5
29F
100
AcDbEntity
  8
DTM_AXIS
100
AcDbEllipse
 62
7
  6
CONTINUOUS
 10
91.3727834804
 20
108.4170130423
 30
0.0
 11
0.0
 21
-25.75
 31
0.0
 40
0.9708737864
 41
-2.654712925
 42
-2.3062360945
  0
ENDSEC
  0
SECTION
  2
OBJECTS
  0
DICTIONARY
  5
C
100
AcDbDictionary
280
0
281
1
  3
ACAD_GROUP
350
D
  3
ACAD_MLINESTYLE
350
17
  3
ACAD_LAYOUT
350
1A
  3
ACAD_PLOTSETTINGS
350
19
  3
ACAD_PLOTSTYLENAME
350
E
  3
ACAD_TABLESTYLE
350
       2A0
  0
DICTIONARY
  5
D
102
{ACAD_REACTORS
330
C
102
}
100
AcDbDictionary
280
0
281
1
  0
ACDBDICTIONARYWDFLT
  5
E
102
{ACAD_REACTORS
330
C
102
}
100
AcDbDictionary
281
1
  3
Normal
350
F
100
AcDbDictionaryWithDefault
340
F
  0
DICTIONARY
  5
17
102
{ACAD_REACTORS
330
C
102
}
100
AcDbDictionary
280
0
281
1
  3
Standard
350
18
  0
DICTIONARY
  5
2A0
330
C
100
AcDbDictionary
281
1
  3
Standard
350
       2A3
  3
Standard1
350
       2A4
  0
DICTIONARY
  5
19
102
{ACAD_REACTORS
330
C
102
}
100
AcDbDictionary
281
1
  0
DICTIONARY
  5
1A
102
{ACAD_REACTORS
330
C
102
}
100
AcDbDictionary
281
1
  3
Model
350
2A1
  3
Layout1
350
2A2
  0
ACDBPLACEHOLDER
  5
F
102
{ACAD_REACTORS
330
E
102
}
  0
MLINESTYLE
  5
18
102
{ACAD_REACTORS
330
17
102
}
100
AcDbMlineStyle
  2
STANDARD
 70
0
  3

 62
256
 51
90.0
 52
90.0
 71
2
 49
0.5
 62
256
  6
BYLAYER
 49
-0.5
 62
256
  6
BYLAYER
  0
LAYOUT
  5
2A1
102
{ACAD_REACTORS
330
1A
102
}
100
AcDbPlotSettings
  1

  2
none_device
  4
ISO_A4_(297.00_x_210.00_MM)
  6

 40
0.0
 41
0.0
 42
0.0
 43
0.0
 44
297.0
 45
210.0
 46
0.0
 47
0.0
 48
0.0
 49
0.0
140
0.0
141
0.0
142
1.0
143
1.0
 70
1024
 72
1
 73
0
 74
0
  7

 75
0
147
1.0
148
0.0
149
0.0
100
AcDbLayout
  1
Model
 70
0
 71
0
 10
0.0
 20
0.0
 11
297.0
 21
210.0
 12
0.0
 22
0.0
 32
0.0
 14
0.0
 24
0.0
 34
0.0
 15
0.0
 25
0.0
 35
0.0
146
0.0
 13
0.0
 23
0.0
 33
0.0
 16
1.0
 26
0.0
 36
0.0
 17
0.0
 27
1.0
 37
0.0
 76
0
330
20A
345
0
346
0
  0
LAYOUT
  5
2A2
102
{ACAD_REACTORS
330
1A
102
}
100
AcDbPlotSettings
  1

  2
none_device
  4
ISO_A4_(297.00_x_210.00_MM)
  6

 40
0.0
 41
0.0
 42
0.0
 43
0.0
 44
297.0
 45
210.0
 46
0.0
 47
0.0
 48
0.0
 49
0.0
140
0.0
141
0.0
142
1.0
143
1.0
 70
0
 72
1
 73
0
 74
0
  7

 75
0
147
1.0
148
0.0
149
0.0
100
AcDbLayout
  1
Layout1
 70
0
 71
1
 10
0.0
 20
0.0
 11
297.0
 21
210.0
 12
0.0
 22
0.0
 32
0.0
 14
0.0
 24
0.0
 34
0.0
 15
0.0
 25
0.0
 35
0.0
146
0.0
 13
0.0
 23
0.0
 33
0.0
 16
1.0
 26
0.0
 36
0.0
 17
0.0
 27
1.0
 37
0.0
 76
0
330
20B
345
0
346
0
  0
TABLESTYLE
  5
2A3
102
{ACAD_REACTORS
330
2A0
330
258
102
}
330
2A0
100
AcDbTableStyle
  3
Standard
 70
0
 71
0
 40
0.06
 41
0.06
280
1
281
1
  7
Standard
140
0.18
170
1
 62
0
 63
7
283
0
  7
Standard
140
0.18
170
1
 62
0
 63
7
283
0
  7
Standard
140
0.18
170
1
 62
0
 63
7
283
0
  0
TABLESTYLE
  5
2A4
102
{ACAD_REACTORS
330
2A0
102
}
330
2A0
100
AcDbTableStyle
  3
Standard1
 70
1
 71
0
 40
0.06
 41
0.06
280
1
281
1
  7
Standard
140
0.18
170
1
 62
0
 63
7
283
0
  7
Standard
140
0.18
170
1
 62
0
 63
7
283
0
  7
Standard
140
0.18
170
1
 62
0
 63
7
283
0
  0
ENDSEC
  0
EOF
